osu file format v14

[General]
AudioFilename: audio.mp3
AudioLeadIn: 0
PreviewTime: 86214
Countdown: 0
SampleSet: Soft
StackLeniency: 0.5
Mode: 0
LetterboxInBreaks: 0
WidescreenStoryboard: 1

[Editor]
Bookmarks: 20322,26036,31750,37464,43179,48893,60321,71750,81750,87464,98892,110321,121749
DistanceSpacing: 2
BeatDivisor: 4
GridSize: 32
TimelineZoom: 2.7

[Metadata]
Title:Koiuta Shippuu! Karuta Queen Iroha
TitleUnicode:恋歌疾風!かるたクイーンいろは
Artist:Nekomanma Team!
ArtistUnicode:ねこまんまチーム!
Creator:Atipir
Version:Insane
Source:pop'n music éclale
Tags:omc omc9 down dailycare morinaga skymin heto enon xidorn pop'n music éclale konami bemani video game japanese Nukoneko-san Kuroneko-san BeatStream アニムトライヴ jubeat festo SOUND VOLTEX IV HEAVENLY HAVEN rock
BeatmapID:3632314
BeatmapSetID:1700477

[Difficulty]
HPDrainRate:5
CircleSize:3.5
OverallDifficulty:8
ApproachRate:8.5
SliderMultiplier:2
SliderTickRate:1

[Events]
//Background and Video events
0,0,"bg.jpg",0,0
//Break Periods
//Storyboard Layer 0 (Background)
//Storyboard Layer 1 (Fail)
//Storyboard Layer 2 (Pass)
//Storyboard Layer 3 (Foreground)
//Storyboard Layer 4 (Overlay)
//Storyboard Sound Samples

[TimingPoints]
2037,500,4,2,1,30,1,0
2287,-200,4,2,1,30,0,0
17037,526.315789473684,4,2,1,30,1,0
18090,447.761194029851,4,2,1,50,1,8
18537,357.142857142857,4,2,1,50,1,8
18894,357.142857142857,4,2,1,50,1,0
20322,357.142857142857,4,2,1,50,1,0
20768,-166.666666666667,4,2,1,50,0,0
25857,-166.666666666667,4,2,0,60,0,0
26036,-125,4,2,1,60,0,0
33179,-125,4,2,1,50,0,0
33357,-166.666666666667,4,2,1,50,0,0
37464,-166.666666666667,4,2,1,55,0,0
38179,-142.857142857143,4,2,1,55,0,0
42821,-142.857142857143,4,2,0,70,0,0
43179,-125,4,2,1,60,0,0
49071,-142.857142857143,4,2,1,60,0,0
59964,-142.857142857143,4,2,0,70,0,0
60321,-142.857142857143,4,2,1,60,0,0
65321,-142.857142857143,4,2,0,70,0,0
66036,-142.857142857143,4,2,1,60,0,0
71750,-142.857142857143,4,2,1,50,0,0
72464,-166.666666666667,4,2,1,50,0,0
72821,-166.666666666667,4,2,0,50,0,0
72911,-166.666666666667,4,2,1,50,0,0
74250,-166.666666666667,4,2,0,50,0,0
74429,-166.666666666667,4,2,1,50,0,0
75678,-166.666666666667,4,2,0,50,0,0
75946,-166.666666666667,4,2,1,50,0,0
76036,-142.857142857143,4,2,1,60,0,0
76393,-142.857142857143,4,2,0,60,0,0
76482,-142.857142857143,4,2,1,60,0,0
82464,-100,4,2,1,60,0,0
83179,-125,4,2,1,60,0,0
83893,-83.3333333333333,4,2,1,60,0,0
85321,-100,4,2,1,60,0,0
87464,357.142857142857,4,2,0,80,1,1
87554,-100,4,2,1,80,0,1
87731,-100,4,2,0,80,0,1
87821,-100,4,2,1,80,0,1
87999,-100,4,2,0,80,0,1
88178,-100,4,2,1,70,0,1
93178,-100,4,2,0,80,0,1
93535,-100,4,2,1,70,0,1
98892,-100,4,2,1,60,0,0
99071,-83.3333333333333,4,2,1,60,0,0
101392,-100,4,2,1,60,0,0
101928,-83.3333333333333,4,2,1,60,0,0
107106,-100,4,2,1,60,0,0
121035,-100,4,2,1,65,0,0
121749,-100,4,2,1,60,0,0

[Colours]
Combo1 : 98,238,217
Combo2 : 255,183,217
Combo3 : 255,244,151
Combo4 : 255,83,143

[HitObjects]
278,184,2037,21,0,2:0:0:0:
338,235,2287,2,0,L|342:295,1,50,2|2,2:0|2:0,2:0:0:0:
433,167,2787,1,2,2:0:0:0:
371,119,3037,2,0,P|390:75|449:74,1,100,2|2,2:0|2:0,2:0:0:0:
278,184,4037,37,2,2:0:0:0:
226,126,4287,1,2,2:0:0:0:
148,121,4537,1,2,2:0:0:0:
90,173,4787,1,2,2:0:0:0:
85,251,5037,1,2,2:0:0:0:
146,318,5287,1,2,2:0:0:0:
146,318,5412,1,0,2:0:0:0:
146,318,5537,2,0,L|214:306,1,50,2|0,2:0|2:0,2:0:0:0:
275,355,6037,6,0,P|280:296|286:238,1,100,2|2,2:0|2:0,2:0:0:0:
383,186,7037,2,0,P|377:129|372:69,1,100,2|2,2:0|2:0,2:0:0:0:
277,14,8037,1,2,2:0:0:0:
403,302,10037,37,0,2:0:0:0:
344,250,10287,2,0,L|276:257,1,50,2|2,2:0|2:0,2:0:0:0:
194,138,10787,1,2,2:0:0:0:
139,194,11037,2,0,L|142:256,3,50,2|2|2|2,2:0|2:0|2:0|2:0,2:0:0:0:
5,140,12037,5,2,2:0:0:0:
61,194,12287,1,2,2:0:0:0:
139,194,12537,1,2,2:0:0:0:
194,138,12787,1,2,2:0:0:0:
193,61,13037,1,2,2:0:0:0:
129,14,13287,2,0,L|62:29,1,50,2|2,2:0|2:0,2:0:0:0:
282,132,14037,38,0,L|277:185,1,50,0|2,2:0|2:0,2:0:0:0:
330,243,14537,1,2,2:0:0:0:
406,217,14787,1,2,2:0:0:0:
439,338,15037,2,0,L|375:327,1,50,2|2,2:0|2:0,2:0:0:0:
315,358,15537,2,0,L|251:347,1,50,2|2,2:0|2:0,2:0:0:0:
147,279,16037,5,2,2:0:0:0:
203,223,16287,1,2,2:0:0:0:
156,159,16537,2,0,P|165:109|172:48,1,100,2|2,2:0|2:0,2:0:0:0:
256,192,17168,12,0,18894,2:0:0:0:
57,128,20322,37,12,3:1:0:0:
152,85,20500,1,0,3:0:0:0:
206,174,20679,1,10,3:1:0:0:
211,185,20768,2,0,L|207:245,1,59.9999999999999,2|0,3:0|2:0,2:0:0:0:
287,221,21036,5,8,3:1:0:0:
382,178,21214,1,0,3:0:0:0:
436,267,21393,1,10,3:1:0:0:
441,278,21482,2,0,L|437:338,1,59.9999999999999,2|0,3:0|2:0,2:0:0:0:
228,235,21750,37,8,3:1:0:0:
323,278,21929,1,0,3:0:0:0:
377,189,22107,1,10,3:1:0:0:
382,178,22197,2,0,L|378:118,1,59.9999999999999,2|0,3:0|2:0,2:0:0:0:
157,116,22464,5,8,3:1:0:0:
252,159,22643,1,0,3:0:0:0:
306,70,22822,1,10,3:1:0:0:
311,59,22911,2,0,L|307:-1,1,59.9999999999999,2|0,3:0|2:0,2:0:0:0:
220,61,23179,37,8,3:1:0:0:
252,159,23357,1,0,3:0:0:0:
157,202,23536,1,10,3:1:0:0:
146,207,23625,2,0,L|86:196,1,59.9999999999999,2|0,3:0|2:0,2:0:0:0:
230,238,23893,5,8,3:1:0:0:
262,336,24071,1,0,3:0:0:0:
167,379,24250,1,10,3:1:0:0:
156,384,24339,2,0,L|96:373,1,59.9999999999999,2|0,3:0|2:0,2:0:0:0:
230,238,24607,37,8,3:1:0:0:
297,160,24786,1,0,3:0:0:0:
383,219,24964,1,10,3:1:0:0:
393,226,25054,2,0,L|414:282,1,59.9999999999999,2|0,3:0|2:0,2:0:0:0:
265,342,25321,5,10,3:2:0:0:
285,313,25411,1,10,3:2:0:0:
285,277,25500,1,10,3:2:0:0:
264,249,25589,1,10,3:2:0:0:
230,238,25679,1,10,3:2:0:0:
195,231,25768,1,10,3:2:0:0:
169,206,25857,1,2,3:1:0:0:
164,171,25946,1,0,3:1:0:0:
181,139,26036,38,0,L|173:235,1,80,8|10,2:1|2:1,2:0:0:0:
285,277,26393,1,8,2:0:0:0:
287,282,26482,1,8,2:0:0:0:
290,288,26571,1,2,2:0:0:0:
279,378,26750,6,0,L|271:282,1,80,8|10,2:1|2:1,2:0:0:0:
383,240,27107,1,8,2:0:0:0:
385,235,27196,1,8,2:0:0:0:
388,229,27286,1,2,2:0:0:0:
377,139,27464,38,0,L|369:235,1,80,8|10,2:1|2:1,2:0:0:0:
481,277,27821,1,8,2:0:0:0:
483,282,27911,1,8,2:0:0:0:
486,288,28000,1,2,2:0:0:0:
477,173,28179,5,8,2:1:0:0:
370,218,28357,1,10,2:1:0:0:
298,103,28536,1,10,2:0:0:0:
293,105,28625,1,8,2:0:0:0:
287,108,28714,1,2,2:0:0:0:
281,111,28804,1,0,2:1:0:0:
275,114,28893,37,8,2:1:0:0:
152,184,29071,2,0,P|158:141|163:84,1,80,10|8,2:1|2:0,2:0:0:0:
219,51,29339,1,8,2:0:0:0:
223,44,29429,2,0,L|214:-9,1,40,2|0,2:0|2:1,2:0:0:0:
392,60,29607,5,8,2:1:0:0:
298,103,29786,2,0,P|332:129|379:162,1,80,10|8,2:1|2:0,2:0:0:0:
379,228,30054,1,8,2:0:0:0:
383,234,30143,2,0,L|433:252,1,40,2|0,2:0|2:1,2:0:0:0:
290,369,30321,37,8,2:1:0:0:
296,270,30500,2,0,P|255:286|203:310,1,80,10|8,2:1|2:0,2:0:0:0:
147,278,30768,1,8,2:0:0:0:
140,278,30857,2,0,L|98:312,1,40,10|0,2:1|2:1,2:0:0:0:
73,215,31036,5,8,2:1:0:0:
67,175,31125,1,8,2:1:0:0:
82,139,31214,1,10,2:0:0:0:
114,114,31304,1,8,2:0:0:0:
153,108,31393,1,6,2:3:0:0:
182,103,31482,1,4,2:3:0:0:
206,84,31571,1,8,2:1:0:0:
217,57,31661,1,8,2:1:0:0:
213,27,31750,1,2,2:0:0:0:
373,87,33179,37,2,3:0:0:0:
325,149,33357,2,0,L|331:276,1,120,2|2,3:0|3:0,3:0:0:0:
214,318,33893,5,2,3:0:0:0:
250,249,34071,1,2,3:0:0:0:
196,192,34250,2,0,P|138:196|114:260,1,120,2|2,3:0|3:0,2:0:0:0:
330,268,34964,37,2,3:0:0:0:
325,149,35321,1,2,3:0:0:0:
320,30,35679,2,0,P|370:26|430:22,1,89.9999999999998,2|0,3:0|3:0,3:0:0:0:
468,78,36036,5,2,3:0:0:0:
423,168,36214,1,0,3:0:0:0:
324,149,36393,1,0,3:0:0:0:
354,245,36571,1,0,3:0:0:0:
262,287,36750,1,0,3:0:0:0:
196,192,36929,37,2,3:0:0:0:
194,187,37018,1,2,3:0:0:0:
191,181,37107,2,0,P|146:184|101:187,1,89.9999999999998,2|0,3:0|3:0,2:0:0:0:
32,227,37464,5,14,2:1:0:0:
75,331,37643,1,2,2:1:0:0:
88,341,37821,1,8,2:1:0:0:
181,277,38000,37,2,2:1:0:0:
186,284,38089,1,2,2:1:0:0:
192,292,38179,2,0,P|234:288|281:284,1,69.9999999999999,10|0,2:1|2:0,2:0:0:0:
427,325,38536,2,0,B|353:304|383:382|300:361,1,140,10|10,2:1|2:1,2:0:0:0:
302,361,39071,6,0,P|312:304|323:234,1,105,0|0,2:1|2:0,2:0:0:0:
385,210,39429,1,2,2:1:0:0:
245,107,39607,38,0,L|167:112,1,69.9999999999999,10|0,2:1|2:1,2:0:0:0:
63,264,39964,1,10,2:1:0:0:
151,212,40143,1,0,2:1:0:0:
187,308,40321,5,10,2:1:0:0:
253,192,40500,1,2,2:1:0:0:
385,210,40679,1,10,2:1:0:0:
333,122,40857,1,2,2:1:0:0:
429,86,41036,37,10,2:1:0:0:
334,0,41214,1,2,2:1:0:0:
435,93,41393,2,0,P|428:152|423:210,1,105,10|0,2:1|2:0,2:0:0:0:
478,260,41750,6,0,L|443:330,1,69.9999999999999,10|0,2:1|2:0,2:0:0:0:
448,336,42018,1,2,2:1:0:0:
454,348,42107,2,0,L|366:337,1,69.9999999999999,10|2,2:1|2:1,2:0:0:0:
300,370,42464,37,10,2:1:0:0:
299,327,42554,1,8,2:1:0:0:
273,293,42643,1,8,2:1:0:0:
231,282,42732,1,8,2:1:0:0:
192,300,42821,1,2,1:0:0:0:
192,300,43179,6,0,L|184:202,1,80,12|10,2:1|2:1,2:0:0:0:
242,115,43536,1,8,2:0:0:0:
244,110,43625,1,8,2:0:0:0:
247,104,43714,1,2,2:0:0:0:
104,253,43893,38,0,L|96:155,1,80,8|10,2:1|2:1,2:0:0:0:
154,68,44250,1,8,2:0:0:0:
156,63,44339,1,8,2:0:0:0:
159,57,44429,1,2,2:0:0:0:
16,206,44607,6,0,L|8:108,1,80,8|10,2:1|2:1,2:0:0:0:
66,21,44964,1,8,2:0:0:0:
68,16,45054,1,8,2:0:0:0:
71,10,45143,1,2,2:0:0:0:
139,159,45321,37,8,2:1:0:0:
104,253,45500,1,10,2:1:0:0:
192,300,45679,1,10,2:0:0:0:
197,298,45768,1,8,2:0:0:0:
203,295,45857,1,4,2:3:0:0:
209,292,45946,1,4,2:3:0:0:
215,289,46036,5,8,2:1:0:0:
193,200,46214,2,0,P|236:206|293:211,1,80,10|8,2:1|2:0,2:0:0:0:
322,271,46482,1,8,2:0:0:0:
329,275,46571,2,0,L|382:266,1,40,2|0,2:0|2:0,2:0:0:0:
331,67,46750,37,8,2:1:0:0:
419,92,46929,2,0,P|392:126|359:173,1,80,10|8,2:1|2:0,2:0:0:0:
293,168,47196,1,8,2:0:0:0:
286,172,47286,2,0,L|267:222,1,40,10|0,2:1|2:0,2:0:0:0:
465,278,47464,5,10,2:1:0:0:
356,365,47643,1,10,2:1:0:0:
240,288,47821,1,10,2:0:0:0:
235,290,47911,1,8,2:0:0:0:
229,293,48000,1,10,2:1:0:0:
163,336,48179,37,10,2:0:0:0:
158,334,48268,1,8,2:0:0:0:
152,331,48357,1,10,2:1:0:0:
91,281,48536,1,10,2:3:0:0:
86,283,48625,1,8,2:3:0:0:
80,286,48714,1,6,2:3:0:0:
74,289,48804,1,4,2:3:0:0:
68,292,48893,5,14,2:1:0:0:
154,227,49071,2,0,L|141:78,1,140,10|2,2:1|2:0,2:0:0:0:
200,30,49518,1,2,2:0:0:0:
207,38,49607,2,0,L|267:49,1,35,10|0,2:1|2:0,2:0:0:0:
302,95,49786,1,0,2:0:0:0:
193,157,49964,2,0,B|267:136|237:214|320:193,1,140,10|10,2:1|2:1,2:0:0:0:
317,193,50500,38,0,P|313:143|309:78,1,105,2|0,2:0|2:0,2:0:0:0:
365,32,50857,1,2,2:0:0:0:
372,24,50946,1,2,2:0:0:0:
379,16,51036,2,0,L|439:5,1,35,10|0,2:1|2:0,2:0:0:0:
509,101,51214,2,0,L|474:94,1,35,2|0,2:0|2:0,2:0:0:0:
412,177,51393,2,0,L|399:265,1,69.9999999999999,10|2,2:1|2:0,2:0:0:0:
334,337,51750,5,10,2:1:0:0:
322,312,51839,1,0,2:0:0:0:
298,296,51929,1,8,2:0:0:0:
271,296,52018,1,0,2:0:0:0:
246,310,52107,2,0,P|248:274|254:230,1,69.9999999999999,10|0,2:1|2:0,2:0:0:0:
90,256,52464,37,10,2:1:0:0:
102,231,52554,1,0,2:0:0:0:
125,216,52643,1,8,2:0:0:0:
152,215,52732,1,0,2:0:0:0:
177,229,52821,2,0,P|174:193|168:149,1,69.9999999999999,10|0,2:1|2:0,2:0:0:0:
78,96,53179,6,0,L|131:106,1,35,10|0,2:1|2:0,2:0:0:0:
168,45,53357,2,0,L|214:38,1,35,8|0,2:0|2:0,2:0:0:0:
272,80,53536,2,0,P|289:127|248:165,1,105,8|0,2:1|2:0,2:0:0:0:
170,160,53893,37,8,2:1:0:0:
170,160,54071,2,0,L|181:216,1,35,10|0,2:0|2:0,2:0:0:0:
224,258,54250,2,0,L|209:344,1,69.9999999999999,10|8,2:1|2:0,2:0:0:0:
211,326,54518,1,8,2:0:0:0:
211,326,54607,1,14,2:1:0:0:
6,273,54786,6,0,P|33:203|92:202,1,140,2|2,3:0|2:0,2:0:0:0:
166,222,55232,1,2,2:0:0:0:
172,228,55321,2,0,L|176:194,1,35,10|0,2:1|2:0,2:0:0:0:
111,287,55500,1,0,2:0:0:0:
12,180,55679,2,0,P|22:107|31:21,1,140,10|10,2:1|2:1,2:0:0:0:
29,41,56214,38,0,P|73:0|117:19,1,105,2|0,2:0|2:0,2:0:0:0:
143,82,56571,1,2,2:0:0:0:
150,90,56661,1,2,2:0:0:0:
157,98,56750,2,0,L|217:109,1,35,10|0,2:1|2:0,2:0:0:0:
208,182,56929,2,0,L|268:171,1,35,10|0,2:0|2:0,2:0:0:0:
316,143,57107,2,0,L|401:158,1,69.9999999999999,10|10,2:1|2:0,2:0:0:0:
501,250,57464,5,10,2:1:0:0:
470,233,57554,1,0,2:0:0:0:
436,234,57643,1,10,2:0:0:0:
407,252,57732,1,8,2:0:0:0:
392,285,57821,2,0,P|397:323|403:371,1,69.9999999999999,10|8,2:1|2:0,2:0:0:0:
512,347,58179,38,0,L|356:335,1,140,10|10,2:1|2:1,2:0:0:0:
302,373,58714,1,10,2:0:0:0:
246,319,58893,5,10,2:1:0:0:
313,227,59071,1,8,2:0:0:0:
208,182,59250,2,0,P|171:187|127:193,1,69.9999999999999,10|8,2:1|2:0,2:0:0:0:
183,72,59607,37,10,2:1:0:0:
214,55,59696,1,8,2:0:0:0:
248,56,59786,1,10,2:0:0:0:
277,74,59875,1,8,2:0:0:0:
292,107,59964,1,6,1:0:0:0:
292,107,60321,6,0,L|367:117,1,69.9999999999999,14|10,2:1|2:1,2:0:0:0:
443,192,60679,2,0,L|518:182,1,69.9999999999999,10|10,2:1|2:0,2:0:0:0:
467,61,61036,37,8,2:1:0:0:
473,71,61214,2,0,L|468:128,1,35,6|0,2:3|2:0,2:0:0:0:
311,192,61393,2,0,P|315:249|319:304,1,105,6|0,2:3|2:0,2:0:0:0:
258,348,61750,5,10,2:1:0:0:
253,350,61839,1,2,2:0:0:0:
247,353,61929,1,10,2:1:0:0:
241,356,62018,1,0,2:0:0:0:
235,359,62107,2,0,P|195:354|147:348,1,69.9999999999999,10|10,2:1|2:0,2:0:0:0:
61,287,62464,37,8,2:1:0:0:
55,277,62643,2,0,L|60:220,1,35,6|0,2:3|2:0,2:0:0:0:
201,192,62821,2,0,P|197:135|193:80,1,105,6|0,2:3|2:0,2:0:0:0:
193,87,63179,5,10,2:1:0:0:
114,30,63357,1,10,2:1:0:0:
281,118,63536,37,10,2:1:0:0:
283,110,63625,1,2,2:0:0:0:
289,103,63714,1,10,2:0:0:0:
296,98,63804,1,2,2:0:0:0:
304,93,63893,1,10,2:1:0:0:
312,90,63982,1,2,2:0:0:0:
321,89,64071,1,10,2:1:0:0:
329,89,64161,1,2,2:0:0:0:
338,90,64250,2,0,L|410:105,1,69.9999999999999,10|10,2:1|2:0,2:0:0:0:
488,200,64607,5,10,2:1:0:0:
463,186,64696,1,2,2:0:0:0:
437,187,64786,1,10,2:0:0:0:
414,201,64875,1,0,2:0:0:0:
402,227,64964,2,0,L|408:311,1,69.9999999999999,10|10,2:1|2:1,2:0:0:0:
338,351,65321,37,2,1:0:0:0:
306,199,65500,1,2,1:0:0:0:
154,231,65679,1,2,1:0:0:0:
186,383,65857,1,2,1:0:0:0:
90,313,66036,5,14,2:1:0:0:
82,320,66125,1,2,2:0:0:0:
74,327,66214,1,10,2:1:0:0:
12,276,66393,2,0,L|22:186,1,69.9999999999999,10|10,2:1|2:0,2:0:0:0:
154,231,66750,37,8,2:1:0:0:
160,221,66929,2,0,L|155:164,1,35,6|0,2:3|2:0,2:0:0:0:
9,97,67107,2,0,L|113:108,1,105,6|0,2:3|2:0,2:0:0:0:
179,62,67464,5,10,2:1:0:0:
280,186,67643,1,10,2:1:0:0:
273,178,67732,1,0,2:0:0:0:
266,170,67821,2,0,L|354:176,1,69.9999999999999,10|10,2:1|2:0,2:0:0:0:
445,143,68179,37,8,2:1:0:0:
451,153,68357,2,0,L|446:210,1,35,6|0,2:3|2:0,2:0:0:0:
300,277,68536,2,0,L|404:265,1,105,6|0,2:3|2:0,2:0:0:0:
468,310,68893,5,10,2:1:0:0:
475,318,68982,1,2,2:0:0:0:
482,326,69071,1,10,2:1:0:0:
312,384,69250,1,10,2:1:0:0:
341,384,69339,1,2,2:0:0:0:
364,371,69429,1,10,2:0:0:0:
377,348,69518,1,2,2:0:0:0:
376,319,69607,38,0,L|362:231,1,69.9999999999999,10|10,2:1|2:0,2:0:0:0:
300,210,69875,1,2,2:0:0:0:
296,205,69964,2,0,L|301:148,1,35,10|0,2:1|2:0,2:0:0:0:
425,135,70143,2,0,L|420:78,1,35,10|0,2:0|2:0,2:0:0:0:
331,33,70321,5,10,2:1:0:0:
302,13,70411,1,2,2:0:0:0:
266,13,70500,1,10,2:0:0:0:
238,34,70589,1,8,2:0:0:0:
227,68,70679,1,10,2:1:0:0:
220,103,70768,1,2,2:0:0:0:
195,129,70857,1,10,2:3:0:0:
160,134,70946,1,10,2:3:0:0:
128,117,71036,38,0,L|122:72,1,35,10|0,2:1|2:0,2:0:0:0:
45,43,71214,2,0,L|51:-2,1,35,10|0,2:1|2:0,2:0:0:0:
227,68,71393,5,10,2:0:0:0:
268,77,71482,1,8,2:0:0:0:
295,112,71571,1,8,2:0:0:0:
294,155,71661,1,8,2:0:0:0:
269,189,71750,1,6,2:3:0:0:
269,189,72286,37,6,2:3:0:0:
324,248,72464,2,0,L|310:370,2,120,6|10|6,2:3|2:0|2:3,2:0:0:0:
186,375,73714,5,6,2:3:0:0:
263,300,73893,2,0,L|138:288,1,120,4|10,2:3|2:0,2:0:0:0:
89,229,74429,1,2,2:0:0:0:
148,176,74607,37,6,2:3:0:0:
46,109,74786,1,2,2:0:0:0:
41,107,74875,1,2,2:0:0:0:
35,104,74964,1,0,2:0:0:0:
86,43,75143,1,6,2:3:0:0:
89,229,75321,2,0,L|220:210,1,120,10|10,2:1|2:0,2:0:0:0:
300,244,75857,5,0,2:0:0:0:
305,246,75946,1,10,2:1:0:0:
311,249,76036,2,0,L|394:264,1,69.9999999999999,10|8,2:1|2:1,2:0:0:0:
449,186,76393,2,0,L|420:106,1,69.9999999999999,10|8,2:0|2:1,2:0:0:0:
325,97,76750,2,0,L|270:161,1,69.9999999999999,10|10,2:1|2:0,2:0:0:0:
207,211,77107,37,10,2:0:0:0:
207,211,77286,1,10,2:1:0:0:
124,120,77464,2,0,P|117:195|110:267,1,140,14|8,2:1|2:1,2:0:0:0:
48,308,78000,1,8,2:0:0:0:
211,374,78179,5,10,2:1:0:0:
274,265,78357,1,10,2:0:0:0:
182,290,78536,1,10,2:1:0:0:
299,351,78714,1,10,2:0:0:0:
381,267,78893,38,0,P|385:226|390:179,1,69.9999999999999,10|10,2:1|2:0,2:0:0:0:
313,129,79250,2,0,P|317:88|322:41,1,69.9999999999999,10|10,2:1|2:0,2:0:0:0:
408,6,79607,1,10,2:1:0:0:
174,114,79964,5,10,2:1:0:0:
163,101,80143,1,10,2:0:0:0:
238,186,80321,2,0,P|159:193|77:202,1,140,10|8,2:1|2:1,2:0:0:0:
36,246,80857,1,10,2:0:0:0:
167,354,81036,37,10,2:1:0:0:
220,295,81214,1,10,2:0:0:0:
295,269,81393,1,10,2:1:0:0:
372,283,81571,1,10,2:1:0:0:
451,364,81750,6,0,P|458:292|470:215,1,140,10|14,2:0|2:1,2:0:0:0:
226,209,82464,38,0,P|218:139|198:7,1,200,10|14,2:0|2:1,2:0:0:0:
485,140,83179,6,0,B|396:114|414:207|315:167,1,160,10|14,2:0|2:1,2:0:0:0:
69,277,83893,38,0,P|168:310|221:193,1,240,10|14,2:0|2:1,2:0:0:0:
382,93,84607,5,10,2:1:0:0:
370,70,84696,1,10,2:0:0:0:
349,55,84786,1,10,2:0:0:0:
324,49,84875,1,2,2:0:0:0:
299,55,84964,1,10,2:1:0:0:
278,84,85054,1,10,2:0:0:0:
243,96,85143,1,10,2:0:0:0:
207,86,85232,1,2,2:0:0:0:
183,58,85321,38,0,L|202:-1,3,50,10|10|10|2,2:1|2:0|2:1|2:0,2:0:0:0:
98,29,85679,5,10,2:3:0:0:
57,38,85768,1,10,2:3:0:0:
30,73,85857,1,6,2:3:0:0:
31,116,85946,1,6,2:3:0:0:
123,191,86214,37,2,2:0:0:0:
47,234,86393,1,2,2:0:0:0:
134,185,86571,1,2,2:0:0:0:
141,312,86750,5,10,2:0:0:0:
139,317,86839,1,8,2:0:0:0:
136,323,86929,1,10,2:0:0:0:
246,262,87107,37,10,2:0:0:0:
253,294,87196,1,8,2:0:0:0:
280,315,87286,1,10,2:0:0:0:
314,315,87375,1,8,2:0:0:0:
339,292,87464,38,0,P|333:239|328:178,1,100,6|0,1:0|2:0,2:0:0:0:
265,146,87731,2,0,P|271:93|276:32,1,100,2|0,1:0|2:0,2:0:0:0:
343,8,87999,1,2,2:1:0:0:
466,108,88178,38,0,P|414:99|385:141,1,100,8|10,2:1|2:0,2:0:0:0:
421,233,88535,2,0,L|470:240,1,50,10|0,2:1|2:0,2:0:0:0:
339,292,88714,2,0,L|289:299,1,50,10|0,2:0|2:0,2:0:0:0:
196,353,88892,6,0,P|206:283|213:226,1,100,10|8,2:1|2:0,2:0:0:0:
266,197,89160,1,0,2:0:0:0:
276,184,89249,2,0,L|265:122,1,50,10|0,2:1|2:0,2:0:0:0:
215,76,89428,1,10,2:0:0:0:
78,165,89606,38,0,P|126:155|166:208,2,100,10|10|10,2:1|2:0|2:1,2:0:0:0:
40,235,90142,1,10,2:0:0:0:
25,93,90321,6,0,P|34:62|37:39,3,50,10|2|10|2,2:1|2:0|2:0|2:0,2:0:0:0:
141,27,90678,1,10,2:1:0:0:
144,54,90767,1,0,2:0:0:0:
164,74,90856,1,10,2:0:0:0:
189,84,90946,1,0,2:0:0:0:
215,76,91035,38,0,P|242:73|271:66,3,50,10|2|10|2,2:1|2:0|2:0|2:0,2:0:0:0:
331,121,91392,6,0,L|318:179,1,50,10|2,2:1|2:0,2:0:0:0:
236,226,91571,2,0,L|246:285,1,50,10|0,2:0|2:0,2:0:0:0:
329,329,91749,37,10,2:1:0:0:
339,296,91839,1,2,2:0:0:0:
365,275,91928,1,10,2:0:0:0:
401,275,92017,1,2,2:0:0:0:
425,297,92106,1,10,2:1:0:0:
445,187,92285,5,10,2:0:0:0:
448,181,92374,1,2,2:0:0:0:
450,176,92464,2,0,P|441:127|431:63,1,100,10|10,2:1|2:0,2:0:0:0:
314,22,92821,2,0,P|323:71|333:135,1,100,10|10,2:0|2:0,2:0:0:0:
221,104,93178,37,2,1:0:0:0:
207,144,93267,1,2,1:0:0:0:
174,171,93356,1,2,1:0:0:0:
129,170,93446,1,2,1:0:0:0:
98,143,93535,1,6,2:1:0:0:
98,143,93892,6,0,L|85:202,1,50,8|8,2:1|2:1,2:0:0:0:
25,279,94071,2,0,P|78:274|148:266,1,100,10|10,2:0|2:1,2:0:0:0:
184,323,94428,1,10,2:0:0:0:
325,283,94606,37,10,2:1:0:0:
328,277,94696,1,2,2:0:0:0:
330,272,94785,2,0,L|388:261,1,50,10|2,2:0|2:0,2:0:0:0:
461,195,94964,1,10,2:1:0:0:
458,189,95053,1,2,2:0:0:0:
456,184,95142,2,0,L|398:173,1,50,10|2,2:0|2:0,2:0:0:0:
337,99,95321,5,10,2:1:0:0:
396,10,95499,2,0,L|296:28,2,100,8|8|8,2:1|2:1|2:0,2:0:0:0:
234,86,96035,37,10,2:1:0:0:
247,109,96124,1,2,2:0:0:0:
247,137,96214,1,8,2:0:0:0:
233,160,96303,1,0,2:0:0:0:
209,174,96392,2,0,P|160:167|90:160,1,100,10|10,2:1|2:0,2:0:0:0:
39,227,96749,5,10,2:1:0:0:
26,250,96839,1,2,2:0:0:0:
26,278,96928,1,10,2:0:0:0:
40,301,97017,1,2,2:0:0:0:
64,315,97106,2,0,P|112:309|183:301,1,100,10|10,2:1|2:0,2:0:0:0:
307,361,97464,37,10,2:1:0:0:
307,361,97553,2,0,P|312:303|317:247,1,100,2|0,2:0|2:0,2:0:0:0:
376,210,97821,1,10,2:1:0:0:
366,180,97910,1,2,2:0:0:0:
356,150,97999,1,10,2:0:0:0:
268,101,98178,1,8,2:0:0:0:
209,174,98356,6,0,P|236:197|267:209,1,50,10|0,2:1|2:0,2:0:0:0:
122,162,98535,2,0,P|124:197|138:227,1,50,10|0,2:1|2:0,2:0:0:0:
68,91,98714,2,0,P|45:118|33:149,1,50,10|8,2:1|2:0,2:0:0:0:
169,29,98892,21,14,2:1:0:0:
169,29,98981,1,2,2:0:0:0:
169,29,99071,2,0,L|178:95,1,60,10|0,2:0|2:0,2:0:0:0:
268,101,99249,37,10,2:1:0:0:
268,101,99339,1,2,2:0:0:0:
268,101,99428,2,0,L|277:167,1,60,10|0,2:0|2:0,2:0:0:0:
358,63,99606,5,10,2:1:0:0:
358,63,99696,1,2,2:0:0:0:
358,63,99785,2,0,L|367:129,1,60,10|0,2:0|2:0,2:0:0:0:
457,135,99964,37,10,2:1:0:0:
457,135,100053,1,2,2:0:0:0:
457,135,100142,2,0,L|466:201,1,60,10|0,2:0|2:0,2:0:0:0:
387,240,100321,5,10,2:1:0:0:
387,240,100410,1,2,2:0:0:0:
387,240,100499,2,0,L|378:306,1,60,10|0,2:0|2:0,2:0:0:0:
302,350,100678,1,10,2:1:0:0:
292,317,100767,1,2,2:0:0:0:
266,296,100856,1,10,2:0:0:0:
230,296,100946,1,0,2:0:0:0:
206,318,101035,37,10,2:1:0:0:
116,335,101214,1,10,2:0:0:0:
73,253,101392,2,0,P|83:200|91:144,1,100,10|10,2:0|2:1,2:0:0:0:
172,96,101749,5,10,2:1:0:0:
172,96,101839,1,2,2:0:0:0:
172,96,101928,2,0,L|238:87,1,60,10|0,2:0|2:0,2:0:0:0:
232,186,102106,37,10,2:1:0:0:
232,186,102196,1,2,2:0:0:0:
232,186,102285,2,0,L|298:195,1,60,10|0,2:0|2:0,2:0:0:0:
356,131,102464,5,10,2:1:0:0:
356,131,102553,1,2,2:0:0:0:
356,131,102642,2,0,L|422:122,1,60,10|0,2:0|2:0,2:0:0:0:
416,221,102821,37,10,2:1:0:0:
416,221,102910,1,2,2:0:0:0:
416,221,102999,2,0,L|482:230,1,60,10|0,2:0|2:0,2:0:0:0:
510,325,103178,5,10,2:1:0:0:
510,325,103267,1,2,2:0:0:0:
510,325,103356,2,0,L|444:334,1,60,10|0,2:0|2:0,2:0:0:0:
358,300,103535,1,10,2:1:0:0:
348,333,103624,1,2,2:0:0:0:
322,354,103714,1,10,2:0:0:0:
286,354,103803,1,2,2:0:0:0:
262,332,103892,37,10,2:1:0:0:
231,232,104071,1,10,2:3:0:0:
200,132,104249,2,0,B|136:146|64:158,1,120,6|10,2:3|2:1,2:0:0:0:
45,238,104606,5,14,2:1:0:0:
45,238,104696,1,2,2:0:0:0:
45,238,104785,2,0,L|36:304,1,60,10|0,2:0|2:0,2:0:0:0:
169,357,104964,37,10,2:1:0:0:
169,357,105053,1,2,2:0:0:0:
169,357,105142,2,0,L|143:295,1,60,10|0,2:0|2:0,2:0:0:0:
208,176,105321,5,10,2:1:0:0:
208,176,105410,1,2,2:0:0:0:
208,176,105499,2,0,L|233:237,1,60,10|0,2:0|2:0,2:0:0:0:
373,209,105678,37,10,2:1:0:0:
373,209,105767,1,2,2:0:0:0:
373,209,105856,2,0,L|320:168,1,60,10|0,2:0|2:0,2:0:0:0:
313,35,106035,5,10,2:1:0:0:
313,35,106124,1,2,2:0:0:0:
313,35,106213,2,0,L|365:75,1,60,10|0,2:0|2:0,2:0:0:0:
475,50,106392,1,10,2:1:0:0:
490,81,106481,1,2,2:0:0:0:
485,114,106571,1,10,2:0:0:0:
458,138,106660,1,0,2:0:0:0:
426,138,106749,37,10,2:1:0:0:
476,224,106928,1,10,2:3:0:0:
414,299,107106,2,0,P|363:292|303:286,1,100,6|10,2:3|2:1,2:0:0:0:
215,337,107463,5,6,2:1:0:0:
231,263,107642,1,8,2:1:0:0:
247,189,107821,1,10,2:1:0:0:
112,271,107999,2,0,P|121:319|128:373,2,100,10|8|8,2:1|2:1|2:1,2:0:0:0:
26,194,108535,2,0,B|116:210|70:115|164:140,1,150,10|0,2:1|2:0,2:0:0:0:
158,140,108892,37,10,2:1:0:0:
232,156,109071,1,8,2:1:0:0:
306,172,109249,1,10,2:1:0:0:
234,26,109428,2,0,P|177:39|125:48,2,100,10|8|8,2:1|2:0|2:1,2:0:0:0:
357,0,109963,2,0,P|330:56|395:93,1,150,10|4,2:3|2:3,2:0:0:0:
463,59,110321,5,14,3:1:0:0:
472,54,110410,1,10,3:1:0:0:
482,147,110588,1,10,3:1:0:0:
491,142,110678,1,10,3:1:0:0:
501,235,110856,1,10,3:1:0:0:
510,230,110946,1,10,3:1:0:0:
395,200,111213,38,0,L|265:211,2,100,10|10|10,2:0|2:0|2:0,2:0:0:0:
292,314,111749,5,14,3:1:0:0:
291,324,111838,1,10,3:1:0:0:
206,286,112017,1,10,3:1:0:0:
206,296,112106,1,10,3:1:0:0:
120,258,112285,1,10,3:1:0:0:
120,269,112374,1,10,3:1:0:0:
203,184,112553,37,8,2:1:0:0:
203,184,112642,2,0,L|258:65,2,100,10|10|10,2:0|2:0|2:0,2:0:0:0:
64,82,113178,6,0,P|90:119|143:115,1,100,14|10,2:1|2:0,2:0:0:0:
244,93,113535,2,0,P|270:56|323:60,1,100,10|10,2:1|2:0,2:0:0:0:
381,137,113892,37,10,2:1:0:0:
304,212,114071,1,10,2:0:0:0:
298,215,114160,1,2,2:0:0:0:
293,217,114249,2,0,P|289:269|283:329,1,100,10|10,2:1|2:0,2:0:0:0:
452,342,114606,6,0,P|421:298|368:300,1,100,10|10,2:1|2:0,2:0:0:0:
287,326,114963,2,0,P|256:370|203:368,1,100,10|10,2:1|2:0,2:0:0:0:
153,302,115321,37,10,2:1:0:0:
159,289,115410,1,10,2:1:0:0:
106,222,115588,1,10,2:0:0:0:
112,209,115678,1,10,2:1:0:0:
59,142,115856,1,6,2:3:0:0:
126,49,116035,5,14,3:1:0:0:
134,60,116124,1,10,3:1:0:0:
218,48,116303,1,10,3:1:0:0:
227,59,116392,1,10,3:1:0:0:
311,47,116571,1,10,3:1:0:0:
320,58,116660,1,10,3:1:0:0:
456,182,116928,38,0,P|445:131|435:83,2,100,10|10|10,2:0|2:0|2:0,2:0:0:0:
358,152,117463,5,14,3:1:0:0:
345,153,117553,1,10,3:1:0:0:
313,232,117731,1,10,3:1:0:0:
299,234,117821,1,10,3:1:0:0:
267,313,117999,1,10,3:1:0:0:
253,315,118088,1,10,3:1:0:0:
141,353,118267,37,8,2:1:0:0:
141,353,118356,2,0,P|152:302|162:254,2,100,10|10|10,2:0|2:0|2:0,2:0:0:0:
19,227,118892,6,0,P|68:220|100:177,1,100,14|10,2:1|2:0,2:0:0:0:
77,94,119249,2,0,P|108:56|156:49,1,100,10|10,2:1|2:0,2:0:0:0:
224,116,119606,37,10,2:1:0:0:
325,48,119785,1,10,2:0:0:0:
331,51,119874,1,2,2:0:0:0:
336,53,119963,2,0,P|340:105|346:165,1,100,10|10,2:1|2:0,2:0:0:0:
383,280,120321,6,0,P|400:234|454:220,1,100,10|10,2:1|2:0,2:0:0:0:
313,362,120678,2,0,P|296:316|242:302,1,100,10|10,2:1|2:0,2:0:0:0:
107,342,121035,37,10,2:0:0:0:
96,357,121124,1,10,2:0:0:0:
164,263,121303,1,10,2:0:0:0:
84,203,121481,5,10,2:0:0:0:
176,132,121660,1,10,2:0:0:0:
190,120,121749,1,6,2:3:0:0:
