osu file format v14

[General]
AudioFilename: audio.mp3
AudioLeadIn: 0
PreviewTime: 86214
Countdown: 0
SampleSet: Soft
StackLeniency: 0.7
Mode: 0
LetterboxInBreaks: 0
WidescreenStoryboard: 1

[Editor]
Bookmarks: 20322,26036,31750,37464,43179,48893,60321,71750,81750,87464,98892,110321,121749
DistanceSpacing: 2
BeatDivisor: 4
GridSize: 32
TimelineZoom: 2.7

[Metadata]
Title:Koiuta Shippuu! Karuta Queen Iroha
TitleUnicode:恋歌疾風!かるたクイーンいろは
Artist:Nekomanma Team!
ArtistUnicode:ねこまんまチーム!
Creator:Atipir
Version:Extreme
Source:pop'n music éclale
Tags:omc omc9 down dailycare morinaga skymin heto enon xidorn pop'n music éclale konami bemani video game japanese Nukoneko-san Kuroneko-san BeatStream アニムトライヴ jubeat festo SOUND VOLTEX IV HEAVENLY HAVEN rock
BeatmapID:3474632
BeatmapSetID:1700477

[Difficulty]
HPDrainRate:6
CircleSize:3.8
OverallDifficulty:9
ApproachRate:9.6
SliderMultiplier:2
SliderTickRate:1

[Events]
//Background and Video events
0,0,"bg.jpg",0,0
//Break Periods
2,18915,19608
//Storyboard Layer 0 (Background)
//Storyboard Layer 1 (Fail)
//Storyboard Layer 2 (Pass)
//Storyboard Layer 3 (Foreground)
//Storyboard Layer 4 (Overlay)
//Storyboard Sound Samples

[TimingPoints]
2037,500,4,2,1,30,1,0
3037,-166.666666666667,4,2,1,30,0,0
17037,526.315789473684,4,2,1,30,1,0
18090,447.761194029851,4,2,1,50,1,8
18537,357.142857142857,4,2,1,50,1,8
18894,357.142857142857,4,2,1,50,1,0
20322,357.142857142857,4,2,1,50,1,0
25857,-100,4,2,0,60,0,0
26036,-71.4285714285714,4,2,1,60,0,0
33179,-71.4285714285714,4,2,1,50,0,0
33357,-100,4,2,1,50,0,0
37464,-83.3333333333333,4,2,1,55,0,0
42821,-83.3333333333333,4,2,0,70,0,0
43179,-71.4285714285714,4,2,1,60,0,0
49071,-83.3333333333333,4,2,1,60,0,0
57464,-71.4285714285714,4,2,1,60,0,0
59964,-71.4285714285714,4,2,0,70,0,0
60321,-83.3333333333333,4,2,1,60,0,0
65321,-50,4,2,0,70,0,0
66036,-50,4,2,1,60,0,0
66214,-83.3333333333333,4,2,1,60,0,0
71036,-50,4,2,1,60,0,0
71393,-40,4,2,1,60,0,0
71750,-40,4,2,1,50,0,0
72464,-100,4,2,1,50,0,0
72821,-100,4,2,0,50,0,0
72911,-100,4,2,1,50,0,0
74250,-100,4,2,0,50,0,0
74429,-100,4,2,1,50,0,0
75678,-100,4,2,0,50,0,0
75946,-100,4,2,1,50,0,0
76036,-83.3333333333333,4,2,1,60,0,0
76393,-100,4,2,0,60,0,0
76571,-100,4,2,1,60,0,0
76750,-125,4,2,1,60,0,0
77464,-100,4,2,1,60,0,0
85321,-83.3333333333333,4,2,1,60,0,0
87464,357.142857142857,4,2,0,80,1,1
87553,-66.6666666666667,4,2,0,80,0,1
87820,-66.6666666666667,4,2,1,80,0,1
87999,-50,4,2,0,80,0,1
88178,-50,4,2,1,70,0,0
88356,-66.6666666666667,4,2,1,70,0,0
89606,-40,4,2,1,70,0,0
90410,-66.6666666666667,4,2,1,70,0,0
92821,-50,4,2,1,70,0,0
93178,-50,4,2,0,80,0,1
93267,-66.6666666666667,4,2,0,80,0,1
93535,-50,4,2,1,70,0,1
93892,-50,4,2,1,70,0,0
94071,-66.6666666666667,4,2,1,70,0,0
95499,-40,4,2,1,70,0,0
96124,-66.6666666666667,4,2,1,70,0,0
97553,-50,4,2,1,70,0,0
97999,-66.6666666666667,4,2,1,70,0,0
98892,-50,4,2,1,60,0,1
107464,-50,4,2,1,60,0,0
108535,-66.6666666666667,4,2,1,60,0,0
111213,-50,4,2,1,60,0,0
113178,-66.6666666666667,4,2,1,60,0,0
114963,-50,4,2,1,60,0,0
118892,-66.6666666666667,4,2,1,60,0,0
120678,-50,4,2,1,60,0,0
121035,-50,4,2,1,65,0,0

[Colours]
Combo1 : 98,238,217
Combo2 : 255,183,217
Combo3 : 255,244,151
Combo4 : 255,83,143

[HitObjects]
324,313,2287,21,2,2:0:0:0:
428,279,2537,1,2,2:0:0:0:
347,206,2787,1,2,2:0:0:0:
451,172,3037,2,0,L|459:111,1,59.9999999999999,2|0,2:0|2:0,2:0:0:0:
378,39,3537,2,0,L|369:99,1,59.9999999999999,2|0,2:0|2:0,2:0:0:0:
347,206,4037,37,2,2:0:0:0:
240,254,4287,1,2,2:0:0:0:
130,212,4537,1,2,2:0:0:0:
81,104,4787,1,2,2:0:0:0:
193,146,5037,1,2,2:0:0:0:
240,254,5287,1,2,2:0:0:0:
235,267,5412,1,0,2:0:0:0:
230,280,5537,2,0,L|169:288,1,59.9999999999999,2|0,2:0|2:0,2:0:0:0:
114,341,6037,5,2,2:0:0:0:
347,206,6287,1,0,2:0:0:0:
347,206,6537,2,0,L|286:198,1,59.9999999999999,2|0,2:0|2:0,2:0:0:0:
235,137,7037,2,0,L|174:129,1,59.9999999999999,2|0,2:0|2:0,2:0:0:0:
107,163,7412,1,0,2:0:0:0:
102,176,7537,1,2,2:0:0:0:
50,61,7787,1,0,2:0:0:0:
233,37,8037,37,2,2:0:0:0:
233,37,10287,5,2,2:0:0:0:
294,120,10537,1,2,2:0:0:0:
390,83,10787,1,2,2:0:0:0:
451,166,11037,2,0,L|443:227,1,59.9999999999999,2|2,2:0|2:0,2:0:0:0:
382,77,11537,2,0,L|390:16,1,59.9999999999999,2|2,2:0|2:0,2:0:0:0:
467,90,12037,37,2,2:0:0:0:
373,159,12287,1,2,2:0:0:0:
355,274,12537,1,2,2:0:0:0:
423,368,12787,1,2,2:0:0:0:
442,254,13037,1,2,2:0:0:0:
373,159,13287,1,2,2:0:0:0:
362,153,13537,2,0,L|301:161,1,59.9999999999999,2|0,2:0|2:0,2:0:0:0:
242,212,14037,5,0,2:0:0:0:
355,274,14287,1,2,2:0:0:0:
355,274,14537,2,0,L|347:335,1,59.9999999999999,2|2,2:0|2:0,2:0:0:0:
234,271,15037,2,0,L|242:210,1,59.9999999999999,2|2,2:0|2:0,2:0:0:0:
158,262,15537,2,0,L|166:201,1,59.9999999999999,2|2,2:0|2:0,2:0:0:0:
108,113,16037,37,2,2:0:0:0:
307,74,16287,1,2,2:0:0:0:
151,40,16537,5,2,2:0:0:0:
241,211,16787,1,2,2:0:0:0:
98,340,17037,1,2,2:0:0:0:
256,192,17102,12,0,18090,2:0:0:0:
354,306,18537,37,2,3:0:0:0:
98,340,18715,1,2,3:0:0:0:
354,306,20322,5,12,3:1:0:0:
307,198,20500,1,0,3:0:0:0:
260,90,20679,1,10,3:1:0:0:
260,90,20768,1,2,3:0:0:0:
354,306,21036,37,8,3:1:0:0:
307,198,21214,1,0,3:0:0:0:
260,90,21393,1,10,3:1:0:0:
260,90,21482,1,2,3:0:0:0:
425,212,21750,5,8,3:1:0:0:
307,198,21929,1,0,3:0:0:0:
190,185,22107,1,10,3:1:0:0:
190,185,22197,1,2,3:0:0:0:
425,212,22464,37,8,3:1:0:0:
307,198,22643,1,0,3:0:0:0:
190,185,22822,1,10,3:1:0:0:
190,185,22911,1,2,3:0:0:0:
116,279,23179,5,8,3:1:0:0:
102,161,23357,1,0,3:0:0:0:
89,44,23536,1,10,3:1:0:0:
89,44,23625,1,2,3:0:0:0:
116,279,23893,37,8,3:1:0:0:
102,161,24071,1,0,3:0:0:0:
89,44,24250,1,10,3:1:0:0:
89,44,24339,1,2,3:0:0:0:
7,233,24607,5,8,3:1:0:0:
102,161,24786,1,0,3:0:0:0:
197,92,24964,1,10,3:1:0:0:
197,92,25054,1,2,3:0:0:0:
213,252,25321,37,10,3:2:0:0:
261,278,25411,1,10,3:2:0:0:
315,270,25500,1,10,3:2:0:0:
355,234,25589,1,10,3:2:0:0:
433,283,25679,5,10,3:2:0:0:
360,223,25768,1,10,3:2:0:0:
364,128,25857,1,2,3:1:0:0:
444,78,25946,1,0,3:1:0:0:
508,165,26036,38,0,P|476:177|432:178,1,70,8|0,2:1|2:1,2:0:0:0:
355,134,26214,2,0,P|328:112|305:74,1,70,10|0,2:1|2:1,2:0:0:0:
166,145,26393,5,8,2:0:0:0:
161,134,26482,1,8,2:0:0:0:
240,177,26571,2,0,P|234:210|213:249,1,70,2|0,2:0|2:1,2:0:0:0:
64,350,26750,38,0,P|52:318|51:274,1,70,8|0,2:1|2:1,2:0:0:0:
127,265,26929,2,0,P|139:297|140:341,1,70,10|0,2:1|2:1,2:0:0:0:
166,145,27107,5,8,2:0:0:0:
161,156,27196,1,8,2:0:0:0:
85,114,27286,2,0,P|86:79|99:46,1,70,2|0,2:0|2:1,2:0:0:0:
367,47,27464,38,0,P|333:52|294:73,1,70,8|0,2:1|2:1,2:0:0:0:
249,150,27643,2,0,P|237:182|236:226,1,70,10|0,2:1|2:1,2:0:0:0:
278,303,27821,5,8,2:0:0:0:
284,313,27911,1,8,2:0:0:0:
319,234,28000,2,0,P|350:218|384:212,1,70,2|0,2:0|2:1,2:0:0:0:
484,153,28179,38,0,P|452:137|418:131,1,70,8|0,2:1|2:1,2:0:0:0:
380,293,28357,2,0,P|411:308|445:314,1,70,10|0,2:1|2:1,2:0:0:0:
246,129,28536,5,10,2:0:0:0:
207,208,28625,1,8,2:0:0:0:
335,143,28714,2,0,P|328:108|313:77,1,70,2|0,2:0|2:1,2:0:0:0:
100,39,28893,37,8,2:1:0:0:
100,39,29071,2,0,P|93:73|78:104,1,70,10|0,2:1|2:1,2:0:0:0:
170,110,29250,5,8,2:0:0:0:
180,116,29339,1,8,2:0:0:0:
130,183,29429,2,0,P|97:193|62:196,1,70,2|0,2:0|2:1,2:0:0:0:
257,358,29607,37,8,2:1:0:0:
257,358,29786,2,0,P|250:324|235:293,1,70,10|0,2:1|2:1,2:0:0:0:
327,287,29964,5,8,2:0:0:0:
337,281,30054,1,8,2:0:0:0:
287,214,30143,2,0,P|254:203|219:200,1,70,2|0,2:0|2:1,2:0:0:0:
413,22,30321,37,8,2:1:0:0:
413,22,30500,2,0,P|406:56|391:87,1,70,10|0,2:1|2:1,2:0:0:0:
483,93,30679,5,8,2:0:0:0:
493,99,30768,1,8,2:0:0:0:
443,166,30857,2,0,P|410:176|375:179,1,70,10|0,2:1|2:1,2:0:0:0:
287,214,31036,37,8,2:1:0:0:
269,132,31125,1,8,2:1:0:0:
194,93,31214,1,10,2:0:0:0:
114,122,31304,1,8,2:0:0:0:
144,212,31393,5,6,2:3:0:0:
147,201,31482,1,4,2:3:0:0:
137,198,31571,1,8,2:1:0:0:
133,207,31661,1,8,2:1:0:0:
144,212,31750,37,2,2:0:0:0:
99,334,33179,5,2,3:0:0:0:
99,334,33357,2,0,B|166:323|166:323|208:272|208:272|275:263,1,200,2|2,3:0|3:0,3:0:0:0:
260,344,33893,37,2,3:0:0:0:
120,251,34071,1,2,3:0:0:0:
193,168,34250,5,2,3:0:0:0:
161,342,34429,1,2,3:0:0:0:
326,210,34607,38,0,P|275:124|198:160,1,200,2|2,3:0|3:0,3:0:0:0:
150,20,35321,2,0,B|189:18|216:40|216:40|191:177,1,200,2|2,3:0|3:0,3:0:0:0:
192,167,35857,1,0,3:0:0:0:
35,246,36036,6,0,P|32:194|54:142,1,100,2|0,3:0|3:0,2:0:0:0:
182,293,36393,2,0,P|143:258|122:206,1,100,0|0,3:0|3:0,2:0:0:0:
83,326,36750,37,0,3:0:0:0:
212,214,36929,1,2,3:0:0:0:
261,211,37018,1,2,3:0:0:0:
308,228,37107,1,2,3:0:0:0:
371,304,37286,1,0,3:0:0:0:
480,113,37464,6,0,P|492:140|492:170,1,60,14|0,2:1|2:0,2:0:0:0:
415,189,37643,2,0,P|402:161|402:131,1,60,2|0,2:1|2:0,2:0:0:0:
475,244,37821,1,8,2:1:0:0:
193,290,38000,1,2,2:1:0:0:
199,275,38089,1,2,2:1:0:0:
205,260,38179,38,0,B|292:241|292:241|364:295,1,180,10|0,2:1|2:0,2:0:0:0:
364,295,38536,1,10,2:1:0:0:
287,164,38714,2,0,P|254:170|221:179,1,60,0|0,2:1|2:0,2:0:0:0:
63,155,38893,6,0,P|51:182|51:212,1,60,10|0,2:1|2:0,2:0:0:0:
128,231,39071,2,0,P|141:203|141:173,1,60,0|0,2:1|2:0,2:0:0:0:
119,100,39250,2,0,P|145:49|208:42,1,120,8|2,2:1|2:1,2:0:0:0:
253,98,39518,1,0,2:1:0:0:
263,108,39607,38,0,P|289:158|352:165,1,120,10|0,2:1|2:1,2:0:0:0:
381,50,39875,1,0,2:0:0:0:
370,41,39964,2,0,P|365:100|354:159,1,120,10|0,2:1|2:1,2:0:0:0:
353,159,40321,6,0,P|347:188|339:217,1,60,10|0,2:1|2:1,2:0:0:0:
422,338,40500,2,0,P|416:308|408:279,1,60,2|0,2:1|2:1,2:0:0:0:
273,171,40679,2,0,P|223:197|216:260,1,120,10|2,2:1|2:1,2:0:0:0:
263,319,40946,1,0,2:0:0:0:
278,327,41036,38,0,P|308:321|337:313,1,60,10|0,2:1|2:0,2:0:0:0:
284,164,41214,2,0,P|255:156|225:150,1,60,2|0,2:1|2:0,2:0:0:0:
164,197,41393,2,0,P|106:189|79:138,1,120,10|0,2:1|2:0,2:0:0:0:
89,21,41661,1,0,2:0:0:0:
104,13,41750,6,0,P|98:72|87:131,1,120,10|0,2:1|2:0,2:0:0:0:
32,215,42018,1,2,2:1:0:0:
25,229,42107,2,0,P|30:258|38:287,1,60,10|0,2:1|2:1,2:0:0:0:
225,150,42286,2,0,P|219:120|211:91,1,60,2|0,2:1|2:1,2:0:0:0:
195,254,42464,37,10,2:1:0:0:
278,271,42554,1,8,2:1:0:0:
344,219,42643,1,8,2:1:0:0:
360,137,42732,1,8,2:1:0:0:
308,71,42821,5,2,1:0:0:0:
308,71,43179,38,0,P|323:102|329:136,1,70,12|0,2:1|2:1,2:0:0:0:
300,270,43357,2,0,P|284:238|278:204,1,70,10|0,2:1|2:1,2:0:0:0:
395,65,43536,5,8,2:0:0:0:
401,55,43625,1,8,2:0:0:0:
461,125,43714,2,0,P|458:159|447:192,1,70,2|0,2:0|2:1,2:0:0:0:
118,326,43893,38,0,P|124:291|139:260,1,70,8|0,2:1|2:0,2:0:0:0:
220,283,44071,2,0,P|213:317|198:348,1,70,10|0,2:1|2:0,2:0:0:0:
61,184,44250,5,8,2:0:0:0:
55,174,44339,1,8,2:0:0:0:
147,149,44429,2,0,P|173:171|193:200,1,70,2|0,2:0|2:0,2:0:0:0:
368,269,44607,38,0,P|337:284|303:291,1,70,8|0,2:1|2:0,2:0:0:0:
280,210,44786,2,0,P|311:195|346:189,1,70,10|0,2:1|2:0,2:0:0:0:
489,277,44964,5,8,2:0:0:0:
498,284,45054,1,8,2:0:0:0:
447,145,45143,2,0,P|432:176|426:211,1,70,2|0,2:0|2:0,2:0:0:0:
306,30,45321,38,0,P|341:28|375:18,1,70,8|0,2:1|2:0,2:0:0:0:
280,210,45500,2,0,P|260:181|234:159,1,70,10|0,2:1|2:0,2:0:0:0:
308,310,45679,5,10,2:0:0:0:
388,285,45768,1,8,2:0:0:0:
426,211,45857,2,0,P|432:176|447:145,1,70,4|4,2:3|2:3,2:0:0:0:
511,93,46036,37,8,2:1:0:0:
375,18,46214,2,0,P|340:24|309:39,1,70,10|0,2:1|2:0,2:0:0:0:
170,223,46393,5,8,2:0:0:0:
161,230,46482,1,8,2:0:0:0:
255,224,46571,2,0,P|248:189|233:158,1,70,2|0,2:0|2:0,2:0:0:0:
73,80,46750,38,0,P|57:111|51:145,1,70,8|0,2:1|2:0,2:0:0:0:
63,285,46929,2,0,P|78:253|84:219,1,70,10|0,2:1|2:0,2:0:0:0:
132,136,47107,6,0,P|143:168|163:197,1,70,8|8,2:0|2:0,2:0:0:0:
286,285,47286,2,0,P|274:252|254:223,1,70,10|0,2:1|2:0,2:0:0:0:
219,134,47464,37,10,2:1:0:0:
270,94,47554,1,8,2:0:0:0:
319,108,47643,1,10,2:1:0:0:
334,125,47732,1,0,2:0:0:0:
336,134,47821,5,10,2:0:0:0:
386,174,47911,1,8,2:0:0:0:
435,160,48000,1,10,2:1:0:0:
450,143,48089,1,0,2:0:0:0:
451,128,48179,37,10,2:0:0:0:
424,146,48268,1,8,2:0:0:0:
418,190,48357,1,10,2:1:0:0:
462,236,48446,1,0,2:0:0:0:
511,183,48536,5,10,2:3:0:0:
428,197,48625,1,8,2:3:0:0:
382,268,48714,1,6,2:3:0:0:
408,349,48804,1,4,2:3:0:0:
422,361,48893,37,14,2:1:0:0:
373,262,49071,2,0,P|316:267|256:299,1,120,10|8,2:1|2:1,2:0:0:0:
157,332,49429,5,2,2:0:0:0:
153,342,49518,1,2,2:0:0:0:
253,307,49607,2,0,P|246:212|118:214,1,240,10|10,2:1|2:1,2:0:0:0:
119,221,50143,1,0,2:0:0:0:
39,162,50321,38,0,P|27:135|27:105,1,60,10|0,2:1|2:0,2:0:0:0:
88,37,50500,2,0,L|227:61,1,120,2|8,2:0|2:1,2:0:0:0:
302,183,50857,1,2,2:0:0:0:
216,221,50946,1,2,2:0:0:0:
297,112,51036,6,0,P|309:139|309:169,1,60,10|0,2:1|2:0,2:0:0:0:
417,178,51214,2,0,P|406:205|385:226,1,60,2|0,2:0|2:0,2:0:0:0:
292,318,51393,2,0,L|153:294,1,120,10|2,2:1|2:0,2:0:0:0:
75,236,51750,37,10,2:1:0:0:
77,221,51839,1,0,2:0:0:0:
80,206,51929,1,8,2:0:0:0:
82,191,52018,1,0,2:0:0:0:
86,177,52107,2,0,L|225:153,1,120,10|0,2:1|2:0,2:0:0:0:
396,296,52464,2,0,L|420:157,1,120,10|8,2:1|2:0,2:0:0:0:
233,50,52821,2,0,L|209:189,1,120,10|0,2:1|2:0,2:0:0:0:
407,353,53179,6,0,P|407:323|395:295,1,60,10|0,2:1|2:0,2:0:0:0:
318,312,53357,2,0,P|317:341|329:369,1,60,8|0,2:0|2:0,2:0:0:0:
459,258,53536,2,0,P|402:253|342:221,1,120,8|0,2:1|2:0,2:0:0:0:
253,93,53893,37,8,2:1:0:0:
393,151,54071,2,0,P|363:151|335:139,1,60,10|0,2:0|2:0,2:0:0:0:
253,93,54250,2,0,P|196:98|136:130,1,120,10|8,2:1|2:0,2:0:0:0:
126,222,54518,1,8,2:0:0:0:
136,240,54607,5,14,2:1:0:0:
225,187,54786,2,0,P|282:192|342:224,1,120,2|8,3:0|2:1,2:0:0:0:
437,269,55143,37,2,2:0:0:0:
441,279,55232,1,2,2:0:0:0:
344,232,55321,2,0,P|335:122|443:102,1,240,10|10,2:1|2:1,2:0:0:0:
452,114,55857,1,0,2:0:0:0:
287,46,56036,6,0,P|298:73|298:103,1,60,10|0,2:1|2:0,2:0:0:0:
234,165,56214,2,0,L|95:189,1,120,2|8,2:0|2:1,2:0:0:0:
44,125,56571,1,2,2:0:0:0:
104,196,56661,1,2,2:0:0:0:
91,288,56750,38,0,P|79:315|58:336,1,60,10|0,2:1|2:0,2:0:0:0:
177,253,56929,2,0,P|206:248|235:256,1,60,10|0,2:0|2:0,2:0:0:0:
104,196,57107,2,0,P|76:143|70:83,1,120,10|10,2:1|2:0,2:0:0:0:
148,25,57464,6,0,P|182:24|214:38,1,70,10|0,2:1|2:0,2:0:0:0:
235,256,57643,1,10,2:0:0:0:
252,179,57732,1,8,2:0:0:0:
318,136,57821,2,0,P|350:121|385:122,1,70,10|0,2:1|2:0,2:0:0:0:
437,196,58000,2,0,P|404:210|369:209,1,70,8|0,2:0|2:0,2:0:0:0:
472,52,58179,38,0,L|440:234,1,140,10|8,2:1|2:0,2:0:0:0:
376,300,58446,1,0,2:0:0:0:
456,329,58536,2,0,P|431:304|399:291,1,70,10|0,2:1|2:0,2:0:0:0:
343,196,58714,2,0,P|309:204|282:226,1,70,10|0,2:0|2:0,2:0:0:0:
208,346,58893,6,0,L|194:278,1,70,10|0,2:1|2:0,2:0:0:0:
99,261,59071,2,0,L|113:329,1,70,8|0,2:0|2:0,2:0:0:0:
282,226,59250,2,0,P|233:132|135:130,1,210,10|0,2:1|2:0,2:0:0:0:
48,109,59607,37,10,2:1:0:0:
131,134,59696,1,10,2:1:0:0:
205,87,59786,1,10,2:1:0:0:
287,114,59875,1,10,2:1:0:0:
359,66,59964,6,2,L|349:19,1,35,6|0,1:0|2:0,2:0:0:0:
359,66,60321,38,0,L|431:81,1,60,14|2,2:1|2:0,2:0:0:0:
461,191,60500,1,10,2:1:0:0:
377,157,60589,1,0,2:0:0:0:
468,202,60679,6,0,P|468:236|453:268,1,60,10|0,2:1|2:0,2:0:0:0:
404,324,60857,2,0,P|374:341|339:344,1,60,10|0,2:0|2:0,2:0:0:0:
266,329,61036,37,8,2:1:0:0:
201,226,61214,2,0,P|190:254|191:283,1,60,6|0,2:3|2:0,2:0:0:0:
266,329,61393,2,0,L|290:210,1,120,6|8,2:3|2:0,2:0:0:0:
147,63,61750,5,10,2:1:0:0:
233,111,61839,1,2,2:0:0:0:
136,58,61929,2,0,P|106:57|78:67,1,60,10|0,2:1|2:0,2:0:0:0:
42,156,62107,38,0,P|41:185|51:213,1,60,10|0,2:1|2:0,2:0:0:0:
129,197,62286,2,0,P|129:167|119:139,1,60,10|0,2:0|2:0,2:0:0:0:
109,276,62464,5,8,2:1:0:0:
31,158,62643,2,0,P|30:187|40:215,1,60,6|0,2:3|2:0,2:0:0:0:
109,276,62821,2,0,P|168:282|221:310,1,120,6|8,2:3|2:0,2:0:0:0:
293,355,63179,38,0,L|305:295,1,60,10|0,2:1|2:0,2:0:0:0:
322,220,63357,2,0,L|334:160,1,60,10|0,2:1|2:0,2:0:0:0:
430,201,63536,5,10,2:1:0:0:
434,209,63625,1,2,2:0:0:0:
408,212,63714,37,10,2:0:0:0:
407,220,63804,1,2,2:0:0:0:
383,105,63893,5,10,2:1:0:0:
431,119,63982,1,2,2:0:0:0:
389,92,64071,37,10,2:1:0:0:
437,106,64161,1,2,2:0:0:0:
334,161,64250,6,0,P|305:171|276:170,1,60,10|0,2:1|2:0,2:0:0:0:
164,84,64429,2,0,P|193:74|222:75,1,60,10|0,2:0|2:0,2:0:0:0:
180,241,64607,37,10,2:1:0:0:
106,284,64696,1,2,2:0:0:0:
170,232,64786,5,10,2:0:0:0:
92,196,64875,1,0,2:0:0:0:
180,241,64964,38,0,L|238:252,1,60,10|0,2:1|2:0,2:0:0:0:
275,353,65143,2,0,L|216:341,1,60,10|0,2:1|2:0,2:0:0:0:
359,195,65321,6,0,B|347:236|347:236|346:254|346:254|334:297,1,100,2|0,1:0|2:0,2:0:0:0:
413,319,65500,2,0,B|424:282|424:282|425:264|425:264|437:223,1,100,2|0,1:0|2:0,2:0:0:0:
143,46,65679,38,0,B|132:83|132:83|131:101|131:101|119:142,1,100,2|0,1:0|2:0,2:0:0:0:
198,171,65857,2,0,B|210:130|210:130|211:112|211:112|221:74,1,100,2|0,1:0|2:0,2:0:0:0:
59,255,66036,5,14,2:1:0:0:
142,224,66125,1,2,2:0:0:0:
49,266,66214,2,0,P|48:296|58:324,1,60,10|0,2:1|2:0,2:0:0:0:
147,356,66393,38,0,P|175:365|204:364,1,60,10|0,2:1|2:0,2:0:0:0:
251,295,66571,2,0,P|222:285|193:286,1,60,10|0,2:0|2:0,2:0:0:0:
318,352,66750,5,8,2:1:0:0:
263,164,66929,2,0,P|236:176|215:198,1,60,6|0,2:3|2:0,2:0:0:0:
318,352,67107,2,0,L|294:233,1,120,6|8,2:3|2:0,2:0:0:0:
405,182,67464,38,0,L|346:170,1,60,10|2,2:1|2:0,2:0:0:0:
193,86,67643,1,10,2:1:0:0:
248,28,67732,1,0,2:0:0:0:
271,106,67821,6,0,P|272:135|262:163,1,60,10|0,2:1|2:0,2:0:0:0:
210,230,68000,2,0,P|184:245|155:251,1,60,10|0,2:0|2:0,2:0:0:0:
72,239,68179,37,8,2:1:0:0:
0,75,68357,2,0,P|25:59|54:53,1,60,6|0,2:3|2:0,2:0:0:0:
95,121,68536,2,0,L|71:240,1,120,6|8,2:3|2:0,2:0:0:0:
151,313,68893,5,10,2:1:0:0:
76,345,68982,1,2,2:0:0:0:
160,307,69071,2,0,L|219:319,1,60,10|0,2:1|2:0,2:0:0:0:
338,346,69250,37,10,2:1:0:0:
330,350,69339,1,2,2:0:0:0:
327,324,69429,5,10,2:0:0:0:
319,323,69518,1,2,2:0:0:0:
384,258,69607,38,0,L|372:199,1,60,10|2,2:1|2:0,2:0:0:0:
403,45,69786,1,10,2:0:0:0:
461,100,69875,1,2,2:0:0:0:
383,123,69964,6,0,P|353:124|325:114,1,60,10|0,2:1|2:0,2:0:0:0:
203,53,70143,2,0,P|231:43|260:44,1,60,10|0,2:0|2:0,2:0:0:0:
168,220,70321,37,10,2:1:0:0:
132,142,70411,1,2,2:0:0:0:
177,230,70500,5,10,2:0:0:0:
220,156,70589,1,8,2:0:0:0:
255,262,70679,37,10,2:1:0:0:
168,220,70768,2,0,P|108:224|38:240,1,120,10|10,2:0|2:3,2:0:0:0:
26,120,71036,6,0,P|55:149|58:109,1,100,10|0,2:1|2:0,2:0:0:0:
99,324,71214,38,0,P|130:298|131:339,1,100,10|0,2:1|2:0,2:0:0:0:
177,230,71393,6,0,P|297:238|437:270,2,250,10|8|6,2:0|2:0|2:3,2:0:0:0:
199,150,72286,37,6,2:3:0:0:
252,207,72464,2,0,P|332:162|300:61,2,200,6|10|6,2:3|2:0|2:3,2:0:0:0:
369,140,73714,5,6,2:3:0:0:
302,64,73893,2,0,P|197:66|88:92,1,200,6|10,2:3|2:0,2:0:0:0:
97,93,74429,1,2,2:0:0:0:
81,296,74607,37,6,2:3:0:0:
147,242,74786,1,2,2:0:0:0:
162,236,74875,1,2,2:0:0:0:
177,230,74964,1,0,2:0:0:0:
293,347,75143,1,6,2:3:0:0:
250,280,75321,2,0,P|295:200|396:232,1,200,10|10,2:1|2:0,2:0:0:0:
447,283,75857,1,0,2:0:0:0:
462,289,75946,1,10,2:1:0:0:
477,295,76036,6,0,P|486:266|485:237,1,60,10|0,2:1|2:0,2:0:0:0:
418,42,76214,2,0,P|439:62|452:89,1,60,8|0,2:1|2:0,2:0:0:0:
309,322,76393,38,0,P|328:305|339:283,1,50,10|0,2:0|2:0,2:0:0:0:
372,110,76571,2,0,P|379:134|377:159,1,50,8|0,2:1|2:0,2:0:0:0:
173,269,76750,6,0,P|192:265|209:254,1,40,10|2,2:1|2:0,2:0:0:0:
301,148,76929,2,0,P|296:167|285:183,1,40,10|2,2:0|2:0,2:0:0:0:
201,159,77107,37,10,2:0:0:0:
201,159,77286,1,10,2:1:0:0:
201,159,77464,6,0,P|111:138|53:217,1,200,14|8,2:1|2:1,2:0:0:0:
119,275,78000,1,8,2:0:0:0:
317,204,78179,37,10,2:1:0:0:
238,314,78357,1,10,2:0:0:0:
403,155,78536,2,0,P|400:211|385:270,1,100,10|10,2:1|2:0,2:0:0:0:
66,110,78893,5,10,2:1:0:0:
204,44,79071,1,10,2:0:0:0:
102,13,79250,1,10,2:1:0:0:
170,151,79429,1,10,2:0:0:0:
53,215,79607,38,0,P|43:263|41:313,1,100,10|8,2:1|2:0,2:0:0:0:
170,151,79964,1,10,2:1:0:0:
274,329,80143,1,10,2:0:0:0:
170,151,80321,6,0,P|160:102|158:52,1,100,10|0,2:1|2:0,2:0:0:0:
229,19,80679,1,8,2:1:0:0:
229,19,80857,1,10,2:0:0:0:
370,148,81036,37,10,2:1:0:0:
140,268,81214,1,10,2:0:0:0:
355,294,81393,5,10,2:1:0:0:
101,170,81571,1,10,2:1:0:0:
316,64,81750,37,10,2:0:0:0:
332,57,81839,1,10,2:0:0:0:
349,52,81929,1,10,2:0:0:0:
276,155,82107,1,14,2:1:0:0:
144,254,82464,5,10,2:0:0:0:
128,247,82554,1,10,2:0:0:0:
111,242,82643,1,10,2:0:0:0:
184,345,82821,1,14,2:1:0:0:
26,200,83179,37,10,2:0:0:0:
163,135,83357,1,10,2:0:0:0:
157,150,83446,1,10,2:0:0:0:
151,165,83536,1,14,2:1:0:0:
428,293,83893,5,10,2:0:0:0:
291,228,84071,1,10,2:0:0:0:
297,243,84161,1,10,2:0:0:0:
303,258,84250,1,14,2:1:0:0:
163,159,84607,37,10,2:1:0:0:
143,151,84696,1,10,2:0:0:0:
125,144,84786,1,10,2:0:0:0:
106,137,84875,1,2,2:0:0:0:
81,206,84964,5,10,2:1:0:0:
155,183,85054,1,10,2:0:0:0:
230,161,85143,1,10,2:0:0:0:
305,139,85232,1,2,2:0:0:0:
388,185,85321,38,0,L|376:244,1,60,10|10,2:1|2:0,2:0:0:0:
278,347,85500,1,10,2:1:0:0:
270,358,85589,1,2,2:0:0:0:
287,260,85679,5,10,2:3:0:0:
369,324,85768,1,10,2:3:0:0:
465,284,85857,1,6,2:3:0:0:
490,183,85946,1,6,2:3:0:0:
434,47,86214,37,2,2:0:0:0:
284,73,86393,1,2,2:0:0:0:
443,50,86571,1,2,2:0:0:0:
198,178,86750,5,10,2:0:0:0:
213,172,86839,1,8,2:0:0:0:
228,166,86929,1,10,2:0:0:0:
243,160,87107,37,10,2:0:0:0:
313,215,87196,1,8,2:0:0:0:
300,303,87286,1,10,2:0:0:0:
217,336,87375,1,8,2:0:0:0:
147,280,87464,37,6,1:0:0:0:
53,355,87553,2,0,P|61:318|72:282,1,75,0|0,2:0|2:0,2:0:0:0:
138,201,87731,2,0,P|151:242|158:279,1,75,2|8,1:0|2:1,2:0:0:0:
44,174,87910,1,0,2:0:0:0:
66,158,87999,2,0,P|163:180|263:183,1,200,2|8,2:1|2:1,2:0:0:0:
263,183,88356,38,0,P|299:175|335:163,1,75,10|0,2:0|2:0,2:0:0:0:
428,296,88535,2,0,P|403:268|375:242,1,75,10|0,2:1|2:0,2:0:0:0:
444,97,88714,2,0,P|432:132|424:169,1,75,10|0,2:0|2:0,2:0:0:0:
229,290,88892,6,0,P|286:244|255:177,1,150,10|8,2:1|2:0,2:0:0:0:
176,199,89160,1,0,2:0:0:0:
285,102,89249,2,0,P|296:66|304:29,1,75,10|0,2:1|2:0,2:0:0:0:
222,7,89428,2,0,P|210:42|202:79,1,75,10|0,2:0|2:0,2:0:0:0:
352,170,89606,38,0,P|226:121|61:90,3,250,10|10|10|10,2:1|2:0|2:1|2:0,2:0:0:0:
50,141,90231,1,0,2:0:0:0:
40,149,90321,5,10,2:1:0:0:
126,226,90410,2,0,P|118:262|106:298,1,75,2|10,2:0|2:0,2:0:0:0:
73,367,90589,1,2,2:0:0:0:
222,343,90678,2,0,P|210:307|202:270,1,75,10|0,2:1|2:0,2:0:0:0:
262,182,90856,2,0,P|328:158|369:215,1,150,10|10,2:0|2:1,2:0:0:0:
398,300,91124,37,2,2:0:0:0:
337,356,91214,1,10,2:0:0:0:
316,279,91303,1,2,2:0:0:0:
369,215,91392,6,0,P|400:194|433:177,1,75,10|2,2:1|2:0,2:0:0:0:
484,104,91571,2,0,P|447:96|411:84,1,75,10|0,2:0|2:0,2:0:0:0:
338,27,91749,37,10,2:1:0:0:
330,110,91839,1,2,2:0:0:0:
275,173,91928,1,10,2:0:0:0:
194,193,92017,1,2,2:0:0:0:
142,88,92106,6,0,P|178:95|214:107,1,75,10|0,2:1|2:0,2:0:0:0:
100,267,92285,1,10,2:0:0:0:
194,193,92374,1,2,2:0:0:0:
244,289,92464,38,0,P|255:324|263:361,1,75,10|8,2:1|2:0,2:0:0:0:
189,378,92642,2,0,P|177:342|169:305,1,75,10|0,2:0|2:0,2:0:0:0:
369,215,92821,6,0,B|358:252|358:252|357:270|357:270|345:311,1,100,10|0,2:0|2:0,2:0:0:0:
424,340,92999,2,0,B|436:299|436:299|437:281|437:281|447:243,1,100,10|0,2:0|2:0,2:0:0:0:
501,93,93178,37,2,1:0:0:0:
433,149,93267,2,0,P|396:141|360:129,1,75,2|2,1:0|1:0,2:0:0:0:
228,29,93446,1,2,1:0:0:0:
307,64,93535,2,0,P|341:152|280:225,2,200,6|0|8,2:1|2:0|2:1,2:0:0:0:
127,79,94071,6,0,P|143:112|164:143,1,75,10|0,2:0|2:0,2:0:0:0:
79,212,94249,2,0,P|114:223|151:231,1,75,10|0,2:1|2:0,2:0:0:0:
146,335,94428,2,0,P|179:318|210:297,1,75,10|0,2:0|2:0,2:0:0:0:
278,225,94606,37,10,2:1:0:0:
357,182,94696,1,2,2:0:0:0:
435,228,94785,1,10,2:0:0:0:
435,317,94874,1,2,2:0:0:0:
208,289,94964,5,10,2:1:0:0:
272,218,95053,2,0,P|283:182|291:145,1,75,2|10,2:0|2:0,2:0:0:0:
184,24,95231,2,0,P|191:60|203:96,1,75,2|10,2:0|2:1,2:0:0:0:
211,102,95499,38,0,P|333:128|458:134,2,250,8|8|8,2:1|2:1|2:0,2:0:0:0:
140,141,95946,1,0,2:0:0:0:
132,149,96035,5,10,2:1:0:0:
212,205,96124,2,0,P|223:240|231:277,1,75,2|8,2:0|2:0,2:0:0:0:
177,354,96303,1,0,2:0:0:0:
118,259,96392,2,0,P|159:315|225:291,1,150,10|10,2:1|2:0,2:0:0:0:
302,225,96660,1,0,2:0:0:0:
353,297,96749,37,10,2:1:0:0:
309,219,96839,1,2,2:0:0:0:
353,140,96928,1,10,2:0:0:0:
442,132,97017,1,2,2:0:0:0:
473,241,97106,6,0,P|465:277|454:313,1,75,10|0,2:1|2:0,2:0:0:0:
346,143,97285,2,0,P|353:106|364:70,1,75,10|0,2:0|2:0,2:0:0:0:
455,22,97464,37,10,2:1:0:0:
372,59,97553,2,0,P|275:81|175:84,1,200,2|0,2:0|2:0,2:0:0:0:
109,42,97821,5,10,2:1:0:0:
3,116,97910,1,2,2:0:0:0:
144,220,97999,2,0,P|136:183|125:147,1,75,10|0,2:0|2:0,2:0:0:0:
38,202,98178,37,8,2:0:0:0:
34,220,98267,1,8,2:0:0:0:
29,237,98356,1,10,2:1:0:0:
25,255,98535,5,10,2:1:0:0:
102,313,98624,1,10,2:1:0:0:
197,299,98714,1,10,2:1:0:0:
274,357,98803,1,8,2:0:0:0:
369,343,98892,22,0,P|383:295|393:246,1,100,14|2,2:1|2:0,2:0:0:0:
486,254,99071,2,0,P|471:206|461:157,1,100,10|0,2:0|2:0,2:0:0:0:
310,71,99249,37,10,2:1:0:0:
299,152,99339,1,2,2:0:0:0:
258,224,99428,2,0,P|248:174|235:126,1,100,10|0,2:0|2:0,2:0:0:0:
82,240,99606,5,10,2:1:0:0:
142,297,99696,1,2,2:0:0:0:
224,321,99785,2,0,P|191:283|155:248,1,100,10|0,2:0|2:0,2:0:0:0:
317,62,99964,37,10,2:1:0:0:
306,143,100053,1,2,2:0:0:0:
265,215,100142,2,0,P|255:165|242:117,1,100,10|0,2:0|2:0,2:0:0:0:
81,254,100321,5,10,2:1:0:0:
141,311,100410,1,2,2:0:0:0:
223,335,100499,2,0,P|190:297|154:262,1,100,10|0,2:0|2:0,2:0:0:0:
324,53,100678,37,10,2:1:0:0:
313,134,100767,1,2,2:0:0:0:
243,178,100856,1,10,2:0:0:0:
164,160,100946,1,0,2:0:0:0:
126,54,101035,6,0,P|139:102|148:151,1,100,10|2,2:1|2:0,2:0:0:0:
66,341,101214,2,0,P|75:291|88:243,1,100,10|2,2:0|2:0,2:0:0:0:
243,178,101392,2,0,P|340:202|339:289,2,200,10|10|10,2:0|2:1|2:1,2:0:0:0:
261,340,101839,37,2,2:0:0:0:
335,297,101928,2,0,P|383:283|432:274,1,100,10|0,2:0|2:0,2:0:0:0:
468,177,102106,5,10,2:1:0:0:
436,102,102196,1,2,2:0:0:0:
373,49,102285,2,0,P|382:98|395:146,1,100,10|0,2:0|2:0,2:0:0:0:
274,254,102464,37,10,2:1:0:0:
243,178,102553,1,2,2:0:0:0:
250,96,102642,2,0,P|278:137|302:180,1,100,10|0,2:0|2:0,2:0:0:0:
473,167,102821,5,10,2:1:0:0:
441,92,102910,1,2,2:0:0:0:
378,39,102999,2,0,P|387:88|400:136,1,100,10|0,2:0|2:0,2:0:0:0:
263,250,103178,37,10,2:1:0:0:
232,174,103267,1,2,2:0:0:0:
239,92,103356,2,0,P|267:133|291:176,1,100,10|0,2:0|2:0,2:0:0:0:
480,158,103535,5,10,2:1:0:0:
448,83,103624,1,2,2:0:0:0:
369,62,103714,1,10,2:0:0:0:
304,113,103803,1,2,2:0:0:0:
335,220,103892,38,0,P|325:170|312:122,1,100,8|0,2:1|2:0,2:0:0:0:
162,55,104071,2,0,P|148:103|139:152,1,100,10|0,2:0|2:0,2:0:0:0:
147,25,104249,2,0,P|120:112|106:236,1,200,14|10,2:1|2:1,2:0:0:0:
155,302,104606,5,14,2:1:0:0:
155,302,104785,2,0,P|203:315|252:324,1,100,10|0,2:0|2:0,2:0:0:0:
377,298,104964,37,10,2:1:0:0:
449,242,105053,1,2,2:0:0:0:
474,156,105142,2,0,P|430:180|389:208,1,100,10|0,2:0|2:0,2:0:0:0:
221,144,105321,5,10,2:1:0:0:
277,72,105410,1,2,2:0:0:0:
363,47,105499,2,0,P|338:90|310:131,1,100,10|0,2:0|2:0,2:0:0:0:
386,303,105678,37,10,2:1:0:0:
458,247,105767,1,2,2:0:0:0:
483,161,105856,2,0,P|439:185|398:213,1,100,10|0,2:0|2:0,2:0:0:0:
211,147,106035,5,10,2:1:0:0:
267,75,106124,1,2,2:0:0:0:
353,50,106213,2,0,P|328:93|300:134,1,100,10|0,2:0|2:0,2:0:0:0:
398,310,106392,37,10,2:1:0:0:
470,254,106481,1,2,2:0:0:0:
486,164,106571,1,10,2:0:0:0:
450,82,106660,1,0,2:0:0:0:
262,50,106749,6,0,P|271:99|284:147,1,100,10|0,2:1|2:0,2:0:0:0:
160,267,106928,2,0,P|150:217|137:169,1,100,10|0,2:1|2:0,2:0:0:0:
154,143,107106,2,0,P|183:238|195:338,1,200,14|10,2:1|2:1,2:0:0:0:
34,306,107463,37,6,2:1:0:0:
305,266,107642,1,8,2:1:0:0:
76,232,107821,1,10,2:1:0:0:
235,67,107999,5,10,2:1:0:0:
195,338,108178,1,8,2:1:0:0:
161,109,108356,1,8,2:1:0:0:
203,347,108535,2,0,P|222:274|236:200,1,150,10|8,2:1|2:0,2:0:0:0:
245,56,108892,37,10,2:1:0:0:
346,156,109071,1,8,2:1:0:0:
477,100,109249,1,10,2:1:0:0:
239,47,109428,5,10,2:1:0:0:
96,48,109606,1,8,2:0:0:0:
43,180,109785,1,8,2:1:0:0:
235,57,109963,2,0,P|307:37|381:23,1,150,10|6,2:3|2:3,2:0:0:0:
477,100,110321,37,14,3:1:0:0:
491,129,110410,1,10,3:1:0:0:
397,188,110588,5,10,3:1:0:0:
386,218,110678,1,10,3:1:0:0:
278,193,110856,37,10,3:1:0:0:
249,207,110946,1,10,3:1:0:0:
192,80,111213,6,0,P|214:177|217:277,2,200,10|10|10,2:0|2:0|2:0,2:0:0:0:
125,159,111749,37,14,3:1:0:0:
111,188,111838,1,10,3:1:0:0:
205,247,112017,5,10,3:1:0:0:
216,277,112106,1,10,3:1:0:0:
324,252,112285,37,10,3:1:0:0:
353,266,112374,1,10,3:1:0:0:
437,119,112553,5,8,2:1:0:0:
410,139,112642,2,0,P|388:236|385:336,2,200,10|10|10,2:0|2:0|2:0,2:0:0:0:
366,53,113178,38,0,P|330:42|293:34,1,75,14|0,2:1|2:0,2:0:0:0:
213,149,113356,2,0,P|249:141|285:130,1,75,10|0,2:0|2:0,2:0:0:0:
147,84,113535,6,0,P|113:101|82:121,1,75,10|0,2:1|2:0,2:0:0:0:
106,260,113713,2,0,P|126:228|143:195,1,75,10|0,2:0|2:0,2:0:0:0:
19,260,113892,38,0,P|8:295|0:332,1,75,10|0,2:1|2:0,2:0:0:0:
134,372,114071,1,10,2:0:0:0:
204,319,114160,1,2,2:0:0:0:
295,357,114249,6,0,P|287:320|276:284,1,75,10|0,2:1|2:0,2:0:0:0:
340,140,114428,2,0,P|347:176|358:212,1,75,10|0,2:0|2:0,2:0:0:0:
410,305,114606,38,0,P|446:297|482:286,1,75,10|0,2:1|2:0,2:0:0:0:
277,200,114785,2,0,P|240:207|204:218,1,75,10|0,2:0|2:0,2:0:0:0:
416,331,114963,6,0,P|467:319|517:304,1,100,10|0,2:1|2:0,2:0:0:0:
271,174,115142,2,0,P|219:185|169:200,1,100,10|0,2:0|2:0,2:0:0:0:
422,221,115321,37,10,2:1:0:0:
436,121,115410,1,10,2:1:0:0:
446,118,115588,5,10,2:0:0:0:
432,218,115678,1,10,2:1:0:0:
422,221,115856,1,6,2:3:0:0:
340,140,116035,37,14,3:1:0:0:
346,108,116124,1,10,3:1:0:0:
239,75,116303,5,10,3:1:0:0:
221,49,116392,1,10,3:1:0:0:
123,101,116571,37,10,3:1:0:0:
92,95,116660,1,10,3:1:0:0:
69,233,116928,6,0,P|65:133|42:36,2,200,10|10|10,2:0|2:0|2:0,2:0:0:0:
184,263,117463,37,14,3:1:0:0:
178,231,117553,1,10,3:1:0:0:
285,198,117731,5,10,3:1:0:0:
303,172,117821,1,10,3:1:0:0:
401,224,117999,37,10,3:1:0:0:
432,218,118088,1,10,3:1:0:0:
436,378,118267,5,8,2:1:0:0:
455,356,118356,2,0,P|458:256|481:159,2,200,10|10|10,2:0|2:0|2:0,2:0:0:0:
273,258,118892,38,0,P|280:294|291:330,1,75,14|0,2:1|2:0,2:0:0:0:
367,311,119071,2,0,P|359:274|348:238,1,75,10|0,2:0|2:0,2:0:0:0:
128,172,119249,6,0,P|117:207|109:244,1,75,10|0,2:1|2:0,2:0:0:0:
184,263,119428,2,0,P|194:227|202:190,1,75,10|0,2:0|2:0,2:0:0:0:
393,62,119606,38,0,P|403:97|411:134,1,75,10|0,2:1|2:0,2:0:0:0:
289,189,119785,1,10,2:0:0:0:
378,233,119874,1,2,2:0:0:0:
283,180,119963,6,0,P|290:143|301:107,1,75,10|0,2:1|2:0,2:0:0:0:
162,35,120142,2,0,P|172:70|180:107,1,75,10|0,2:0|2:0,2:0:0:0:
51,261,120321,38,0,P|76:233|103:207,1,75,10|2,2:1|2:0,2:0:0:0:
219,357,120499,2,0,P|230:321|238:284,1,75,10|2,2:0|2:0,2:0:0:0:
17,254,120678,6,0,P|51:217|88:184,1,100,10|2,2:1|2:0,2:0:0:0:
242,380,120856,2,0,P|257:332|268:283,1,100,10|2,2:0|2:0,2:0:0:0:
218,107,121035,37,10,2:0:0:0:
322,72,121124,1,10,2:0:0:0:
402,200,121303,5,10,2:0:0:0:
407,214,121481,37,10,2:0:0:0:
303,179,121571,1,10,2:0:0:0:
458,133,121660,1,10,2:0:0:0:
421,305,121749,5,6,2:3:0:0:
