osu file format v14

[General]
AudioFilename: audio130.mp3
AudioLeadIn: 0
PreviewTime: 67280
Countdown: 0
SampleSet: None
StackLeniency: 0.1
Mode: 3
LetterboxInBreaks: 0
SpecialStyle: 0
WidescreenStoryboard: 1

[Editor]
DistanceSpacing: 0.8
BeatDivisor: 12
GridSize: 8
TimelineZoom: 2

[Metadata]
Title:Koiuta Shippuu! Karuta Queen Iroha
TitleUnicode:恋歌疾風!かるたクイーンいろは
Artist:Nekomanma Team!
ArtistUnicode:ねこまんまチーム!
Creator:[GB]SuddenDeath
Version:Celeb's 24 1.3x
Source:pop'n music éclale
Tags:pop'n music éclale konami bemani video game japanese Nukoneko-san Kuroneko-san BeatStream アニムトライヴ jubeat festo SOUND VOLTEX IV HEAVENLY HAVEN rock stepmania etterna Celebelian Celeb Jack
BeatmapID:4556518
BeatmapSetID:2160738

[Difficulty]
HPDrainRate:8
CircleSize:4
OverallDifficulty:8
ApproachRate:9.5
SliderMultiplier:1.72
SliderTickRate:1

[Events]
//Background and Video events
0,0,"bg.jpg",0,0
//Break Periods
//Storyboard Layer 0 (Background)
//Storyboard Layer 1 (Fail)
//Storyboard Layer 2 (Pass)
//Storyboard Layer 3 (Foreground)
//Storyboard Layer 4 (Overlay)
//Storyboard Sound Samples

[TimingPoints]
1607,384.615384615385,4,1,0,30,1,0
1607,-71.4285714285714,4,1,0,30,0,0
13145,404.858299595142,4,1,0,30,1,0
13145,-68.0272108843538,4,1,0,30,0,0
13955,344.43168771527,4,1,0,30,1,8
13955,-80,4,1,0,30,0,8
14299,274.725274725275,4,1,0,30,1,8
14299,-100,4,1,0,30,0,8
14574,274.725274725275,4,1,0,30,1,0
14574,-100,4,1,0,30,0,0
15672,274.725274725275,4,1,0,30,1,0
15672,-100,4,1,0,30,0,0
67320,274.725274725275,4,1,0,30,1,0
67320,-100,4,1,0,30,0,0

[Colours]
Combo1 : 128,128,255
Combo2 : 9,247,247
Combo3 : 255,51,0
Combo4 : 251,244,4
Combo5 : 22,233,44

[HitObjects]
320,192,1606,5,0,0:0:0:0:
448,192,1799,1,0,0:0:0:0:
192,192,1991,1,0,0:0:0:0:
64,192,2183,1,0,0:0:0:0:
320,192,2376,1,0,0:0:0:0:
192,192,2568,1,0,0:0:0:0:
64,192,2728,1,0,0:0:0:0:
448,192,2760,1,0,0:0:0:0:
320,192,2953,1,0,0:0:0:0:
192,192,3145,1,0,0:0:0:0:
64,192,3209,1,0,0:0:0:0:
448,192,3337,1,0,0:0:0:0:
320,192,3530,1,0,0:0:0:0:
192,192,3722,1,0,0:0:0:0:
64,192,3914,1,0,0:0:0:0:
320,192,4107,1,0,0:0:0:0:
448,192,4203,1,0,0:0:0:0:
192,192,4299,1,0,0:0:0:0:
64,192,4491,1,0,0:0:0:0:
448,192,4683,1,0,0:0:0:0:
192,192,4715,1,0,0:0:0:0:
320,192,4876,1,0,0:0:0:0:
192,192,5068,1,0,0:0:0:0:
64,192,5260,1,0,0:0:0:0:
320,192,5453,1,0,0:0:0:0:
448,192,5645,1,0,0:0:0:0:
192,192,5741,1,0,0:0:0:0:
320,192,5837,1,0,0:0:0:0:
64,192,6030,1,0,0:0:0:0:
448,192,6222,1,0,0:0:0:0:
320,192,6414,1,0,0:0:0:0:
192,192,6607,1,0,0:0:0:0:
64,192,6799,1,0,0:0:0:0:
192,192,6991,1,0,0:0:0:0:
320,192,7183,1,0,0:0:0:0:
448,192,7376,1,0,0:0:0:0:
320,192,7408,1,0,0:0:0:0:
64,192,7760,1,0,0:0:0:0:
192,192,7792,1,0,0:0:0:0:
320,192,7824,1,0,0:0:0:0:
448,192,7953,1,0,0:0:0:0:
320,192,8145,1,0,0:0:0:0:
192,192,8337,1,0,0:0:0:0:
64,192,8530,1,0,0:0:0:0:
320,192,8722,1,0,0:0:0:0:
192,192,8866,1,0,0:0:0:0:
448,192,8914,1,0,0:0:0:0:
320,192,9107,1,0,0:0:0:0:
192,192,9299,1,0,0:0:0:0:
64,192,9347,1,0,0:0:0:0:
448,192,9491,1,0,0:0:0:0:
320,192,9683,1,0,0:0:0:0:
192,192,9876,1,0,0:0:0:0:
64,192,10068,1,0,0:0:0:0:
64,192,10260,1,0,0:0:0:0:
64,192,10453,1,0,0:0:0:0:
192,192,10645,1,0,0:0:0:0:
64,192,10805,1,0,0:0:0:0:
192,192,10837,1,0,0:0:0:0:
448,192,10869,1,0,0:0:0:0:
320,192,11030,1,0,0:0:0:0:
192,192,11222,1,0,0:0:0:0:
64,192,11414,1,0,0:0:0:0:
320,192,11607,1,0,0:0:0:0:
448,192,11637,1,0,0:0:0:0:
192,192,11799,1,0,0:0:0:0:
448,192,11991,1,0,0:0:0:0:
320,192,12183,1,0,0:0:0:0:
192,192,12376,1,0,0:0:0:0:
64,192,12408,1,0,0:0:0:0:
320,192,12568,1,0,0:0:0:0:
192,192,12760,1,0,0:0:0:0:
64,192,12953,1,0,0:0:0:0:
448,192,13178,1,0,0:0:0:0:
192,192,13246,1,0,0:0:0:0:
448,192,13313,1,0,0:0:0:0:
192,192,13381,1,0,0:0:0:0:
448,192,13448,1,0,0:0:0:0:
192,192,13516,1,0,0:0:0:0:
448,192,13583,1,0,0:0:0:0:
192,192,13651,1,0,0:0:0:0:
448,192,13718,1,0,0:0:0:0:
192,192,13786,1,0,0:0:0:0:
448,192,13853,1,0,0:0:0:0:
192,192,13887,1,0,0:0:0:0:
448,192,13920,1,0,0:0:0:0:
320,192,13954,1,0,0:0:0:0:
64,192,13954,1,0,0:0:0:0:
448,192,14299,1,0,0:0:0:0:
320,192,14299,1,0,0:0:0:0:
192,192,14299,1,0,0:0:0:0:
448,192,14436,1,0,0:0:0:0:
320,192,14436,1,0,0:0:0:0:
192,192,14436,1,0,0:0:0:0:
192,192,14573,128,0,15054:0:0:0:0:
64,192,14573,128,0,15192:0:0:0:0:
320,192,14573,1,0,0:0:0:0:
448,192,15146,128,0,15215:0:0:0:0:
192,192,15260,1,0,0:0:0:0:
64,192,15306,1,0,0:0:0:0:
448,192,15398,1,0,0:0:0:0:
320,192,15432,1,0,0:0:0:0:
448,192,15466,1,0,0:0:0:0:
64,192,15535,128,0,15672:0:0:0:0:
448,192,15672,1,0,0:0:0:0:
320,192,15672,1,0,0:0:0:0:
448,192,15809,1,0,0:0:0:0:
320,192,15809,1,0,0:0:0:0:
448,192,15946,1,0,0:0:0:0:
320,192,15946,1,0,0:0:0:0:
448,192,16015,1,0,0:0:0:0:
320,192,16015,1,0,0:0:0:0:
448,192,16221,1,0,0:0:0:0:
320,192,16221,1,0,0:0:0:0:
448,192,16358,1,0,0:0:0:0:
320,192,16358,1,0,0:0:0:0:
448,192,16496,1,0,0:0:0:0:
320,192,16496,1,0,0:0:0:0:
448,192,16564,1,0,0:0:0:0:
320,192,16564,1,0,0:0:0:0:
448,192,16770,1,0,0:0:0:0:
320,192,16770,1,0,0:0:0:0:
448,192,16908,1,0,0:0:0:0:
320,192,16908,1,0,0:0:0:0:
448,192,17045,1,0,0:0:0:0:
320,192,17045,1,0,0:0:0:0:
320,192,17114,1,0,0:0:0:0:
448,192,17114,1,0,0:0:0:0:
448,192,17320,1,0,0:0:0:0:
320,192,17320,1,0,0:0:0:0:
448,192,17457,1,0,0:0:0:0:
320,192,17457,1,0,0:0:0:0:
448,192,17595,1,0,0:0:0:0:
320,192,17595,1,0,0:0:0:0:
448,192,17663,1,0,0:0:0:0:
320,192,17663,1,0,0:0:0:0:
448,192,17869,1,0,0:0:0:0:
320,192,17869,1,0,0:0:0:0:
448,192,18007,1,0,0:0:0:0:
320,192,18007,1,0,0:0:0:0:
448,192,18144,1,0,0:0:0:0:
320,192,18144,1,0,0:0:0:0:
448,192,18213,1,0,0:0:0:0:
320,192,18213,1,0,0:0:0:0:
64,192,18281,1,0,0:0:0:0:
448,192,18419,1,0,0:0:0:0:
320,192,18419,1,0,0:0:0:0:
448,192,18556,1,0,0:0:0:0:
320,192,18556,1,0,0:0:0:0:
448,192,18693,1,0,0:0:0:0:
320,192,18693,1,0,0:0:0:0:
320,192,18762,1,0,0:0:0:0:
448,192,18762,1,0,0:0:0:0:
64,192,18831,1,0,0:0:0:0:
448,192,18968,1,0,0:0:0:0:
320,192,18968,1,0,0:0:0:0:
448,192,19106,1,0,0:0:0:0:
320,192,19106,1,0,0:0:0:0:
448,192,19243,1,0,0:0:0:0:
320,192,19243,1,0,0:0:0:0:
448,192,19312,1,0,0:0:0:0:
320,192,19312,1,0,0:0:0:0:
64,192,19380,1,0,0:0:0:0:
448,192,19518,1,0,0:0:0:0:
192,192,19518,1,0,0:0:0:0:
64,192,19586,1,0,0:0:0:0:
192,192,19586,1,0,0:0:0:0:
448,192,19655,1,0,0:0:0:0:
320,192,19655,1,0,0:0:0:0:
64,192,19724,1,0,0:0:0:0:
320,192,19724,1,0,0:0:0:0:
448,192,19792,1,0,0:0:0:0:
192,192,19792,1,0,0:0:0:0:
320,192,19838,1,0,0:0:0:0:
64,192,19884,1,0,0:0:0:0:
448,192,19930,1,0,0:0:0:0:
192,192,19930,1,0,0:0:0:0:
320,192,19976,1,0,0:0:0:0:
64,192,20021,1,0,0:0:0:0:
448,192,20067,1,0,0:0:0:0:
320,192,20067,1,0,0:0:0:0:
192,192,20136,1,0,0:0:0:0:
448,192,20204,1,0,0:0:0:0:
64,192,20204,1,0,0:0:0:0:
320,192,20250,1,0,0:0:0:0:
192,192,20296,1,0,0:0:0:0:
448,192,20342,1,0,0:0:0:0:
320,192,20342,1,0,0:0:0:0:
448,192,20411,1,0,0:0:0:0:
320,192,20411,1,0,0:0:0:0:
192,192,20479,1,0,0:0:0:0:
64,192,20479,1,0,0:0:0:0:
320,192,20525,1,0,0:0:0:0:
192,192,20571,1,0,0:0:0:0:
448,192,20617,1,0,0:0:0:0:
320,192,20617,1,0,0:0:0:0:
192,192,20685,1,0,0:0:0:0:
448,192,20754,1,0,0:0:0:0:
64,192,20754,1,0,0:0:0:0:
320,192,20800,1,0,0:0:0:0:
192,192,20845,1,0,0:0:0:0:
448,192,20891,1,0,0:0:0:0:
320,192,20891,1,0,0:0:0:0:
448,192,20960,1,0,0:0:0:0:
320,192,20960,1,0,0:0:0:0:
64,192,21029,1,0,0:0:0:0:
192,192,21029,1,0,0:0:0:0:
320,192,21074,1,0,0:0:0:0:
192,192,21120,1,0,0:0:0:0:
448,192,21166,1,0,0:0:0:0:
320,192,21166,1,0,0:0:0:0:
192,192,21235,1,0,0:0:0:0:
448,192,21303,1,0,0:0:0:0:
64,192,21303,1,0,0:0:0:0:
320,192,21349,1,0,0:0:0:0:
192,192,21395,1,0,0:0:0:0:
448,192,21441,1,0,0:0:0:0:
320,192,21441,1,0,0:0:0:0:
448,192,21509,1,0,0:0:0:0:
320,192,21509,1,0,0:0:0:0:
64,192,21578,1,0,0:0:0:0:
192,192,21578,1,0,0:0:0:0:
320,192,21624,1,0,0:0:0:0:
192,192,21670,1,0,0:0:0:0:
448,192,21715,1,0,0:0:0:0:
320,192,21715,1,0,0:0:0:0:
192,192,21784,1,0,0:0:0:0:
448,192,21853,1,0,0:0:0:0:
64,192,21853,1,0,0:0:0:0:
320,192,21899,1,0,0:0:0:0:
192,192,21944,1,0,0:0:0:0:
448,192,21990,1,0,0:0:0:0:
320,192,21990,1,0,0:0:0:0:
448,192,22059,1,0,0:0:0:0:
320,192,22059,1,0,0:0:0:0:
64,192,22128,1,0,0:0:0:0:
192,192,22128,1,0,0:0:0:0:
320,192,22173,1,0,0:0:0:0:
192,192,22219,1,0,0:0:0:0:
448,192,22265,1,0,0:0:0:0:
320,192,22265,1,0,0:0:0:0:
192,192,22334,1,0,0:0:0:0:
448,192,22402,1,0,0:0:0:0:
64,192,22402,1,0,0:0:0:0:
192,192,22448,1,0,0:0:0:0:
320,192,22494,1,0,0:0:0:0:
64,192,22540,1,0,0:0:0:0:
192,192,22540,1,0,0:0:0:0:
192,192,22608,1,0,0:0:0:0:
64,192,22608,1,0,0:0:0:0:
448,192,22677,1,0,0:0:0:0:
320,192,22677,1,0,0:0:0:0:
192,192,22723,1,0,0:0:0:0:
320,192,22769,1,0,0:0:0:0:
64,192,22814,1,0,0:0:0:0:
192,192,22814,1,0,0:0:0:0:
320,192,22883,1,0,0:0:0:0:
64,192,22952,1,0,0:0:0:0:
448,192,22952,1,0,0:0:0:0:
192,192,22998,1,0,0:0:0:0:
320,192,23043,1,0,0:0:0:0:
64,192,23089,1,0,0:0:0:0:
192,192,23089,1,0,0:0:0:0:
192,192,23158,1,0,0:0:0:0:
64,192,23158,1,0,0:0:0:0:
448,192,23226,1,0,0:0:0:0:
320,192,23226,1,0,0:0:0:0:
192,192,23272,1,0,0:0:0:0:
320,192,23318,1,0,0:0:0:0:
64,192,23364,1,0,0:0:0:0:
192,192,23364,1,0,0:0:0:0:
320,192,23432,1,0,0:0:0:0:
64,192,23501,1,0,0:0:0:0:
448,192,23501,1,0,0:0:0:0:
192,192,23547,1,0,0:0:0:0:
320,192,23593,1,0,0:0:0:0:
64,192,23639,1,0,0:0:0:0:
192,192,23639,1,0,0:0:0:0:
192,192,23707,1,0,0:0:0:0:
64,192,23707,1,0,0:0:0:0:
448,192,23776,1,0,0:0:0:0:
320,192,23776,1,0,0:0:0:0:
192,192,23822,1,0,0:0:0:0:
320,192,23867,1,0,0:0:0:0:
64,192,23913,1,0,0:0:0:0:
192,192,23913,1,0,0:0:0:0:
320,192,23982,1,0,0:0:0:0:
64,192,24051,1,0,0:0:0:0:
448,192,24051,1,0,0:0:0:0:
192,192,24096,1,0,0:0:0:0:
320,192,24142,1,0,0:0:0:0:
64,192,24188,1,0,0:0:0:0:
192,192,24188,1,0,0:0:0:0:
192,192,24257,1,0,0:0:0:0:
64,192,24257,1,0,0:0:0:0:
448,192,24325,1,0,0:0:0:0:
320,192,24325,1,0,0:0:0:0:
448,192,24394,1,0,0:0:0:0:
320,192,24394,1,0,0:0:0:0:
192,192,24463,1,0,0:0:0:0:
64,192,24600,1,0,0:0:0:0:
320,192,24737,1,0,0:0:0:0:
192,192,24875,1,0,0:0:0:0:
448,192,25012,128,0,25218:0:0:0:0:
320,192,25287,128,0,25493:0:0:0:0:
192,192,25562,1,0,0:0:0:0:
64,192,25699,1,0,0:0:0:0:
64,192,25836,1,0,0:0:0:0:
320,192,25974,1,0,0:0:0:0:
192,192,26111,1,0,0:0:0:0:
320,192,26248,1,0,0:0:0:0:
64,192,26386,1,0,0:0:0:0:
448,192,26523,1,0,0:0:0:0:
192,192,26661,128,0,26935:0:0:0:0:
320,192,26935,128,0,27210:0:0:0:0:
64,192,27210,128,0,27485:0:0:0:0:
448,192,27485,128,0,27759:0:0:0:0:
192,192,27759,128,0,28309:0:0:0:0:
64,192,28446,1,0,0:0:0:0:
448,192,28515,1,0,0:0:0:0:
192,192,28584,1,0,0:0:0:0:
320,192,28721,1,0,0:0:0:0:
64,192,28858,1,0,0:0:0:0:
320,192,28858,1,0,0:0:0:0:
192,192,28927,1,0,0:0:0:0:
320,192,28996,1,0,0:0:0:0:
64,192,28996,1,0,0:0:0:0:
64,192,29133,1,0,0:0:0:0:
192,192,29133,1,0,0:0:0:0:
448,192,29202,1,0,0:0:0:0:
320,192,29270,1,0,0:0:0:0:
320,192,29339,1,0,0:0:0:0:
192,192,29408,1,0,0:0:0:0:
448,192,29408,1,0,0:0:0:0:
64,192,29454,1,0,0:0:0:0:
192,192,29499,1,0,0:0:0:0:
320,192,29545,1,0,0:0:0:0:
448,192,29591,1,0,0:0:0:0:
64,192,29682,1,0,0:0:0:0:
320,192,29682,1,0,0:0:0:0:
448,192,29728,1,0,0:0:0:0:
320,192,29774,1,0,0:0:0:0:
192,192,29820,1,0,0:0:0:0:
64,192,29866,1,0,0:0:0:0:
448,192,29957,1,0,0:0:0:0:
320,192,29957,1,0,0:0:0:0:
192,192,30026,1,0,0:0:0:0:
448,192,30095,1,0,0:0:0:0:
320,192,30095,1,0,0:0:0:0:
448,192,30232,1,0,0:0:0:0:
320,192,30232,1,0,0:0:0:0:
192,192,30301,1,0,0:0:0:0:
320,192,30369,1,0,0:0:0:0:
64,192,30369,1,0,0:0:0:0:
64,192,30507,1,0,0:0:0:0:
192,192,30507,1,0,0:0:0:0:
320,192,30575,1,0,0:0:0:0:
64,192,30644,1,0,0:0:0:0:
192,192,30644,1,0,0:0:0:0:
448,192,30781,1,0,0:0:0:0:
192,192,30781,1,0,0:0:0:0:
320,192,30850,1,0,0:0:0:0:
64,192,30919,1,0,0:0:0:0:
448,192,30919,1,0,0:0:0:0:
320,192,30987,1,0,0:0:0:0:
448,192,31056,1,0,0:0:0:0:
192,192,31056,1,0,0:0:0:0:
64,192,31056,1,0,0:0:0:0:
64,192,31193,1,0,0:0:0:0:
192,192,31193,1,0,0:0:0:0:
448,192,31331,1,0,0:0:0:0:
320,192,31331,1,0,0:0:0:0:
64,192,31331,1,0,0:0:0:0:
192,192,31400,1,0,0:0:0:0:
448,192,31468,1,0,0:0:0:0:
320,192,31468,1,0,0:0:0:0:
192,192,31606,1,0,0:0:0:0:
448,192,31606,1,0,0:0:0:0:
64,192,31606,1,0,0:0:0:0:
320,192,31674,1,0,0:0:0:0:
64,192,31743,1,0,0:0:0:0:
192,192,31743,1,0,0:0:0:0:
448,192,31880,128,0,32018:0:0:0:0:
320,192,31880,128,0,31949:0:0:0:0:
64,192,31880,1,0,0:0:0:0:
64,192,32155,128,0,32292:0:0:0:0:
192,192,32155,128,0,32224:0:0:0:0:
448,192,32155,1,0,0:0:0:0:
448,192,32361,1,0,0:0:0:0:
320,192,32361,1,0,0:0:0:0:
64,192,32430,1,0,0:0:0:0:
192,192,32430,1,0,0:0:0:0:
320,192,32498,1,0,0:0:0:0:
64,192,32567,1,0,0:0:0:0:
192,192,32567,1,0,0:0:0:0:
320,192,32636,1,0,0:0:0:0:
64,192,32704,1,0,0:0:0:0:
448,192,32704,1,0,0:0:0:0:
192,192,32750,1,0,0:0:0:0:
320,192,32796,1,0,0:0:0:0:
64,192,32842,1,0,0:0:0:0:
448,192,32842,1,0,0:0:0:0:
320,192,32911,1,0,0:0:0:0:
192,192,32911,1,0,0:0:0:0:
448,192,32979,1,0,0:0:0:0:
64,192,32979,1,0,0:0:0:0:
320,192,33014,1,0,0:0:0:0:
192,192,33048,1,0,0:0:0:0:
64,192,33082,1,0,0:0:0:0:
320,192,33117,1,0,0:0:0:0:
192,192,33185,1,0,0:0:0:0:
320,192,33254,1,0,0:0:0:0:
448,192,33254,1,0,0:0:0:0:
64,192,33391,1,0,0:0:0:0:
448,192,33391,1,0,0:0:0:0:
320,192,33437,1,0,0:0:0:0:
192,192,33483,1,0,0:0:0:0:
448,192,33529,1,0,0:0:0:0:
320,192,33529,1,0,0:0:0:0:
448,192,33597,1,0,0:0:0:0:
320,192,33597,1,0,0:0:0:0:
64,192,33666,1,0,0:0:0:0:
192,192,33666,1,0,0:0:0:0:
320,192,33712,1,0,0:0:0:0:
192,192,33758,1,0,0:0:0:0:
448,192,33803,1,0,0:0:0:0:
320,192,33803,1,0,0:0:0:0:
192,192,33872,1,0,0:0:0:0:
448,192,33941,1,0,0:0:0:0:
64,192,33941,1,0,0:0:0:0:
320,192,33987,1,0,0:0:0:0:
192,192,34032,1,0,0:0:0:0:
448,192,34078,1,0,0:0:0:0:
320,192,34078,1,0,0:0:0:0:
448,192,34147,1,0,0:0:0:0:
320,192,34147,1,0,0:0:0:0:
64,192,34215,1,0,0:0:0:0:
192,192,34215,1,0,0:0:0:0:
320,192,34261,1,0,0:0:0:0:
192,192,34307,1,0,0:0:0:0:
448,192,34353,1,0,0:0:0:0:
320,192,34353,1,0,0:0:0:0:
192,192,34422,1,0,0:0:0:0:
448,192,34490,1,0,0:0:0:0:
64,192,34490,1,0,0:0:0:0:
320,192,34536,1,0,0:0:0:0:
192,192,34582,1,0,0:0:0:0:
320,192,34628,1,0,0:0:0:0:
448,192,34628,1,0,0:0:0:0:
448,192,34696,1,0,0:0:0:0:
320,192,34696,1,0,0:0:0:0:
64,192,34765,1,0,0:0:0:0:
192,192,34765,1,0,0:0:0:0:
320,192,34811,1,0,0:0:0:0:
192,192,34856,1,0,0:0:0:0:
448,192,34902,1,0,0:0:0:0:
320,192,34902,1,0,0:0:0:0:
192,192,34971,1,0,0:0:0:0:
448,192,35040,1,0,0:0:0:0:
64,192,35040,1,0,0:0:0:0:
320,192,35085,1,0,0:0:0:0:
192,192,35131,1,0,0:0:0:0:
448,192,35177,1,0,0:0:0:0:
320,192,35177,1,0,0:0:0:0:
448,192,35246,1,0,0:0:0:0:
320,192,35246,1,0,0:0:0:0:
64,192,35314,1,0,0:0:0:0:
192,192,35314,1,0,0:0:0:0:
64,192,35383,1,0,0:0:0:0:
448,192,35452,1,0,0:0:0:0:
320,192,35452,1,0,0:0:0:0:
192,192,35520,1,0,0:0:0:0:
448,192,35589,1,0,0:0:0:0:
64,192,35589,1,0,0:0:0:0:
192,192,35635,1,0,0:0:0:0:
320,192,35681,1,0,0:0:0:0:
64,192,35726,1,0,0:0:0:0:
192,192,35726,1,0,0:0:0:0:
64,192,35795,1,0,0:0:0:0:
192,192,35795,1,0,0:0:0:0:
448,192,35864,1,0,0:0:0:0:
320,192,35864,1,0,0:0:0:0:
192,192,35910,1,0,0:0:0:0:
320,192,35955,1,0,0:0:0:0:
64,192,36001,1,0,0:0:0:0:
192,192,36001,1,0,0:0:0:0:
320,192,36070,1,0,0:0:0:0:
64,192,36139,1,0,0:0:0:0:
448,192,36139,1,0,0:0:0:0:
192,192,36184,1,0,0:0:0:0:
320,192,36230,1,0,0:0:0:0:
64,192,36276,1,0,0:0:0:0:
192,192,36276,1,0,0:0:0:0:
64,192,36345,1,0,0:0:0:0:
192,192,36345,1,0,0:0:0:0:
448,192,36413,1,0,0:0:0:0:
320,192,36413,1,0,0:0:0:0:
192,192,36459,1,0,0:0:0:0:
320,192,36505,1,0,0:0:0:0:
192,192,36551,1,0,0:0:0:0:
64,192,36551,1,0,0:0:0:0:
448,192,36551,1,0,0:0:0:0:
320,192,36619,1,0,0:0:0:0:
448,192,36688,1,0,0:0:0:0:
64,192,36688,1,0,0:0:0:0:
192,192,36688,1,0,0:0:0:0:
448,192,36825,1,0,0:0:0:0:
320,192,36825,1,0,0:0:0:0:
64,192,36825,1,0,0:0:0:0:
192,192,36894,1,0,0:0:0:0:
448,192,36963,1,0,0:0:0:0:
320,192,36963,1,0,0:0:0:0:
64,192,36963,1,0,0:0:0:0:
448,192,37100,1,0,0:0:0:0:
192,192,37100,1,0,0:0:0:0:
64,192,37100,1,0,0:0:0:0:
320,192,37169,1,0,0:0:0:0:
64,192,37237,1,0,0:0:0:0:
192,192,37237,1,0,0:0:0:0:
448,192,37237,1,0,0:0:0:0:
320,192,37375,1,0,0:0:0:0:
448,192,37375,1,0,0:0:0:0:
64,192,37375,1,0,0:0:0:0:
192,192,37443,1,0,0:0:0:0:
64,192,37512,1,0,0:0:0:0:
448,192,37512,1,0,0:0:0:0:
320,192,37512,1,0,0:0:0:0:
448,192,37650,1,0,0:0:0:0:
192,192,37650,1,0,0:0:0:0:
320,192,37695,1,0,0:0:0:0:
448,192,37741,1,0,0:0:0:0:
64,192,37787,1,0,0:0:0:0:
192,192,37787,1,0,0:0:0:0:
320,192,37856,1,0,0:0:0:0:
64,192,37924,1,0,0:0:0:0:
192,192,37924,1,0,0:0:0:0:
320,192,37993,1,0,0:0:0:0:
448,192,38062,1,0,0:0:0:0:
192,192,38062,1,0,0:0:0:0:
64,192,38130,1,0,0:0:0:0:
192,192,38130,1,0,0:0:0:0:
448,192,38199,1,0,0:0:0:0:
320,192,38199,1,0,0:0:0:0:
192,192,38268,1,0,0:0:0:0:
448,192,38336,1,0,0:0:0:0:
320,192,38336,1,0,0:0:0:0:
192,192,38405,1,0,0:0:0:0:
320,192,38474,1,0,0:0:0:0:
64,192,38474,1,0,0:0:0:0:
192,192,38519,1,0,0:0:0:0:
448,192,38565,1,0,0:0:0:0:
64,192,38611,1,0,0:0:0:0:
320,192,38611,1,0,0:0:0:0:
192,192,38657,1,0,0:0:0:0:
64,192,38703,1,0,0:0:0:0:
448,192,38748,1,0,0:0:0:0:
320,192,38748,1,0,0:0:0:0:
64,192,38886,1,0,0:0:0:0:
192,192,38886,1,0,0:0:0:0:
320,192,38954,1,0,0:0:0:0:
64,192,39023,1,0,0:0:0:0:
448,192,39023,1,0,0:0:0:0:
320,192,39092,1,0,0:0:0:0:
64,192,39161,1,0,0:0:0:0:
192,192,39161,1,0,0:0:0:0:
192,192,39229,1,0,0:0:0:0:
64,192,39229,1,0,0:0:0:0:
448,192,39298,1,0,0:0:0:0:
320,192,39298,1,0,0:0:0:0:
320,192,39435,1,0,0:0:0:0:
64,192,39435,1,0,0:0:0:0:
448,192,39504,1,0,0:0:0:0:
64,192,39573,1,0,0:0:0:0:
192,192,39573,1,0,0:0:0:0:
320,192,39641,1,0,0:0:0:0:
448,192,39710,1,0,0:0:0:0:
192,192,39710,1,0,0:0:0:0:
64,192,39779,1,0,0:0:0:0:
448,192,39847,1,0,0:0:0:0:
320,192,39847,1,0,0:0:0:0:
192,192,39893,1,0,0:0:0:0:
320,192,39939,1,0,0:0:0:0:
64,192,39985,1,0,0:0:0:0:
448,192,39985,1,0,0:0:0:0:
320,192,40030,1,0,0:0:0:0:
64,192,40122,1,0,0:0:0:0:
192,192,40122,1,0,0:0:0:0:
320,192,40168,1,0,0:0:0:0:
192,192,40214,1,0,0:0:0:0:
448,192,40259,1,0,0:0:0:0:
64,192,40259,1,0,0:0:0:0:
192,192,40305,1,0,0:0:0:0:
448,192,40397,1,0,0:0:0:0:
320,192,40397,1,0,0:0:0:0:
64,192,40443,1,0,0:0:0:0:
448,192,40488,1,0,0:0:0:0:
320,192,40534,1,0,0:0:0:0:
192,192,40534,1,0,0:0:0:0:
448,192,40580,1,0,0:0:0:0:
64,192,40672,1,0,0:0:0:0:
192,192,40672,1,0,0:0:0:0:
448,192,40717,1,0,0:0:0:0:
64,192,40763,1,0,0:0:0:0:
320,192,40809,1,0,0:0:0:0:
192,192,40809,1,0,0:0:0:0:
64,192,40855,1,0,0:0:0:0:
448,192,40946,1,0,0:0:0:0:
320,192,40946,1,0,0:0:0:0:
192,192,40992,1,0,0:0:0:0:
448,192,41038,1,0,0:0:0:0:
64,192,41084,1,0,0:0:0:0:
320,192,41084,1,0,0:0:0:0:
192,192,41129,1,0,0:0:0:0:
64,192,41175,1,0,0:0:0:0:
448,192,41221,1,0,0:0:0:0:
192,192,41221,1,0,0:0:0:0:
320,192,41267,1,0,0:0:0:0:
64,192,41313,1,0,0:0:0:0:
448,192,41358,1,0,0:0:0:0:
320,192,41358,1,0,0:0:0:0:
192,192,41404,1,0,0:0:0:0:
64,192,41450,1,0,0:0:0:0:
448,192,41496,1,0,0:0:0:0:
192,192,41496,1,0,0:0:0:0:
64,192,41564,1,0,0:0:0:0:
448,192,41633,1,0,0:0:0:0:
320,192,41656,1,0,0:0:0:0:
192,192,41679,1,0,0:0:0:0:
64,192,41770,1,0,0:0:0:0:
192,192,41793,1,0,0:0:0:0:
320,192,41816,1,0,0:0:0:0:
64,192,41908,1,0,0:0:0:0:
448,192,41908,1,0,0:0:0:0:
320,192,41976,1,0,0:0:0:0:
192,192,41976,1,0,0:0:0:0:
64,192,42045,1,0,0:0:0:0:
448,192,42045,1,0,0:0:0:0:
320,192,42182,1,0,0:0:0:0:
192,192,42182,1,0,0:0:0:0:
64,192,42228,1,0,0:0:0:0:
192,192,42274,1,0,0:0:0:0:
448,192,42320,1,0,0:0:0:0:
320,192,42320,1,0,0:0:0:0:
448,192,42389,1,0,0:0:0:0:
320,192,42457,1,0,0:0:0:0:
64,192,42457,1,0,0:0:0:0:
192,192,42526,1,0,0:0:0:0:
320,192,42595,1,0,0:0:0:0:
64,192,42595,1,0,0:0:0:0:
448,192,42640,1,0,0:0:0:0:
320,192,42686,1,0,0:0:0:0:
64,192,42732,1,0,0:0:0:0:
192,192,42732,1,0,0:0:0:0:
448,192,42778,1,0,0:0:0:0:
320,192,42824,1,0,0:0:0:0:
448,192,42869,1,0,0:0:0:0:
192,192,42869,1,0,0:0:0:0:
64,192,42915,1,0,0:0:0:0:
192,192,42961,1,0,0:0:0:0:
448,192,43007,1,0,0:0:0:0:
320,192,43007,1,0,0:0:0:0:
64,192,43052,1,0,0:0:0:0:
192,192,43098,1,0,0:0:0:0:
448,192,43144,1,0,0:0:0:0:
64,192,43144,1,0,0:0:0:0:
448,192,43281,1,0,0:0:0:0:
64,192,43281,1,0,0:0:0:0:
448,192,43350,1,0,0:0:0:0:
64,192,43419,1,0,0:0:0:0:
320,192,43419,1,0,0:0:0:0:
192,192,43556,1,0,0:0:0:0:
64,192,43556,1,0,0:0:0:0:
320,192,43625,1,0,0:0:0:0:
448,192,43693,1,0,0:0:0:0:
192,192,43693,1,0,0:0:0:0:
64,192,43831,1,0,0:0:0:0:
320,192,43831,1,0,0:0:0:0:
192,192,43877,1,0,0:0:0:0:
320,192,43922,1,0,0:0:0:0:
192,192,43968,1,0,0:0:0:0:
448,192,43968,1,0,0:0:0:0:
320,192,44106,1,0,0:0:0:0:
64,192,44106,1,0,0:0:0:0:
192,192,44174,1,0,0:0:0:0:
64,192,44243,1,0,0:0:0:0:
448,192,44243,1,0,0:0:0:0:
320,192,44243,1,0,0:0:0:0:
320,192,44380,1,0,0:0:0:0:
192,192,44380,1,0,0:0:0:0:
64,192,44380,1,0,0:0:0:0:
64,192,44518,1,0,0:0:0:0:
320,192,44518,1,0,0:0:0:0:
448,192,44563,1,0,0:0:0:0:
320,192,44609,1,0,0:0:0:0:
64,192,44655,1,0,0:0:0:0:
192,192,44655,1,0,0:0:0:0:
320,192,44701,1,0,0:0:0:0:
192,192,44792,1,0,0:0:0:0:
448,192,44792,1,0,0:0:0:0:
64,192,44838,1,0,0:0:0:0:
192,192,44884,1,0,0:0:0:0:
448,192,44930,1,0,0:0:0:0:
320,192,44930,1,0,0:0:0:0:
192,192,44976,1,0,0:0:0:0:
448,192,45067,1,0,0:0:0:0:
320,192,45067,1,0,0:0:0:0:
64,192,45067,1,0,0:0:0:0:
192,192,45136,1,0,0:0:0:0:
448,192,45204,1,0,0:0:0:0:
320,192,45204,1,0,0:0:0:0:
64,192,45204,1,0,0:0:0:0:
192,192,45273,1,0,0:0:0:0:
448,192,45342,1,0,0:0:0:0:
320,192,45342,1,0,0:0:0:0:
64,192,45388,1,0,0:0:0:0:
448,192,45433,1,0,0:0:0:0:
320,192,45479,1,0,0:0:0:0:
192,192,45479,1,0,0:0:0:0:
448,192,45525,1,0,0:0:0:0:
64,192,45617,1,0,0:0:0:0:
192,192,45617,1,0,0:0:0:0:
448,192,45662,1,0,0:0:0:0:
64,192,45708,1,0,0:0:0:0:
320,192,45754,1,0,0:0:0:0:
192,192,45754,1,0,0:0:0:0:
64,192,45800,1,0,0:0:0:0:
448,192,45891,1,0,0:0:0:0:
320,192,45891,1,0,0:0:0:0:
192,192,45937,1,0,0:0:0:0:
320,192,45983,1,0,0:0:0:0:
64,192,46029,1,0,0:0:0:0:
448,192,46029,1,0,0:0:0:0:
320,192,46074,1,0,0:0:0:0:
448,192,46166,1,0,0:0:0:0:
64,192,46166,1,0,0:0:0:0:
192,192,46166,1,0,0:0:0:0:
448,192,46303,1,0,0:0:0:0:
320,192,46303,1,0,0:0:0:0:
448,192,46441,1,0,0:0:0:0:
192,192,46441,1,0,0:0:0:0:
320,192,46509,1,0,0:0:0:0:
64,192,46509,1,0,0:0:0:0:
448,192,46578,1,0,0:0:0:0:
192,192,46578,1,0,0:0:0:0:
320,192,46647,1,0,0:0:0:0:
64,192,46715,1,0,0:0:0:0:
192,192,46715,1,0,0:0:0:0:
448,192,46784,1,0,0:0:0:0:
64,192,46853,1,0,0:0:0:0:
320,192,46853,1,0,0:0:0:0:
192,192,46899,1,0,0:0:0:0:
320,192,46944,1,0,0:0:0:0:
64,192,46990,1,0,0:0:0:0:
448,192,46990,1,0,0:0:0:0:
320,192,47128,1,0,0:0:0:0:
448,192,47128,1,0,0:0:0:0:
64,192,47128,1,0,0:0:0:0:
192,192,47128,1,0,0:0:0:0:
192,192,47265,1,0,0:0:0:0:
64,192,47265,1,0,0:0:0:0:
448,192,47265,1,0,0:0:0:0:
320,192,47265,1,0,0:0:0:0:
448,192,47402,1,0,0:0:0:0:
320,192,47402,1,0,0:0:0:0:
64,192,47540,1,0,0:0:0:0:
320,192,47540,1,0,0:0:0:0:
448,192,47608,1,0,0:0:0:0:
192,192,47608,1,0,0:0:0:0:
64,192,47677,1,0,0:0:0:0:
320,192,47677,1,0,0:0:0:0:
192,192,47746,1,0,0:0:0:0:
320,192,47814,1,0,0:0:0:0:
448,192,47814,1,0,0:0:0:0:
64,192,47883,1,0,0:0:0:0:
448,192,47952,1,0,0:0:0:0:
192,192,47952,1,0,0:0:0:0:
320,192,47998,1,0,0:0:0:0:
192,192,48043,1,0,0:0:0:0:
448,192,48089,1,0,0:0:0:0:
64,192,48089,1,0,0:0:0:0:
192,192,48226,1,0,0:0:0:0:
64,192,48226,1,0,0:0:0:0:
448,192,48226,1,0,0:0:0:0:
320,192,48226,1,0,0:0:0:0:
320,192,48364,1,0,0:0:0:0:
448,192,48364,1,0,0:0:0:0:
64,192,48364,1,0,0:0:0:0:
192,192,48364,1,0,0:0:0:0:
448,192,48501,1,0,0:0:0:0:
320,192,48501,1,0,0:0:0:0:
448,192,48639,1,0,0:0:0:0:
192,192,48639,1,0,0:0:0:0:
64,192,48707,1,0,0:0:0:0:
320,192,48707,1,0,0:0:0:0:
448,192,48776,1,0,0:0:0:0:
192,192,48776,1,0,0:0:0:0:
320,192,48845,1,0,0:0:0:0:
64,192,48913,1,0,0:0:0:0:
192,192,48913,1,0,0:0:0:0:
192,192,48982,1,0,0:0:0:0:
64,192,48982,1,0,0:0:0:0:
320,192,49051,1,0,0:0:0:0:
448,192,49051,1,0,0:0:0:0:
448,192,49119,1,0,0:0:0:0:
320,192,49119,1,0,0:0:0:0:
64,192,49188,1,0,0:0:0:0:
192,192,49188,1,0,0:0:0:0:
192,192,49257,1,0,0:0:0:0:
64,192,49257,1,0,0:0:0:0:
448,192,49325,1,0,0:0:0:0:
320,192,49325,1,0,0:0:0:0:
64,192,49394,1,0,0:0:0:0:
192,192,49394,1,0,0:0:0:0:
448,192,49463,1,0,0:0:0:0:
320,192,49463,1,0,0:0:0:0:
192,192,49531,1,0,0:0:0:0:
448,192,49600,1,0,0:0:0:0:
64,192,49600,1,0,0:0:0:0:
320,192,49669,1,0,0:0:0:0:
64,192,49737,1,0,0:0:0:0:
192,192,49737,1,0,0:0:0:0:
192,192,49806,1,0,0:0:0:0:
64,192,49806,1,0,0:0:0:0:
320,192,49875,1,0,0:0:0:0:
448,192,49875,1,0,0:0:0:0:
448,192,49943,1,0,0:0:0:0:
320,192,49943,1,0,0:0:0:0:
64,192,50012,1,0,0:0:0:0:
192,192,50012,1,0,0:0:0:0:
320,192,50081,1,0,0:0:0:0:
64,192,50150,1,0,0:0:0:0:
448,192,50150,1,0,0:0:0:0:
320,192,50287,1,0,0:0:0:0:
448,192,50287,1,0,0:0:0:0:
64,192,50287,1,0,0:0:0:0:
192,192,50287,1,0,0:0:0:0:
64,192,50424,1,0,0:0:0:0:
448,192,50424,1,0,0:0:0:0:
320,192,50424,1,0,0:0:0:0:
192,192,50424,1,0,0:0:0:0:
192,192,50562,1,0,0:0:0:0:
64,192,50562,1,0,0:0:0:0:
448,192,50562,1,0,0:0:0:0:
320,192,50562,1,0,0:0:0:0:
320,192,50699,1,0,0:0:0:0:
448,192,50699,1,0,0:0:0:0:
64,192,50699,1,0,0:0:0:0:
192,192,50699,1,0,0:0:0:0:
448,192,50836,1,0,0:0:0:0:
320,192,50836,1,0,0:0:0:0:
448,192,50905,1,0,0:0:0:0:
320,192,50905,1,0,0:0:0:0:
64,192,50974,1,0,0:0:0:0:
192,192,50974,1,0,0:0:0:0:
320,192,51008,1,0,0:0:0:0:
192,192,51042,1,0,0:0:0:0:
64,192,51111,1,0,0:0:0:0:
448,192,51111,1,0,0:0:0:0:
192,192,51180,1,0,0:0:0:0:
64,192,51248,1,0,0:0:0:0:
448,192,51248,1,0,0:0:0:0:
320,192,51294,1,0,0:0:0:0:
192,192,51340,1,0,0:0:0:0:
448,192,51386,1,0,0:0:0:0:
64,192,51386,1,0,0:0:0:0:
320,192,51523,1,0,0:0:0:0:
448,192,51523,1,0,0:0:0:0:
64,192,51523,1,0,0:0:0:0:
192,192,51523,1,0,0:0:0:0:
192,192,51661,1,0,0:0:0:0:
64,192,51661,1,0,0:0:0:0:
448,192,51661,1,0,0:0:0:0:
320,192,51661,1,0,0:0:0:0:
448,192,51798,1,0,0:0:0:0:
320,192,51798,1,0,0:0:0:0:
64,192,51935,1,0,0:0:0:0:
192,192,51935,1,0,0:0:0:0:
320,192,52004,1,0,0:0:0:0:
64,192,52073,1,0,0:0:0:0:
448,192,52073,1,0,0:0:0:0:
320,192,52118,1,0,0:0:0:0:
192,192,52164,1,0,0:0:0:0:
448,192,52210,1,0,0:0:0:0:
64,192,52210,1,0,0:0:0:0:
320,192,52279,1,0,0:0:0:0:
192,192,52279,1,0,0:0:0:0:
448,192,52347,1,0,0:0:0:0:
64,192,52347,1,0,0:0:0:0:
192,192,52393,1,0,0:0:0:0:
320,192,52439,1,0,0:0:0:0:
448,192,52485,1,0,0:0:0:0:
64,192,52485,1,0,0:0:0:0:
192,192,52622,1,0,0:0:0:0:
64,192,52622,1,0,0:0:0:0:
448,192,52622,1,0,0:0:0:0:
320,192,52622,1,0,0:0:0:0:
320,192,52759,1,0,0:0:0:0:
448,192,52759,1,0,0:0:0:0:
64,192,52759,1,0,0:0:0:0:
192,192,52759,1,0,0:0:0:0:
448,192,52897,1,0,0:0:0:0:
320,192,52897,1,0,0:0:0:0:
64,192,53034,1,0,0:0:0:0:
192,192,53034,1,0,0:0:0:0:
64,192,53103,1,0,0:0:0:0:
192,192,53103,1,0,0:0:0:0:
448,192,53172,1,0,0:0:0:0:
320,192,53172,1,0,0:0:0:0:
192,192,53206,1,0,0:0:0:0:
320,192,53240,1,0,0:0:0:0:
64,192,53309,1,0,0:0:0:0:
448,192,53309,1,0,0:0:0:0:
192,192,53378,1,0,0:0:0:0:
64,192,53378,1,0,0:0:0:0:
320,192,53446,1,0,0:0:0:0:
448,192,53446,1,0,0:0:0:0:
64,192,53515,1,0,0:0:0:0:
448,192,53515,1,0,0:0:0:0:
320,192,53584,1,0,0:0:0:0:
192,192,53584,1,0,0:0:0:0:
64,192,53629,1,0,0:0:0:0:
192,192,53675,1,0,0:0:0:0:
448,192,53721,1,0,0:0:0:0:
320,192,53721,1,0,0:0:0:0:
448,192,53790,1,0,0:0:0:0:
320,192,53790,1,0,0:0:0:0:
64,192,53858,1,0,0:0:0:0:
192,192,53858,1,0,0:0:0:0:
448,192,53904,1,0,0:0:0:0:
320,192,53950,1,0,0:0:0:0:
64,192,53996,1,0,0:0:0:0:
448,192,53996,1,0,0:0:0:0:
192,192,54064,1,0,0:0:0:0:
448,192,54133,1,0,0:0:0:0:
320,192,54133,1,0,0:0:0:0:
448,192,54202,1,0,0:0:0:0:
320,192,54202,1,0,0:0:0:0:
64,192,54270,1,0,0:0:0:0:
192,192,54270,1,0,0:0:0:0:
448,192,54339,1,0,0:0:0:0:
320,192,54339,1,0,0:0:0:0:
64,192,54408,1,0,0:0:0:0:
192,192,54408,1,0,0:0:0:0:
192,192,54476,1,0,0:0:0:0:
64,192,54476,1,0,0:0:0:0:
448,192,54545,1,0,0:0:0:0:
320,192,54545,1,0,0:0:0:0:
192,192,54614,1,0,0:0:0:0:
448,192,54682,1,0,0:0:0:0:
320,192,54682,1,0,0:0:0:0:
64,192,54682,1,0,0:0:0:0:
448,192,54820,1,0,0:0:0:0:
192,192,54820,1,0,0:0:0:0:
64,192,54820,1,0,0:0:0:0:
448,192,54957,1,0,0:0:0:0:
320,192,54957,1,0,0:0:0:0:
64,192,54957,1,0,0:0:0:0:
192,192,55003,1,0,0:0:0:0:
320,192,55049,1,0,0:0:0:0:
64,192,55095,1,0,0:0:0:0:
448,192,55095,1,0,0:0:0:0:
320,192,55163,1,0,0:0:0:0:
192,192,55163,1,0,0:0:0:0:
64,192,55232,128,0,55507:0:0:0:0:
448,192,55232,1,0,0:0:0:0:
448,192,55507,1,0,0:0:0:0:
320,192,55507,1,0,0:0:0:0:
64,192,55644,1,0,0:0:0:0:
448,192,55644,1,0,0:0:0:0:
320,192,55644,1,0,0:0:0:0:
192,192,55713,1,0,0:0:0:0:
64,192,55781,1,0,0:0:0:0:
448,192,55781,1,0,0:0:0:0:
320,192,55781,1,0,0:0:0:0:
192,192,55850,1,0,0:0:0:0:
320,192,55919,1,0,0:0:0:0:
64,192,55919,1,0,0:0:0:0:
64,192,56056,1,0,0:0:0:0:
448,192,56056,128,0,56193:0:0:0:0:
320,192,56193,1,0,0:0:0:0:
64,192,56331,128,0,56606:0:0:0:0:
192,192,56331,1,0,0:0:0:0:
320,192,56331,1,0,0:0:0:0:
192,192,56468,1,0,0:0:0:0:
320,192,56537,1,0,0:0:0:0:
192,192,56606,1,0,0:0:0:0:
320,192,56674,1,0,0:0:0:0:
192,192,56743,1,0,0:0:0:0:
448,192,56743,1,0,0:0:0:0:
64,192,56743,1,0,0:0:0:0:
320,192,56812,1,0,0:0:0:0:
448,192,56880,1,0,0:0:0:0:
192,192,56880,1,0,0:0:0:0:
64,192,56880,1,0,0:0:0:0:
320,192,57018,1,0,0:0:0:0:
448,192,57155,128,0,57224:0:0:0:0:
64,192,57155,1,0,0:0:0:0:
448,192,57292,128,0,57361:0:0:0:0:
64,192,57430,1,0,0:0:0:0:
320,192,57430,128,0,57498:0:0:0:0:
448,192,57430,1,0,0:0:0:0:
320,192,57567,1,0,0:0:0:0:
320,192,57636,1,0,0:0:0:0:
192,192,57704,128,0,57773:0:0:0:0:
64,192,57842,1,0,0:0:0:0:
448,192,57842,1,0,0:0:0:0:
320,192,57842,1,0,0:0:0:0:
192,192,57911,1,0,0:0:0:0:
64,192,57979,128,0,58117:0:0:0:0:
448,192,57979,1,0,0:0:0:0:
320,192,57979,1,0,0:0:0:0:
448,192,58117,1,0,0:0:0:0:
192,192,58117,1,0,0:0:0:0:
448,192,58254,128,0,58391:0:0:0:0:
64,192,58254,1,0,0:0:0:0:
64,192,58391,1,0,0:0:0:0:
320,192,58391,1,0,0:0:0:0:
192,192,58460,1,0,0:0:0:0:
320,192,58529,128,0,58941:0:0:0:0:
64,192,58529,1,0,0:0:0:0:
448,192,58529,1,0,0:0:0:0:
192,192,58666,1,0,0:0:0:0:
64,192,58666,1,0,0:0:0:0:
448,192,58803,1,0,0:0:0:0:
192,192,58803,1,0,0:0:0:0:
64,192,58803,1,0,0:0:0:0:
448,192,58941,1,0,0:0:0:0:
192,192,58941,1,0,0:0:0:0:
64,192,59009,1,0,0:0:0:0:
448,192,59078,1,0,0:0:0:0:
320,192,59078,1,0,0:0:0:0:
192,192,59078,1,0,0:0:0:0:
448,192,59215,1,0,0:0:0:0:
320,192,59215,1,0,0:0:0:0:
192,192,59215,1,0,0:0:0:0:
64,192,59353,1,0,0:0:0:0:
192,192,59353,1,0,0:0:0:0:
448,192,59353,1,0,0:0:0:0:
320,192,59422,1,0,0:0:0:0:
448,192,59490,1,0,0:0:0:0:
192,192,59490,1,0,0:0:0:0:
64,192,59490,1,0,0:0:0:0:
64,192,59628,1,0,0:0:0:0:
448,192,59628,1,0,0:0:0:0:
320,192,59673,1,0,0:0:0:0:
448,192,59719,1,0,0:0:0:0:
320,192,59765,1,0,0:0:0:0:
192,192,59811,1,0,0:0:0:0:
320,192,59856,1,0,0:0:0:0:
64,192,59902,1,0,0:0:0:0:
448,192,59902,1,0,0:0:0:0:
320,192,59948,1,0,0:0:0:0:
448,192,59994,1,0,0:0:0:0:
64,192,60040,1,0,0:0:0:0:
192,192,60040,1,0,0:0:0:0:
64,192,60108,1,0,0:0:0:0:
320,192,60177,1,0,0:0:0:0:
192,192,60177,1,0,0:0:0:0:
448,192,60246,1,0,0:0:0:0:
192,192,60314,1,0,0:0:0:0:
64,192,60314,1,0,0:0:0:0:
320,192,60349,1,0,0:0:0:0:
448,192,60383,1,0,0:0:0:0:
64,192,60452,1,0,0:0:0:0:
192,192,60452,1,0,0:0:0:0:
448,192,60486,1,0,0:0:0:0:
320,192,60520,1,0,0:0:0:0:
448,192,60589,1,0,0:0:0:0:
192,192,60589,1,0,0:0:0:0:
192,192,60658,1,0,0:0:0:0:
448,192,60726,1,0,0:0:0:0:
64,192,60726,1,0,0:0:0:0:
320,192,60772,1,0,0:0:0:0:
192,192,60818,1,0,0:0:0:0:
448,192,60864,1,0,0:0:0:0:
64,192,60864,1,0,0:0:0:0:
192,192,60910,1,0,0:0:0:0:
320,192,60955,1,0,0:0:0:0:
64,192,61001,1,0,0:0:0:0:
448,192,61001,1,0,0:0:0:0:
64,192,61070,1,0,0:0:0:0:
448,192,61139,1,0,0:0:0:0:
192,192,61139,1,0,0:0:0:0:
320,192,61184,1,0,0:0:0:0:
448,192,61230,1,0,0:0:0:0:
64,192,61276,1,0,0:0:0:0:
192,192,61276,1,0,0:0:0:0:
448,192,61322,1,0,0:0:0:0:
320,192,61367,1,0,0:0:0:0:
64,192,61413,1,0,0:0:0:0:
192,192,61413,1,0,0:0:0:0:
320,192,61482,1,0,0:0:0:0:
64,192,61551,1,0,0:0:0:0:
448,192,61551,1,0,0:0:0:0:
320,192,61619,1,0,0:0:0:0:
448,192,61688,1,0,0:0:0:0:
192,192,61688,1,0,0:0:0:0:
320,192,61757,1,0,0:0:0:0:
64,192,61825,1,0,0:0:0:0:
448,192,61825,1,0,0:0:0:0:
192,192,61871,1,0,0:0:0:0:
64,192,61917,1,0,0:0:0:0:
192,192,61963,1,0,0:0:0:0:
320,192,62008,1,0,0:0:0:0:
192,192,62054,1,0,0:0:0:0:
448,192,62100,1,0,0:0:0:0:
64,192,62100,1,0,0:0:0:0:
192,192,62146,1,0,0:0:0:0:
64,192,62192,1,0,0:0:0:0:
448,192,62237,1,0,0:0:0:0:
320,192,62237,1,0,0:0:0:0:
448,192,62306,1,0,0:0:0:0:
64,192,62375,1,0,0:0:0:0:
320,192,62375,1,0,0:0:0:0:
192,192,62421,1,0,0:0:0:0:
320,192,62466,1,0,0:0:0:0:
192,192,62512,1,0,0:0:0:0:
448,192,62512,1,0,0:0:0:0:
64,192,62581,1,0,0:0:0:0:
448,192,62650,1,0,0:0:0:0:
320,192,62650,1,0,0:0:0:0:
192,192,62684,1,0,0:0:0:0:
320,192,62718,1,0,0:0:0:0:
64,192,62718,1,0,0:0:0:0:
64,192,62787,1,0,0:0:0:0:
192,192,62787,1,0,0:0:0:0:
448,192,62856,1,0,0:0:0:0:
320,192,62856,1,0,0:0:0:0:
64,192,62924,1,0,0:0:0:0:
192,192,62924,1,0,0:0:0:0:
192,192,62993,1,0,0:0:0:0:
64,192,62993,1,0,0:0:0:0:
448,192,63062,1,0,0:0:0:0:
320,192,63062,1,0,0:0:0:0:
448,192,63130,1,0,0:0:0:0:
320,192,63130,1,0,0:0:0:0:
64,192,63199,1,0,0:0:0:0:
192,192,63199,1,0,0:0:0:0:
448,192,63336,1,0,0:0:0:0:
320,192,63336,1,0,0:0:0:0:
64,192,63474,1,0,0:0:0:0:
192,192,63474,1,0,0:0:0:0:
448,192,63474,1,0,0:0:0:0:
192,192,63542,1,0,0:0:0:0:
64,192,63542,1,0,0:0:0:0:
320,192,63611,1,0,0:0:0:0:
448,192,63611,1,0,0:0:0:0:
64,192,63611,1,0,0:0:0:0:
448,192,63680,1,0,0:0:0:0:
320,192,63680,1,0,0:0:0:0:
192,192,63748,1,0,0:0:0:0:
64,192,63748,1,0,0:0:0:0:
448,192,63748,1,0,0:0:0:0:
320,192,63886,1,0,0:0:0:0:
64,192,64023,1,0,0:0:0:0:
192,192,64023,1,0,0:0:0:0:
192,192,64161,1,0,0:0:0:0:
64,192,64161,1,0,0:0:0:0:
64,192,64229,1,0,0:0:0:0:
192,192,64229,1,0,0:0:0:0:
448,192,64298,1,0,0:0:0:0:
320,192,64298,1,0,0:0:0:0:
64,192,64435,1,0,0:0:0:0:
192,192,64435,1,0,0:0:0:0:
192,192,64573,1,0,0:0:0:0:
320,192,64573,1,0,0:0:0:0:
64,192,64573,1,0,0:0:0:0:
64,192,64710,1,0,0:0:0:0:
448,192,64710,1,0,0:0:0:0:
320,192,64710,1,0,0:0:0:0:
192,192,64779,1,0,0:0:0:0:
64,192,64779,1,0,0:0:0:0:
192,192,64847,128,0,64916:0:0:0:0:
320,192,64847,128,0,64985:0:0:0:0:
448,192,64847,128,0,65053:0:0:0:0:
192,192,65122,1,0,0:0:0:0:
448,192,65122,1,0,0:0:0:0:
320,192,65191,1,0,0:0:0:0:
64,192,65259,1,0,0:0:0:0:
192,192,65259,1,0,0:0:0:0:
192,192,65328,1,0,0:0:0:0:
64,192,65328,1,0,0:0:0:0:
448,192,65397,1,0,0:0:0:0:
320,192,65397,1,0,0:0:0:0:
64,192,65465,1,0,0:0:0:0:
192,192,65465,1,0,0:0:0:0:
448,192,65534,1,0,0:0:0:0:
320,192,65534,1,0,0:0:0:0:
192,192,65603,1,0,0:0:0:0:
448,192,65672,1,0,0:0:0:0:
64,192,65672,1,0,0:0:0:0:
448,192,65740,1,0,0:0:0:0:
320,192,65740,1,0,0:0:0:0:
64,192,65809,1,0,0:0:0:0:
192,192,65809,1,0,0:0:0:0:
448,192,65878,1,0,0:0:0:0:
64,192,65878,1,0,0:0:0:0:
320,192,65946,1,0,0:0:0:0:
192,192,65946,1,0,0:0:0:0:
448,192,66015,1,0,0:0:0:0:
320,192,66015,1,0,0:0:0:0:
64,192,66084,1,0,0:0:0:0:
192,192,66084,1,0,0:0:0:0:
448,192,66152,1,0,0:0:0:0:
64,192,66152,1,0,0:0:0:0:
320,192,66221,1,0,0:0:0:0:
192,192,66221,1,0,0:0:0:0:
448,192,66358,128,0,66496:0:0:0:0:
192,192,66496,128,0,66633:0:0:0:0:
448,192,66633,128,0,66770:0:0:0:0:
64,192,66770,1,0,0:0:0:0:
192,192,66770,1,0,0:0:0:0:
192,192,66839,1,0,0:0:0:0:
448,192,66908,1,0,0:0:0:0:
320,192,66908,1,0,0:0:0:0:
320,192,66976,1,0,0:0:0:0:
64,192,67045,1,0,0:0:0:0:
192,192,67045,1,0,0:0:0:0:
448,192,67114,1,0,0:0:0:0:
320,192,67114,1,0,0:0:0:0:
64,192,67182,1,0,0:0:0:0:
192,192,67182,1,0,0:0:0:0:
320,192,67320,1,0,0:0:0:0:
448,192,67320,1,0,0:0:0:0:
64,192,67320,1,0,0:0:0:0:
192,192,67320,1,0,0:0:0:0:
192,192,67388,1,0,0:0:0:0:
64,192,67388,1,0,0:0:0:0:
448,192,67388,1,0,0:0:0:0:
320,192,67388,1,0,0:0:0:0:
192,192,67524,1,0,0:0:0:0:
448,192,67524,1,0,0:0:0:0:
64,192,67524,1,0,0:0:0:0:
320,192,67524,1,0,0:0:0:0:
64,192,67663,1,0,0:0:0:0:
320,192,67663,1,0,0:0:0:0:
448,192,67663,1,0,0:0:0:0:
192,192,67663,1,0,0:0:0:0:
448,192,67732,1,0,0:0:0:0:
320,192,67732,1,0,0:0:0:0:
64,192,67732,1,0,0:0:0:0:
192,192,67732,1,0,0:0:0:0:
64,192,67869,1,0,0:0:0:0:
448,192,67869,1,0,0:0:0:0:
192,192,68006,1,0,0:0:0:0:
64,192,68006,1,0,0:0:0:0:
448,192,68052,1,0,0:0:0:0:
320,192,68098,1,0,0:0:0:0:
192,192,68144,1,0,0:0:0:0:
448,192,68144,1,0,0:0:0:0:
64,192,68189,1,0,0:0:0:0:
192,192,68235,1,0,0:0:0:0:
448,192,68281,1,0,0:0:0:0:
320,192,68281,1,0,0:0:0:0:
64,192,68418,1,0,0:0:0:0:
192,192,68418,1,0,0:0:0:0:
320,192,68464,1,0,0:0:0:0:
448,192,68510,1,0,0:0:0:0:
64,192,68556,1,0,0:0:0:0:
192,192,68556,1,0,0:0:0:0:
320,192,68624,1,0,0:0:0:0:
64,192,68693,1,0,0:0:0:0:
448,192,68693,1,0,0:0:0:0:
320,192,68739,1,0,0:0:0:0:
192,192,68785,1,0,0:0:0:0:
64,192,68830,1,0,0:0:0:0:
320,192,68830,1,0,0:0:0:0:
448,192,68899,1,0,0:0:0:0:
64,192,68968,1,0,0:0:0:0:
320,192,68968,1,0,0:0:0:0:
448,192,69037,1,0,0:0:0:0:
192,192,69105,1,0,0:0:0:0:
320,192,69105,1,0,0:0:0:0:
64,192,69174,1,0,0:0:0:0:
448,192,69243,1,0,0:0:0:0:
192,192,69243,1,0,0:0:0:0:
320,192,69311,1,0,0:0:0:0:
64,192,69380,1,0,0:0:0:0:
192,192,69380,1,0,0:0:0:0:
448,192,69447,1,0,0:0:0:0:
64,192,69517,1,0,0:0:0:0:
320,192,69517,1,0,0:0:0:0:
192,192,69586,1,0,0:0:0:0:
320,192,69655,1,0,0:0:0:0:
64,192,69655,1,0,0:0:0:0:
192,192,69723,1,0,0:0:0:0:
448,192,69792,1,0,0:0:0:0:
320,192,69792,1,0,0:0:0:0:
192,192,69861,1,0,0:0:0:0:
448,192,69929,1,0,0:0:0:0:
64,192,69929,1,0,0:0:0:0:
64,192,70067,1,0,0:0:0:0:
192,192,70067,1,0,0:0:0:0:
192,192,70135,1,0,0:0:0:0:
64,192,70135,1,0,0:0:0:0:
320,192,70204,1,0,0:0:0:0:
448,192,70204,1,0,0:0:0:0:
64,192,70273,1,0,0:0:0:0:
192,192,70273,1,0,0:0:0:0:
320,192,70341,1,0,0:0:0:0:
448,192,70341,1,0,0:0:0:0:
64,192,70410,1,0,0:0:0:0:
448,192,70479,1,0,0:0:0:0:
192,192,70479,1,0,0:0:0:0:
448,192,70616,1,0,0:0:0:0:
320,192,70616,1,0,0:0:0:0:
448,192,70685,1,0,0:0:0:0:
320,192,70685,1,0,0:0:0:0:
64,192,70754,1,0,0:0:0:0:
192,192,70754,1,0,0:0:0:0:
448,192,70822,1,0,0:0:0:0:
320,192,70822,1,0,0:0:0:0:
64,192,70891,1,0,0:0:0:0:
192,192,70891,1,0,0:0:0:0:
448,192,70960,1,0,0:0:0:0:
192,192,70960,1,0,0:0:0:0:
64,192,71028,1,0,0:0:0:0:
320,192,71028,1,0,0:0:0:0:
448,192,71097,1,0,0:0:0:0:
320,192,71097,1,0,0:0:0:0:
64,192,71166,1,0,0:0:0:0:
192,192,71166,1,0,0:0:0:0:
192,192,71234,1,0,0:0:0:0:
320,192,71303,1,0,0:0:0:0:
448,192,71303,1,0,0:0:0:0:
64,192,71303,1,0,0:0:0:0:
192,192,71372,1,0,0:0:0:0:
448,192,71440,1,0,0:0:0:0:
320,192,71440,1,0,0:0:0:0:
64,192,71440,1,0,0:0:0:0:
64,192,71578,1,0,0:0:0:0:
192,192,71578,1,0,0:0:0:0:
448,192,71578,1,0,0:0:0:0:
448,192,71715,1,0,0:0:0:0:
320,192,71715,1,0,0:0:0:0:
192,192,71715,1,0,0:0:0:0:
64,192,71784,1,0,0:0:0:0:
320,192,71784,1,0,0:0:0:0:
192,192,71852,1,0,0:0:0:0:
64,192,71852,1,0,0:0:0:0:
448,192,71921,1,0,0:0:0:0:
320,192,71921,1,0,0:0:0:0:
64,192,71990,1,0,0:0:0:0:
192,192,71990,1,0,0:0:0:0:
448,192,72024,1,0,0:0:0:0:
320,192,72057,1,0,0:0:0:0:
192,192,72093,1,0,0:0:0:0:
64,192,72127,1,0,0:0:0:0:
448,192,72162,1,0,0:0:0:0:
320,192,72196,1,0,0:0:0:0:
192,192,72230,1,0,0:0:0:0:
448,192,72265,1,0,0:0:0:0:
64,192,72265,1,0,0:0:0:0:
320,192,72333,1,0,0:0:0:0:
192,192,72333,1,0,0:0:0:0:
448,192,72402,1,0,0:0:0:0:
64,192,72402,1,0,0:0:0:0:
320,192,72448,1,0,0:0:0:0:
192,192,72493,1,0,0:0:0:0:
448,192,72539,1,0,0:0:0:0:
320,192,72539,1,0,0:0:0:0:
64,192,72585,1,0,0:0:0:0:
192,192,72631,1,0,0:0:0:0:
448,192,72677,1,0,0:0:0:0:
320,192,72677,1,0,0:0:0:0:
64,192,72814,1,0,0:0:0:0:
192,192,72814,1,0,0:0:0:0:
64,192,72883,1,0,0:0:0:0:
192,192,72883,1,0,0:0:0:0:
448,192,72951,1,0,0:0:0:0:
320,192,72951,1,0,0:0:0:0:
64,192,73020,1,0,0:0:0:0:
192,192,73020,1,0,0:0:0:0:
448,192,73089,1,0,0:0:0:0:
320,192,73089,1,0,0:0:0:0:
320,192,73157,1,0,0:0:0:0:
448,192,73226,1,0,0:0:0:0:
192,192,73226,1,0,0:0:0:0:
64,192,73295,128,0,73638:0:0:0:0:
192,192,73295,1,0,0:0:0:0:
448,192,73363,1,0,0:0:0:0:
320,192,73363,1,0,0:0:0:0:
192,192,73432,1,0,0:0:0:0:
448,192,73501,1,0,0:0:0:0:
192,192,73570,1,0,0:0:0:0:
448,192,73638,1,0,0:0:0:0:
320,192,73638,1,0,0:0:0:0:
192,192,73707,1,0,0:0:0:0:
448,192,73774,1,0,0:0:0:0:
64,192,73774,1,0,0:0:0:0:
64,192,73913,1,0,0:0:0:0:
192,192,73913,1,0,0:0:0:0:
64,192,73982,1,0,0:0:0:0:
192,192,73982,1,0,0:0:0:0:
448,192,74050,1,0,0:0:0:0:
320,192,74050,1,0,0:0:0:0:
192,192,74119,1,0,0:0:0:0:
448,192,74188,1,0,0:0:0:0:
64,192,74188,1,0,0:0:0:0:
320,192,74256,1,0,0:0:0:0:
64,192,74325,1,0,0:0:0:0:
192,192,74325,1,0,0:0:0:0:
448,192,74394,1,0,0:0:0:0:
320,192,74394,1,0,0:0:0:0:
64,192,74462,1,0,0:0:0:0:
192,192,74462,1,0,0:0:0:0:
192,192,74531,1,0,0:0:0:0:
64,192,74531,1,0,0:0:0:0:
320,192,74600,1,0,0:0:0:0:
448,192,74600,1,0,0:0:0:0:
192,192,74668,1,0,0:0:0:0:
448,192,74737,1,0,0:0:0:0:
64,192,74737,1,0,0:0:0:0:
320,192,74806,1,0,0:0:0:0:
64,192,74874,1,0,0:0:0:0:
192,192,74874,1,0,0:0:0:0:
448,192,74943,1,0,0:0:0:0:
320,192,74943,1,0,0:0:0:0:
64,192,75012,1,0,0:0:0:0:
192,192,75012,1,0,0:0:0:0:
192,192,75080,1,0,0:0:0:0:
64,192,75080,1,0,0:0:0:0:
448,192,75149,1,0,0:0:0:0:
320,192,75149,1,0,0:0:0:0:
192,192,75218,1,0,0:0:0:0:
448,192,75287,1,0,0:0:0:0:
320,192,75287,1,0,0:0:0:0:
448,192,75355,1,0,0:0:0:0:
320,192,75355,1,0,0:0:0:0:
64,192,75424,1,0,0:0:0:0:
192,192,75424,1,0,0:0:0:0:
192,192,75493,1,0,0:0:0:0:
320,192,75561,1,0,0:0:0:0:
448,192,75561,1,0,0:0:0:0:
64,192,75630,1,0,0:0:0:0:
448,192,75697,1,0,0:0:0:0:
320,192,75697,1,0,0:0:0:0:
192,192,75697,1,0,0:0:0:0:
320,192,75836,1,0,0:0:0:0:
192,192,75836,1,0,0:0:0:0:
64,192,75836,1,0,0:0:0:0:
192,192,75973,1,0,0:0:0:0:
320,192,75973,1,0,0:0:0:0:
448,192,75973,1,0,0:0:0:0:
448,192,76111,1,0,0:0:0:0:
64,192,76111,1,0,0:0:0:0:
192,192,76111,1,0,0:0:0:0:
320,192,76156,1,0,0:0:0:0:
448,192,76202,1,0,0:0:0:0:
192,192,76248,1,0,0:0:0:0:
320,192,76294,1,0,0:0:0:0:
448,192,76340,1,0,0:0:0:0:
64,192,76385,1,0,0:0:0:0:
320,192,76385,1,0,0:0:0:0:
192,192,76431,1,0,0:0:0:0:
64,192,76477,1,0,0:0:0:0:
320,192,76523,1,0,0:0:0:0:
192,192,76567,1,0,0:0:0:0:
64,192,76614,1,0,0:0:0:0:
448,192,76660,1,0,0:0:0:0:
320,192,76660,1,0,0:0:0:0:
192,192,76706,1,0,0:0:0:0:
320,192,76752,1,0,0:0:0:0:
192,192,76798,1,0,0:0:0:0:
64,192,76843,1,0,0:0:0:0:
448,192,76889,1,0,0:0:0:0:
64,192,76935,1,0,0:0:0:0:
320,192,76935,1,0,0:0:0:0:
192,192,76981,1,0,0:0:0:0:
448,192,77026,1,0,0:0:0:0:
320,192,77072,1,0,0:0:0:0:
64,192,77118,1,0,0:0:0:0:
192,192,77164,1,0,0:0:0:0:
448,192,77210,1,0,0:0:0:0:
320,192,77210,1,0,0:0:0:0:
64,192,77210,1,0,0:0:0:0:
192,192,77278,1,0,0:0:0:0:
64,192,77347,1,0,0:0:0:0:
320,192,77347,1,0,0:0:0:0:
448,192,77484,1,0,0:0:0:0:
320,192,77484,1,0,0:0:0:0:
192,192,77553,1,0,0:0:0:0:
448,192,77622,1,0,0:0:0:0:
64,192,77622,1,0,0:0:0:0:
320,192,77690,1,0,0:0:0:0:
448,192,77759,1,0,0:0:0:0:
192,192,77759,1,0,0:0:0:0:
320,192,77828,1,0,0:0:0:0:
64,192,77896,1,0,0:0:0:0:
192,192,77896,1,0,0:0:0:0:
448,192,77896,1,0,0:0:0:0:
320,192,77965,1,0,0:0:0:0:
448,192,78034,1,0,0:0:0:0:
192,192,78034,1,0,0:0:0:0:
64,192,78034,1,0,0:0:0:0:
320,192,78102,1,0,0:0:0:0:
64,192,78171,1,0,0:0:0:0:
192,192,78171,1,0,0:0:0:0:
448,192,78307,1,0,0:0:0:0:
320,192,78307,1,0,0:0:0:0:
192,192,78377,1,0,0:0:0:0:
320,192,78446,1,0,0:0:0:0:
64,192,78446,1,0,0:0:0:0:
448,192,78583,1,0,0:0:0:0:
320,192,78583,1,0,0:0:0:0:
192,192,78652,1,0,0:0:0:0:
448,192,78721,1,0,0:0:0:0:
64,192,78721,1,0,0:0:0:0:
448,192,78858,1,0,0:0:0:0:
320,192,78858,1,0,0:0:0:0:
192,192,78927,1,0,0:0:0:0:
320,192,78995,1,0,0:0:0:0:
64,192,78995,1,0,0:0:0:0:
448,192,79133,1,0,0:0:0:0:
320,192,79133,1,0,0:0:0:0:
192,192,79201,1,0,0:0:0:0:
320,192,79270,1,0,0:0:0:0:
64,192,79270,1,0,0:0:0:0:
64,192,79407,1,0,0:0:0:0:
448,192,79407,1,0,0:0:0:0:
320,192,79407,1,0,0:0:0:0:
192,192,79476,1,0,0:0:0:0:
320,192,79545,1,0,0:0:0:0:
64,192,79545,1,0,0:0:0:0:
448,192,79682,1,0,0:0:0:0:
320,192,79682,1,0,0:0:0:0:
192,192,79751,1,0,0:0:0:0:
320,192,79820,1,0,0:0:0:0:
64,192,79820,1,0,0:0:0:0:
448,192,79888,1,0,0:0:0:0:
64,192,79957,1,0,0:0:0:0:
192,192,79957,1,0,0:0:0:0:
320,192,80024,1,0,0:0:0:0:
448,192,80094,1,0,0:0:0:0:
64,192,80094,1,0,0:0:0:0:
192,192,80094,1,0,0:0:0:0:
448,192,80232,1,0,0:0:0:0:
64,192,80232,1,0,0:0:0:0:
192,192,80232,1,0,0:0:0:0:
320,192,80300,1,0,0:0:0:0:
448,192,80369,1,0,0:0:0:0:
64,192,80369,1,0,0:0:0:0:
192,192,80369,1,0,0:0:0:0:
320,192,80438,1,0,0:0:0:0:
448,192,80506,1,0,0:0:0:0:
192,192,80506,1,0,0:0:0:0:
320,192,80575,1,0,0:0:0:0:
64,192,80644,1,0,0:0:0:0:
448,192,80644,1,0,0:0:0:0:
320,192,80689,1,0,0:0:0:0:
192,192,80735,1,0,0:0:0:0:
448,192,80781,1,0,0:0:0:0:
320,192,80781,1,0,0:0:0:0:
192,192,80850,1,0,0:0:0:0:
448,192,80918,1,0,0:0:0:0:
64,192,80918,1,0,0:0:0:0:
320,192,80964,1,0,0:0:0:0:
192,192,81010,1,0,0:0:0:0:
448,192,81056,1,0,0:0:0:0:
320,192,81056,1,0,0:0:0:0:
192,192,81124,1,0,0:0:0:0:
448,192,81193,1,0,0:0:0:0:
64,192,81193,1,0,0:0:0:0:
320,192,81239,1,0,0:0:0:0:
192,192,81285,1,0,0:0:0:0:
448,192,81330,1,0,0:0:0:0:
320,192,81330,1,0,0:0:0:0:
192,192,81399,1,0,0:0:0:0:
448,192,81468,1,0,0:0:0:0:
64,192,81468,1,0,0:0:0:0:
320,192,81514,1,0,0:0:0:0:
192,192,81559,1,0,0:0:0:0:
320,192,81605,1,0,0:0:0:0:
448,192,81605,1,0,0:0:0:0:
192,192,81674,1,0,0:0:0:0:
64,192,81743,1,0,0:0:0:0:
448,192,81743,1,0,0:0:0:0:
320,192,81788,1,0,0:0:0:0:
192,192,81834,1,0,0:0:0:0:
448,192,81880,1,0,0:0:0:0:
320,192,81880,1,0,0:0:0:0:
192,192,81947,1,0,0:0:0:0:
64,192,82017,1,0,0:0:0:0:
448,192,82017,1,0,0:0:0:0:
320,192,82063,1,0,0:0:0:0:
192,192,82109,1,0,0:0:0:0:
448,192,82155,1,0,0:0:0:0:
320,192,82155,1,0,0:0:0:0:
448,192,82223,1,0,0:0:0:0:
64,192,82292,1,0,0:0:0:0:
192,192,82292,1,0,0:0:0:0:
320,192,82338,1,0,0:0:0:0:
448,192,82384,1,0,0:0:0:0:
64,192,82429,1,0,0:0:0:0:
192,192,82429,1,0,0:0:0:0:
320,192,82475,1,0,0:0:0:0:
448,192,82521,1,0,0:0:0:0:
64,192,82567,1,0,0:0:0:0:
192,192,82567,1,0,0:0:0:0:
64,192,82635,1,0,0:0:0:0:
448,192,82704,1,0,0:0:0:0:
192,192,82704,1,0,0:0:0:0:
320,192,82750,1,0,0:0:0:0:
448,192,82796,1,0,0:0:0:0:
64,192,82841,1,0,0:0:0:0:
320,192,82841,1,0,0:0:0:0:
192,192,82887,1,0,0:0:0:0:
64,192,82933,1,0,0:0:0:0:
448,192,82979,1,0,0:0:0:0:
320,192,82979,1,0,0:0:0:0:
64,192,83116,1,0,0:0:0:0:
448,192,83116,1,0,0:0:0:0:
192,192,83162,1,0,0:0:0:0:
320,192,83208,1,0,0:0:0:0:
64,192,83254,1,0,0:0:0:0:
192,192,83254,1,0,0:0:0:0:
448,192,83322,1,0,0:0:0:0:
64,192,83391,1,0,0:0:0:0:
192,192,83391,1,0,0:0:0:0:
448,192,83460,1,0,0:0:0:0:
320,192,83528,1,0,0:0:0:0:
192,192,83528,1,0,0:0:0:0:
64,192,83574,1,0,0:0:0:0:
320,192,83620,1,0,0:0:0:0:
448,192,83664,1,0,0:0:0:0:
192,192,83664,1,0,0:0:0:0:
64,192,83803,1,0,0:0:0:0:
320,192,83803,1,0,0:0:0:0:
192,192,83849,1,0,0:0:0:0:
64,192,83895,1,0,0:0:0:0:
448,192,83940,1,0,0:0:0:0:
192,192,83940,1,0,0:0:0:0:
320,192,83986,1,0,0:0:0:0:
448,192,84032,1,0,0:0:0:0:
64,192,84078,1,0,0:0:0:0:
192,192,84078,1,0,0:0:0:0:
64,192,84215,1,0,0:0:0:0:
448,192,84215,1,0,0:0:0:0:
320,192,84261,1,0,0:0:0:0:
192,192,84307,1,0,0:0:0:0:
448,192,84352,1,0,0:0:0:0:
320,192,84352,1,0,0:0:0:0:
64,192,84421,1,0,0:0:0:0:
192,192,84421,1,0,0:0:0:0:
448,192,84490,1,0,0:0:0:0:
320,192,84490,1,0,0:0:0:0:
320,192,84557,1,0,0:0:0:0:
64,192,84627,1,0,0:0:0:0:
192,192,84627,1,0,0:0:0:0:
448,192,84627,1,0,0:0:0:0:
64,192,84696,1,0,0:0:0:0:
192,192,84696,1,0,0:0:0:0:
320,192,84765,1,0,0:0:0:0:
448,192,84765,1,0,0:0:0:0:
192,192,84833,1,0,0:0:0:0:
64,192,84902,1,0,0:0:0:0:
448,192,84902,1,0,0:0:0:0:
320,192,84902,1,0,0:0:0:0:
192,192,84971,1,0,0:0:0:0:
64,192,84971,1,0,0:0:0:0:
320,192,85039,1,0,0:0:0:0:
448,192,85108,1,0,0:0:0:0:
64,192,85108,1,0,0:0:0:0:
192,192,85108,1,0,0:0:0:0:
448,192,85177,1,0,0:0:0:0:
320,192,85177,1,0,0:0:0:0:
192,192,85245,1,0,0:0:0:0:
448,192,85314,1,0,0:0:0:0:
320,192,85314,1,0,0:0:0:0:
64,192,85314,1,0,0:0:0:0:
64,192,85383,1,0,0:0:0:0:
192,192,85383,1,0,0:0:0:0:
320,192,85451,1,0,0:0:0:0:
192,192,85520,1,0,0:0:0:0:
448,192,85587,1,0,0:0:0:0:
320,192,85587,1,0,0:0:0:0:
192,192,85657,1,0,0:0:0:0:
320,192,85726,1,0,0:0:0:0:
64,192,85726,1,0,0:0:0:0:
192,192,85795,1,0,0:0:0:0:
448,192,85863,1,0,0:0:0:0:
320,192,85863,1,0,0:0:0:0:
192,192,85932,1,0,0:0:0:0:
64,192,86001,1,0,0:0:0:0:
448,192,86001,1,0,0:0:0:0:
320,192,86001,1,0,0:0:0:0:
192,192,86068,1,0,0:0:0:0:
64,192,86068,1,0,0:0:0:0:
320,192,86138,1,0,0:0:0:0:
64,192,86207,1,0,0:0:0:0:
192,192,86207,1,0,0:0:0:0:
448,192,86207,1,0,0:0:0:0:
448,192,86274,1,0,0:0:0:0:
320,192,86274,1,0,0:0:0:0:
192,192,86344,1,0,0:0:0:0:
64,192,86413,1,0,0:0:0:0:
448,192,86413,1,0,0:0:0:0:
320,192,86413,1,0,0:0:0:0:
192,192,86482,1,0,0:0:0:0:
64,192,86482,1,0,0:0:0:0:
320,192,86550,1,0,0:0:0:0:
64,192,86619,1,0,0:0:0:0:
192,192,86619,1,0,0:0:0:0:
448,192,86688,1,0,0:0:0:0:
320,192,86688,1,0,0:0:0:0:
192,192,86688,1,0,0:0:0:0:
448,192,86825,1,0,0:0:0:0:
64,192,86825,1,0,0:0:0:0:
192,192,86825,1,0,0:0:0:0:
320,192,86894,1,0,0:0:0:0:
448,192,86962,1,0,0:0:0:0:
64,192,86962,1,0,0:0:0:0:
192,192,86962,1,0,0:0:0:0:
320,192,87031,1,0,0:0:0:0:
64,192,87100,1,0,0:0:0:0:
192,192,87100,1,0,0:0:0:0:
64,192,87168,1,0,0:0:0:0:
448,192,87237,1,0,0:0:0:0:
320,192,87237,1,0,0:0:0:0:
448,192,87306,1,0,0:0:0:0:
192,192,87374,1,0,0:0:0:0:
320,192,87374,1,0,0:0:0:0:
192,192,87443,1,0,0:0:0:0:
320,192,87512,1,0,0:0:0:0:
64,192,87512,1,0,0:0:0:0:
320,192,87580,1,0,0:0:0:0:
192,192,87649,1,0,0:0:0:0:
64,192,87649,1,0,0:0:0:0:
448,192,87718,1,0,0:0:0:0:
192,192,87787,1,0,0:0:0:0:
320,192,87787,1,0,0:0:0:0:
192,192,87855,1,0,0:0:0:0:
64,192,87855,1,0,0:0:0:0:
448,192,87924,1,0,0:0:0:0:
320,192,87924,1,0,0:0:0:0:
192,192,87991,1,0,0:0:0:0:
64,192,88061,1,0,0:0:0:0:
320,192,88061,1,0,0:0:0:0:
64,192,88197,1,0,0:0:0:0:
192,192,88197,1,0,0:0:0:0:
320,192,88267,1,0,0:0:0:0:
192,192,88336,1,0,0:0:0:0:
448,192,88336,1,0,0:0:0:0:
64,192,88405,1,0,0:0:0:0:
448,192,88473,1,0,0:0:0:0:
320,192,88473,1,0,0:0:0:0:
448,192,88542,1,0,0:0:0:0:
64,192,88611,1,0,0:0:0:0:
320,192,88611,1,0,0:0:0:0:
192,192,88679,1,0,0:0:0:0:
448,192,88748,1,0,0:0:0:0:
320,192,88748,1,0,0:0:0:0:
64,192,88748,1,0,0:0:0:0:
64,192,88817,1,0,0:0:0:0:
192,192,88817,1,0,0:0:0:0:
320,192,88885,1,0,0:0:0:0:
192,192,88954,1,0,0:0:0:0:
448,192,89023,1,0,0:0:0:0:
64,192,89023,1,0,0:0:0:0:
320,192,89091,1,0,0:0:0:0:
192,192,89091,1,0,0:0:0:0:
448,192,89160,1,0,0:0:0:0:
64,192,89160,1,0,0:0:0:0:
448,192,89298,1,0,0:0:0:0:
320,192,89298,1,0,0:0:0:0:
192,192,89298,1,0,0:0:0:0:
64,192,89366,1,0,0:0:0:0:
320,192,89366,1,0,0:0:0:0:
192,192,89366,1,0,0:0:0:0:
448,192,89504,1,0,0:0:0:0:
320,192,89504,1,0,0:0:0:0:
192,192,89504,1,0,0:0:0:0:
64,192,89572,1,0,0:0:0:0:
192,192,89572,1,0,0:0:0:0:
320,192,89572,1,0,0:0:0:0:
448,192,89710,1,0,0:0:0:0:
320,192,89710,1,0,0:0:0:0:
192,192,89710,1,0,0:0:0:0:
64,192,89778,1,0,0:0:0:0:
192,192,89778,1,0,0:0:0:0:
320,192,89778,1,0,0:0:0:0:
448,192,89984,1,0,0:0:0:0:
192,192,89984,1,0,0:0:0:0:
64,192,89984,1,0,0:0:0:0:
320,192,90053,1,0,0:0:0:0:
448,192,90122,1,0,0:0:0:0:
64,192,90122,1,0,0:0:0:0:
192,192,90122,1,0,0:0:0:0:
320,192,90190,1,0,0:0:0:0:
448,192,90259,1,0,0:0:0:0:
64,192,90259,1,0,0:0:0:0:
192,192,90259,1,0,0:0:0:0:
320,192,90396,1,0,0:0:0:0:
192,192,90396,1,0,0:0:0:0:
64,192,90396,1,0,0:0:0:0:
448,192,90465,1,0,0:0:0:0:
320,192,90465,1,0,0:0:0:0:
192,192,90465,1,0,0:0:0:0:
320,192,90602,1,0,0:0:0:0:
64,192,90602,1,0,0:0:0:0:
192,192,90602,1,0,0:0:0:0:
448,192,90671,1,0,0:0:0:0:
320,192,90671,1,0,0:0:0:0:
192,192,90671,1,0,0:0:0:0:
64,192,90807,1,0,0:0:0:0:
192,192,90807,1,0,0:0:0:0:
320,192,90807,1,0,0:0:0:0:
448,192,90877,1,0,0:0:0:0:
320,192,90877,1,0,0:0:0:0:
192,192,90877,1,0,0:0:0:0:
64,192,91015,1,0,0:0:0:0:
192,192,91015,1,0,0:0:0:0:
448,192,91083,1,0,0:0:0:0:
320,192,91083,1,0,0:0:0:0:
64,192,91083,1,0,0:0:0:0:
448,192,91221,1,0,0:0:0:0:
64,192,91221,1,0,0:0:0:0:
192,192,91221,1,0,0:0:0:0:
192,192,91358,1,0,0:0:0:0:
64,192,91358,1,0,0:0:0:0:
320,192,91358,1,0,0:0:0:0:
64,192,91427,1,0,0:0:0:0:
320,192,91495,1,0,0:0:0:0:
192,192,91495,1,0,0:0:0:0:
320,192,91564,1,0,0:0:0:0:
64,192,91633,1,0,0:0:0:0:
448,192,91633,1,0,0:0:0:0:
192,192,91701,1,0,0:0:0:0:
448,192,91770,1,0,0:0:0:0:
64,192,91770,1,0,0:0:0:0:
448,192,91837,1,0,0:0:0:0:
64,192,91907,1,0,0:0:0:0:
320,192,91907,1,0,0:0:0:0:
192,192,91976,1,0,0:0:0:0:
448,192,92045,1,0,0:0:0:0:
320,192,92045,1,0,0:0:0:0:
192,192,92113,1,0,0:0:0:0:
320,192,92182,1,0,0:0:0:0:
64,192,92182,1,0,0:0:0:0:
448,192,92251,1,0,0:0:0:0:
64,192,92318,1,0,0:0:0:0:
320,192,92318,1,0,0:0:0:0:
192,192,92388,1,0,0:0:0:0:
448,192,92457,1,0,0:0:0:0:
64,192,92457,1,0,0:0:0:0:
320,192,92524,1,0,0:0:0:0:
448,192,92594,1,0,0:0:0:0:
192,192,92594,1,0,0:0:0:0:
192,192,92663,1,0,0:0:0:0:
64,192,92732,1,0,0:0:0:0:
320,192,92732,1,0,0:0:0:0:
64,192,92800,1,0,0:0:0:0:
448,192,92869,1,0,0:0:0:0:
192,192,92869,1,0,0:0:0:0:
448,192,92938,1,0,0:0:0:0:
192,192,93006,1,0,0:0:0:0:
320,192,93006,1,0,0:0:0:0:
192,192,93075,1,0,0:0:0:0:
448,192,93144,1,0,0:0:0:0:
320,192,93144,1,0,0:0:0:0:
64,192,93144,1,0,0:0:0:0:
448,192,93212,1,0,0:0:0:0:
320,192,93212,1,0,0:0:0:0:
64,192,93212,1,0,0:0:0:0:
448,192,93350,1,0,0:0:0:0:
192,192,93350,1,0,0:0:0:0:
64,192,93350,1,0,0:0:0:0:
64,192,93487,1,0,0:0:0:0:
320,192,93487,1,0,0:0:0:0:
448,192,93487,1,0,0:0:0:0:
192,192,93556,1,0,0:0:0:0:
320,192,93624,1,0,0:0:0:0:
448,192,93624,1,0,0:0:0:0:
64,192,93624,1,0,0:0:0:0:
192,192,93693,128,0,96990:0:0:0:0:
