osu file format v14

[General]
AudioFilename: audio.mp3
AudioLeadIn: 0
PreviewTime: 14243
Countdown: 0
SampleSet: Soft
StackLeniency: 0.2
Mode: 0
LetterboxInBreaks: 0
WidescreenStoryboard: 0

[Editor]
Bookmarks: 20494,26570,32646,38722,50874,63026,76697,88849,91887,92172,101001,114672
DistanceSpacing: 0.6
BeatDivisor: 4
GridSize: 32
TimelineZoom: 2.9

[Metadata]
Title:Hitogata band edition
TitleUnicode:ヒトガタ band edition
Artist:Nekojita Roro
ArtistUnicode:猫舌ロロ
Creator:Nuvolina
Version:Expert
Source:バーチャルさんはみている
Tags:Myxo Myxomatosis TtmnZk TT_mouse eINess Ujimatsu_Chiya Ujimatsu Chiya icekalt VIRTUALSAN-LOOKING Virtual_San_wa_Miteiru ヒメヒナ 田中ヒメ Tanaka Hime 鈴木ヒナ Suzuki Hina anime japanese j-rock
BeatmapID:2194422
BeatmapSetID:1050007

[Difficulty]
HPDrainRate:6
CircleSize:5
OverallDifficulty:9
ApproachRate:9.3
SliderMultiplier:1.6
SliderTickRate:1

[Events]
//Background and Video events
0,0,"hinahime.jpg",0,0
//Break Periods
//Storyboard Layer 0 (Background)
//Storyboard Layer 1 (Fail)
//Storyboard Layer 2 (Pass)
//Storyboard Layer 3 (Foreground)
//Storyboard Layer 4 (Overlay)
//Storyboard Sound Samples

[TimingPoints]
3093,508.474576271186,4,2,0,30,1,0
5126,517.241379310345,4,2,0,30,1,0
5643,535.714285714286,4,2,0,30,1,0
6178,545.454545454546,4,2,0,30,1,0
7268,526.315789473684,4,2,0,30,1,0
7794,571.428571428571,4,2,0,30,1,0
8936,606.060606060606,4,2,0,30,1,0
10148,618.556701030928,4,2,0,30,1,0
10766,705.882352941176,4,2,0,30,1,0
11471,759.493670886075,4,2,0,30,1,0
12230,736.196319018405,4,2,0,30,1,0
13704,705.882352941176,4,2,0,30,1,0
14409,379.746835443038,4,2,0,50,1,0
19725,-100,4,2,0,60,0,0
20484,-90.9090909090909,4,2,0,60,0,0
26560,-66.6666666666667,4,2,0,70,0,0
38712,-83.3333333333333,4,2,0,60,0,0
40231,-66.6666666666667,4,2,0,60,0,0
41181,-100,4,2,0,60,0,0
41750,-66.6666666666667,4,2,0,60,0,0
42130,-83.3333333333333,4,2,0,60,0,0
42510,-83.3333333333333,4,2,0,60,0,0
43459,-71.4285714285714,4,2,0,60,0,0
43839,-62.5,4,2,0,60,0,0
44788,-66.6666666666667,4,2,0,60,0,0
45168,-83.3333333333333,4,2,0,60,0,0
46307,-66.6666666666667,4,2,0,60,0,0
48206,-83.3333333333333,4,2,0,60,0,0
49535,-71.4285714285714,4,2,0,60,0,0
49915,-62.5,4,2,0,60,0,0
50864,-83.3333333333333,4,2,0,70,0,0
51814,-71.4285714285714,4,2,0,70,0,0
52193,-83.3333333333333,4,2,0,70,0,0
52573,-71.4285714285714,4,2,0,70,0,0
52953,-83.3333333333333,4,2,0,70,0,0
53333,-71.4285714285714,4,2,0,70,0,0
53902,-83.3333333333333,4,2,0,70,0,0
54852,-71.4285714285714,4,2,0,70,0,0
55231,-83.3333333333333,4,2,0,70,0,0
55611,-71.4285714285714,4,2,0,70,0,0
57320,-83.3333333333333,4,2,0,70,0,0
58079,-100,4,2,0,70,0,0
59029,-83.3333333333333,4,2,0,70,0,0
60927,-71.4285714285714,4,2,0,70,0,0
61307,-83.3333333333333,4,2,0,70,0,0
61687,-71.4285714285714,4,2,0,70,0,0
62067,-100,4,2,0,70,0,0
63016,-71.4285714285714,4,2,0,60,0,0
63301,-55.5555555555556,4,2,0,60,0,0
63776,-166.666666666667,4,2,0,60,0,0
64535,-71.4285714285714,4,2,0,60,0,0
64820,-55.5555555555556,4,2,0,60,0,0
65295,-166.666666666667,4,2,0,60,0,0
66434,-71.4285714285714,4,2,0,70,0,0
69092,-111.111111111111,4,3,0,50,0,0
70611,-66.6666666666667,4,3,0,60,0,0
72130,-47.6190476190476,4,3,0,70,0,0
73649,-47.6190476190476,4,3,0,80,0,0
75358,-37.037037037037,4,2,0,70,0,0
76687,-50,4,2,0,80,0,1
78586,-37.037037037037,4,2,0,80,0,1
79725,-50,4,2,0,80,0,1
81244,-125,4,2,0,80,0,1
81624,-37.037037037037,4,2,0,80,0,1
82763,-50,4,2,0,80,0,1
84662,-37.037037037037,4,2,0,80,0,1
85421,-50,4,2,0,80,0,1
87320,-125,4,2,0,80,0,1
88839,-250,4,2,0,70,0,0
89598,-166.666666666667,4,2,0,70,0,0
90358,-125,4,2,0,70,0,0
91117,-100,4,2,0,70,0,0
91877,-50,4,2,0,80,0,1
92257,-37.037037037037,4,2,0,80,0,1
93016,-50,4,2,0,80,0,1
93776,-37.037037037037,4,2,0,80,0,1
94535,-50,4,2,0,80,0,1
94915,-50,4,2,0,80,0,1
97953,-50,4,2,0,80,0,1
98333,-37.037037037037,4,2,0,80,0,1
99092,-50,4,2,0,80,0,1
99852,-37.037037037037,4,2,0,80,0,1
100611,-50,4,2,0,80,0,1
100991,-100,4,2,0,70,0,0
102510,-66.6666666666667,4,2,0,70,0,0
106687,-100,4,2,0,70,0,0
107067,-66.6666666666667,4,2,0,70,0,0
114662,-100,4,2,0,50,0,0

[Colours]
Combo1 : 191,191,191
Combo2 : 127,127,127

[HitObjects]
256,192,10766,12,0,13704,0:0:0:0:
90,221,14409,6,0,P|129:210|182:228,1,80,2|0,1:2|0:0,0:0:0:0:
228,246,14693,1,0,0:0:0:0:
249,235,14788,2,0,P|251:197|222:158,1,80,2|0,0:3|0:0,0:0:0:0:
162,150,15073,1,0,0:0:0:0:
136,143,15168,2,0,B|105:79|180:89|244:26,1,160,2|0,0:0|0:0,0:0:0:0:
230,38,15738,1,2,0:0:0:0:
349,145,16022,1,0,0:0:0:0:
349,145,16117,1,2,0:3:0:0:
392,48,16307,2,0,P|429:29|476:50,1,80,2|0,0:3|0:0,0:0:0:0:
511,143,16592,2,0,P|515:168|504:192,1,40,2|0,0:0|0:0,0:0:0:0:
443,233,16782,2,0,P|438:211|449:187,1,40,2|0,0:0|0:0,0:0:0:0:
512,262,16972,2,0,P|516:287|501:318,1,40,2|0,0:0|0:0,0:0:0:0:
421,375,17162,2,0,P|412:330|436:286,1,80,2|0,0:3|0:0,0:0:0:0:
360,252,17446,6,0,P|318:247|284:263,1,80,2|0,0:0|0:0,0:0:0:0:
247,329,17730,1,0,0:0:0:0:
223,327,17826,2,0,P|206:292|217:245,1,80,2|0,0:3|0:0,0:0:0:0:
241,178,18110,1,0,0:0:0:0:
235,144,18206,2,0,B|200:127|155:146|168:182|129:200|80:149,1,160,2|0,0:0|0:0,0:0:0:0:
48,97,18681,1,2,0:3:0:0:
10,103,18776,2,0,P|-6:142|18:184,1,80,2|0,0:0|0:0,0:0:0:0:
54,253,19059,1,0,0:0:0:0:
54,253,19154,1,2,0:3:0:0:
134,348,19345,2,0,P|173:361|220:348,1,80,2|0,0:3|0:0,0:0:0:0:
245,268,19629,1,0,0:0:0:0:
340,349,19724,1,2,1:2:0:0:
379,257,19820,2,0,L|371:199,1,40,2|0,1:2|0:0,0:0:0:0:
355,103,20009,1,8,1:2:0:0:
245,268,20200,1,8,1:2:0:0:
177,78,20390,1,8,1:2:0:0:
55,154,20484,6,0,P|38:198|72:245,1,88.000002685547,4|0,3:1|0:0,0:0:0:0:
169,192,20768,1,2,0:3:0:0:
195,209,20864,2,0,P|197:246|157:289,1,88.000002685547,10|0,1:2|0:0,0:0:0:0:
80,347,21149,1,2,0:3:0:0:
119,368,21244,2,0,B|179:381|179:381|206:341|240:332|286:351,1,176.000005371094,2|8,0:0|1:2,0:0:0:0:
419,372,21814,2,0,P|419:330|385:283,1,88.000002685547,2|0,0:0|0:0,0:0:0:0:
317,225,22097,1,2,0:3:0:0:
317,225,22192,1,2,0:0:0:0:
461,153,22383,2,0,P|469:198|442:237,1,88.000002685547,10|0,1:2|0:0,0:0:0:0:
359,134,22668,2,0,P|355:109|364:80,1,44.0000013427735,2|0,0:3|0:0,0:0:0:0:
451,28,22858,2,0,P|458:49|447:85,2,44.0000013427735,2|0|2,0:3|0:0|0:3,0:0:0:0:
350,10,23143,1,10,1:2:0:0:
286,64,23238,2,0,P|268:70|187:55,1,88.000002685547,2|0,0:3|0:0,0:0:0:0:
110,98,23522,6,0,P|97:139|137:195,1,88.000002685547,2|0,0:0|0:0,0:0:0:0:
262,226,23807,1,2,0:3:0:0:
307,212,23902,2,0,P|312:249|272:295,1,88.000002685547,10|0,1:2|0:0,0:0:0:0:
182,310,24187,1,2,0:3:0:0:
143,309,24282,2,0,B|90:295|90:295|114:233|58:170,1,176.000005371094,2|8,0:0|1:2,0:0:0:0:
18,91,24756,1,2,3:0:0:0:
41,63,24851,2,0,P|79:52|127:84,1,88.000002685547,4|8,3:0|1:2,0:0:0:0:
206,162,25136,1,2,3:0:0:0:
236,96,25231,1,4,3:0:0:0:
296,213,25421,2,0,L|291:266,3,44.0000013427735,8|0|0|0,1:2|3:0|3:0|3:0,0:0:0:0:
286,374,25801,1,10,1:2:0:0:
345,318,25896,1,10,1:2:0:0:
411,372,25991,1,10,1:2:0:0:
457,322,26086,1,12,1:2:0:0:
457,322,26560,6,0,P|479:268|441:210,1,120.000004577637,4|0,3:1|0:0,0:0:0:0:
343,226,26844,1,2,1:3:0:0:
293,281,26940,2,0,P|351:299|400:273,1,120.000004577637,10|0,1:2|0:0,0:0:0:0:
401,140,27225,1,2,1:3:0:0:
446,78,27320,2,0,B|358:34|358:121|270:73,1,180.000006866455,4|0,3:0|0:0,0:0:0:0:
179,21,27700,1,10,1:2:0:0:
179,21,27890,2,0,P|149:13|118:23,1,60.0000022888184,2|0,1:3|0:0,0:0:0:0:
38,126,28079,1,4,3:0:0:0:
103,163,28174,1,2,1:2:0:0:
180,122,28269,2,0,L|180:199,1,60.0000022888184,2|0,1:3|0:0,0:0:0:0:
201,119,28459,2,0,L|199:252,1,120.000004577637,10|0,1:2|0:0,0:0:0:0:
146,327,28744,1,2,1:2:0:0:
74,293,28839,1,6,3:0:0:0:
35,260,28934,1,2,1:2:0:0:
59,223,29029,1,0,0:0:0:0:
103,163,29124,1,2,1:2:0:0:
60,87,29219,1,8,1:2:0:0:
92,58,29314,1,2,1:2:0:0:
151,106,29409,2,0,P|181:111|211:106,1,60.0000022888184,2|0,1:3|0:0,0:0:0:0:
293,28,29598,6,0,P|350:19|414:54,1,120.000004577637,4|0,3:0|0:0,0:0:0:0:
359,143,29883,1,2,1:3:0:0:
288,110,29978,2,0,P|270:159|300:229,1,120.000004577637,10|0,1:2|0:0,0:0:0:0:
359,143,30263,1,2,1:3:0:0:
438,145,30358,2,0,P|463:180|383:265,1,180.000006866455,4|0,3:0|0:0,0:0:0:0:
291,220,30738,1,10,1:2:0:0:
229,259,30833,1,0,1:0:0:0:
179,206,30928,2,0,P|147:205|123:223,1,60.0000022888184,2|0,1:3|0:0,0:0:0:0:
56,314,31117,1,4,3:0:0:0:
56,314,31212,1,2,1:2:0:0:
56,314,31307,2,0,P|33:246|62:184,1,120.000004577637,2|10,1:3|1:2,0:0:0:0:
247,92,31687,1,0,1:0:0:0:
247,92,31782,1,2,1:2:0:0:
247,92,31877,2,0,P|257:121|245:157,1,60.0000022888184,6|0,3:0|0:0,0:0:0:0:
170,222,32067,2,0,P|160:193|172:157,1,60.0000022888184,2|2,1:2|0:3,0:0:0:0:
256,252,32257,1,8,1:2:0:0:
290,285,32352,1,8,1:2:0:0:
333,254,32446,1,8,1:2:0:0:
385,294,32541,1,8,1:2:0:0:
430,236,32636,6,0,L|409:107,1,120.000004577637,4|0,3:1|0:0,0:0:0:0:
325,51,32920,1,2,1:3:0:0:
279,116,33016,2,0,P|221:134|172:108,1,120.000004577637,10|0,1:2|0:0,0:0:0:0:
83,40,33301,1,2,1:3:0:0:
28,97,33396,2,0,B|54:150|54:150|-1:181|58:262,1,180.000006866455,4|0,3:0|0:0,0:0:0:0:
129,332,33776,1,10,1:2:0:0:
129,332,33966,2,0,L|188:333,1,60.0000022888184,2|0,1:3|0:0,0:0:0:0:
296,327,34155,1,4,3:0:0:0:
236,271,34250,1,2,1:2:0:0:
286,203,34345,2,0,L|285:117,1,60.0000022888184,2|0,1:3|0:0,0:0:0:0:
261,209,34535,2,0,L|260:80,1,120.000004577637,10|0,1:2|0:0,0:0:0:0:
323,26,34820,1,2,1:2:0:0:
405,47,34915,1,6,3:0:0:0:
442,79,35010,1,2,1:2:0:0:
410,148,35105,1,0,0:0:0:0:
445,210,35200,1,2,1:2:0:0:
414,279,35295,1,8,1:2:0:0:
359,259,35390,1,2,1:2:0:0:
288,260,35485,2,0,P|277:291|288:320,1,60.0000022888184,2|0,1:3|0:0,0:0:0:0:
248,230,35674,6,0,P|181:216|133:252,1,120.000004577637,4|0,3:0|0:0,0:0:0:0:
135,351,35959,1,2,1:3:0:0:
58,326,36054,2,0,P|33:263|58:206,1,120.000004577637,10|0,1:2|0:0,0:0:0:0:
135,148,36339,1,2,1:3:0:0:
118,70,36434,2,0,P|191:48|293:120,1,180.000006866455,4|0,3:0|0:0,0:0:0:0:
320,195,36814,1,10,1:2:0:0:
382,147,36909,1,0,1:0:0:0:
424,210,37004,2,0,P|433:240|423:271,1,60.0000022888184,2|0,1:3|0:0,0:0:0:0:
328,306,37193,1,4,3:0:0:0:
328,306,37288,1,2,1:2:0:0:
328,306,37383,2,0,P|305:238|334:176,1,120.000004577637,4|14,1:0|1:2,0:0:0:0:
187,49,37763,1,4,3:0:0:0:
187,49,37858,1,6,3:0:0:0:
187,49,37953,2,0,L|123:49,1,60.0000022888184,12|0,1:2|0:0,0:0:0:0:
39,114,38143,1,4,3:0:0:0:
93,171,38238,2,0,L|158:161,1,60.0000022888184,8|0,1:2|0:0,0:0:0:0:
257,192,38428,1,8,1:2:0:0:
217,262,38522,2,0,L|145:250,1,60.0000022888184,4|0,3:0|0:0,0:0:0:0:
93,171,38712,6,0,B|67:202|67:202|68:269,1,95.9999970703126,4|0,3:1|0:0,0:0:0:0:
191,348,39092,2,0,B|217:317|217:317|216:250,1,95.9999970703126,10|0,1:2|0:0,0:0:0:0:
190,118,39472,1,2,3:0:0:0:
149,256,39662,1,2,3:0:0:0:
287,215,39852,1,8,1:2:0:0:
290,218,40136,1,0,1:0:0:0:
290,218,40231,2,0,B|304:169|304:169|272:85,1,120.000004577637,6|0,3:0|0:0,0:0:0:0:
70,147,40611,1,10,1:2:0:0:
216,261,40801,2,0,B|209:313|209:313|252:380,1,120.000004577637,6|0,3:0|0:0,0:0:0:0:
245,369,41181,1,2,3:0:0:0:
316,279,41371,1,10,1:2:0:0:
448,317,41560,1,2,3:0:0:0:
448,317,41655,1,0,1:0:0:0:
448,317,41750,6,0,P|463:274|425:192,1,120.000004577637,6|0,3:0|0:0,0:0:0:0:
295,79,42130,2,0,P|273:118|317:179,1,95.9999970703126,10|0,1:2|0:0,0:0:0:0:
316,186,42415,1,0,1:0:0:0:
316,186,42510,1,2,3:0:0:0:
377,80,42700,1,2,3:0:0:0:
165,68,42890,1,10,1:2:0:0:
73,207,43079,2,0,P|59:152|76:112,1,95.9999970703126,6|0,3:0|0:0,0:0:0:0:
73,207,43459,2,0,P|59:152|85:102,1,111.999996582031,6|8,3:0|1:2,0:0:0:0:
73,207,43839,2,0,P|59:152|108:88,1,128,6|0,3:0|0:0,0:0:0:0:
218,56,44219,1,2,3:0:0:0:
266,105,44314,1,0,1:0:0:0:
315,55,44409,1,10,1:2:0:0:
384,117,44503,2,0,L|385:155,2,32,0|0|2,1:0|1:0|3:0,0:0:0:0:
418,56,44693,1,0,1:0:0:0:
492,83,44788,6,0,P|515:126|490:198,1,120.000004577637,4|0,3:1|0:0,0:0:0:0:
314,208,45168,2,0,P|305:253|339:301,1,95.9999970703126,10|0,1:2|0:0,0:0:0:0:
373,311,45453,1,0,1:0:0:0:
373,311,45548,1,2,3:0:0:0:
271,371,45738,1,2,3:0:0:0:
178,303,45927,2,0,P|150:236|193:165,1,143.999995605469,10|0,1:2|0:0,0:0:0:0:
254,169,46307,2,0,P|270:112|226:50,1,120.000004577637,6|0,3:0|0:0,0:0:0:0:
203,43,46592,1,0,1:0:0:0:
203,43,46687,1,8,1:2:0:0:
71,127,46877,2,0,L|71:203,1,60.0000022888184,6|0,3:0|0:0,0:0:0:0:
83,224,47067,1,2,0:0:0:0:
178,303,47257,1,2,3:0:0:0:
254,169,47446,1,10,1:2:0:0:
338,294,47636,1,2,3:0:0:0:
338,294,47731,1,0,1:0:0:0:
338,294,47826,6,0,P|384:327|458:287,1,120.000004577637,6|0,3:0|0:0,0:0:0:0:
456,138,48206,2,0,P|406:117|355:139,1,95.9999970703126,10|0,1:2|0:0,0:0:0:0:
337,162,48491,1,0,1:0:0:0:
337,162,48586,1,2,3:0:0:0:
249,219,48776,1,2,3:0:0:0:
163,90,48965,1,10,1:2:0:0:
269,26,49155,2,0,P|285:66|256:131,1,95.9999970703126,6|0,3:0|0:0,0:0:0:0:
269,26,49535,2,0,P|285:66|251:136,1,111.999996582031,6|8,3:0|1:2,0:0:0:0:
269,26,49915,2,0,P|285:66|245:141,1,128,6|0,3:0|0:0,0:0:0:0:
215,145,50200,1,0,1:0:0:0:
215,145,50295,1,0,3:0:0:0:
80,71,50484,1,8,1:2:0:0:
29,119,50579,1,8,1:2:0:0:
29,119,50864,5,4,3:1:0:0:
147,198,51054,1,2,3:0:0:0:
14,248,51244,2,0,P|-2:300|21:348,1,95.9999970703126,10|0,1:2|0:0,0:0:0:0:
89,307,51529,1,0,1:0:0:0:
89,307,51624,1,6,3:0:0:0:
174,356,51814,2,0,P|221:374|276:343,1,111.999996582031,2|8,3:0|1:2,0:0:0:0:
272,347,52194,2,0,P|302:341|331:348,1,47.9999985351563,2|0,3:0|0:0,0:0:0:0:
393,371,52383,1,4,3:0:0:0:
393,371,52478,1,0,1:0:0:0:
428,308,52573,2,0,P|421:279|438:241,1,55.9999982910157,2|0,3:0|0:0,0:0:0:0:
503,195,52763,2,0,P|509:221|489:266,1,55.9999982910157,10|0,1:2|0:0,0:0:0:0:
429,171,52953,2,0,P|381:162|336:184,1,95.9999970703126,6|0,3:0|0:0,0:0:0:0:
303,255,53238,1,0,1:0:0:0:
257,198,53333,2,0,L|255:127,1,55.9999982910157,6|0,3:0|0:0,0:0:0:0:
172,77,53522,2,0,L|175:135,1,55.9999982910157,10|0,1:2|0:0,0:0:0:0:
127,192,53712,2,0,L|150:256,1,55.9999982910157,2|0,3:0|0:0,0:0:0:0:
213,317,53902,5,4,3:0:0:0:
94,370,54092,1,2,3:0:0:0:
11,278,54282,2,0,P|-2:232|13:188,1,95.9999970703126,10|0,1:2|0:0,0:0:0:0:
69,149,54568,1,0,1:0:0:0:
69,149,54663,1,6,3:0:0:0:
188,207,54853,2,0,P|231:222|287:173,1,111.999996582031,2|8,3:0|1:2,0:0:0:0:
282,187,55231,2,0,P|277:165|283:131,1,47.9999985351563,6|0,3:0|0:0,0:0:0:0:
335,94,55422,1,2,3:0:0:0:
335,94,55517,1,0,1:0:0:0:
409,98,55612,2,0,P|418:68|403:34,1,55.9999982910157,6|0,3:0|0:0,0:0:0:0:
330,15,55801,2,0,P|300:6|266:21,1,55.9999982910157,10|0,1:2|0:0,0:0:0:0:
222,68,55991,2,0,P|192:77|158:62,1,55.9999982910157,6|0,3:0|0:0,0:0:0:0:
102,31,56181,1,0,0:0:0:0:
102,31,56276,1,0,1:0:0:0:
102,31,56371,1,2,3:0:0:0:
29,112,56561,1,10,1:2:0:0:
93,142,56656,1,0,1:0:0:0:
89,212,56750,1,2,3:0:0:0:
89,212,56940,6,0,P|63:253|93:315,1,111.999996582031,4|0,3:1|0:0,0:0:0:0:
162,347,57224,1,0,1:0:0:0:
162,347,57320,2,0,L|275:324,1,95.9999970703126,10|0,1:2|0:0,0:0:0:0:
331,255,57605,1,0,1:0:0:0:
331,255,57700,1,6,3:0:0:0:
233,177,57890,1,2,3:0:0:0:
293,73,58079,2,0,P|352:63|419:87,1,120,10|0,1:2|0:0,0:0:0:0:
426,114,58459,1,6,3:0:0:0:
329,188,58649,2,0,L|346:243,1,40,0|0,3:0|0:0,0:0:0:0:
406,256,58839,2,0,L|398:317,1,40,8|0,1:2|0:0,0:0:0:0:
357,348,59029,1,6,3:0:0:0:
253,282,59219,1,2,3:0:0:0:
253,282,59314,1,0,1:0:0:0:
253,282,59409,2,0,P|221:276|190:291,1,47.9999985351563,6|0,3:0|0:0,0:0:0:0:
131,351,59598,2,0,P|163:357|194:342,1,47.9999985351563,10|0,1:2|0:0,0:0:0:0:
99,279,59788,2,0,L|104:228,1,47.9999985351563,2|0,3:0|0:0,0:0:0:0:
147,162,59978,5,6,3:0:0:0:
53,77,60168,1,2,3:0:0:0:
1,208,60358,2,0,L|21:302,1,95.9999970703126,10|0,1:2|0:0,0:0:0:0:
38,376,60643,1,0,1:0:0:0:
38,376,60738,1,6,3:0:0:0:
165,272,60928,2,0,L|143:144,1,111.999996582031,2|8,3:0|1:2,0:0:0:0:
146,161,61308,2,0,L|144:102,1,47.9999985351563,6|0,3:0|0:0,0:0:0:0:
174,50,61497,1,2,3:0:0:0:
308,158,61687,2,0,P|320:187|304:220,1,55.9999982910157,6|0,3:0|0:0,0:0:0:0:
245,276,61877,2,0,P|233:247|249:214,1,55.9999982910157,10|0,1:2|0:0,0:0:0:0:
311,308,62067,2,0,P|358:338|439:332,1,120,4|0,3:1|0:0,0:0:0:0:
476,293,62446,1,0,1:0:0:0:
476,293,62541,1,8,1:2:0:0:
476,293,62636,1,8,1:2:0:0:
430,221,62731,1,4,3:0:0:0:
484,168,62826,1,4,3:0:0:0:
440,110,62921,1,4,3:0:0:0:
504,50,63016,6,0,P|448:22|379:42,1,111.999996582031,4|0,3:1|0:0,0:0:0:0:
269,205,63301,2,0,P|304:143|251:106,1,143.999995605469,6|0,3:0|0:0,0:0:0:0:
27,154,63586,1,4,3:0:0:0:
27,154,63681,1,0,1:0:0:0:
27,154,63776,2,0,P|66:156|107:112,1,95.9999970703126,10|2,1:2|0:0,0:0:0:0:
105,118,64535,2,0,P|77:152|6:141,1,111.999996582031,4|0,3:1|0:0,0:0:0:0:
92,343,64820,2,0,P|158:306|220:337,1,143.999995605469,6|0,3:0|0:0,0:0:0:0:
344,127,65105,1,4,3:0:0:0:
344,127,65200,1,0,1:0:0:0:
344,127,65295,2,0,P|315:155|307:187,1,71.9999978027344,10|0,1:2|0:0,0:0:0:0:
311,234,65674,1,10,1:2:0:0:
311,234,65769,1,8,1:2:0:0:
311,234,65864,1,4,3:0:0:0:
311,234,65959,1,4,3:0:0:0:
307,184,66054,6,0,P|317:150|344:127,1,71.9999978027344,4|0,3:0|0:0,0:0:0:0:
270,38,66434,2,0,L|153:47,1,111.999996582031,14|0,1:2|0:0,0:0:0:0:
94,98,66719,1,0,1:0:0:0:
94,98,66814,2,0,P|102:130|96:162,1,55.9999982910157,6|0,3:0|0:0,0:0:0:0:
63,227,67003,2,0,P|55:259|61:291,1,55.9999982910157,0|0,3:0|0:0,0:0:0:0:
80,356,67193,1,10,1:2:0:0:
227,266,67383,1,0,3:0:0:0:
227,266,67478,1,0,1:0:0:0:
227,266,67573,2,0,P|190:310|188:367,1,111.999996582031,6|4,1:2|3:0,0:0:0:0:
358,241,67953,1,2,1:3:0:0:
352,219,68016,1,0,1:0:0:0:
337,201,68079,1,0,1:0:0:0:
319,187,68143,1,0,3:0:0:0:
179,116,68333,1,2,1:2:0:0:
171,95,68396,1,0,3:0:0:0:
164,74,68459,1,0,3:0:0:0:
164,51,68522,1,0,3:0:0:0:
41,167,68712,2,0,P|24:226|61:292,1,111.999996582031,8|0,1:2|0:0,0:0:0:0:
320,307,69092,6,0,L|313:271,3,35.9999989013672,4|0|0|0,1:0|0:0|0:0|0:0,0:0:0:0:
139,360,69472,2,0,L|145:324,3,35.9999989013672,10|0|0|0,1:2|0:0|0:0|0:0,0:0:0:0:
227,256,69852,2,0,L|235:214,3,35.9999989013672,2|0|0|8,1:3|0:0|0:0|1:2,0:0:0:0:
390,260,70232,2,0,L|382:218,3,35.9999989013672,6|0|10|0,0:0|0:0|1:2|0:0,0:0:0:0:
181,132,70611,6,0,P|141:137|117:151,3,60.0000022888184,6|0|0|0,0:0|0:0|0:0|0:0,0:0:0:0:
388,94,70991,2,0,P|428:89|452:75,3,60.0000022888184,10|0|0|0,1:2|0:0|0:0|0:0,0:0:0:0:
180,188,71371,2,0,P|145:209|130:232,3,60.0000022888184,2|0|2|8,1:3|0:0|0:0|1:2,0:0:0:0:
388,39,71750,2,0,P|421:16|437:-6,3,60.0000022888184,6|0|10|0,0:0|0:0|1:2|0:0,0:0:0:0:
342,273,72130,6,0,L|351:364,3,83.9999974365235,6|0|0|0,0:0|0:0|0:0|0:0,0:0:0:0:
234,87,72510,2,0,L|225:-4,3,83.9999974365235,10|0|0|0,1:2|0:0|0:0|0:0,0:0:0:0:
371,270,72890,2,0,L|380:361,3,83.9999974365235,2|0|0|0,1:3|0:0|0:0|0:0,0:0:0:0:
206,91,73269,2,0,L|197:0,3,83.9999974365235,10|0|0|0,1:2|0:0|0:0|0:0,0:0:0:0:
86,202,73649,5,4,0:1:0:0:
107,256,73744,1,4,0:0:0:0:
155,289,73839,1,4,0:0:0:0:
213,296,73934,1,4,0:0:0:0:
271,286,74029,1,4,0:0:0:0:
303,237,74124,1,0,0:0:0:0:
255,120,74219,5,4,1:2:0:0:
205,165,74314,1,0,1:0:0:0:
198,231,74409,1,4,0:0:0:0:
213,296,74504,1,4,0:0:0:0:
252,350,74599,1,4,0:0:0:0:
318,361,74694,1,0,0:0:0:0:
411,273,74788,5,4,1:2:0:0:
346,233,74883,1,0,1:0:0:0:
272,214,74978,1,4,0:0:0:0:
198,231,75073,1,4,0:0:0:0:
146,289,75168,1,4,1:0:0:0:
370,212,75358,6,0,B|394:199|394:199|421:197|421:197|442:178|442:178|466:169,1,108.000000411987,2|0,0:3|0:0,0:0:0:0:
249,22,75548,2,0,B|252:47|252:47|242:65|242:65|247:92|247:92|234:131,1,108.000000411987,8|0,0:3|0:0,0:0:0:0:
29,256,75738,2,0,B|26:231|26:231|36:213|36:213|31:186|31:186|44:147,1,108.000000411987,2|0,0:0|0:0,0:0:0:0:
250,304,75927,2,0,B|226:312|226:312|206:331|206:331|179:333|179:333|154:346,1,108.000000411987,4|0,0:0|0:0,0:0:0:0:
132,104,76117,2,0,B|142:71|142:71|137:44|137:44|147:26|147:26|144:1,1,108.000000411987,4|0,0:3|0:0,0:0:0:0:
399,61,76307,2,0,B|364:73|364:73|356:107|356:107|307:111|307:111|282:140|282:140|220:141|220:141|192:183|192:183|153:189|153:189|133:212,1,324.000001235962,10|0,3:0|0:0,1:0:0:0:
56,248,76687,6,0,L|61:333,1,80,4|0,3:1|0:0,0:0:0:0:
202,361,76877,1,10,3:2:0:0:
198,297,76972,1,0,1:0:0:0:
193,233,77067,2,0,L|188:153,1,80,8|0,1:0|0:0,0:0:0:0:
311,79,77257,1,8,3:2:0:0:
372,96,77352,1,0,1:0:0:0:
433,116,77446,2,0,P|455:144|460:194,1,80,6|0,3:0|0:0,0:0:0:0:
333,260,77636,2,0,P|340:227|398:156,1,80,10|0,3:2|0:0,0:0:0:0:
451,81,77826,2,0,P|473:109|480:165,1,80,8|0,1:0|0:0,0:0:0:0:
299,272,78016,2,0,P|306:239|338:194,1,80,10|0,3:2|0:0,0:0:0:0:
472,47,78206,2,0,P|494:75|498:133,1,80,6|0,3:0|0:0,0:0:0:0:
265,284,78396,2,0,P|272:251|307:206,1,80,10|0,3:2|0:0,0:0:0:0:
138,14,78586,6,0,P|170:92|1:79,1,324.000001235962,12|0,1:0|0:0,0:0:0:0:
322,136,78965,2,0,P|268:200|200:39,1,324.000001235962,6|0,3:2|0:0,0:0:0:0:
253,18,79345,1,8,1:0:0:0:
421,161,79535,1,10,3:2:0:0:
418,228,79630,1,0,1:0:0:0:
411,294,79725,6,0,L|402:388,1,80,4|0,3:1|0:0,0:0:0:0:
274,336,79915,2,0,L|175:331,1,80,10|0,3:2|0:0,0:0:0:0:
250,211,80105,1,8,1:0:0:0:
255,148,80200,1,0,1:0:0:0:
260,85,80295,2,0,L|264:-10,1,80,10|0,3:2|0:0,0:0:0:0:
344,121,80484,2,0,P|371:138|397:194,1,80,6|0,3:0|0:0,0:0:0:0:
174,77,80674,2,0,P|147:60|121:12,1,80,10|0,3:2|0:0,0:0:0:0:
380,61,80864,2,0,P|407:44|431:-1,1,80,8|0,1:0|0:0,0:0:0:0:
139,138,81054,2,0,P|112:155|84:208,1,80,10|0,3:2|0:0,0:0:0:0:
6,355,81244,6,0,L|5:246,1,96,6|0,3:0|0:0,0:0:0:0:
5,259,81624,6,0,B|199:222|88:362|296:352,1,324.000001235962,12|0,1:0|0:0,0:0:0:0:
512,166,82003,2,0,B|318:128|429:268|221:258,1,324.000001235962,6|0,3:2|0:0,0:0:0:0:
61,56,82383,2,0,P|125:117|167:26,1,216.000000823975,12|10,1:0|3:2,0:0:0:0:
235,15,82668,1,8,1:0:0:0:
352,93,82763,6,0,L|350:172,1,80,4|0,3:1|0:0,0:0:0:0:
221,258,82953,1,10,3:2:0:0:
155,260,83048,1,0,1:0:0:0:
87,260,83143,2,0,L|7:260,1,80,8|0,1:0|0:0,0:0:0:0:
105,143,83333,1,8,3:2:0:0:
170,145,83428,1,0,1:0:0:0:
233,146,83522,2,0,L|313:152,1,80,6|0,3:0|0:0,0:0:0:0:
435,262,83712,2,0,L|355:256,1,80,10|0,3:2|0:0,0:0:0:0:
458,161,83902,2,0,P|465:121|443:76,1,80,8|0,1:0|0:0,0:0:0:0:
305,76,84092,2,0,P|298:116|320:161,1,80,10|0,3:2|0:0,0:0:0:0:
435,262,84282,2,0,P|447:300|424:352,1,80,6|0,3:0|0:0,0:0:0:0:
250,348,84472,2,0,P|238:310|261:258,1,80,10|0,3:2|0:0,0:0:0:0:
134,162,84662,6,0,P|166:84|-3:97,1,324.000001235962,12|0,1:0|0:0,0:0:0:0:
58,310,85041,2,0,P|-7:257|152:186,1,324.000001235962,6|0,3:2|0:0,0:0:0:0:
177,235,85421,1,8,1:0:0:0:
341,61,85611,1,10,3:2:0:0:
344,128,85706,1,0,1:0:0:0:
351,194,85801,6,0,P|359:233|344:283,1,80,4|0,3:1|0:0,0:0:0:0:
232,353,85991,2,0,P|224:314|239:264,1,80,10|0,3:2|0:0,0:0:0:0:
351,194,86181,1,8,1:0:0:0:
422,196,86276,1,0,1:0:0:0:
489,197,86371,2,0,L|477:101,1,80,10|0,3:2|0:0,0:0:0:0:
243,29,86560,2,0,L|186:97,1,80,6|0,3:0|0:0,0:0:0:0:
298,254,86750,2,0,L|355:188,1,80,10|0,3:2|0:0,0:0:0:0:
166,191,86940,2,0,P|139:208|115:253,1,80,8|0,1:0|0:0,0:0:0:0:
349,111,87130,2,0,P|376:94|404:41,1,80,14|0,3:2|0:0,0:0:0:0:
475,258,87320,6,0,L|476:354,1,96,4|0,3:1|0:0,0:0:0:0:
476,354,87700,5,8,1:0:0:0:
436,375,87795,1,4,3:0:0:0:
394,374,87890,1,0,3:0:0:0:
363,347,87984,1,8,3:0:0:0:
339,314,88079,1,4,3:1:0:0:
299,293,88174,1,0,0:0:0:0:
257,294,88269,1,0,1:0:0:0:
226,321,88363,1,8,1:0:0:0:
180,323,88459,1,6,1:3:0:0:
159,283,88554,1,0,1:0:0:0:
160,241,88649,1,8,1:0:0:0:
187,210,88743,1,0,1:0:0:0:
240,180,88839,6,0,P|269:180|264:124,1,96,4|0,3:1|3:0,0:0:0:0:
130,122,89598,2,0,P|103:153|50:90,1,143.999995605469,8|0,1:0|3:0,0:0:0:0:
304,190,90358,2,0,P|343:210|386:104,1,192,2|0,0:0|3:0,0:0:0:0:
390,107,91117,2,0,P|445:133|475:122,1,80,8|0,1:0|3:0,0:0:0:0:
448,298,91497,2,0,P|408:296|376:319,1,80,8|0,1:0|0:0,0:0:0:0:
208,364,91877,6,0,P|196:329|219:275,1,80,4|0,3:1|0:0,0:0:0:0:
288,161,92067,2,0,P|300:198|288:236,1,80,10|0,3:2|0:0,0:0:0:0:
69,352,92257,6,0,B|106:158|-34:269|36:33,1,324.000001235962,12|0,1:0|0:0,0:0:0:0:
243,57,92636,2,0,B|281:251|141:140|211:374,1,324.000001235962,6|0,3:2|0:0,0:0:0:0:
326,357,93016,1,8,1:0:0:0:
489,228,93206,1,10,3:2:0:0:
424,224,93301,1,0,1:0:0:0:
356,226,93396,6,0,L|262:217,1,80,4|0,3:0|0:0,0:0:0:0:
122,301,93586,2,0,L|221:296,1,80,10|0,3:2|0:0,0:0:0:0:
76,198,93776,6,0,P|0:107|156:62,1,324.000001235962,12|0,1:0|0:0,0:0:0:0:
212,180,94155,2,0,P|302:244|333:84,1,324.000001235962,6|0,3:2|0:0,0:0:0:0:
143,48,94535,2,0,L|144:144,1,80,8|0,1:0|0:0,0:0:0:0:
144,224,94725,1,10,1:2:0:0:
144,224,94820,1,8,1:0:0:0:
200,312,94915,6,0,P|136:353|1:249,1,240,4|0,3:1|0:0,0:0:0:0:
48,86,95295,2,0,L|64:179,1,80,8|0,1:0|0:0,0:0:0:0:
86,280,95484,1,10,3:2:0:0:
86,280,95579,1,0,1:0:0:0:
263,157,95674,2,0,P|306:233|225:377,1,240,6|0,3:0|0:0,0:0:0:0:
86,280,96054,2,0,L|171:280,1,80,8|0,1:0|0:0,0:0:0:0:
207,191,96244,1,10,3:2:0:0:
207,191,96339,1,0,1:0:0:0:
55,126,96434,2,0,P|127:32|315:73,1,320,6|8,3:0|1:0,0:0:0:0:
282,221,96909,1,0,1:0:0:0:
282,221,97003,2,0,P|309:213|339:162,1,80,10|0,3:2|0:0,0:0:0:0:
452,54,97193,2,0,P|424:61|393:115,1,80,6|0,3:0|0:0,0:0:0:0:
439,210,97383,2,0,P|466:202|501:149,1,80,8|0,3:2|0:0,0:0:0:0:
395,278,97573,2,0,P|367:285|338:336,1,80,8|0,1:0|0:0,0:0:0:0:
213,353,97763,1,10,3:2:0:0:
213,353,97858,1,0,1:0:0:0:
213,353,97953,6,0,L|126:330,1,80,4|0,3:1|0:0,0:0:0:0:
28,242,98143,2,0,L|113:232,1,80,10|0,3:2|0:0,0:0:0:0:
252,255,98333,6,0,P|377:272|350:98,1,324.000001235962,12|0,1:0|0:0,0:0:0:0:
235,48,98712,2,0,B|271:160|111:194|217:359,1,324.000001235962,6|0,3:2|0:0,0:0:0:0:
332,379,99092,1,8,1:0:0:0:
320,171,99282,1,14,3:2:0:0:
252,172,99377,1,4,1:0:0:0:
185,173,99472,6,0,L|92:173,1,80,4|0,3:0|0:0,0:0:0:0:
47,312,99662,2,0,L|136:312,1,80,8|0,1:0|0:0,0:0:0:0:
320,171,99852,6,0,P|396:262|240:307,1,324.000001235962,12|0,1:0|0:0,0:0:0:0:
61,216,100231,2,0,P|101:113|214:230,1,324.000001235962,6|0,3:2|0:0,0:0:0:0:
252,320,100611,2,0,L|331:320,1,80,6|0,3:0|0:0,0:0:0:0:
442,298,100801,1,8,1:0:0:0:
399,244,100896,1,8,1:2:0:0:
452,188,100991,5,0,3:0:0:0:
452,188,102510,6,0,P|474:134|436:76,1,120.000004577637,4|0,3:1|0:0,0:0:0:0:
330,109,102794,1,2,1:3:0:0:
264,66,102889,2,0,P|246:124|272:173,1,120.000004577637,10|0,1:2|0:0,0:0:0:0:
358,257,103175,1,2,1:3:0:0:
306,316,103270,2,0,B|183:316|183:316|226:257,1,180.000006866455,4|0,3:0|0:0,0:0:0:0:
345,179,103650,1,10,1:2:0:0:
345,179,103840,2,0,L|347:113,1,60.0000022888184,2|0,1:3|0:0,0:0:0:0:
270,12,104029,1,4,3:0:0:0:
213,68,104124,1,2,1:2:0:0:
135,25,104219,2,0,P|127:57|141:100,1,60.0000022888184,2|0,1:3|0:0,0:0:0:0:
120,29,104409,2,0,P|117:97|152:152,1,120.000004577637,10|0,1:2|0:0,0:0:0:0:
252,196,104694,1,2,1:2:0:0:
199,266,104789,1,6,3:0:0:0:
178,305,104884,1,2,1:2:0:0:
193,343,104979,1,0,0:0:0:0:
256,378,105074,1,2,1:2:0:0:
307,326,105169,1,8,1:2:0:0:
345,349,105264,1,2,1:2:0:0:
389,297,105359,2,0,P|418:289|449:297,1,60.0000022888184,2|0,1:3|0:0,0:0:0:0:
503,171,105548,6,0,P|515:112|480:48,1,120.000004577637,4|0,3:0|0:0,0:0:0:0:
378,75,105833,1,2,1:3:0:0:
310,115,105928,2,0,P|261:133|191:103,1,120.000004577637,10|0,1:2|0:0,0:0:0:0:
91,38,106213,1,2,1:3:0:0:
19,88,106308,2,0,P|3:127|61:266,1,180.000006866455,4|0,3:0|0:0,0:0:0:0:
156,209,106687,2,0,L|209:212,1,40,10|0,1:2|0:0,0:0:0:0:
256,254,106878,2,0,L|309:247,1,40,2|0,1:3|0:0,0:0:0:0:
397,214,107067,1,4,3:0:0:0:
397,214,107162,1,2,1:2:0:0:
397,214,107257,2,0,P|401:286|366:322,1,120.000004577637,2|10,1:3|1:2,0:0:0:0:
257,355,107637,1,0,1:0:0:0:
257,355,107732,1,2,1:2:0:0:
257,355,107827,2,0,L|191:354,1,60.0000022888184,6|0,3:0|0:0,0:0:0:0:
85,260,108017,2,0,L|144:268,1,60.0000022888184,2|2,1:2|0:3,0:0:0:0:
250,225,108207,1,12,1:0:0:0:
279,182,108302,1,8,1:2:0:0:
246,144,108396,1,8,1:2:0:0:
287,92,108491,1,8,1:2:0:0:
355,142,108586,6,0,P|406:163|473:120,1,120.000004577637,4|0,3:1|0:0,0:0:0:0:
341,21,108870,1,2,1:3:0:0:
287,92,108965,2,0,P|229:110|180:84,1,120.000004577637,10|0,1:2|0:0,0:0:0:0:
41,34,109251,1,2,1:3:0:0:
14,116,109346,2,0,B|55:158|55:158|18:207|44:281,1,180.000006866455,4|0,3:0|0:0,0:0:0:0:
142,348,109726,1,10,1:2:0:0:
142,348,109916,2,0,L|201:349,1,60.0000022888184,2|0,1:3|0:0,0:0:0:0:
302,330,110105,1,4,3:0:0:0:
375,359,110200,1,2,1:2:0:0:
441,316,110295,2,0,P|441:291|420:239,1,60.0000022888184,2|0,1:3|0:0,0:0:0:0:
458,314,110485,2,0,P|453:272|422:199,1,120.000004577637,10|0,1:2|0:0,0:0:0:0:
321,115,110770,1,2,1:2:0:0:
269,176,110865,1,6,3:0:0:0:
230,168,110960,1,2,1:2:0:0:
179,106,111055,1,0,0:0:0:0:
147,120,111150,1,2,1:2:0:0:
96,172,111245,1,8,1:2:0:0:
51,169,111340,1,2,1:2:0:0:
33,201,111435,2,0,L|55:262,1,60.0000022888184,2|0,1:3|0:0,0:0:0:0:
163,322,111624,6,0,P|230:336|278:300,1,120.000004577637,4|0,3:0|0:0,0:0:0:0:
342,190,111909,1,2,1:3:0:0:
414,152,112004,2,0,P|439:215|414:272,1,120.000004577637,10|0,1:2|0:0,0:0:0:0:
270,310,112289,1,2,1:3:0:0:
195,257,112384,2,0,B|174:198|174:198|218:180|210:79,1,180.000006866455,4|0,3:0|0:0,0:0:0:0:
106,25,112764,1,8,1:2:0:0:
39,79,112859,1,2,1:2:0:0:
91,137,112954,2,0,P|99:165|90:198,1,60.0000022888184,2|0,1:3|0:0,0:0:0:0:
29,324,113143,1,4,3:0:0:0:
29,324,113238,1,2,1:3:0:0:
29,324,113333,2,0,P|97:347|159:318,1,120.000004577637,10|6,1:2|1:2,0:0:0:0:
302,216,113713,1,4,3:0:0:0:
302,216,113808,1,6,3:0:0:0:
302,216,113903,2,0,L|366:216,1,60.0000022888184,10|0,1:2|0:0,0:0:0:0:
250,288,114093,1,4,3:0:0:0:
339,347,114188,2,0,L|404:337,1,60.0000022888184,10|0,1:2|0:0,0:0:0:0:
250,288,114378,1,8,1:2:0:0:
196,242,114472,1,8,1:2:0:0:
146,296,114567,1,8,1:2:0:0:
77,233,114662,6,0,P|67:191|94:154,1,80,2|0,0:0|0:0,0:0:0:0:
161,148,114946,1,0,0:0:0:0:
161,148,115041,2,0,P|163:110|134:71,1,80,2|0,0:3|0:0,0:0:0:0:
79,36,115326,1,0,0:0:0:0:
79,36,115421,2,0,B|133:7|133:7|234:28,1,160,2|0,0:0|0:0,0:0:0:0:
229,27,115991,1,2,0:0:0:0:
266,144,116276,1,0,0:0:0:0:
266,144,116371,2,0,L|265:202,1,40,2|0,0:3|0:0,0:0:0:0:
227,242,116560,2,0,P|268:251|313:237,1,80,2|0,0:3|0:0,0:0:0:0:
381,181,116845,2,0,P|398:178|436:192,1,40,2|0,0:0|0:0,0:0:0:0:
495,251,117035,2,0,P|478:254|440:240,1,40,2|0,0:0|0:0,0:0:0:0:
502,177,117225,2,0,P|505:160|491:122,1,40,2|0,0:0|0:0,0:0:0:0:
463,64,117415,1,2,0:3:0:0:
369,103,117510,1,4,1:0:0:0:
