osu file format v14

[General]
AudioFilename: audio.mp3
AudioLeadIn: 0
PreviewTime: -1
Countdown: 1
SampleSet: Soft
StackLeniency: 0.7
Mode: 0
LetterboxInBreaks: 0
WidescreenStoryboard: 0

[Editor]
DistanceSpacing: 0.8
BeatDivisor: 2
GridSize: 32
TimelineZoom: 1

[Metadata]
Title:Circles
TitleUnicode:Circles
Artist:Nekodex
ArtistUnicode:Nekodex
Creator:jasionnn
Version:Expert
Source:
Tags:
BeatmapID:1356443
BeatmapSetID:639581

[Difficulty]
HPDrainRate:4
CircleSize:5
OverallDifficulty:6
ApproachRate:9
SliderMultiplier:1.6
SliderTickRate:1

[Events]
//Background and Video events
//Break Periods
//Storyboard Layer 0 (Background)
//Storyboard Layer 1 (Fail)
//Storyboard Layer 2 (Pass)
//Storyboard Layer 3 (Foreground)
//Storyboard Sound Samples

[TimingPoints]
116,326.086956521739,4,2,0,100,1,0
85868,-50,4,2,0,100,0,0
86847,-100,4,2,0,100,0,0

[HitObjects]
147,125,2561,5,0,0:0:0:0:
147,125,2643,1,0,0:0:0:0:
147,125,2724,2,0,P|205:82|298:103,1,160
355,348,3376,2,0,B|248:336|248:336|193:285,1,160
371,124,4029,2,0,P|458:146|438:230,1,160
245,248,4681,2,0,B|203:242|185:198|185:198|149:172|106:193,1,160
256,64,5333,5,0,0:0:0:0:
448,192,5659,1,0,0:0:0:0:
256,352,5985,1,0,0:0:0:0:
64,224,6311,1,0,0:0:0:0:
320,0,6637,1,0,0:0:0:0:
416,320,6963,1,0,0:0:0:0:
64,352,7289,1,0,0:0:0:0:
0,32,7616,1,0,0:0:0:0:
256,0,7942,5,0,0:0:0:0:
352,32,8105,1,0,0:0:0:0:
416,96,8268,1,0,0:0:0:0:
448,192,8431,1,0,0:0:0:0:
416,288,8594,1,0,0:0:0:0:
352,352,8757,1,0,0:0:0:0:
256,384,8920,1,0,0:0:0:0:
160,352,9083,1,0,0:0:0:0:
96,288,9246,1,0,0:0:0:0:
64,192,9409,1,0,0:0:0:0:
96,96,9572,1,0,0:0:0:0:
160,32,9735,1,0,0:0:0:0:
256,0,9898,1,0,0:0:0:0:
352,32,10061,1,0,0:0:0:0:
416,96,10224,1,0,0:0:0:0:
448,192,10387,1,0,0:0:0:0:
416,288,10550,5,0,0:0:0:0:
389,325,10632,1,0,0:0:0:0:
352,354,10713,1,0,0:0:0:0:
308,370,10795,1,0,0:0:0:0:
261,377,10876,1,0,0:0:0:0:
215,368,10958,1,0,0:0:0:0:
174,345,11039,1,0,0:0:0:0:
144,309,11121,1,0,0:0:0:0:
124,267,11202,1,0,0:0:0:0:
117,221,11284,1,0,0:0:0:0:
125,175,11365,1,0,0:0:0:0:
147,134,11447,1,0,0:0:0:0:
180,100,11529,1,0,0:0:0:0:
221,78,11610,1,0,0:0:0:0:
267,70,11692,1,0,0:0:0:0:
313,76,11773,1,0,0:0:0:0:
356,94,11855,1,0,0:0:0:0:
352,320,12833,5,0,0:0:0:0:
288,320,12914,1,0,0:0:0:0:
224,320,12996,1,0,0:0:0:0:
160,320,13077,1,0,0:0:0:0:
96,320,13159,1,0,0:0:0:0:
192,64,13322,1,0,0:0:0:0:
384,160,13485,1,0,0:0:0:0:
288,352,13648,1,0,0:0:0:0:
96,224,13811,5,0,0:0:0:0:
224,64,13974,1,0,0:0:0:0:
384,192,14137,1,0,0:0:0:0:
256,352,14300,1,0,0:0:0:0:
96,192,14463,5,0,0:0:0:0:
256,64,14626,1,0,0:0:0:0:
384,224,14789,1,0,0:0:0:0:
224,352,14952,1,0,0:0:0:0:
96,160,15115,5,0,0:0:0:0:
288,64,15279,1,0,0:0:0:0:
384,256,15442,1,0,0:0:0:0:
192,352,15605,1,0,0:0:0:0:
352,96,15768,5,0,0:0:0:0:
128,320,15931,1,0,0:0:0:0:
256,64,16094,1,0,0:0:0:0:
224,352,16257,1,0,0:0:0:0:
160,64,16420,1,0,0:0:0:0:
320,352,16583,1,0,0:0:0:0:
64,96,16746,1,0,0:0:0:0:
416,320,16909,1,0,0:0:0:0:
128,32,17072,5,0,0:0:0:0:
352,384,17235,1,0,0:0:0:0:
448,160,17398,1,0,0:0:0:0:
96,352,17561,1,0,0:0:0:0:
256,32,17724,1,0,0:0:0:0:
416,352,17887,1,0,0:0:0:0:
64,160,18050,1,0,0:0:0:0:
416,64,18213,1,0,0:0:0:0:
256,384,18376,5,0,0:0:0:0:
256,0,18539,1,0,0:0:0:0:
384,352,18702,1,0,0:0:0:0:
96,64,18865,1,0,0:0:0:0:
448,224,19029,1,0,0:0:0:0:
64,224,19192,1,0,0:0:0:0:
416,64,19355,1,0,0:0:0:0:
128,352,19518,1,0,0:0:0:0:
416,64,19681,5,0,0:0:0:0:
64,224,19844,1,0,0:0:0:0:
448,224,20007,1,0,0:0:0:0:
96,64,20170,1,0,0:0:0:0:
384,352,20333,1,0,0:0:0:0:
256,0,20496,1,0,0:0:0:0:
256,384,20659,1,0,0:0:0:0:
416,64,20822,1,0,0:0:0:0:
128,352,20985,5,0,0:0:0:0:
416,64,21148,1,0,0:0:0:0:
128,352,21311,1,0,0:0:0:0:
416,64,21474,1,0,0:0:0:0:
64,224,21637,5,0,0:0:0:0:
480,192,21800,1,0,0:0:0:0:
64,224,21963,1,0,0:0:0:0:
480,192,22126,1,0,0:0:0:0:
96,96,22289,5,0,0:0:0:0:
448,320,22452,1,0,0:0:0:0:
96,96,22615,1,0,0:0:0:0:
448,320,22779,1,0,0:0:0:0:
192,0,22942,5,0,0:0:0:0:
320,384,23105,1,0,0:0:0:0:
416,96,23268,2,0,L|448:-2,1,80
96,256,23594,5,0,0:0:0:0:
416,96,23757,1,0,0:0:0:0:
256,352,23920,1,0,0:0:0:0:
256,0,24083,1,0,0:0:0:0:
416,256,24246,1,0,0:0:0:0:
96,96,24409,1,0,0:0:0:0:
416,96,24572,1,0,0:0:0:0:
96,224,24735,1,0,0:0:0:0:
320,352,24898,1,0,0:0:0:0:
224,32,25061,1,0,0:0:0:0:
416,224,25224,1,0,0:0:0:0:
96,96,25387,1,0,0:0:0:0:
448,64,25550,1,0,0:0:0:0:
96,224,25713,1,0,0:0:0:0:
448,192,25876,1,0,0:0:0:0:
96,352,26039,1,0,0:0:0:0:
448,320,26202,5,0,0:0:0:0:
96,224,26365,1,0,0:0:0:0:
512,288,26529,1,0,0:0:0:0:
160,192,26692,1,0,0:0:0:0:
448,256,26855,5,0,0:0:0:0:
96,160,27018,1,0,0:0:0:0:
512,224,27181,1,0,0:0:0:0:
160,128,27344,1,0,0:0:0:0:
480,128,27507,5,0,0:0:0:0:
224,224,27670,1,0,0:0:0:0:
416,32,27833,1,0,0:0:0:0:
320,320,27996,1,0,0:0:0:0:
288,0,28159,1,0,0:0:0:0:
160,320,28322,1,0,0:0:0:0:
160,0,28485,1,0,0:0:0:0:
32,288,28648,1,0,0:0:0:0:
320,96,28811,1,0,0:0:0:0:
0,192,28974,1,0,0:0:0:0:
288,224,29137,1,0,0:0:0:0:
32,64,29300,1,0,0:0:0:0:
352,128,29463,5,0,0:0:0:0:
32,224,29626,1,0,0:0:0:0:
320,256,29789,1,0,0:0:0:0:
64,96,29952,1,0,0:0:0:0:
352,96,30115,5,0,0:0:0:0:
96,288,30279,1,0,0:0:0:0:
224,32,30442,1,0,0:0:0:0:
224,352,30605,1,0,0:0:0:0:
64,96,30768,1,0,0:0:0:0:
352,160,30931,1,0,0:0:0:0:
64,224,31094,1,0,0:0:0:0:
288,64,31257,5,0,0:0:0:0:
320,64,31338,1,0,0:0:0:0:
352,64,31420,2,0,L|448:64,1,80
288,352,31746,2,0,L|160:352,1,80
416,128,32072,2,0,L|512:128,1,80
224,288,32398,2,0,L|128:288,1,80
320,32,32724,1,0,0:0:0:0:
343,304,33702,5,0,0:0:0:0:
312,335,33784,1,0,0:0:0:0:
273,356,33865,1,0,0:0:0:0:
231,368,33947,1,0,0:0:0:0:
186,369,34029,2,0,P|135:360|93:325,1,80
318,224,34355,2,0,P|366:206|401:157,1,80
153,63,34681,2,0,P|105:96|86:136,1,80
293,324,35007,2,0,P|338:295|350:264,1,80
241,84,35333,2,0,P|281:38|328:30,1,80
480,250,35659,2,0,P|436:301|396:301,1,80
224,224,35985,5,0,0:0:0:0:
352,64,36148,1,0,0:0:0:0:
512,192,36311,1,0,0:0:0:0:
384,352,36474,1,0,0:0:0:0:
192,64,36637,5,0,0:0:0:0:
448,256,36800,1,0,0:0:0:0:
160,160,36963,1,0,0:0:0:0:
480,160,37126,1,0,0:0:0:0:
192,256,37289,1,0,0:0:0:0:
448,64,37452,1,0,0:0:0:0:
320,320,37615,1,0,0:0:0:0:
320,0,37779,1,0,0:0:0:0:
416,288,37942,1,0,0:0:0:0:
192,64,38105,1,0,0:0:0:0:
256,352,38268,1,0,0:0:0:0:
64,128,38431,1,0,0:0:0:0:
352,256,38594,1,0,0:0:0:0:
32,256,38757,1,0,0:0:0:0:
320,128,38920,1,0,0:0:0:0:
128,352,39083,1,0,0:0:0:0:
416,224,39246,5,0,0:0:0:0:
256,352,39409,1,0,0:0:0:0:
288,64,39572,1,0,0:0:0:0:
96,224,39735,1,0,0:0:0:0:
352,160,39898,1,0,0:0:0:0:
96,224,40061,1,0,0:0:0:0:
352,288,40224,1,0,0:0:0:0:
96,224,40387,1,0,0:0:0:0:
288,384,40550,1,0,0:0:0:0:
96,224,40713,1,0,0:0:0:0:
352,288,40876,1,0,0:0:0:0:
160,128,41039,1,0,0:0:0:0:
416,224,41202,1,0,0:0:0:0:
160,288,41365,1,0,0:0:0:0:
320,64,41529,1,0,0:0:0:0:
320,352,41692,1,0,0:0:0:0:
150,111,41855,6,0,P|162:60|235:17,1,80
449,239,42181,2,0,P|425:303|396:322,1,80
120,182,42507,6,0,P|132:131|205:88,1,80
480,168,42833,2,0,P|456:232|427:251,1,80
191,235,43159,5,0,0:0:0:0:
159,205,43240,1,0,0:0:0:0:
141,163,43322,1,0,0:0:0:0:
133,117,43404,1,0,0:0:0:0:
141,72,43485,1,0,0:0:0:0:
318,33,43648,1,0,0:0:0:0:
452,158,43811,1,0,0:0:0:0:
465,201,43893,1,0,0:0:0:0:
466,247,43974,1,0,0:0:0:0:
460,291,44056,1,0,0:0:0:0:
437,330,44137,1,0,0:0:0:0:
160,320,44463,5,0,0:0:0:0:
96,64,44626,1,0,0:0:0:0:
320,288,44789,1,0,0:0:0:0:
160,96,44952,1,0,0:0:0:0:
448,224,45115,1,0,0:0:0:0:
224,96,45279,1,0,0:0:0:0:
512,96,45442,1,0,0:0:0:0:
256,64,45605,1,0,0:0:0:0:
448,256,45768,1,0,0:0:0:0:
352,0,45931,1,0,0:0:0:0:
288,288,46094,1,0,0:0:0:0:
192,32,46257,1,0,0:0:0:0:
128,320,46420,1,0,0:0:0:0:
32,64,46583,5,0,0:0:0:0:
60,31,46664,1,0,0:0:0:0:
98,8,46746,1,0,0:0:0:0:
221,95,46909,2,0,P|256:119|324:114,1,80
449,269,47235,2,0,L|364:337,1,80
123,228,47561,2,0,L|41:161,1,80
266,44,47887,2,0,L|377:22,1,80
472,189,48213,2,0,P|460:230|410:269,1,80
289,313,48539,1,0,0:0:0:0:
243,314,48621,1,0,0:0:0:0:
202,296,48702,1,0,0:0:0:0:
146,127,48865,2,0,P|175:91|235:74,1,80
375,114,49192,1,0,0:0:0:0:
402,149,49273,1,0,0:0:0:0:
410,194,49355,1,0,0:0:0:0:
404,240,49436,2,0,P|394:266|353:289,1,40
96,256,49681,5,0,0:0:0:0:
256,32,49844,1,0,0:0:0:0:
480,192,50007,1,0,0:0:0:0:
320,384,50170,1,0,0:0:0:0:
96,192,50333,5,0,0:0:0:0:
320,32,50496,1,0,0:0:0:0:
480,256,50659,1,0,0:0:0:0:
256,384,50822,1,0,0:0:0:0:
96,128,50985,5,0,0:0:0:0:
384,32,51148,1,0,0:0:0:0:
480,320,51311,1,0,0:0:0:0:
192,384,51474,1,0,0:0:0:0:
416,128,51637,5,0,0:0:0:0:
96,192,51800,1,0,0:0:0:0:
384,320,51963,1,0,0:0:0:0:
256,32,52126,1,0,0:0:0:0:
511,189,52289,5,0,0:0:0:0:
512,234,52371,1,0,0:0:0:0:
504,279,52452,1,0,0:0:0:0:
480,320,52534,1,0,0:0:0:0:
445,347,52615,1,0,0:0:0:0:
402,360,52697,1,0,0:0:0:0:
356,363,52779,1,0,0:0:0:0:
311,353,52860,1,0,0:0:0:0:
274,325,52942,1,0,0:0:0:0:
251,284,53023,1,0,0:0:0:0:
240,240,53105,1,0,0:0:0:0:
243,194,53186,1,0,0:0:0:0:
262,154,53268,1,0,0:0:0:0:
294,124,53349,1,0,0:0:0:0:
337,111,53431,1,0,0:0:0:0:
381,117,53512,1,0,0:0:0:0:
420,191,53594,5,0,0:0:0:0:
409,236,53675,1,0,0:0:0:0:
389,277,53757,1,0,0:0:0:0:
359,310,53838,1,0,0:0:0:0:
322,335,53920,1,0,0:0:0:0:
278,347,54001,1,0,0:0:0:0:
233,349,54083,1,0,0:0:0:0:
188,340,54164,1,0,0:0:0:0:
150,316,54246,1,0,0:0:0:0:
128,64,54898,5,0,0:0:0:0:
448,96,55061,1,0,0:0:0:0:
64,192,55224,1,0,0:0:0:0:
384,224,55387,1,0,0:0:0:0:
0,320,55550,1,0,0:0:0:0:
320,352,55713,1,0,0:0:0:0:
96,128,55876,1,0,0:0:0:0:
416,160,56039,1,0,0:0:0:0:
192,288,56202,5,0,0:0:0:0:
128,64,56365,1,0,0:0:0:0:
352,0,56529,1,0,0:0:0:0:
416,224,56692,1,0,0:0:0:0:
128,320,56855,5,0,0:0:0:0:
384,64,57018,1,0,0:0:0:0:
384,320,57181,5,0,0:0:0:0:
128,64,57344,1,0,0:0:0:0:
181,268,57507,2,0,P|270:294|341:257,1,160
226,133,57996,2,0,P|192:78|252:34,1,80
416,160,58485,1,0,0:0:0:0:
256,352,58648,1,0,0:0:0:0:
32,256,58811,1,0,0:0:0:0:
288,64,58974,1,0,0:0:0:0:
192,352,59137,1,0,0:0:0:0:
96,64,59300,1,0,0:0:0:0:
352,224,59463,1,0,0:0:0:0:
32,256,59626,1,0,0:0:0:0:
288,64,59789,6,0,L|416:96,1,80
448,288,60115,1,0,0:0:0:0:
192,64,60279,1,0,0:0:0:0:
256,384,60442,1,0,0:0:0:0:
416,96,60605,1,0,0:0:0:0:
96,288,60768,1,0,0:0:0:0:
256,0,60931,1,0,0:0:0:0:
192,320,61094,1,0,0:0:0:0:
160,0,61257,1,0,0:0:0:0:
288,288,61420,1,0,0:0:0:0:
64,32,61583,1,0,0:0:0:0:
352,224,61746,1,0,0:0:0:0:
0,96,61909,1,0,0:0:0:0:
384,128,62072,5,0,0:0:0:0:
416,320,62235,1,0,0:0:0:0:
256,384,62398,1,0,0:0:0:0:
194,94,62561,1,0,0:0:0:0:
77,264,62724,2,0,B|210:336|210:336|301:309|301:309|383:207,1,320
392,165,63539,1,0,0:0:0:0:
301,183,63702,2,0,L|217:196,1,80
320,64,64029,1,0,0:0:0:0:
224,64,64355,1,0,0:0:0:0:
128,64,64518,2,0,B|256:64|256:64|224:64|224:64|328:64,1,260
224,300,65333,5,0,0:0:0:0:
350,47,65496,1,0,0:0:0:0:
460,257,65659,1,0,0:0:0:0:
152,182,65822,1,0,0:0:0:0:
319,369,65985,1,0,0:0:0:0:
210,64,66148,1,0,0:0:0:0:
474,143,66311,1,0,0:0:0:0:
197,286,66474,1,0,0:0:0:0:
392,21,66637,5,0,0:0:0:0:
107,167,66800,1,0,0:0:0:0:
429,186,66963,1,0,0:0:0:0:
127,73,67126,1,0,0:0:0:0:
327,303,67289,1,0,0:0:0:0:
30,267,67452,1,0,0:0:0:0:
304,85,67615,1,0,0:0:0:0:
211,360,67779,1,0,0:0:0:0:
164,107,67942,5,0,0:0:0:0:
367,309,68105,1,0,0:0:0:0:
386,14,68268,1,0,0:0:0:0:
202,298,68431,1,0,0:0:0:0:
468,113,68594,1,0,0:0:0:0:
198,208,68757,1,0,0:0:0:0:
396,334,68920,1,0,0:0:0:0:
84,322,69083,1,0,0:0:0:0:
368,136,69246,5,0,0:0:0:0:
37,61,69409,1,0,0:0:0:0:
283,269,69572,1,0,0:0:0:0:
212,7,69735,1,0,0:0:0:0:
146,288,69898,1,0,0:0:0:0:
414,59,70061,1,0,0:0:0:0:
391,349,70224,1,0,0:0:0:0:
194,100,70387,1,0,0:0:0:0:
460,192,70550,5,0,0:0:0:0:
175,260,70713,1,0,0:0:0:0:
339,43,70876,1,0,0:0:0:0:
77,182,71039,1,0,0:0:0:0:
373,279,71202,1,0,0:0:0:0:
187,29,71365,1,0,0:0:0:0:
239,327,71529,1,0,0:0:0:0:
333,40,71692,1,0,0:0:0:0:
480,276,71855,1,0,0:0:0:0:
214,160,72018,1,0,0:0:0:0:
509,158,72181,1,0,0:0:0:0:
223,271,72344,1,0,0:0:0:0:
484,343,72507,1,0,0:0:0:0:
351,85,72670,1,0,0:0:0:0:
334,363,72833,1,0,0:0:0:0:
492,102,72996,1,0,0:0:0:0:
201,121,73159,6,0,L|126:172,1,80
323,316,73485,2,0,L|413:256,1,80
367,80,73811,1,0,0:0:0:0:
336,53,73893,1,0,0:0:0:0:
297,37,73974,1,0,0:0:0:0:
256,34,74056,1,0,0:0:0:0:
216,44,74137,2,0,P|190:56|156:84,1,40
117,206,74300,1,0,0:0:0:0:
132,248,74382,1,0,0:0:0:0:
161,284,74463,1,0,0:0:0:0:
195,316,74545,1,0,0:0:0:0:
238,335,74626,2,0,P|286:342|310:335,1,40
357,252,74789,5,0,0:0:0:0:
354,213,74871,1,0,0:0:0:0:
364,171,74952,1,0,0:0:0:0:
386,135,75034,1,0,0:0:0:0:
420,115,75115,2,0,P|470:118|459:210,1,160
283,318,75768,1,0,0:0:0:0:
173,78,75931,1,0,0:0:0:0:
144,326,76094,1,0,0:0:0:0:
114,64,76257,1,0,0:0:0:0:
283,261,76420,1,0,0:0:0:0:
60,202,76583,1,0,0:0:0:0:
301,101,76746,1,0,0:0:0:0:
44,62,76909,1,0,0:0:0:0:
201,245,77072,1,0,0:0:0:0:
206,54,77235,1,0,0:0:0:0:
267,303,77398,1,0,0:0:0:0:
408,109,77561,1,0,0:0:0:0:
215,242,77724,1,0,0:0:0:0:
460,184,77887,1,0,0:0:0:0:
215,153,78050,1,0,0:0:0:0:
442,271,78213,1,0,0:0:0:0:
284,95,78376,1,0,0:0:0:0:
273,325,78539,1,0,0:0:0:0:
139,120,78702,1,0,0:0:0:0:
371,222,78865,1,0,0:0:0:0:
124,237,79029,1,0,0:0:0:0:
323,141,79192,1,0,0:0:0:0:
95,46,79355,1,0,0:0:0:0:
251,236,79518,1,0,0:0:0:0:
263,30,79681,1,0,0:0:0:0:
469,185,79844,1,0,0:0:0:0:
218,198,80007,1,0,0:0:0:0:
418,54,80170,1,0,0:0:0:0:
343,316,80333,1,0,0:0:0:0:
206,64,80496,1,0,0:0:0:0:
159,332,80659,2,0,P|109:360|70:308,1,80
215,145,80985,5,0,0:0:0:0:
37,234,81148,1,0,0:0:0:0:
188,53,81311,1,0,0:0:0:0:
14,148,81474,1,0,0:0:0:0:
215,145,81637,1,0,0:0:0:0:
116,319,81800,1,0,0:0:0:0:
290,201,81963,1,0,0:0:0:0:
280,384,82126,1,0,0:0:0:0:
394,213,82289,1,0,0:0:0:0:
193,246,82452,1,0,0:0:0:0:
350,123,82615,1,0,0:0:0:0:
167,40,82779,1,0,0:0:0:0:
288,219,82942,1,0,0:0:0:0:
318,27,83105,1,0,0:0:0:0:
434,187,83268,1,0,0:0:0:0:
227,127,83431,1,0,0:0:0:0:
423,68,83594,1,0,0:0:0:0:
334,286,83757,1,0,0:0:0:0:
270,74,83920,1,0,0:0:0:0:
441,254,84083,1,0,0:0:0:0:
208,231,84246,1,0,0:0:0:0:
361,89,84409,1,0,0:0:0:0:
400,70,84490,1,0,0:0:0:0:
443,71,84572,1,0,0:0:0:0:
488,240,84735,2,0,P|467:295|432:310,1,80
347,265,85061,2,0,P|305:263|287:273,1,40
266,322,85224,1,0,0:0:0:0:
296,353,85306,1,0,0:0:0:0:
337,368,85387,1,0,0:0:0:0:
381,370,85469,1,0,0:0:0:0:
424,359,85550,2,0,P|467:316|470:267,1,80
334,130,85876,6,0,L|191:162,2,106.666666666667
402,123,86202,1,0,0:0:0:0:
434,287,86851,1,0,0:0:0:0:
247,240,87503,1,0,0:0:0:0:
267,59,88155,1,0,0:0:0:0:
91,198,88807,1,0,0:0:0:0:
366,160,89459,1,0,0:0:0:0:
219,343,90111,1,0,0:0:0:0:
193,121,90764,1,0,0:0:0:0:
414,284,91416,1,0,0:0:0:0:
426,163,91742,1,0,0:0:0:0:
306,167,92068,1,0,0:0:0:0:
304,81,92394,1,0,0:0:0:0:
193,126,92720,1,0,0:0:0:0:
242,261,93046,1,0,0:0:0:0:
378,204,93372,1,0,0:0:0:0:
157,198,93698,1,0,0:0:0:0:
218,78,94025,5,0,0:0:0:0:
327,259,94188,1,0,0:0:0:0:
441,139,94351,1,0,0:0:0:0:
228,223,94514,1,0,0:0:0:0:
371,45,94677,1,0,0:0:0:0:
279,349,94840,1,0,0:0:0:0:
176,95,95003,1,0,0:0:0:0:
471,277,95166,1,0,0:0:0:0:
328,97,95329,1,0,0:0:0:0:
288,78,95410,1,0,0:0:0:0:
245,71,95492,1,0,0:0:0:0:
200,66,95573,1,0,0:0:0:0:
156,76,95655,1,0,0:0:0:0:
117,92,95736,1,0,0:0:0:0:
87,120,95818,1,0,0:0:0:0:
65,155,95900,1,0,0:0:0:0:
54,196,95981,2,0,P|55:253|131:324,1,160
414,284,96637,5,0,0:0:0:0:
137,179,96800,1,0,0:0:0:0:
415,79,96963,1,0,0:0:0:0:
187,316,97126,1,0,0:0:0:0:
287,36,97289,1,0,0:0:0:0:
96,275,97452,1,0,0:0:0:0:
158,21,97615,1,0,0:0:0:0:
260,313,97779,1,0,0:0:0:0:
435,86,97942,1,0,0:0:0:0:
158,210,98105,1,0,0:0:0:0:
424,257,98268,1,0,0:0:0:0:
199,66,98431,1,0,0:0:0:0:
293,342,98594,1,0,0:0:0:0:
68,199,98757,1,0,0:0:0:0:
404,167,98920,1,0,0:0:0:0:
99,45,99083,1,0,0:0:0:0:
146,335,99246,1,0,0:0:0:0:
248,43,99409,1,0,0:0:0:0:
374,338,99572,1,0,0:0:0:0:
484,43,99735,1,0,0:0:0:0:
139,226,99898,1,0,0:0:0:0:
466,244,100061,1,0,0:0:0:0:
174,41,100224,1,0,0:0:0:0:
345,343,100387,1,0,0:0:0:0:
59,163,100550,1,0,0:0:0:0:
380,97,100713,1,0,0:0:0:0:
161,333,100876,1,0,0:0:0:0:
117,39,101039,1,0,0:0:0:0:
323,340,101202,1,0,0:0:0:0:
186,61,101365,1,0,0:0:0:0:
469,301,101529,1,0,0:0:0:0:
261,56,101692,1,0,0:0:0:0:
493,177,101855,5,0,0:0:0:0:
216,246,102018,1,0,0:0:0:0:
424,326,102181,1,0,0:0:0:0:
219,103,102344,1,0,0:0:0:0:
432,109,102507,1,0,0:0:0:0:
222,332,102670,1,0,0:0:0:0:
325,65,102833,1,0,0:0:0:0:
434,280,102996,1,0,0:0:0:0:
129,142,103159,1,0,0:0:0:0:
397,53,103322,1,0,0:0:0:0:
308,307,103485,1,0,0:0:0:0:
329,27,103648,1,0,0:0:0:0:
184,269,103811,1,0,0:0:0:0:
158,37,103974,1,0,0:0:0:0:
404,211,104137,1,0,0:0:0:0:
126,212,104300,1,0,0:0:0:0:
373,341,104463,1,0,0:0:0:0:
190,106,104626,1,0,0:0:0:0:
232,337,104789,1,0,0:0:0:0:
328,26,104952,1,0,0:0:0:0:
156,279,105115,1,0,0:0:0:0:
92,27,105279,1,0,0:0:0:0:
320,277,105442,1,0,0:0:0:0:
136,77,105605,1,0,0:0:0:0:
437,88,105768,1,0,0:0:0:0:
202,318,105931,1,0,0:0:0:0:
250,20,106094,1,0,0:0:0:0:
363,308,106257,1,0,0:0:0:0:
82,89,106420,1,0,0:0:0:0:
352,55,106583,1,0,0:0:0:0:
209,244,106746,2,0,P|205:325|234:357,1,80
442,122,107072,5,0,0:0:0:0:
125,234,107235,1,0,0:0:0:0:
345,16,107398,1,0,0:0:0:0:
281,330,107561,1,0,0:0:0:0:
239,18,107724,1,0,0:0:0:0:
128,339,107887,1,0,0:0:0:0:
101,57,108050,1,0,0:0:0:0:
352,261,108213,1,0,0:0:0:0:
447,24,108376,1,0,0:0:0:0:
174,231,108539,1,0,0:0:0:0:
498,153,108702,1,0,0:0:0:0:
215,34,108865,1,0,0:0:0:0:
310,345,109029,1,0,0:0:0:0:
78,84,109192,1,0,0:0:0:0:
111,365,109355,1,0,0:0:0:0:
326,70,109518,1,0,0:0:0:0:
477,350,109681,5,0,0:0:0:0:
193,148,109844,1,0,0:0:0:0:
503,178,110007,1,0,0:0:0:0:
209,337,110170,1,0,0:0:0:0:
372,27,110333,1,0,0:0:0:0:
352,343,110496,1,0,0:0:0:0:
220,31,110659,1,0,0:0:0:0:
124,339,110822,1,0,0:0:0:0:
334,125,110985,1,0,0:0:0:0:
271,357,111148,1,0,0:0:0:0:
416,234,111311,1,0,0:0:0:0:
433,350,111474,1,0,0:0:0:0:
278,180,111637,1,0,0:0:0:0:
355,352,111800,1,0,0:0:0:0:
179,272,111963,2,0,P|141:213|136:184,1,80
378,84,112289,1,0,0:0:0:0:
245,320,112452,1,0,0:0:0:0:
141,60,112615,1,0,0:0:0:0:
397,267,112779,1,0,0:0:0:0:
459,20,112942,1,0,0:0:0:0:
296,284,113105,1,0,0:0:0:0:
254,15,113268,1,0,0:0:0:0:
437,232,113431,1,0,0:0:0:0:
157,210,113594,1,0,0:0:0:0:
374,130,113757,1,0,0:0:0:0:
129,108,113920,1,0,0:0:0:0:
360,207,114083,1,0,0:0:0:0:
88,337,114246,1,0,0:0:0:0:
241,121,114409,1,0,0:0:0:0:
278,369,114572,1,0,0:0:0:0:
363,137,114735,1,0,0:0:0:0:
356,97,114817,1,0,0:0:0:0:
333,61,114898,2,0,P|300:34|257:22,1,80
113,283,115224,2,0,P|163:318|212:321,1,80
221,65,115550,2,0,P|149:63|122:72,1,80
328,319,115876,2,0,P|399:314|452:269,1,80
392,116,116855,5,0,0:0:0:0:
363,83,116936,1,0,0:0:0:0:
325,61,117018,1,0,0:0:0:0:
282,48,117099,1,0,0:0:0:0:
237,45,117181,1,0,0:0:0:0:
193,50,117262,1,0,0:0:0:0:
154,66,117344,1,0,0:0:0:0:
120,90,117425,1,0,0:0:0:0:
125,322,117507,1,0,0:0:0:0:
357,160,117670,1,0,0:0:0:0:
118,195,117833,1,0,0:0:0:0:
343,309,117996,1,0,0:0:0:0:
214,85,118159,1,0,0:0:0:0:
446,134,118322,1,0,0:0:0:0:
260,210,118485,1,0,0:0:0:0:
459,293,118648,1,0,0:0:0:0:
245,331,118811,1,0,0:0:0:0:
376,143,118974,1,0,0:0:0:0:
139,141,119137,1,0,0:0:0:0:
314,26,119300,1,0,0:0:0:0:
327,250,119463,1,0,0:0:0:0:
135,206,119626,1,0,0:0:0:0:
324,81,119789,1,0,0:0:0:0:
255,300,119952,1,0,0:0:0:0:
169,80,120115,1,0,0:0:0:0:
397,131,120279,1,0,0:0:0:0:
168,243,120442,1,0,0:0:0:0:
432,191,120605,1,0,0:0:0:0:
172,128,120768,1,0,0:0:0:0:
375,256,120931,1,0,0:0:0:0:
234,66,121094,1,0,0:0:0:0:
86,222,121257,1,0,0:0:0:0:
332,128,121420,1,0,0:0:0:0:
131,55,121583,1,0,0:0:0:0:
317,199,121746,1,0,0:0:0:0:
94,141,121909,1,0,0:0:0:0:
357,47,122072,1,0,0:0:0:0:
232,262,122235,1,0,0:0:0:0:
435,145,122398,1,0,0:0:0:0:
204,88,122561,1,0,0:0:0:0:
372,272,122724,1,0,0:0:0:0:
142,252,122887,1,0,0:0:0:0:
326,80,123050,1,0,0:0:0:0:
293,317,123213,1,0,0:0:0:0:
490,249,123376,1,0,0:0:0:0:
225,199,123539,1,0,0:0:0:0:
351,6,123702,1,0,0:0:0:0:
383,230,123865,1,0,0:0:0:0:
161,134,124029,1,0,0:0:0:0:
393,97,124192,1,0,0:0:0:0:
245,256,124355,1,0,0:0:0:0:
434,331,124518,1,0,0:0:0:0:
319,123,124681,1,0,0:0:0:0:
180,328,124844,1,0,0:0:0:0:
141,136,125007,1,0,0:0:0:0:
416,208,125170,1,0,0:0:0:0:
162,251,125333,1,0,0:0:0:0:
356,69,125496,1,0,0:0:0:0:
312,324,125659,1,0,0:0:0:0:
179,97,125822,1,0,0:0:0:0:
405,258,125985,1,0,0:0:0:0:
300,36,126148,1,0,0:0:0:0:
175,251,126311,1,0,0:0:0:0:
364,154,126474,1,0,0:0:0:0:
260,333,126637,1,0,0:0:0:0:
221,353,126719,1,0,0:0:0:0:
180,360,126800,1,0,0:0:0:0:
137,364,126882,1,0,0:0:0:0:
93,358,126963,2,0,P|56:341|28:279,1,80
221,81,127289,1,0,0:0:0:0:
265,88,127371,1,0,0:0:0:0:
299,113,127452,1,0,0:0:0:0:
334,139,127534,1,0,0:0:0:0:
370,165,127615,6,0,P|428:166|464:74,1,160
209,54,128268,1,0,0:0:0:0:
368,288,128594,1,0,0:0:0:0:
106,259,128920,1,0,0:0:0:0:
337,100,129246,1,0,0:0:0:0:
222,301,129572,1,0,0:0:0:0:
105,110,129898,1,0,0:0:0:0:
288,154,130061,1,0,0:0:0:0:
325,177,130143,1,0,0:0:0:0:
362,201,130224,1,0,0:0:0:0:
423,330,130387,1,0,0:0:0:0:
165,225,130550,1,0,0:0:0:0:
436,97,130876,1,0,0:0:0:0:
156,100,131202,1,0,0:0:0:0:
323,347,131529,1,0,0:0:0:0:
311,49,131855,1,0,0:0:0:0:
158,323,132099,1,0,0:0:0:0:
119,334,132181,1,0,0:0:0:0:
108,137,132344,5,0,0:0:0:0:
386,238,132507,1,0,0:0:0:0:
292,76,132670,1,0,0:0:0:0:
254,64,132751,1,0,0:0:0:0:
212,64,132833,1,0,0:0:0:0:
73,197,132996,1,0,0:0:0:0:
357,152,133159,1,0,0:0:0:0:
129,345,133322,1,0,0:0:0:0:
287,17,133485,1,0,0:0:0:0:
329,346,133648,1,0,0:0:0:0:
141,53,133811,1,0,0:0:0:0:
426,189,133974,1,0,0:0:0:0:
115,213,134137,1,0,0:0:0:0:
351,30,134300,1,0,0:0:0:0:
293,318,134463,1,0,0:0:0:0:
73,103,134626,1,0,0:0:0:0:
382,149,134789,1,0,0:0:0:0:
115,290,134952,1,0,0:0:0:0:
235,50,135115,1,0,0:0:0:0:
417,96,135279,1,0,0:0:0:0:
452,117,135360,1,0,0:0:0:0:
482,148,135442,1,0,0:0:0:0:
418,336,135605,1,0,0:0:0:0:
205,242,135768,1,0,0:0:0:0:
173,213,135849,1,0,0:0:0:0:
153,177,135931,1,0,0:0:0:0:
142,136,136012,1,0,0:0:0:0:
137,95,136094,1,0,0:0:0:0:
145,55,136175,1,0,0:0:0:0:
201,65,136257,1,0,0:0:0:0:
235,108,136338,1,0,0:0:0:0:
281,140,136420,1,0,0:0:0:0:
335,153,136501,1,0,0:0:0:0:
390,156,136583,1,0,0:0:0:0:
444,140,136664,1,0,0:0:0:0:
445,218,136746,1,0,0:0:0:0:
416,289,136827,1,0,0:0:0:0:
362,348,136909,1,0,0:0:0:0:
290,376,136990,1,0,0:0:0:0:
