osu file format v14

[General]
AudioFilename: audio.mp3
AudioLeadIn: 0
PreviewTime: 50406
Countdown: 1
SampleSet: Normal
StackLeniency: 0.7
Mode: 1
LetterboxInBreaks: 0
WidescreenStoryboard: 1

[Editor]
Bookmarks: 100375
DistanceSpacing: 1.3
BeatDivisor: 2
GridSize: 4
TimelineZoom: 0.3999998

[Metadata]
Title:Neko Will Be...
TitleUnicode:Neko Will Be...
Artist:Neko Works
ArtistUnicode:Neko Works
Creator:Dytrus
Version:Kantan
Source:Nekopara Vol. 1 Soundtrack
Tags:neko soft calm instrumental nekopara
BeatmapID:1420022
BeatmapSetID:671371

[Difficulty]
HPDrainRate:5
CircleSize:2
OverallDifficulty:5
ApproachRate:5
SliderMultiplier:1.40000000596046
SliderTickRate:1

[Events]
//Background and Video events
0,0,"653610.jpg",0,0
//Break Periods
//Storyboard Layer 0 (Background)
//Storyboard Layer 1 (Fail)
//Storyboard Layer 2 (Pass)
//Storyboard Layer 3 (Foreground)
//Storyboard Sound Samples

[TimingPoints]
250,375,3,1,0,80,1,0
250,-125,3,1,0,80,0,0
46940,-111.111111111111,3,1,0,80,0,0
49281,-66.6666666666667,3,1,0,90,0,0
49468,-100,3,1,0,80,0,1
68875,-100,3,1,0,80,0,0
71500,-163.934426229508,3,1,0,80,0,0
71875,-147.058823529412,3,1,0,80,0,0
72625,-121.951219512195,3,1,0,80,0,0
73375,-100,3,1,0,80,0,1
83406,-100,3,1,0,40,0,1
84906,-100,3,1,0,80,0,1
94005,-74.0740740740741,3,1,0,80,0,1
95875,-153.846153846154,3,1,0,80,0,1
97375,-181.818181818182,3,1,0,80,0,0
99250,-125,3,1,0,50,0,0

[HitObjects]
256,192,250,5,0,0:0:0:0:
256,192,1000,1,8,0:0:0:0:
256,192,2125,1,0,0:0:0:0:
256,192,2687,1,0,0:0:0:0:
256,192,4000,1,0,0:0:0:0:
256,192,4375,1,0,0:0:0:0:
256,192,4750,1,8,0:0:0:0:
256,192,6625,1,8,0:0:0:0:
256,192,7375,1,0,0:0:0:0:
256,192,8125,5,8,0:0:0:0:
256,192,9250,1,8,0:0:0:0:
256,192,9625,1,0,0:0:0:0:
256,192,11500,1,8,0:0:0:0:
256,192,12625,1,0,0:0:0:0:
256,192,13000,1,0,0:0:0:0:
256,192,13375,1,0,0:0:0:0:
256,192,14125,5,0,0:0:0:0:
256,192,14500,1,8,0:0:0:0:
256,192,14687,1,0,0:0:0:0:
256,192,15250,1,8,0:0:0:0:
256,192,15625,1,0,0:0:0:0:
256,192,16000,1,0,0:0:0:0:
256,192,16375,1,8,0:0:0:0:
256,192,17125,1,0,0:0:0:0:
256,192,17875,1,0,0:0:0:0:
256,192,18250,1,0,0:0:0:0:
256,192,18625,1,8,0:0:0:0:
256,192,19375,1,0,0:0:0:0:
256,192,20500,5,0,0:0:0:0:
256,192,20875,1,8,0:0:0:0:
256,192,21625,1,0,0:0:0:0:
256,192,22000,1,0,0:0:0:0:
256,192,23125,1,8,0:0:0:0:
256,192,23875,1,0,0:0:0:0:
256,192,24250,1,0,0:0:0:0:
256,192,24625,1,8,0:0:0:0:
256,192,25375,1,0,0:0:0:0:
256,192,26125,5,8,0:0:0:0:
256,192,26500,1,8,0:0:0:0:
256,192,26687,1,8,0:0:0:0:
256,192,27250,1,8,0:0:0:0:
256,192,27625,1,8,0:0:0:0:
256,192,28375,1,0,0:0:0:0:
256,192,28750,1,0,0:0:0:0:
256,192,29125,1,8,0:0:0:0:
256,192,29875,1,8,0:0:0:0:
256,192,30250,1,8,0:0:0:0:
256,192,30625,1,0,0:0:0:0:
256,192,31375,1,0,0:0:0:0:
256,192,32125,5,8,0:0:0:0:
256,192,32500,1,8,0:0:0:0:
256,192,32687,1,0,0:0:0:0:
256,192,33250,1,0,0:0:0:0:
256,192,33625,1,0,0:0:0:0:
256,192,34375,1,8,0:0:0:0:
256,192,34750,1,8,0:0:0:0:
256,192,35125,1,0,0:0:0:0:
256,192,35500,1,8,0:0:0:0:
256,192,36250,1,0,0:0:0:0:
256,192,36625,1,0,0:0:0:0:
256,192,37375,1,8,0:0:0:0:
256,192,38125,5,0,0:0:0:0:
256,192,38500,1,8,0:0:0:0:
256,192,38687,1,0,0:0:0:0:
256,192,39250,1,8,0:0:0:0:
256,192,39625,1,0,0:0:0:0:
256,192,40000,1,0,0:0:0:0:
256,192,40375,1,8,0:0:0:0:
256,192,40750,1,8,0:0:0:0:
256,192,41875,1,0,0:0:0:0:
256,192,42250,1,0,0:0:0:0:
256,192,42625,1,8,0:0:0:0:
256,192,43375,5,0,0:0:0:0:
256,192,44500,1,0,0:0:0:0:
256,192,44875,1,8,0:0:0:0:
256,192,45625,1,8,0:0:0:0:
256,192,46000,1,0,0:0:0:0:
256,192,47125,5,8,0:0:0:0:
256,192,47500,1,0,0:0:0:0:
256,192,47875,1,8,0:0:0:0:
256,192,48062,1,8,0:0:0:0:
256,192,48250,1,8,0:0:0:0:
256,192,48625,1,0,0:0:0:0:
256,192,49375,5,12,0:0:0:0:
256,192,50500,1,0,0:0:0:0:
256,192,50875,1,0,0:0:0:0:
256,192,51625,1,8,0:0:0:0:
256,192,52000,1,8,0:0:0:0:
256,192,52375,1,0,0:0:0:0:
256,192,53125,1,8,0:0:0:0:
256,192,53500,1,0,0:0:0:0:
256,192,54250,1,0,0:0:0:0:
256,192,55375,1,0,0:0:0:0:
256,192,56125,1,8,0:0:0:0:
256,192,56875,1,0,0:0:0:0:
256,192,57250,1,0,0:0:0:0:
256,192,58000,1,8,0:0:0:0:
256,192,58375,1,8,0:0:0:0:
256,192,59125,1,0,0:0:0:0:
256,192,59875,1,8,0:0:0:0:
256,192,60625,1,0,0:0:0:0:
256,192,61375,5,6,2:0:0:0:
256,192,62500,1,8,0:0:0:0:
256,192,62875,1,8,0:0:0:0:
256,192,63250,1,8,0:0:0:0:
256,192,63625,1,0,0:0:0:0:
256,192,64000,1,0,0:0:0:0:
256,192,64375,1,8,0:0:0:0:
256,192,65125,5,0,0:0:0:0:
256,192,65500,1,8,0:0:0:0:
256,192,66250,1,8,0:0:0:0:
256,192,67000,1,8,0:0:0:0:
256,192,67375,1,8,0:0:0:0:
256,192,68125,1,0,0:0:0:0:
256,192,68500,1,8,0:0:0:0:
256,192,68875,1,8,0:0:0:0:
256,192,70000,1,8,0:0:0:0:
256,192,70375,1,0,0:0:0:0:
256,192,71500,5,0,0:0:0:0:
256,192,71875,1,0,0:0:0:0:
256,192,72625,1,8,0:0:0:0:
256,192,73375,1,10,0:0:0:0:
256,192,74500,1,0,0:0:0:0:
256,192,74875,1,8,0:0:0:0:
256,192,76000,1,8,0:0:0:0:
256,192,77125,1,0,0:0:0:0:
256,192,77500,1,0,0:0:0:0:
256,192,77875,1,0,0:0:0:0:
256,192,79375,1,0,0:0:0:0:
256,192,80500,5,8,0:0:0:0:
256,192,81625,1,8,0:0:0:0:
256,192,82375,1,0,0:0:0:0:
256,192,83125,1,8,0:0:0:0:
256,192,83500,12,0,84625,0:0:0:0:
256,192,85375,5,8,0:0:0:0:
256,192,86125,1,0,0:0:0:0:
256,192,87250,1,8,2:0:0:0:
256,192,88375,1,8,0:0:0:0:
256,192,89500,1,0,0:0:0:0:
256,192,89875,1,8,0:0:0:0:
256,192,91000,1,0,2:0:0:0:
256,192,91375,1,8,0:0:0:0:
256,192,92500,1,8,0:0:0:0:
256,192,93250,1,0,0:0:0:0:
256,192,94000,1,8,0:0:0:0:
256,192,95875,1,0,0:0:0:0:
256,192,97375,5,14,0:0:0:0:
256,192,99250,1,8,0:0:0:0:
256,192,100000,1,8,0:0:0:0:
256,192,100375,1,0,0:0:0:0:
