osu file format v14

[General]
AudioFilename: audio.MP3
AudioLeadIn: 0
PreviewTime: -1
Countdown: 0
SampleSet: None
StackLeniency: 0.8
Mode: 3
LetterboxInBreaks: 0
SpecialStyle: 1
WidescreenStoryboard: 0

[Editor]
DistanceSpacing: 0.8
BeatDivisor: 2
GridSize: 32
TimelineZoom: 1.7

[Metadata]
Title:Holy*Shit
TitleUnicode:Holy*Shit
Artist:Neko Taishitsu
ArtistUnicode:Neko Taishitsu
Creator:Herkkupala
Version:Holy*Crap
Source:
Tags:jumpstream stamina idk treatpack 1
BeatmapID:1433359
BeatmapSetID:677812

[Difficulty]
HPDrainRate:8.3
CircleSize:4
OverallDifficulty:8.5
ApproachRate:5
SliderMultiplier:1.4
SliderTickRate:1

[Events]
//Background and Video events
0,0,"bg.png",0,0
//Break Periods
//Storyboard Layer 0 (Background)
//Storyboard Layer 1 (Fail)
//Storyboard Layer 2 (Pass)
//Storyboard Layer 3 (Foreground)
//Storyboard Sound Samples

[TimingPoints]
120,300,4,1,0,30,1,0

[HitObjects]
448,192,570,128,0,645:0:0:0:0:
320,192,720,1,0,0:0:0:0:
192,192,758,1,0,0:0:0:0:
448,192,833,1,0,0:0:0:0:
64,192,870,128,0,1320:0:0:0:0:
448,192,1170,128,0,1320:0:0:0:0:
192,192,1320,1,0,0:0:0:0:
320,192,1320,1,0,0:0:0:0:
320,192,1470,1,0,0:0:0:0:
448,192,1620,1,0,0:0:0:0:
64,192,1770,1,0,0:0:0:0:
192,192,1770,1,0,0:0:0:0:
320,192,1920,1,0,0:0:0:0:
64,192,2070,1,0,0:0:0:0:
320,192,2220,1,0,0:0:0:0:
192,192,2295,1,0,0:0:0:0:
320,192,2370,1,0,0:0:0:0:
192,192,2445,1,0,0:0:0:0:
64,192,2520,1,0,0:0:0:0:
448,192,2520,1,0,0:0:0:0:
64,192,2670,1,0,0:0:0:0:
448,192,2670,1,0,0:0:0:0:
320,192,2820,1,0,0:0:0:0:
64,192,2970,1,0,0:0:0:0:
448,192,2970,1,0,0:0:0:0:
320,192,3120,1,0,0:0:0:0:
192,192,3270,1,0,0:0:0:0:
64,192,3420,128,0,3720:0:0:0:0:
320,192,3420,1,0,0:0:0:0:
192,192,3495,1,0,0:0:0:0:
320,192,3570,1,0,0:0:0:0:
192,192,3645,1,0,0:0:0:0:
320,192,3720,1,0,0:0:0:0:
448,192,3720,1,0,0:0:0:0:
192,192,3870,1,0,0:0:0:0:
64,192,4020,1,0,0:0:0:0:
192,192,4170,1,0,0:0:0:0:
448,192,4170,1,0,0:0:0:0:
320,192,4320,1,0,0:0:0:0:
64,192,4470,1,0,0:0:0:0:
320,192,4620,1,0,0:0:0:0:
192,192,4695,1,0,0:0:0:0:
320,192,4770,1,0,0:0:0:0:
192,192,4845,1,0,0:0:0:0:
64,192,4920,1,0,0:0:0:0:
448,192,4920,1,0,0:0:0:0:
64,192,5070,1,0,0:0:0:0:
448,192,5070,1,0,0:0:0:0:
320,192,5220,1,0,0:0:0:0:
64,192,5370,1,0,0:0:0:0:
192,192,5370,1,0,0:0:0:0:
320,192,5520,1,0,0:0:0:0:
192,192,5670,1,0,0:0:0:0:
448,192,5670,1,0,0:0:0:0:
64,192,5745,1,0,0:0:0:0:
448,192,5820,1,0,0:0:0:0:
64,192,5895,1,0,0:0:0:0:
448,192,5970,1,0,0:0:0:0:
64,192,6045,1,0,0:0:0:0:
192,192,6120,1,0,0:0:0:0:
320,192,6120,1,0,0:0:0:0:
448,192,6270,1,0,0:0:0:0:
64,192,6420,1,0,0:0:0:0:
192,192,6570,1,0,0:0:0:0:
448,192,6570,1,0,0:0:0:0:
320,192,6720,1,0,0:0:0:0:
448,192,6870,1,0,0:0:0:0:
320,192,7020,1,0,0:0:0:0:
192,192,7095,1,0,0:0:0:0:
320,192,7170,1,0,0:0:0:0:
192,192,7245,1,0,0:0:0:0:
320,192,7320,1,0,0:0:0:0:
448,192,7320,1,0,0:0:0:0:
320,192,7470,1,0,0:0:0:0:
448,192,7470,1,0,0:0:0:0:
192,192,7620,1,0,0:0:0:0:
320,192,7770,1,0,0:0:0:0:
448,192,7770,1,0,0:0:0:0:
64,192,7920,1,0,0:0:0:0:
192,192,8070,1,0,0:0:0:0:
320,192,8220,1,0,0:0:0:0:
448,192,8220,128,0,8520:0:0:0:0:
192,192,8295,1,0,0:0:0:0:
320,192,8370,1,0,0:0:0:0:
192,192,8445,1,0,0:0:0:0:
64,192,8520,1,0,0:0:0:0:
320,192,8520,128,0,8558:0:0:0:0:
192,192,8670,1,0,0:0:0:0:
448,192,8820,1,0,0:0:0:0:
64,192,8970,1,0,0:0:0:0:
320,192,8970,1,0,0:0:0:0:
192,192,9120,1,0,0:0:0:0:
448,192,9270,128,0,9320:0:0:0:0:
64,192,9370,128,0,9420:0:0:0:0:
448,192,9470,128,0,9520:0:0:0:0:
64,192,9570,128,0,9620:0:0:0:0:
448,192,9670,128,0,9720:0:0:0:0:
192,192,9720,1,0,0:0:0:0:
320,192,9720,1,0,0:0:0:0:
64,192,9920,1,0,0:0:0:0:
192,192,9970,1,0,0:0:0:0:
320,192,10020,128,0,10170:0:0:0:0:
448,192,10020,128,0,10170:0:0:0:0:
192,192,10220,1,0,0:0:0:0:
320,192,10270,1,0,0:0:0:0:
64,192,10320,128,0,10358:0:0:0:0:
192,192,10395,128,0,10433:0:0:0:0:
448,192,10470,128,0,10508:0:0:0:0:
320,192,10545,128,0,10583:0:0:0:0:
64,192,10620,128,0,10658:0:0:0:0:
448,192,10695,128,0,10733:0:0:0:0:
192,192,10770,128,0,10808:0:0:0:0:
320,192,10845,128,0,10883:0:0:0:0:
64,192,10920,1,0,0:0:0:0:
192,192,10920,1,0,0:0:0:0:
448,192,10920,1,0,0:0:0:0:
320,192,10995,1,0,0:0:0:0:
64,192,11070,1,0,0:0:0:0:
192,192,11070,1,0,0:0:0:0:
320,192,11145,1,0,0:0:0:0:
192,192,11220,1,0,0:0:0:0:
448,192,11220,1,0,0:0:0:0:
320,192,11295,1,0,0:0:0:0:
64,192,11370,1,0,0:0:0:0:
448,192,11370,1,0,0:0:0:0:
192,192,11445,1,0,0:0:0:0:
64,192,11520,1,0,0:0:0:0:
320,192,11520,1,0,0:0:0:0:
448,192,11595,1,0,0:0:0:0:
192,192,11670,1,0,0:0:0:0:
64,192,11745,1,0,0:0:0:0:
320,192,11820,1,0,0:0:0:0:
448,192,11820,1,0,0:0:0:0:
192,192,11895,1,0,0:0:0:0:
320,192,11970,1,0,0:0:0:0:
448,192,11970,1,0,0:0:0:0:
64,192,12045,1,0,0:0:0:0:
192,192,12120,1,0,0:0:0:0:
448,192,12195,1,0,0:0:0:0:
64,192,12270,1,0,0:0:0:0:
320,192,12270,1,0,0:0:0:0:
192,192,12345,1,0,0:0:0:0:
320,192,12420,1,0,0:0:0:0:
448,192,12420,1,0,0:0:0:0:
192,192,12495,1,0,0:0:0:0:
64,192,12570,1,0,0:0:0:0:
320,192,12570,1,0,0:0:0:0:
192,192,12645,1,0,0:0:0:0:
320,192,12720,1,0,0:0:0:0:
448,192,12720,1,0,0:0:0:0:
64,192,12795,1,0,0:0:0:0:
448,192,12870,1,0,0:0:0:0:
320,192,12945,1,0,0:0:0:0:
64,192,13020,1,0,0:0:0:0:
192,192,13020,1,0,0:0:0:0:
320,192,13095,1,0,0:0:0:0:
64,192,13170,1,0,0:0:0:0:
192,192,13170,1,0,0:0:0:0:
320,192,13245,1,0,0:0:0:0:
64,192,13320,1,0,0:0:0:0:
192,192,13320,1,0,0:0:0:0:
448,192,13320,1,0,0:0:0:0:
320,192,13395,1,0,0:0:0:0:
64,192,13470,1,0,0:0:0:0:
448,192,13470,1,0,0:0:0:0:
320,192,13545,1,0,0:0:0:0:
192,192,13620,1,0,0:0:0:0:
448,192,13620,1,0,0:0:0:0:
320,192,13695,1,0,0:0:0:0:
64,192,13770,1,0,0:0:0:0:
192,192,13770,1,0,0:0:0:0:
448,192,13845,1,0,0:0:0:0:
64,192,13920,1,0,0:0:0:0:
320,192,13920,1,0,0:0:0:0:
192,192,13995,1,0,0:0:0:0:
320,192,14070,1,0,0:0:0:0:
64,192,14145,1,0,0:0:0:0:
192,192,14220,1,0,0:0:0:0:
448,192,14220,1,0,0:0:0:0:
320,192,14295,1,0,0:0:0:0:
64,192,14370,1,0,0:0:0:0:
192,192,14370,1,0,0:0:0:0:
448,192,14445,1,0,0:0:0:0:
320,192,14520,1,0,0:0:0:0:
192,192,14595,1,0,0:0:0:0:
448,192,14670,1,0,0:0:0:0:
64,192,14720,1,0,0:0:0:0:
192,192,14770,1,0,0:0:0:0:
320,192,14820,1,0,0:0:0:0:
448,192,14820,1,0,0:0:0:0:
64,192,14895,1,0,0:0:0:0:
192,192,14970,1,0,0:0:0:0:
448,192,14970,1,0,0:0:0:0:
320,192,15045,1,0,0:0:0:0:
64,192,15120,1,0,0:0:0:0:
192,192,15120,1,0,0:0:0:0:
320,192,15195,1,0,0:0:0:0:
448,192,15195,1,0,0:0:0:0:
64,192,15270,1,0,0:0:0:0:
192,192,15270,1,0,0:0:0:0:
320,192,15345,1,0,0:0:0:0:
448,192,15345,1,0,0:0:0:0:
64,192,15420,1,0,0:0:0:0:
192,192,15420,1,0,0:0:0:0:
320,192,15495,1,0,0:0:0:0:
192,192,15570,1,0,0:0:0:0:
448,192,15570,1,0,0:0:0:0:
64,192,15645,1,0,0:0:0:0:
192,192,15720,1,0,0:0:0:0:
320,192,15720,1,0,0:0:0:0:
448,192,15720,1,0,0:0:0:0:
64,192,15795,1,0,0:0:0:0:
320,192,15870,1,0,0:0:0:0:
448,192,15870,1,0,0:0:0:0:
192,192,15945,1,0,0:0:0:0:
64,192,16020,1,0,0:0:0:0:
320,192,16020,1,0,0:0:0:0:
192,192,16095,1,0,0:0:0:0:
320,192,16170,1,0,0:0:0:0:
448,192,16170,1,0,0:0:0:0:
192,192,16245,1,0,0:0:0:0:
64,192,16320,1,0,0:0:0:0:
448,192,16320,1,0,0:0:0:0:
320,192,16395,1,0,0:0:0:0:
448,192,16470,1,0,0:0:0:0:
192,192,16545,1,0,0:0:0:0:
64,192,16620,1,0,0:0:0:0:
320,192,16620,1,0,0:0:0:0:
192,192,16695,1,0,0:0:0:0:
64,192,16770,1,0,0:0:0:0:
320,192,16770,1,0,0:0:0:0:
448,192,16845,1,0,0:0:0:0:
320,192,16920,1,0,0:0:0:0:
192,192,16995,1,0,0:0:0:0:
64,192,17070,1,0,0:0:0:0:
448,192,17070,1,0,0:0:0:0:
320,192,17145,1,0,0:0:0:0:
64,192,17220,1,0,0:0:0:0:
192,192,17220,1,0,0:0:0:0:
320,192,17295,1,0,0:0:0:0:
64,192,17370,1,0,0:0:0:0:
448,192,17370,1,0,0:0:0:0:
192,192,17445,1,0,0:0:0:0:
320,192,17520,1,0,0:0:0:0:
448,192,17520,1,0,0:0:0:0:
64,192,17595,1,0,0:0:0:0:
192,192,17670,1,0,0:0:0:0:
448,192,17745,1,0,0:0:0:0:
64,192,17820,1,0,0:0:0:0:
320,192,17820,1,0,0:0:0:0:
192,192,17895,1,0,0:0:0:0:
64,192,17970,1,0,0:0:0:0:
320,192,17970,1,0,0:0:0:0:
192,192,18045,1,0,0:0:0:0:
64,192,18120,1,0,0:0:0:0:
320,192,18120,1,0,0:0:0:0:
448,192,18120,1,0,0:0:0:0:
192,192,18195,1,0,0:0:0:0:
320,192,18270,1,0,0:0:0:0:
448,192,18270,1,0,0:0:0:0:
64,192,18345,1,0,0:0:0:0:
192,192,18420,1,0,0:0:0:0:
448,192,18420,1,0,0:0:0:0:
320,192,18495,1,0,0:0:0:0:
64,192,18570,1,0,0:0:0:0:
192,192,18570,1,0,0:0:0:0:
320,192,18645,1,0,0:0:0:0:
64,192,18720,1,0,0:0:0:0:
192,192,18720,1,0,0:0:0:0:
320,192,18795,1,0,0:0:0:0:
448,192,18795,1,0,0:0:0:0:
64,192,18870,1,0,0:0:0:0:
192,192,18870,1,0,0:0:0:0:
320,192,18945,1,0,0:0:0:0:
448,192,18945,1,0,0:0:0:0:
64,192,19020,1,0,0:0:0:0:
192,192,19020,1,0,0:0:0:0:
320,192,19095,1,0,0:0:0:0:
64,192,19170,1,0,0:0:0:0:
192,192,19170,1,0,0:0:0:0:
448,192,19220,1,0,0:0:0:0:
320,192,19270,1,0,0:0:0:0:
64,192,19320,1,0,0:0:0:0:
192,192,19370,1,0,0:0:0:0:
448,192,19420,1,0,0:0:0:0:
64,192,19470,1,0,0:0:0:0:
320,192,19470,1,0,0:0:0:0:
192,192,19545,1,0,0:0:0:0:
320,192,19620,1,0,0:0:0:0:
448,192,19620,1,0,0:0:0:0:
64,192,19695,1,0,0:0:0:0:
192,192,19770,1,0,0:0:0:0:
448,192,19770,1,0,0:0:0:0:
320,192,19845,1,0,0:0:0:0:
64,192,19920,1,0,0:0:0:0:
192,192,19920,1,0,0:0:0:0:
320,192,19995,1,0,0:0:0:0:
448,192,19995,1,0,0:0:0:0:
64,192,20070,1,0,0:0:0:0:
192,192,20070,1,0,0:0:0:0:
320,192,20145,1,0,0:0:0:0:
64,192,20220,1,0,0:0:0:0:
448,192,20220,1,0,0:0:0:0:
192,192,20295,1,0,0:0:0:0:
320,192,20295,1,0,0:0:0:0:
64,192,20370,1,0,0:0:0:0:
448,192,20370,1,0,0:0:0:0:
192,192,20445,1,0,0:0:0:0:
64,192,20520,1,0,0:0:0:0:
320,192,20520,1,0,0:0:0:0:
448,192,20520,1,0,0:0:0:0:
192,192,20595,1,0,0:0:0:0:
320,192,20670,1,0,0:0:0:0:
192,192,20745,1,0,0:0:0:0:
64,192,20820,1,0,0:0:0:0:
448,192,20820,1,0,0:0:0:0:
192,192,20895,1,0,0:0:0:0:
320,192,20970,1,0,0:0:0:0:
448,192,20970,1,0,0:0:0:0:
192,192,21045,1,0,0:0:0:0:
64,192,21120,1,0,0:0:0:0:
320,192,21120,1,0,0:0:0:0:
192,192,21195,1,0,0:0:0:0:
64,192,21270,1,0,0:0:0:0:
320,192,21270,1,0,0:0:0:0:
192,192,21345,1,0,0:0:0:0:
320,192,21420,1,0,0:0:0:0:
448,192,21420,1,0,0:0:0:0:
192,192,21495,1,0,0:0:0:0:
320,192,21570,1,0,0:0:0:0:
448,192,21570,1,0,0:0:0:0:
64,192,21645,1,0,0:0:0:0:
192,192,21720,1,0,0:0:0:0:
448,192,21720,1,0,0:0:0:0:
320,192,21795,1,0,0:0:0:0:
64,192,21870,1,0,0:0:0:0:
320,192,21945,1,0,0:0:0:0:
192,192,22020,1,0,0:0:0:0:
448,192,22020,1,0,0:0:0:0:
320,192,22095,1,0,0:0:0:0:
64,192,22170,1,0,0:0:0:0:
192,192,22170,1,0,0:0:0:0:
448,192,22245,1,0,0:0:0:0:
64,192,22320,1,0,0:0:0:0:
320,192,22320,1,0,0:0:0:0:
192,192,22395,1,0,0:0:0:0:
320,192,22470,1,0,0:0:0:0:
448,192,22470,1,0,0:0:0:0:
64,192,22545,1,0,0:0:0:0:
192,192,22620,1,0,0:0:0:0:
448,192,22695,1,0,0:0:0:0:
192,192,22770,1,0,0:0:0:0:
320,192,22770,1,0,0:0:0:0:
64,192,22845,1,0,0:0:0:0:
448,192,22920,1,0,0:0:0:0:
192,192,22995,1,0,0:0:0:0:
320,192,23070,1,0,0:0:0:0:
448,192,23070,1,0,0:0:0:0:
192,192,23145,1,0,0:0:0:0:
64,192,23220,1,0,0:0:0:0:
320,192,23220,1,0,0:0:0:0:
192,192,23295,1,0,0:0:0:0:
320,192,23370,1,0,0:0:0:0:
448,192,23370,1,0,0:0:0:0:
64,192,23445,1,0,0:0:0:0:
320,192,23520,1,0,0:0:0:0:
448,192,23520,1,0,0:0:0:0:
192,192,23595,1,0,0:0:0:0:
320,192,23670,1,0,0:0:0:0:
192,192,23745,1,0,0:0:0:0:
64,192,23820,1,0,0:0:0:0:
448,192,23820,1,0,0:0:0:0:
320,192,23895,1,0,0:0:0:0:
64,192,23970,1,0,0:0:0:0:
448,192,23970,1,0,0:0:0:0:
192,192,24045,1,0,0:0:0:0:
320,192,24120,1,0,0:0:0:0:
448,192,24120,1,0,0:0:0:0:
64,192,24195,1,0,0:0:0:0:
320,192,24270,1,0,0:0:0:0:
64,192,24345,1,0,0:0:0:0:
192,192,24420,1,0,0:0:0:0:
448,192,24420,1,0,0:0:0:0:
320,192,24495,1,0,0:0:0:0:
64,192,24570,1,0,0:0:0:0:
192,192,24570,1,0,0:0:0:0:
448,192,24645,1,0,0:0:0:0:
64,192,24720,1,0,0:0:0:0:
320,192,24720,1,0,0:0:0:0:
192,192,24795,1,0,0:0:0:0:
320,192,24870,1,0,0:0:0:0:
192,192,24945,1,0,0:0:0:0:
64,192,25020,1,0,0:0:0:0:
320,192,25020,1,0,0:0:0:0:
448,192,25095,1,0,0:0:0:0:
192,192,25170,1,0,0:0:0:0:
320,192,25245,1,0,0:0:0:0:
64,192,25320,1,0,0:0:0:0:
448,192,25320,1,0,0:0:0:0:
320,192,25395,1,0,0:0:0:0:
64,192,25470,1,0,0:0:0:0:
192,192,25470,1,0,0:0:0:0:
448,192,25545,1,0,0:0:0:0:
192,192,25620,1,0,0:0:0:0:
320,192,25620,1,0,0:0:0:0:
64,192,25695,1,0,0:0:0:0:
192,192,25770,1,0,0:0:0:0:
320,192,25845,1,0,0:0:0:0:
64,192,25920,1,0,0:0:0:0:
192,192,25920,1,0,0:0:0:0:
448,192,25995,1,0,0:0:0:0:
320,192,26070,1,0,0:0:0:0:
192,192,26145,1,0,0:0:0:0:
448,192,26220,1,0,0:0:0:0:
320,192,26295,1,0,0:0:0:0:
64,192,26370,1,0,0:0:0:0:
192,192,26370,1,0,0:0:0:0:
320,192,26445,1,0,0:0:0:0:
192,192,26520,1,0,0:0:0:0:
448,192,26520,1,0,0:0:0:0:
320,192,26595,1,0,0:0:0:0:
64,192,26670,1,0,0:0:0:0:
320,192,26745,1,0,0:0:0:0:
64,192,26820,1,0,0:0:0:0:
192,192,26820,1,0,0:0:0:0:
448,192,26895,1,0,0:0:0:0:
192,192,26970,1,0,0:0:0:0:
448,192,27045,1,0,0:0:0:0:
64,192,27120,1,0,0:0:0:0:
320,192,27120,1,0,0:0:0:0:
192,192,27195,1,0,0:0:0:0:
64,192,27270,1,0,0:0:0:0:
320,192,27270,1,0,0:0:0:0:
448,192,27345,1,0,0:0:0:0:
192,192,27420,1,0,0:0:0:0:
64,192,27495,1,0,0:0:0:0:
320,192,27570,1,0,0:0:0:0:
448,192,27570,1,0,0:0:0:0:
192,192,27645,1,0,0:0:0:0:
320,192,27720,1,0,0:0:0:0:
448,192,27720,1,0,0:0:0:0:
192,192,27795,1,0,0:0:0:0:
320,192,27870,1,0,0:0:0:0:
448,192,27870,1,0,0:0:0:0:
192,192,27945,1,0,0:0:0:0:
320,192,28020,1,0,0:0:0:0:
448,192,28020,1,0,0:0:0:0:
192,192,28095,1,0,0:0:0:0:
320,192,28170,1,0,0:0:0:0:
448,192,28170,1,0,0:0:0:0:
192,192,28245,1,0,0:0:0:0:
320,192,28320,1,0,0:0:0:0:
448,192,28320,1,0,0:0:0:0:
192,192,28395,1,0,0:0:0:0:
320,192,28470,1,0,0:0:0:0:
448,192,28470,1,0,0:0:0:0:
192,192,28545,1,0,0:0:0:0:
320,192,28620,1,0,0:0:0:0:
448,192,28620,1,0,0:0:0:0:
192,192,28695,1,0,0:0:0:0:
320,192,28770,1,0,0:0:0:0:
448,192,28770,1,0,0:0:0:0:
192,192,28845,1,0,0:0:0:0:
64,192,28920,1,0,0:0:0:0:
448,192,28920,1,0,0:0:0:0:
192,192,28995,1,0,0:0:0:0:
320,192,28995,1,0,0:0:0:0:
64,192,29070,1,0,0:0:0:0:
448,192,29070,1,0,0:0:0:0:
192,192,29145,1,0,0:0:0:0:
320,192,29220,1,0,0:0:0:0:
448,192,29220,1,0,0:0:0:0:
192,192,29295,1,0,0:0:0:0:
320,192,29370,1,0,0:0:0:0:
448,192,29370,1,0,0:0:0:0:
64,192,29445,1,0,0:0:0:0:
192,192,29445,1,0,0:0:0:0:
320,192,29520,1,0,0:0:0:0:
448,192,29520,1,0,0:0:0:0:
192,192,29595,1,0,0:0:0:0:
64,192,29670,1,0,0:0:0:0:
448,192,29670,1,0,0:0:0:0:
320,192,29745,1,0,0:0:0:0:
64,192,29820,1,0,0:0:0:0:
448,192,29820,1,0,0:0:0:0:
192,192,29895,1,0,0:0:0:0:
320,192,29970,1,0,0:0:0:0:
448,192,29970,1,0,0:0:0:0:
64,192,30045,1,0,0:0:0:0:
192,192,30045,1,0,0:0:0:0:
320,192,30120,1,0,0:0:0:0:
448,192,30120,1,0,0:0:0:0:
192,192,30195,1,0,0:0:0:0:
64,192,30270,1,0,0:0:0:0:
320,192,30270,1,0,0:0:0:0:
448,192,30345,1,0,0:0:0:0:
64,192,30420,1,0,0:0:0:0:
192,192,30420,1,0,0:0:0:0:
320,192,30495,1,0,0:0:0:0:
192,192,30570,1,0,0:0:0:0:
448,192,30570,1,0,0:0:0:0:
64,192,30645,1,0,0:0:0:0:
320,192,30720,1,0,0:0:0:0:
448,192,30720,1,0,0:0:0:0:
192,192,30795,1,0,0:0:0:0:
320,192,30870,1,0,0:0:0:0:
448,192,30870,1,0,0:0:0:0:
64,192,30945,1,0,0:0:0:0:
192,192,31020,1,0,0:0:0:0:
448,192,31095,1,0,0:0:0:0:
64,192,31170,1,0,0:0:0:0:
320,192,31170,1,0,0:0:0:0:
192,192,31245,1,0,0:0:0:0:
320,192,31320,1,0,0:0:0:0:
192,192,31395,1,0,0:0:0:0:
320,192,31470,1,0,0:0:0:0:
448,192,31470,1,0,0:0:0:0:
192,192,31545,1,0,0:0:0:0:
64,192,31620,1,0,0:0:0:0:
320,192,31620,1,0,0:0:0:0:
448,192,31695,1,0,0:0:0:0:
64,192,31770,1,0,0:0:0:0:
192,192,31770,1,0,0:0:0:0:
448,192,31845,1,0,0:0:0:0:
192,192,31920,1,0,0:0:0:0:
320,192,31920,1,0,0:0:0:0:
64,192,31995,1,0,0:0:0:0:
320,192,32070,1,0,0:0:0:0:
448,192,32070,1,0,0:0:0:0:
192,192,32145,1,0,0:0:0:0:
64,192,32220,1,0,0:0:0:0:
192,192,32295,1,0,0:0:0:0:
320,192,32370,1,0,0:0:0:0:
448,192,32370,1,0,0:0:0:0:
192,192,32445,1,0,0:0:0:0:
64,192,32520,1,0,0:0:0:0:
320,192,32520,1,0,0:0:0:0:
448,192,32595,1,0,0:0:0:0:
192,192,32670,1,0,0:0:0:0:
320,192,32745,1,0,0:0:0:0:
64,192,32820,1,0,0:0:0:0:
192,192,32820,1,0,0:0:0:0:
320,192,32895,1,0,0:0:0:0:
64,192,32970,1,0,0:0:0:0:
448,192,32970,1,0,0:0:0:0:
192,192,33045,1,0,0:0:0:0:
320,192,33120,1,0,0:0:0:0:
448,192,33120,1,0,0:0:0:0:
64,192,33195,1,0,0:0:0:0:
192,192,33195,1,0,0:0:0:0:
320,192,33270,1,0,0:0:0:0:
448,192,33270,1,0,0:0:0:0:
192,192,33345,1,0,0:0:0:0:
64,192,33420,1,0,0:0:0:0:
448,192,33420,1,0,0:0:0:0:
320,192,33495,1,0,0:0:0:0:
64,192,33570,1,0,0:0:0:0:
192,192,33570,1,0,0:0:0:0:
448,192,33645,1,0,0:0:0:0:
192,192,33720,1,0,0:0:0:0:
320,192,33720,1,0,0:0:0:0:
64,192,33795,1,0,0:0:0:0:
192,192,33870,1,0,0:0:0:0:
320,192,33870,1,0,0:0:0:0:
448,192,33945,1,0,0:0:0:0:
64,192,34020,1,0,0:0:0:0:
192,192,34020,1,0,0:0:0:0:
320,192,34095,1,0,0:0:0:0:
64,192,34170,1,0,0:0:0:0:
192,192,34170,1,0,0:0:0:0:
448,192,34245,1,0,0:0:0:0:
192,192,34320,1,0,0:0:0:0:
320,192,34320,1,0,0:0:0:0:
64,192,34395,1,0,0:0:0:0:
448,192,34470,1,0,0:0:0:0:
64,192,34545,1,0,0:0:0:0:
192,192,34620,1,0,0:0:0:0:
448,192,34620,1,0,0:0:0:0:
320,192,34695,1,0,0:0:0:0:
64,192,34770,1,0,0:0:0:0:
192,192,34845,1,0,0:0:0:0:
320,192,34920,1,0,0:0:0:0:
448,192,34920,1,0,0:0:0:0:
192,192,34995,1,0,0:0:0:0:
320,192,35070,1,0,0:0:0:0:
448,192,35070,1,0,0:0:0:0:
64,192,35145,1,0,0:0:0:0:
192,192,35220,1,0,0:0:0:0:
448,192,35220,1,0,0:0:0:0:
320,192,35295,1,0,0:0:0:0:
64,192,35370,1,0,0:0:0:0:
192,192,35370,1,0,0:0:0:0:
320,192,35445,1,0,0:0:0:0:
64,192,35520,1,0,0:0:0:0:
192,192,35520,1,0,0:0:0:0:
320,192,35595,1,0,0:0:0:0:
448,192,35670,1,0,0:0:0:0:
320,192,35745,1,0,0:0:0:0:
64,192,35820,1,0,0:0:0:0:
448,192,35820,1,0,0:0:0:0:
192,192,35895,1,0,0:0:0:0:
320,192,35970,1,0,0:0:0:0:
448,192,35970,1,0,0:0:0:0:
192,192,36045,1,0,0:0:0:0:
320,192,36120,1,0,0:0:0:0:
64,192,36195,1,0,0:0:0:0:
192,192,36270,1,0,0:0:0:0:
448,192,36270,1,0,0:0:0:0:
320,192,36345,1,0,0:0:0:0:
64,192,36420,1,0,0:0:0:0:
192,192,36420,1,0,0:0:0:0:
320,192,36495,1,0,0:0:0:0:
64,192,36570,1,0,0:0:0:0:
192,192,36570,1,0,0:0:0:0:
448,192,36645,1,0,0:0:0:0:
192,192,36720,1,0,0:0:0:0:
320,192,36720,1,0,0:0:0:0:
64,192,36795,1,0,0:0:0:0:
320,192,36870,1,0,0:0:0:0:
448,192,36870,1,0,0:0:0:0:
192,192,36945,1,0,0:0:0:0:
320,192,37020,1,0,0:0:0:0:
448,192,37095,1,0,0:0:0:0:
64,192,37170,1,0,0:0:0:0:
192,192,37170,1,0,0:0:0:0:
320,192,37245,1,0,0:0:0:0:
64,192,37320,1,0,0:0:0:0:
192,192,37320,1,0,0:0:0:0:
320,192,37395,1,0,0:0:0:0:
64,192,37470,1,0,0:0:0:0:
192,192,37470,1,0,0:0:0:0:
320,192,37545,1,0,0:0:0:0:
64,192,37620,1,0,0:0:0:0:
192,192,37620,1,0,0:0:0:0:
320,192,37695,1,0,0:0:0:0:
64,192,37770,1,0,0:0:0:0:
192,192,37770,1,0,0:0:0:0:
320,192,37845,1,0,0:0:0:0:
64,192,37920,1,0,0:0:0:0:
192,192,37920,1,0,0:0:0:0:
320,192,37995,1,0,0:0:0:0:
64,192,38070,1,0,0:0:0:0:
192,192,38070,1,0,0:0:0:0:
320,192,38145,1,0,0:0:0:0:
64,192,38220,1,0,0:0:0:0:
192,192,38220,1,0,0:0:0:0:
320,192,38295,1,0,0:0:0:0:
64,192,38370,1,0,0:0:0:0:
192,192,38370,1,0,0:0:0:0:
320,192,38445,1,0,0:0:0:0:
64,192,38520,1,0,0:0:0:0:
448,192,38520,1,0,0:0:0:0:
192,192,38595,1,0,0:0:0:0:
320,192,38595,1,0,0:0:0:0:
64,192,38670,1,0,0:0:0:0:
448,192,38670,1,0,0:0:0:0:
192,192,38745,1,0,0:0:0:0:
320,192,38820,1,0,0:0:0:0:
448,192,38820,1,0,0:0:0:0:
192,192,38895,1,0,0:0:0:0:
320,192,38970,1,0,0:0:0:0:
448,192,38970,1,0,0:0:0:0:
64,192,39045,1,0,0:0:0:0:
192,192,39045,1,0,0:0:0:0:
320,192,39120,1,0,0:0:0:0:
448,192,39120,1,0,0:0:0:0:
320,192,39270,1,0,0:0:0:0:
448,192,39270,1,0,0:0:0:0:
64,192,39420,1,0,0:0:0:0:
192,192,39420,1,0,0:0:0:0:
64,192,39570,1,0,0:0:0:0:
192,192,39570,1,0,0:0:0:0:
64,192,39720,1,0,0:0:0:0:
320,192,39720,1,0,0:0:0:0:
448,192,39720,1,0,0:0:0:0:
192,192,39795,1,0,0:0:0:0:
64,192,39870,1,0,0:0:0:0:
320,192,39870,1,0,0:0:0:0:
192,192,39945,1,0,0:0:0:0:
320,192,40020,1,0,0:0:0:0:
448,192,40020,1,0,0:0:0:0:
64,192,40095,1,0,0:0:0:0:
320,192,40170,1,0,0:0:0:0:
448,192,40170,1,0,0:0:0:0:
64,192,40245,1,0,0:0:0:0:
192,192,40320,1,0,0:0:0:0:
448,192,40320,1,0,0:0:0:0:
320,192,40395,1,0,0:0:0:0:
192,192,40470,1,0,0:0:0:0:
448,192,40470,1,0,0:0:0:0:
320,192,40545,1,0,0:0:0:0:
64,192,40620,1,0,0:0:0:0:
192,192,40620,1,0,0:0:0:0:
448,192,40695,1,0,0:0:0:0:
64,192,40770,1,0,0:0:0:0:
192,192,40770,1,0,0:0:0:0:
320,192,40845,1,0,0:0:0:0:
64,192,40920,1,0,0:0:0:0:
192,192,40920,1,0,0:0:0:0:
448,192,40920,1,0,0:0:0:0:
320,192,40995,1,0,0:0:0:0:
192,192,41070,1,0,0:0:0:0:
320,192,41145,1,0,0:0:0:0:
64,192,41220,1,0,0:0:0:0:
192,192,41220,1,0,0:0:0:0:
320,192,41295,1,0,0:0:0:0:
192,192,41370,1,0,0:0:0:0:
448,192,41370,1,0,0:0:0:0:
64,192,41445,1,0,0:0:0:0:
320,192,41520,1,0,0:0:0:0:
448,192,41520,1,0,0:0:0:0:
192,192,41595,1,0,0:0:0:0:
64,192,41670,1,0,0:0:0:0:
320,192,41670,1,0,0:0:0:0:
448,192,41745,1,0,0:0:0:0:
192,192,41820,1,0,0:0:0:0:
448,192,41895,1,0,0:0:0:0:
320,192,41970,1,0,0:0:0:0:
64,192,42045,1,0,0:0:0:0:
192,192,42120,1,0,0:0:0:0:
448,192,42120,1,0,0:0:0:0:
320,192,42195,1,0,0:0:0:0:
64,192,42270,1,0,0:0:0:0:
192,192,42270,1,0,0:0:0:0:
320,192,42345,1,0,0:0:0:0:
192,192,42420,1,0,0:0:0:0:
448,192,42420,1,0,0:0:0:0:
320,192,42495,1,0,0:0:0:0:
64,192,42570,1,0,0:0:0:0:
192,192,42570,1,0,0:0:0:0:
320,192,42645,1,0,0:0:0:0:
64,192,42720,1,0,0:0:0:0:
448,192,42720,1,0,0:0:0:0:
192,192,42795,1,0,0:0:0:0:
64,192,42870,1,0,0:0:0:0:
448,192,42870,1,0,0:0:0:0:
192,192,42945,1,0,0:0:0:0:
320,192,43020,1,0,0:0:0:0:
448,192,43095,1,0,0:0:0:0:
64,192,43170,1,0,0:0:0:0:
192,192,43170,1,0,0:0:0:0:
320,192,43245,1,0,0:0:0:0:
64,192,43320,1,0,0:0:0:0:
448,192,43320,1,0,0:0:0:0:
192,192,43395,1,0,0:0:0:0:
64,192,43470,1,0,0:0:0:0:
448,192,43545,1,0,0:0:0:0:
192,192,43620,1,0,0:0:0:0:
320,192,43620,1,0,0:0:0:0:
64,192,43695,1,0,0:0:0:0:
320,192,43770,1,0,0:0:0:0:
448,192,43770,1,0,0:0:0:0:
64,192,43845,1,0,0:0:0:0:
192,192,43920,1,0,0:0:0:0:
448,192,43920,1,0,0:0:0:0:
320,192,43995,1,0,0:0:0:0:
192,192,44070,1,0,0:0:0:0:
320,192,44145,1,0,0:0:0:0:
64,192,44220,1,0,0:0:0:0:
192,192,44220,1,0,0:0:0:0:
448,192,44295,1,0,0:0:0:0:
320,192,44370,1,0,0:0:0:0:
64,192,44445,1,0,0:0:0:0:
192,192,44520,1,0,0:0:0:0:
448,192,44595,1,0,0:0:0:0:
64,192,44670,1,0,0:0:0:0:
320,192,44670,1,0,0:0:0:0:
192,192,44745,1,0,0:0:0:0:
320,192,44820,1,0,0:0:0:0:
448,192,44820,1,0,0:0:0:0:
192,192,44895,1,0,0:0:0:0:
64,192,44970,1,0,0:0:0:0:
320,192,44970,1,0,0:0:0:0:
192,192,45045,1,0,0:0:0:0:
64,192,45120,1,0,0:0:0:0:
448,192,45120,1,0,0:0:0:0:
320,192,45195,1,0,0:0:0:0:
192,192,45270,1,0,0:0:0:0:
320,192,45345,1,0,0:0:0:0:
64,192,45420,1,0,0:0:0:0:
448,192,45420,1,0,0:0:0:0:
192,192,45495,1,0,0:0:0:0:
64,192,45570,1,0,0:0:0:0:
320,192,45570,1,0,0:0:0:0:
192,192,45645,1,0,0:0:0:0:
320,192,45720,1,0,0:0:0:0:
448,192,45720,1,0,0:0:0:0:
64,192,45770,1,0,0:0:0:0:
192,192,45820,1,0,0:0:0:0:
448,192,45870,1,0,0:0:0:0:
320,192,45945,1,0,0:0:0:0:
64,192,46020,1,0,0:0:0:0:
192,192,46020,1,0,0:0:0:0:
320,192,46095,1,0,0:0:0:0:
64,192,46170,1,0,0:0:0:0:
192,192,46170,1,0,0:0:0:0:
320,192,46245,1,0,0:0:0:0:
192,192,46320,1,0,0:0:0:0:
448,192,46320,1,0,0:0:0:0:
320,192,46395,1,0,0:0:0:0:
192,192,46470,1,0,0:0:0:0:
448,192,46470,1,0,0:0:0:0:
320,192,46545,1,0,0:0:0:0:
64,192,46620,1,0,0:0:0:0:
448,192,46620,1,0,0:0:0:0:
192,192,46695,1,0,0:0:0:0:
64,192,46770,1,0,0:0:0:0:
320,192,46770,1,0,0:0:0:0:
192,192,46845,1,0,0:0:0:0:
320,192,46920,1,0,0:0:0:0:
448,192,46920,1,0,0:0:0:0:
192,192,47070,1,0,0:0:0:0:
64,192,47220,1,0,0:0:0:0:
320,192,47220,1,0,0:0:0:0:
64,192,47370,1,0,0:0:0:0:
320,192,47370,1,0,0:0:0:0:
192,192,47520,1,0,0:0:0:0:
448,192,47520,1,0,0:0:0:0:
320,192,47670,1,0,0:0:0:0:
64,192,47820,1,0,0:0:0:0:
192,192,47820,1,0,0:0:0:0:
64,192,47970,1,0,0:0:0:0:
192,192,47970,1,0,0:0:0:0:
64,192,48120,1,0,0:0:0:0:
448,192,48120,1,0,0:0:0:0:
320,192,48195,1,0,0:0:0:0:
448,192,48270,1,0,0:0:0:0:
320,192,48345,1,0,0:0:0:0:
64,192,48420,1,0,0:0:0:0:
192,192,48420,1,0,0:0:0:0:
448,192,48495,1,0,0:0:0:0:
192,192,48570,1,0,0:0:0:0:
448,192,48645,1,0,0:0:0:0:
64,192,48720,1,0,0:0:0:0:
320,192,48720,1,0,0:0:0:0:
192,192,48795,1,0,0:0:0:0:
64,192,48870,1,0,0:0:0:0:
192,192,48945,1,0,0:0:0:0:
320,192,49020,1,0,0:0:0:0:
448,192,49020,1,0,0:0:0:0:
192,192,49095,1,0,0:0:0:0:
320,192,49170,1,0,0:0:0:0:
448,192,49170,1,0,0:0:0:0:
192,192,49245,1,0,0:0:0:0:
64,192,49320,1,0,0:0:0:0:
320,192,49320,1,0,0:0:0:0:
448,192,49320,1,0,0:0:0:0:
192,192,49370,1,0,0:0:0:0:
320,192,49420,1,0,0:0:0:0:
64,192,49470,1,0,0:0:0:0:
192,192,49520,1,0,0:0:0:0:
448,192,49570,1,0,0:0:0:0:
320,192,49620,1,0,0:0:0:0:
192,192,49670,1,0,0:0:0:0:
64,192,49720,1,0,0:0:0:0:
192,192,49770,1,0,0:0:0:0:
448,192,49820,1,0,0:0:0:0:
320,192,49870,1,0,0:0:0:0:
192,192,49920,1,0,0:0:0:0:
448,192,49970,1,0,0:0:0:0:
64,192,50020,1,0,0:0:0:0:
192,192,50070,1,0,0:0:0:0:
320,192,50120,1,0,0:0:0:0:
64,192,50170,1,0,0:0:0:0:
448,192,50220,1,0,0:0:0:0:
320,192,50270,1,0,0:0:0:0:
192,192,50320,1,0,0:0:0:0:
320,192,50370,1,0,0:0:0:0:
64,192,50420,1,0,0:0:0:0:
448,192,50470,1,0,0:0:0:0:
192,192,50520,1,0,0:0:0:0:
320,192,50520,1,0,0:0:0:0:
64,192,50583,1,0,0:0:0:0:
448,192,50639,1,0,0:0:0:0:
192,192,50701,1,0,0:0:0:0:
320,192,50758,1,0,0:0:0:0:
64,192,50820,1,0,0:0:0:0:
192,192,50883,1,0,0:0:0:0:
448,192,50939,1,0,0:0:0:0:
320,192,51001,1,0,0:0:0:0:
64,192,51058,1,0,0:0:0:0:
192,192,51120,1,0,0:0:0:0:
320,192,51183,1,0,0:0:0:0:
64,192,51239,1,0,0:0:0:0:
448,192,51301,1,0,0:0:0:0:
320,192,51358,1,0,0:0:0:0:
192,192,51420,1,0,0:0:0:0:
448,192,51483,1,0,0:0:0:0:
64,192,51539,1,0,0:0:0:0:
192,192,51601,1,0,0:0:0:0:
320,192,51658,1,0,0:0:0:0:
64,192,51720,1,0,0:0:0:0:
192,192,51720,1,0,0:0:0:0:
448,192,51720,1,0,0:0:0:0:
320,192,51795,1,0,0:0:0:0:
192,192,51870,1,0,0:0:0:0:
448,192,51870,1,0,0:0:0:0:
320,192,51945,1,0,0:0:0:0:
64,192,52020,1,0,0:0:0:0:
192,192,52020,1,0,0:0:0:0:
320,192,52095,1,0,0:0:0:0:
64,192,52170,1,0,0:0:0:0:
192,192,52170,1,0,0:0:0:0:
448,192,52245,1,0,0:0:0:0:
192,192,52320,1,0,0:0:0:0:
320,192,52320,1,0,0:0:0:0:
64,192,52395,1,0,0:0:0:0:
320,192,52470,1,0,0:0:0:0:
448,192,52470,1,0,0:0:0:0:
192,192,52545,1,0,0:0:0:0:
64,192,52620,1,0,0:0:0:0:
320,192,52620,1,0,0:0:0:0:
192,192,52695,1,0,0:0:0:0:
64,192,52770,1,0,0:0:0:0:
320,192,52770,1,0,0:0:0:0:
192,192,52845,1,0,0:0:0:0:
64,192,52920,1,0,0:0:0:0:
320,192,52920,1,0,0:0:0:0:
448,192,52920,1,0,0:0:0:0:
192,192,52995,1,0,0:0:0:0:
320,192,53070,1,0,0:0:0:0:
448,192,53070,1,0,0:0:0:0:
64,192,53145,1,0,0:0:0:0:
192,192,53220,1,0,0:0:0:0:
448,192,53220,1,0,0:0:0:0:
320,192,53295,1,0,0:0:0:0:
448,192,53370,1,0,0:0:0:0:
320,192,53445,1,0,0:0:0:0:
64,192,53520,1,0,0:0:0:0:
192,192,53520,1,0,0:0:0:0:
448,192,53595,1,0,0:0:0:0:
64,192,53670,1,0,0:0:0:0:
320,192,53670,1,0,0:0:0:0:
192,192,53745,1,0,0:0:0:0:
320,192,53820,1,0,0:0:0:0:
448,192,53820,1,0,0:0:0:0:
64,192,53895,1,0,0:0:0:0:
192,192,53970,1,0,0:0:0:0:
448,192,53970,1,0,0:0:0:0:
320,192,54045,1,0,0:0:0:0:
64,192,54120,1,0,0:0:0:0:
192,192,54120,1,0,0:0:0:0:
448,192,54120,1,0,0:0:0:0:
320,192,54195,1,0,0:0:0:0:
64,192,54270,1,0,0:0:0:0:
192,192,54270,1,0,0:0:0:0:
320,192,54345,1,0,0:0:0:0:
192,192,54420,1,0,0:0:0:0:
448,192,54420,1,0,0:0:0:0:
320,192,54495,1,0,0:0:0:0:
192,192,54570,1,0,0:0:0:0:
448,192,54570,1,0,0:0:0:0:
64,192,54645,1,0,0:0:0:0:
320,192,54720,1,0,0:0:0:0:
448,192,54720,1,0,0:0:0:0:
192,192,54795,1,0,0:0:0:0:
320,192,54870,1,0,0:0:0:0:
448,192,54870,1,0,0:0:0:0:
192,192,54945,1,0,0:0:0:0:
64,192,55020,1,0,0:0:0:0:
320,192,55020,1,0,0:0:0:0:
448,192,55095,1,0,0:0:0:0:
64,192,55170,1,0,0:0:0:0:
320,192,55170,1,0,0:0:0:0:
192,192,55245,1,0,0:0:0:0:
64,192,55320,1,0,0:0:0:0:
320,192,55320,1,0,0:0:0:0:
448,192,55320,1,0,0:0:0:0:
192,192,55395,1,0,0:0:0:0:
320,192,55470,1,0,0:0:0:0:
448,192,55470,1,0,0:0:0:0:
64,192,55545,1,0,0:0:0:0:
192,192,55620,1,0,0:0:0:0:
448,192,55620,1,0,0:0:0:0:
320,192,55695,1,0,0:0:0:0:
64,192,55770,1,0,0:0:0:0:
192,192,55770,1,0,0:0:0:0:
448,192,55845,1,0,0:0:0:0:
64,192,55920,1,0,0:0:0:0:
320,192,55920,1,0,0:0:0:0:
192,192,55995,1,0,0:0:0:0:
320,192,56070,1,0,0:0:0:0:
448,192,56070,1,0,0:0:0:0:
64,192,56145,1,0,0:0:0:0:
320,192,56220,1,0,0:0:0:0:
448,192,56220,1,0,0:0:0:0:
192,192,56295,1,0,0:0:0:0:
64,192,56370,1,0,0:0:0:0:
192,192,56445,1,0,0:0:0:0:
64,192,56520,1,0,0:0:0:0:
320,192,56520,1,0,0:0:0:0:
448,192,56520,1,0,0:0:0:0:
192,192,56595,1,0,0:0:0:0:
320,192,56670,1,0,0:0:0:0:
448,192,56670,1,0,0:0:0:0:
64,192,56745,1,0,0:0:0:0:
192,192,56820,1,0,0:0:0:0:
448,192,56820,1,0,0:0:0:0:
320,192,56895,1,0,0:0:0:0:
192,192,56970,1,0,0:0:0:0:
448,192,56970,1,0,0:0:0:0:
320,192,57045,1,0,0:0:0:0:
64,192,57120,1,0,0:0:0:0:
192,192,57120,1,0,0:0:0:0:
320,192,57195,1,0,0:0:0:0:
448,192,57270,1,0,0:0:0:0:
192,192,57345,1,0,0:0:0:0:
320,192,57420,1,0,0:0:0:0:
64,192,57495,1,0,0:0:0:0:
192,192,57570,1,0,0:0:0:0:
448,192,57570,1,0,0:0:0:0:
320,192,57645,1,0,0:0:0:0:
64,192,57720,1,0,0:0:0:0:
192,192,57720,1,0,0:0:0:0:
448,192,57720,1,0,0:0:0:0:
320,192,57770,1,0,0:0:0:0:
192,192,57820,1,0,0:0:0:0:
448,192,57870,1,0,0:0:0:0:
64,192,57920,1,0,0:0:0:0:
192,192,57970,1,0,0:0:0:0:
320,192,58020,1,0,0:0:0:0:
64,192,58070,1,0,0:0:0:0:
448,192,58120,1,0,0:0:0:0:
320,192,58170,1,0,0:0:0:0:
192,192,58220,1,0,0:0:0:0:
320,192,58270,1,0,0:0:0:0:
448,192,58320,1,0,0:0:0:0:
192,192,58370,1,0,0:0:0:0:
320,192,58420,1,0,0:0:0:0:
64,192,58470,1,0,0:0:0:0:
192,192,58520,1,0,0:0:0:0:
448,192,58570,1,0,0:0:0:0:
64,192,58620,1,0,0:0:0:0:
320,192,58620,1,0,0:0:0:0:
192,192,58670,1,0,0:0:0:0:
448,192,58720,1,0,0:0:0:0:
64,192,58770,1,0,0:0:0:0:
192,192,58820,1,0,0:0:0:0:
448,192,58870,1,0,0:0:0:0:
64,192,58920,1,0,0:0:0:0:
320,192,58920,1,0,0:0:0:0:
192,192,58995,1,0,0:0:0:0:
320,192,59070,1,0,0:0:0:0:
448,192,59070,1,0,0:0:0:0:
192,192,59145,1,0,0:0:0:0:
320,192,59220,1,0,0:0:0:0:
448,192,59220,1,0,0:0:0:0:
64,192,59295,1,0,0:0:0:0:
192,192,59370,1,0,0:0:0:0:
320,192,59445,1,0,0:0:0:0:
64,192,59520,1,0,0:0:0:0:
192,192,59520,1,0,0:0:0:0:
320,192,59595,1,0,0:0:0:0:
64,192,59670,1,0,0:0:0:0:
192,192,59670,1,0,0:0:0:0:
448,192,59745,1,0,0:0:0:0:
320,192,59820,1,0,0:0:0:0:
192,192,59895,1,0,0:0:0:0:
64,192,59970,1,0,0:0:0:0:
320,192,59970,1,0,0:0:0:0:
192,192,60045,1,0,0:0:0:0:
64,192,60120,1,0,0:0:0:0:
320,192,60120,1,0,0:0:0:0:
448,192,60120,1,0,0:0:0:0:
192,192,60195,1,0,0:0:0:0:
64,192,60270,1,0,0:0:0:0:
448,192,60270,1,0,0:0:0:0:
320,192,60345,1,0,0:0:0:0:
192,192,60420,1,0,0:0:0:0:
448,192,60420,1,0,0:0:0:0:
320,192,60495,1,0,0:0:0:0:
192,192,60570,1,0,0:0:0:0:
448,192,60570,1,0,0:0:0:0:
320,192,60645,1,0,0:0:0:0:
64,192,60720,1,0,0:0:0:0:
192,192,60720,1,0,0:0:0:0:
448,192,60795,1,0,0:0:0:0:
320,192,60870,1,0,0:0:0:0:
192,192,60945,1,0,0:0:0:0:
64,192,61020,1,0,0:0:0:0:
320,192,61020,1,0,0:0:0:0:
448,192,61020,1,0,0:0:0:0:
192,192,61095,1,0,0:0:0:0:
320,192,61170,1,0,0:0:0:0:
64,192,61245,1,0,0:0:0:0:
192,192,61320,1,0,0:0:0:0:
320,192,61320,1,0,0:0:0:0:
448,192,61320,1,0,0:0:0:0:
64,192,61395,1,0,0:0:0:0:
192,192,61470,1,0,0:0:0:0:
320,192,61545,1,0,0:0:0:0:
448,192,61620,1,0,0:0:0:0:
320,192,61695,1,0,0:0:0:0:
64,192,61770,1,0,0:0:0:0:
192,192,61770,1,0,0:0:0:0:
448,192,61770,1,0,0:0:0:0:
320,192,61845,1,0,0:0:0:0:
192,192,61920,1,0,0:0:0:0:
64,192,61995,1,0,0:0:0:0:
192,192,62070,1,0,0:0:0:0:
320,192,62145,1,0,0:0:0:0:
64,192,62220,1,0,0:0:0:0:
192,192,62220,1,0,0:0:0:0:
448,192,62220,1,0,0:0:0:0:
320,192,62295,1,0,0:0:0:0:
192,192,62370,1,0,0:0:0:0:
320,192,62445,1,0,0:0:0:0:
64,192,62520,1,0,0:0:0:0:
192,192,62520,1,0,0:0:0:0:
448,192,62520,1,0,0:0:0:0:
320,192,62595,1,0,0:0:0:0:
448,192,62670,1,0,0:0:0:0:
192,192,62745,1,0,0:0:0:0:
64,192,62820,1,0,0:0:0:0:
320,192,62820,1,0,0:0:0:0:
192,192,62895,1,0,0:0:0:0:
448,192,62970,1,0,0:0:0:0:
320,192,63045,1,0,0:0:0:0:
64,192,63120,1,0,0:0:0:0:
192,192,63120,1,0,0:0:0:0:
448,192,63195,1,0,0:0:0:0:
192,192,63270,1,0,0:0:0:0:
320,192,63270,1,0,0:0:0:0:
64,192,63345,1,0,0:0:0:0:
320,192,63420,1,0,0:0:0:0:
448,192,63420,1,0,0:0:0:0:
192,192,63495,1,0,0:0:0:0:
320,192,63570,1,0,0:0:0:0:
448,192,63570,1,0,0:0:0:0:
192,192,63645,1,0,0:0:0:0:
64,192,63720,1,0,0:0:0:0:
320,192,63720,1,0,0:0:0:0:
448,192,63720,1,0,0:0:0:0:
192,192,63795,1,0,0:0:0:0:
64,192,63870,1,0,0:0:0:0:
320,192,63945,1,0,0:0:0:0:
192,192,64020,1,0,0:0:0:0:
448,192,64020,1,0,0:0:0:0:
320,192,64095,1,0,0:0:0:0:
64,192,64170,1,0,0:0:0:0:
192,192,64170,1,0,0:0:0:0:
448,192,64245,1,0,0:0:0:0:
320,192,64320,1,0,0:0:0:0:
448,192,64395,1,0,0:0:0:0:
64,192,64470,1,0,0:0:0:0:
192,192,64470,1,0,0:0:0:0:
320,192,64545,1,0,0:0:0:0:
192,192,64620,1,0,0:0:0:0:
448,192,64620,1,0,0:0:0:0:
64,192,64695,1,0,0:0:0:0:
320,192,64770,1,0,0:0:0:0:
192,192,64845,1,0,0:0:0:0:
64,192,64920,1,0,0:0:0:0:
448,192,64920,1,0,0:0:0:0:
320,192,64995,1,0,0:0:0:0:
448,192,65070,1,0,0:0:0:0:
64,192,65145,1,0,0:0:0:0:
192,192,65220,1,0,0:0:0:0:
320,192,65220,1,0,0:0:0:0:
448,192,65220,1,0,0:0:0:0:
64,192,65295,1,0,0:0:0:0:
448,192,65370,1,0,0:0:0:0:
320,192,65445,1,0,0:0:0:0:
64,192,65520,1,0,0:0:0:0:
192,192,65520,1,0,0:0:0:0:
448,192,65520,1,0,0:0:0:0:
320,192,65595,1,0,0:0:0:0:
64,192,65670,1,0,0:0:0:0:
192,192,65670,1,0,0:0:0:0:
448,192,65745,1,0,0:0:0:0:
320,192,65820,1,0,0:0:0:0:
192,192,65895,1,0,0:0:0:0:
320,192,65970,1,0,0:0:0:0:
448,192,65970,1,0,0:0:0:0:
192,192,66045,1,0,0:0:0:0:
64,192,66120,1,0,0:0:0:0:
320,192,66120,1,0,0:0:0:0:
448,192,66120,1,0,0:0:0:0:
192,192,66195,1,0,0:0:0:0:
64,192,66270,1,0,0:0:0:0:
320,192,66345,1,0,0:0:0:0:
192,192,66420,1,0,0:0:0:0:
448,192,66420,1,0,0:0:0:0:
320,192,66495,1,0,0:0:0:0:
192,192,66570,1,0,0:0:0:0:
448,192,66645,1,0,0:0:0:0:
64,192,66720,1,0,0:0:0:0:
320,192,66720,1,0,0:0:0:0:
448,192,66795,1,0,0:0:0:0:
320,192,66870,1,0,0:0:0:0:
192,192,66945,1,0,0:0:0:0:
64,192,67020,1,0,0:0:0:0:
448,192,67020,1,0,0:0:0:0:
192,192,67095,1,0,0:0:0:0:
64,192,67170,1,0,0:0:0:0:
320,192,67245,1,0,0:0:0:0:
64,192,67320,1,0,0:0:0:0:
192,192,67320,1,0,0:0:0:0:
448,192,67320,1,0,0:0:0:0:
320,192,67395,1,0,0:0:0:0:
448,192,67470,1,0,0:0:0:0:
192,192,67545,1,0,0:0:0:0:
64,192,67620,1,0,0:0:0:0:
320,192,67620,1,0,0:0:0:0:
448,192,67695,1,0,0:0:0:0:
192,192,67770,1,0,0:0:0:0:
64,192,67845,1,0,0:0:0:0:
320,192,67920,1,0,0:0:0:0:
192,192,67995,1,0,0:0:0:0:
64,192,68070,1,0,0:0:0:0:
448,192,68070,1,0,0:0:0:0:
192,192,68145,1,0,0:0:0:0:
320,192,68220,1,0,0:0:0:0:
448,192,68220,1,0,0:0:0:0:
64,192,68295,1,0,0:0:0:0:
192,192,68370,1,0,0:0:0:0:
320,192,68445,1,0,0:0:0:0:
64,192,68520,1,0,0:0:0:0:
192,192,68520,1,0,0:0:0:0:
448,192,68520,1,0,0:0:0:0:
320,192,68595,1,0,0:0:0:0:
192,192,68670,1,0,0:0:0:0:
64,192,68745,1,0,0:0:0:0:
192,192,68820,1,0,0:0:0:0:
320,192,68895,1,0,0:0:0:0:
64,192,68970,1,0,0:0:0:0:
192,192,68970,1,0,0:0:0:0:
448,192,68970,1,0,0:0:0:0:
320,192,69045,1,0,0:0:0:0:
448,192,69120,1,0,0:0:0:0:
320,192,69195,1,0,0:0:0:0:
192,192,69270,1,0,0:0:0:0:
64,192,69345,1,0,0:0:0:0:
192,192,69420,1,0,0:0:0:0:
320,192,69420,1,0,0:0:0:0:
448,192,69420,1,0,0:0:0:0:
64,192,69495,1,0,0:0:0:0:
192,192,69570,1,0,0:0:0:0:
320,192,69645,1,0,0:0:0:0:
64,192,69720,1,0,0:0:0:0:
192,192,69720,1,0,0:0:0:0:
448,192,69720,1,0,0:0:0:0:
320,192,69795,1,0,0:0:0:0:
448,192,69870,1,0,0:0:0:0:
192,192,69945,1,0,0:0:0:0:
320,192,70020,1,0,0:0:0:0:
192,192,70095,1,0,0:0:0:0:
320,192,70170,1,0,0:0:0:0:
64,192,70245,1,0,0:0:0:0:
192,192,70320,1,0,0:0:0:0:
320,192,70320,1,0,0:0:0:0:
448,192,70320,1,0,0:0:0:0:
64,192,70395,1,0,0:0:0:0:
192,192,70470,1,0,0:0:0:0:
320,192,70545,1,0,0:0:0:0:
448,192,70620,1,0,0:0:0:0:
320,192,70695,1,0,0:0:0:0:
64,192,70770,1,0,0:0:0:0:
192,192,70845,1,0,0:0:0:0:
64,192,70920,1,0,0:0:0:0:
320,192,70920,1,0,0:0:0:0:
448,192,70920,1,0,0:0:0:0:
192,192,70995,1,0,0:0:0:0:
320,192,71070,1,0,0:0:0:0:
448,192,71070,1,0,0:0:0:0:
192,192,71145,1,0,0:0:0:0:
320,192,71220,1,0,0:0:0:0:
448,192,71220,1,0,0:0:0:0:
192,192,71295,1,0,0:0:0:0:
320,192,71370,1,0,0:0:0:0:
448,192,71370,1,0,0:0:0:0:
192,192,71445,1,0,0:0:0:0:
320,192,71520,1,0,0:0:0:0:
448,192,71520,1,0,0:0:0:0:
64,192,71570,1,0,0:0:0:0:
192,192,71620,1,0,0:0:0:0:
320,192,71670,1,0,0:0:0:0:
64,192,71720,1,0,0:0:0:0:
448,192,71770,1,0,0:0:0:0:
320,192,71820,1,0,0:0:0:0:
192,192,71870,1,0,0:0:0:0:
448,192,71920,1,0,0:0:0:0:
64,192,71970,1,0,0:0:0:0:
192,192,72020,1,0,0:0:0:0:
320,192,72070,1,0,0:0:0:0:
64,192,72120,1,0,0:0:0:0:
192,192,72120,1,0,0:0:0:0:
448,192,72120,1,0,0:0:0:0:
320,192,72195,1,0,0:0:0:0:
64,192,72270,1,0,0:0:0:0:
192,192,72270,1,0,0:0:0:0:
320,192,72345,1,0,0:0:0:0:
192,192,72420,1,0,0:0:0:0:
448,192,72420,1,0,0:0:0:0:
320,192,72495,1,0,0:0:0:0:
64,192,72570,1,0,0:0:0:0:
448,192,72570,1,0,0:0:0:0:
192,192,72645,1,0,0:0:0:0:
64,192,72720,1,0,0:0:0:0:
320,192,72720,1,0,0:0:0:0:
448,192,72795,1,0,0:0:0:0:
192,192,72870,1,0,0:0:0:0:
64,192,72945,1,0,0:0:0:0:
320,192,73020,1,0,0:0:0:0:
448,192,73020,1,0,0:0:0:0:
192,192,73095,1,0,0:0:0:0:
320,192,73170,1,0,0:0:0:0:
448,192,73170,1,0,0:0:0:0:
64,192,73245,1,0,0:0:0:0:
192,192,73320,1,0,0:0:0:0:
448,192,73395,1,0,0:0:0:0:
64,192,73470,1,0,0:0:0:0:
320,192,73470,1,0,0:0:0:0:
192,192,73545,1,0,0:0:0:0:
320,192,73620,1,0,0:0:0:0:
448,192,73620,1,0,0:0:0:0:
192,192,73695,1,0,0:0:0:0:
64,192,73770,1,0,0:0:0:0:
320,192,73770,1,0,0:0:0:0:
192,192,73845,1,0,0:0:0:0:
320,192,73920,1,0,0:0:0:0:
448,192,73920,1,0,0:0:0:0:
64,192,73995,1,0,0:0:0:0:
448,192,74070,1,0,0:0:0:0:
320,192,74145,1,0,0:0:0:0:
64,192,74220,1,0,0:0:0:0:
192,192,74220,1,0,0:0:0:0:
320,192,74295,1,0,0:0:0:0:
64,192,74370,1,0,0:0:0:0:
192,192,74370,1,0,0:0:0:0:
320,192,74445,1,0,0:0:0:0:
64,192,74520,1,0,0:0:0:0:
192,192,74520,1,0,0:0:0:0:
448,192,74520,1,0,0:0:0:0:
320,192,74595,1,0,0:0:0:0:
64,192,74670,1,0,0:0:0:0:
448,192,74670,1,0,0:0:0:0:
192,192,74745,1,0,0:0:0:0:
320,192,74820,1,0,0:0:0:0:
448,192,74820,1,0,0:0:0:0:
192,192,74895,1,0,0:0:0:0:
64,192,74970,1,0,0:0:0:0:
320,192,74970,1,0,0:0:0:0:
448,192,75045,1,0,0:0:0:0:
64,192,75120,1,0,0:0:0:0:
320,192,75120,1,0,0:0:0:0:
192,192,75195,1,0,0:0:0:0:
448,192,75270,1,0,0:0:0:0:
320,192,75345,1,0,0:0:0:0:
64,192,75420,1,0,0:0:0:0:
192,192,75420,1,0,0:0:0:0:
320,192,75495,1,0,0:0:0:0:
64,192,75570,1,0,0:0:0:0:
192,192,75570,1,0,0:0:0:0:
448,192,75645,1,0,0:0:0:0:
320,192,75720,1,0,0:0:0:0:
192,192,75795,1,0,0:0:0:0:
64,192,75870,1,0,0:0:0:0:
320,192,75870,1,0,0:0:0:0:
448,192,75870,1,0,0:0:0:0:
192,192,75945,1,0,0:0:0:0:
320,192,76020,1,0,0:0:0:0:
448,192,76020,1,0,0:0:0:0:
64,192,76095,1,0,0:0:0:0:
192,192,76170,1,0,0:0:0:0:
320,192,76170,1,0,0:0:0:0:
448,192,76170,1,0,0:0:0:0:
64,192,76245,1,0,0:0:0:0:
320,192,76320,1,0,0:0:0:0:
448,192,76320,1,0,0:0:0:0:
64,192,76395,1,0,0:0:0:0:
192,192,76395,1,0,0:0:0:0:
320,192,76470,1,0,0:0:0:0:
448,192,76470,1,0,0:0:0:0:
192,192,76545,1,0,0:0:0:0:
64,192,76620,1,0,0:0:0:0:
448,192,76620,1,0,0:0:0:0:
192,192,76695,1,0,0:0:0:0:
320,192,76695,1,0,0:0:0:0:
64,192,76770,1,0,0:0:0:0:
448,192,76770,1,0,0:0:0:0:
192,192,76845,1,0,0:0:0:0:
64,192,76920,1,0,0:0:0:0:
320,192,76920,1,0,0:0:0:0:
448,192,76920,1,0,0:0:0:0:
192,192,76995,1,0,0:0:0:0:
320,192,77070,1,0,0:0:0:0:
448,192,77070,1,0,0:0:0:0:
64,192,77145,1,0,0:0:0:0:
192,192,77220,1,0,0:0:0:0:
320,192,77220,1,0,0:0:0:0:
448,192,77295,1,0,0:0:0:0:
64,192,77370,1,0,0:0:0:0:
192,192,77370,1,0,0:0:0:0:
320,192,77445,1,0,0:0:0:0:
192,192,77520,1,0,0:0:0:0:
448,192,77520,1,0,0:0:0:0:
320,192,77595,1,0,0:0:0:0:
448,192,77670,1,0,0:0:0:0:
192,192,77745,1,0,0:0:0:0:
64,192,77820,1,0,0:0:0:0:
320,192,77820,1,0,0:0:0:0:
192,192,77895,1,0,0:0:0:0:
64,192,77970,1,0,0:0:0:0:
320,192,77970,1,0,0:0:0:0:
448,192,78045,1,0,0:0:0:0:
192,192,78120,1,0,0:0:0:0:
320,192,78195,1,0,0:0:0:0:
64,192,78270,1,0,0:0:0:0:
448,192,78270,1,0,0:0:0:0:
192,192,78345,1,0,0:0:0:0:
320,192,78420,1,0,0:0:0:0:
448,192,78420,1,0,0:0:0:0:
192,192,78495,1,0,0:0:0:0:
64,192,78570,1,0,0:0:0:0:
448,192,78570,1,0,0:0:0:0:
320,192,78645,1,0,0:0:0:0:
64,192,78720,1,0,0:0:0:0:
192,192,78720,1,0,0:0:0:0:
448,192,78795,1,0,0:0:0:0:
320,192,78870,1,0,0:0:0:0:
64,192,78945,1,0,0:0:0:0:
192,192,79020,1,0,0:0:0:0:
448,192,79020,1,0,0:0:0:0:
320,192,79095,1,0,0:0:0:0:
192,192,79170,1,0,0:0:0:0:
448,192,79170,1,0,0:0:0:0:
320,192,79245,1,0,0:0:0:0:
64,192,79320,1,0,0:0:0:0:
192,192,79320,1,0,0:0:0:0:
448,192,79320,1,0,0:0:0:0:
320,192,79395,1,0,0:0:0:0:
64,192,79470,1,0,0:0:0:0:
192,192,79470,1,0,0:0:0:0:
448,192,79545,1,0,0:0:0:0:
64,192,79620,1,0,0:0:0:0:
320,192,79620,1,0,0:0:0:0:
192,192,79695,1,0,0:0:0:0:
320,192,79770,1,0,0:0:0:0:
448,192,79770,1,0,0:0:0:0:
192,192,79845,1,0,0:0:0:0:
320,192,79920,1,0,0:0:0:0:
448,192,79920,1,0,0:0:0:0:
64,192,79995,1,0,0:0:0:0:
192,192,79995,1,0,0:0:0:0:
320,192,80070,1,0,0:0:0:0:
448,192,80070,1,0,0:0:0:0:
64,192,80145,1,0,0:0:0:0:
192,192,80145,1,0,0:0:0:0:
320,192,80220,1,0,0:0:0:0:
448,192,80220,1,0,0:0:0:0:
192,192,80295,1,0,0:0:0:0:
320,192,80370,1,0,0:0:0:0:
448,192,80370,1,0,0:0:0:0:
64,192,80420,1,0,0:0:0:0:
192,192,80470,1,0,0:0:0:0:
448,192,80520,1,0,0:0:0:0:
320,192,80570,1,0,0:0:0:0:
64,192,80620,1,0,0:0:0:0:
192,192,80670,1,0,0:0:0:0:
448,192,80670,1,0,0:0:0:0:
320,192,80745,1,0,0:0:0:0:
64,192,80820,1,0,0:0:0:0:
192,192,80820,1,0,0:0:0:0:
448,192,80895,1,0,0:0:0:0:
64,192,80970,1,0,0:0:0:0:
320,192,80970,1,0,0:0:0:0:
192,192,81045,1,0,0:0:0:0:
320,192,81120,1,0,0:0:0:0:
448,192,81120,1,0,0:0:0:0:
64,192,81195,1,0,0:0:0:0:
192,192,81195,1,0,0:0:0:0:
320,192,81270,1,0,0:0:0:0:
448,192,81270,1,0,0:0:0:0:
192,192,81345,1,0,0:0:0:0:
64,192,81420,1,0,0:0:0:0:
448,192,81420,1,0,0:0:0:0:
192,192,81495,1,0,0:0:0:0:
320,192,81495,1,0,0:0:0:0:
64,192,81570,1,0,0:0:0:0:
448,192,81570,1,0,0:0:0:0:
320,192,81645,1,0,0:0:0:0:
64,192,81720,1,0,0:0:0:0:
192,192,81720,1,0,0:0:0:0:
448,192,81720,1,0,0:0:0:0:
320,192,81795,1,0,0:0:0:0:
64,192,81870,1,0,0:0:0:0:
192,192,81945,1,0,0:0:0:0:
320,192,82020,1,0,0:0:0:0:
448,192,82020,1,0,0:0:0:0:
192,192,82095,1,0,0:0:0:0:
64,192,82170,1,0,0:0:0:0:
320,192,82170,1,0,0:0:0:0:
448,192,82245,1,0,0:0:0:0:
64,192,82320,1,0,0:0:0:0:
192,192,82320,1,0,0:0:0:0:
320,192,82395,1,0,0:0:0:0:
64,192,82470,1,0,0:0:0:0:
192,192,82470,1,0,0:0:0:0:
320,192,82545,1,0,0:0:0:0:
192,192,82620,1,0,0:0:0:0:
448,192,82695,1,0,0:0:0:0:
320,192,82770,1,0,0:0:0:0:
64,192,82845,1,0,0:0:0:0:
192,192,82920,1,0,0:0:0:0:
448,192,82920,1,0,0:0:0:0:
320,192,82995,1,0,0:0:0:0:
64,192,83070,1,0,0:0:0:0:
192,192,83070,1,0,0:0:0:0:
448,192,83145,1,0,0:0:0:0:
64,192,83220,1,0,0:0:0:0:
320,192,83220,1,0,0:0:0:0:
192,192,83295,1,0,0:0:0:0:
320,192,83370,1,0,0:0:0:0:
448,192,83370,1,0,0:0:0:0:
64,192,83445,1,0,0:0:0:0:
192,192,83520,1,0,0:0:0:0:
448,192,83520,1,0,0:0:0:0:
320,192,83595,1,0,0:0:0:0:
192,192,83670,1,0,0:0:0:0:
448,192,83670,1,0,0:0:0:0:
320,192,83745,1,0,0:0:0:0:
64,192,83820,1,0,0:0:0:0:
320,192,83895,1,0,0:0:0:0:
64,192,83970,1,0,0:0:0:0:
192,192,83970,1,0,0:0:0:0:
448,192,84045,1,0,0:0:0:0:
192,192,84120,1,0,0:0:0:0:
320,192,84120,1,0,0:0:0:0:
64,192,84195,1,0,0:0:0:0:
192,192,84270,1,0,0:0:0:0:
320,192,84270,1,0,0:0:0:0:
448,192,84345,1,0,0:0:0:0:
64,192,84420,1,0,0:0:0:0:
320,192,84420,1,0,0:0:0:0:
192,192,84495,1,0,0:0:0:0:
320,192,84570,1,0,0:0:0:0:
448,192,84570,1,0,0:0:0:0:
192,192,84645,1,0,0:0:0:0:
64,192,84720,1,0,0:0:0:0:
320,192,84720,1,0,0:0:0:0:
448,192,84795,1,0,0:0:0:0:
64,192,84870,1,0,0:0:0:0:
192,192,84870,1,0,0:0:0:0:
320,192,84945,1,0,0:0:0:0:
448,192,85020,1,0,0:0:0:0:
320,192,85095,1,0,0:0:0:0:
64,192,85170,1,0,0:0:0:0:
192,192,85170,1,0,0:0:0:0:
320,192,85245,1,0,0:0:0:0:
192,192,85320,1,0,0:0:0:0:
448,192,85320,1,0,0:0:0:0:
320,192,85395,1,0,0:0:0:0:
192,192,85470,1,0,0:0:0:0:
448,192,85470,1,0,0:0:0:0:
320,192,85545,1,0,0:0:0:0:
64,192,85620,1,0,0:0:0:0:
192,192,85620,1,0,0:0:0:0:
448,192,85695,1,0,0:0:0:0:
64,192,85770,1,0,0:0:0:0:
192,192,85770,1,0,0:0:0:0:
448,192,85845,1,0,0:0:0:0:
64,192,85920,1,0,0:0:0:0:
320,192,85920,1,0,0:0:0:0:
192,192,85995,1,0,0:0:0:0:
448,192,86070,1,0,0:0:0:0:
320,192,86145,1,0,0:0:0:0:
64,192,86220,1,0,0:0:0:0:
192,192,86220,1,0,0:0:0:0:
320,192,86295,1,0,0:0:0:0:
64,192,86370,1,0,0:0:0:0:
192,192,86445,1,0,0:0:0:0:
320,192,86520,1,0,0:0:0:0:
448,192,86520,1,0,0:0:0:0:
192,192,86595,1,0,0:0:0:0:
320,192,86670,1,0,0:0:0:0:
448,192,86670,1,0,0:0:0:0:
64,192,86745,1,0,0:0:0:0:
192,192,86820,1,0,0:0:0:0:
448,192,86820,1,0,0:0:0:0:
320,192,86895,1,0,0:0:0:0:
64,192,86970,1,0,0:0:0:0:
192,192,86970,1,0,0:0:0:0:
448,192,87045,1,0,0:0:0:0:
64,192,87120,1,0,0:0:0:0:
320,192,87120,1,0,0:0:0:0:
192,192,87195,1,0,0:0:0:0:
64,192,87270,1,0,0:0:0:0:
320,192,87270,1,0,0:0:0:0:
192,192,87345,1,0,0:0:0:0:
320,192,87420,1,0,0:0:0:0:
448,192,87420,1,0,0:0:0:0:
64,192,87495,1,0,0:0:0:0:
192,192,87570,1,0,0:0:0:0:
448,192,87570,1,0,0:0:0:0:
320,192,87645,1,0,0:0:0:0:
192,192,87720,1,0,0:0:0:0:
64,192,87795,1,0,0:0:0:0:
192,192,87870,1,0,0:0:0:0:
320,192,87870,1,0,0:0:0:0:
448,192,87920,1,0,0:0:0:0:
64,192,87970,1,0,0:0:0:0:
192,192,88020,1,0,0:0:0:0:
448,192,88095,1,0,0:0:0:0:
64,192,88170,1,0,0:0:0:0:
320,192,88170,1,0,0:0:0:0:
192,192,88245,1,0,0:0:0:0:
320,192,88320,1,0,0:0:0:0:
448,192,88320,1,0,0:0:0:0:
192,192,88395,1,0,0:0:0:0:
320,192,88470,1,0,0:0:0:0:
448,192,88470,1,0,0:0:0:0:
64,192,88545,1,0,0:0:0:0:
192,192,88620,1,0,0:0:0:0:
64,192,88695,1,0,0:0:0:0:
320,192,88770,1,0,0:0:0:0:
448,192,88770,1,0,0:0:0:0:
192,192,88845,1,0,0:0:0:0:
320,192,88920,1,0,0:0:0:0:
448,192,88920,1,0,0:0:0:0:
192,192,88995,1,0,0:0:0:0:
320,192,89070,1,0,0:0:0:0:
448,192,89070,1,0,0:0:0:0:
192,192,89145,1,0,0:0:0:0:
320,192,89220,1,0,0:0:0:0:
448,192,89220,1,0,0:0:0:0:
192,192,89295,1,0,0:0:0:0:
320,192,89370,1,0,0:0:0:0:
448,192,89370,1,0,0:0:0:0:
192,192,89445,1,0,0:0:0:0:
320,192,89520,1,0,0:0:0:0:
448,192,89520,1,0,0:0:0:0:
192,192,89595,1,0,0:0:0:0:
320,192,89670,1,0,0:0:0:0:
448,192,89670,1,0,0:0:0:0:
192,192,89745,1,0,0:0:0:0:
320,192,89820,1,0,0:0:0:0:
448,192,89820,1,0,0:0:0:0:
192,192,89895,1,0,0:0:0:0:
320,192,89970,1,0,0:0:0:0:
448,192,89970,1,0,0:0:0:0:
192,192,90045,1,0,0:0:0:0:
64,192,90120,1,0,0:0:0:0:
448,192,90120,1,0,0:0:0:0:
192,192,90195,1,0,0:0:0:0:
320,192,90195,1,0,0:0:0:0:
64,192,90270,1,0,0:0:0:0:
448,192,90270,1,0,0:0:0:0:
192,192,90345,1,0,0:0:0:0:
320,192,90420,1,0,0:0:0:0:
448,192,90420,1,0,0:0:0:0:
64,192,90495,1,0,0:0:0:0:
320,192,90570,1,0,0:0:0:0:
448,192,90570,1,0,0:0:0:0:
64,192,90645,1,0,0:0:0:0:
192,192,90645,1,0,0:0:0:0:
320,192,90720,1,0,0:0:0:0:
448,192,90720,1,0,0:0:0:0:
320,192,90870,1,0,0:0:0:0:
448,192,90870,1,0,0:0:0:0:
64,192,91020,1,0,0:0:0:0:
192,192,91020,1,0,0:0:0:0:
64,192,91170,1,0,0:0:0:0:
192,192,91170,1,0,0:0:0:0:
64,192,91320,1,0,0:0:0:0:
320,192,91320,1,0,0:0:0:0:
448,192,91320,1,0,0:0:0:0:
192,192,91395,1,0,0:0:0:0:
64,192,91470,1,0,0:0:0:0:
320,192,91470,1,0,0:0:0:0:
192,192,91545,1,0,0:0:0:0:
320,192,91620,1,0,0:0:0:0:
448,192,91620,1,0,0:0:0:0:
64,192,91695,1,0,0:0:0:0:
320,192,91770,1,0,0:0:0:0:
448,192,91770,1,0,0:0:0:0:
64,192,91845,1,0,0:0:0:0:
192,192,91920,1,0,0:0:0:0:
448,192,91920,1,0,0:0:0:0:
320,192,91995,1,0,0:0:0:0:
448,192,92070,1,0,0:0:0:0:
320,192,92145,1,0,0:0:0:0:
64,192,92220,1,0,0:0:0:0:
192,192,92220,1,0,0:0:0:0:
448,192,92295,1,0,0:0:0:0:
64,192,92370,1,0,0:0:0:0:
192,192,92370,1,0,0:0:0:0:
448,192,92445,1,0,0:0:0:0:
64,192,92520,1,0,0:0:0:0:
192,192,92520,1,0,0:0:0:0:
320,192,92520,1,0,0:0:0:0:
448,192,92595,1,0,0:0:0:0:
320,192,92670,1,0,0:0:0:0:
448,192,92745,1,0,0:0:0:0:
64,192,92820,1,0,0:0:0:0:
192,192,92820,1,0,0:0:0:0:
320,192,92895,1,0,0:0:0:0:
192,192,92970,1,0,0:0:0:0:
448,192,92970,1,0,0:0:0:0:
64,192,93045,1,0,0:0:0:0:
320,192,93120,1,0,0:0:0:0:
448,192,93120,1,0,0:0:0:0:
192,192,93195,1,0,0:0:0:0:
64,192,93270,1,0,0:0:0:0:
320,192,93270,1,0,0:0:0:0:
448,192,93345,1,0,0:0:0:0:
192,192,93420,1,0,0:0:0:0:
448,192,93495,1,0,0:0:0:0:
320,192,93570,1,0,0:0:0:0:
64,192,93645,1,0,0:0:0:0:
192,192,93720,1,0,0:0:0:0:
448,192,93720,1,0,0:0:0:0:
320,192,93795,1,0,0:0:0:0:
64,192,93870,1,0,0:0:0:0:
192,192,93870,1,0,0:0:0:0:
448,192,93945,1,0,0:0:0:0:
64,192,94020,1,0,0:0:0:0:
320,192,94020,1,0,0:0:0:0:
192,192,94095,1,0,0:0:0:0:
320,192,94170,1,0,0:0:0:0:
448,192,94170,1,0,0:0:0:0:
192,192,94245,1,0,0:0:0:0:
64,192,94320,1,0,0:0:0:0:
448,192,94320,1,0,0:0:0:0:
320,192,94395,1,0,0:0:0:0:
64,192,94470,1,0,0:0:0:0:
448,192,94470,1,0,0:0:0:0:
192,192,94545,1,0,0:0:0:0:
320,192,94620,1,0,0:0:0:0:
448,192,94695,1,0,0:0:0:0:
64,192,94770,1,0,0:0:0:0:
192,192,94770,1,0,0:0:0:0:
320,192,94845,1,0,0:0:0:0:
64,192,94920,1,0,0:0:0:0:
448,192,94920,1,0,0:0:0:0:
192,192,94995,1,0,0:0:0:0:
64,192,95070,1,0,0:0:0:0:
192,192,95145,1,0,0:0:0:0:
320,192,95220,1,0,0:0:0:0:
448,192,95220,1,0,0:0:0:0:
64,192,95295,1,0,0:0:0:0:
320,192,95370,1,0,0:0:0:0:
448,192,95370,1,0,0:0:0:0:
64,192,95445,1,0,0:0:0:0:
192,192,95520,1,0,0:0:0:0:
448,192,95520,1,0,0:0:0:0:
320,192,95595,1,0,0:0:0:0:
192,192,95670,1,0,0:0:0:0:
320,192,95745,1,0,0:0:0:0:
64,192,95820,1,0,0:0:0:0:
192,192,95820,1,0,0:0:0:0:
448,192,95895,1,0,0:0:0:0:
320,192,95970,1,0,0:0:0:0:
64,192,96045,1,0,0:0:0:0:
192,192,96120,1,0,0:0:0:0:
448,192,96120,1,0,0:0:0:0:
320,192,96195,1,0,0:0:0:0:
64,192,96270,1,0,0:0:0:0:
192,192,96270,1,0,0:0:0:0:
448,192,96345,1,0,0:0:0:0:
64,192,96420,1,0,0:0:0:0:
320,192,96420,1,0,0:0:0:0:
192,192,96495,1,0,0:0:0:0:
64,192,96570,1,0,0:0:0:0:
320,192,96570,1,0,0:0:0:0:
192,192,96645,1,0,0:0:0:0:
320,192,96720,1,0,0:0:0:0:
448,192,96720,1,0,0:0:0:0:
64,192,96795,1,0,0:0:0:0:
320,192,96870,1,0,0:0:0:0:
448,192,96870,1,0,0:0:0:0:
64,192,96945,1,0,0:0:0:0:
192,192,97020,1,0,0:0:0:0:
448,192,97020,1,0,0:0:0:0:
320,192,97095,1,0,0:0:0:0:
64,192,97170,1,0,0:0:0:0:
192,192,97170,1,0,0:0:0:0:
448,192,97245,1,0,0:0:0:0:
64,192,97320,1,0,0:0:0:0:
320,192,97320,1,0,0:0:0:0:
192,192,97370,1,0,0:0:0:0:
448,192,97420,1,0,0:0:0:0:
320,192,97470,1,0,0:0:0:0:
192,192,97545,1,0,0:0:0:0:
320,192,97620,1,0,0:0:0:0:
448,192,97620,1,0,0:0:0:0:
64,192,97695,1,0,0:0:0:0:
320,192,97770,1,0,0:0:0:0:
448,192,97770,1,0,0:0:0:0:
64,192,97845,1,0,0:0:0:0:
192,192,97920,1,0,0:0:0:0:
448,192,97920,1,0,0:0:0:0:
320,192,97995,1,0,0:0:0:0:
192,192,98070,1,0,0:0:0:0:
448,192,98070,1,0,0:0:0:0:
320,192,98145,1,0,0:0:0:0:
64,192,98220,1,0,0:0:0:0:
192,192,98220,1,0,0:0:0:0:
448,192,98295,1,0,0:0:0:0:
64,192,98370,1,0,0:0:0:0:
320,192,98370,1,0,0:0:0:0:
192,192,98445,1,0,0:0:0:0:
320,192,98520,1,0,0:0:0:0:
448,192,98520,1,0,0:0:0:0:
192,192,98670,1,0,0:0:0:0:
64,192,98820,1,0,0:0:0:0:
320,192,98820,1,0,0:0:0:0:
64,192,98970,1,0,0:0:0:0:
320,192,98970,1,0,0:0:0:0:
192,192,99120,1,0,0:0:0:0:
448,192,99120,1,0,0:0:0:0:
320,192,99270,1,0,0:0:0:0:
64,192,99420,1,0,0:0:0:0:
192,192,99420,1,0,0:0:0:0:
64,192,99570,1,0,0:0:0:0:
192,192,99570,1,0,0:0:0:0:
320,192,99720,1,0,0:0:0:0:
448,192,99720,1,0,0:0:0:0:
192,192,99795,1,0,0:0:0:0:
320,192,99870,1,0,0:0:0:0:
448,192,99870,1,0,0:0:0:0:
64,192,99945,1,0,0:0:0:0:
192,192,100020,1,0,0:0:0:0:
448,192,100020,1,0,0:0:0:0:
64,192,100095,1,0,0:0:0:0:
192,192,100170,1,0,0:0:0:0:
64,192,100245,1,0,0:0:0:0:
320,192,100320,1,0,0:0:0:0:
448,192,100320,1,0,0:0:0:0:
192,192,100395,1,0,0:0:0:0:
320,192,100470,1,0,0:0:0:0:
192,192,100545,1,0,0:0:0:0:
320,192,100620,1,0,0:0:0:0:
448,192,100620,1,0,0:0:0:0:
192,192,100695,1,0,0:0:0:0:
320,192,100770,1,0,0:0:0:0:
448,192,100770,1,0,0:0:0:0:
192,192,100845,1,0,0:0:0:0:
64,192,100920,1,0,0:0:0:0:
320,192,100920,1,0,0:0:0:0:
448,192,100920,1,0,0:0:0:0:
192,192,100970,1,0,0:0:0:0:
320,192,101020,1,0,0:0:0:0:
64,192,101070,1,0,0:0:0:0:
192,192,101120,1,0,0:0:0:0:
448,192,101170,1,0,0:0:0:0:
320,192,101220,1,0,0:0:0:0:
192,192,101270,1,0,0:0:0:0:
64,192,101320,1,0,0:0:0:0:
192,192,101370,1,0,0:0:0:0:
448,192,101420,1,0,0:0:0:0:
320,192,101470,1,0,0:0:0:0:
192,192,101520,1,0,0:0:0:0:
448,192,101570,1,0,0:0:0:0:
64,192,101620,1,0,0:0:0:0:
192,192,101670,1,0,0:0:0:0:
320,192,101720,1,0,0:0:0:0:
64,192,101770,1,0,0:0:0:0:
192,192,101820,1,0,0:0:0:0:
448,192,101820,1,0,0:0:0:0:
320,192,101870,1,0,0:0:0:0:
64,192,101920,1,0,0:0:0:0:
192,192,101970,1,0,0:0:0:0:
448,192,101970,1,0,0:0:0:0:
320,192,102020,1,0,0:0:0:0:
64,192,102070,1,0,0:0:0:0:
192,192,102120,1,0,0:0:0:0:
448,192,102120,1,0,0:0:0:0:
320,192,102183,1,0,0:0:0:0:
448,192,102239,1,0,0:0:0:0:
192,192,102301,1,0,0:0:0:0:
320,192,102358,1,0,0:0:0:0:
64,192,102420,1,0,0:0:0:0:
192,192,102483,1,0,0:0:0:0:
448,192,102539,1,0,0:0:0:0:
320,192,102601,1,0,0:0:0:0:
64,192,102658,1,0,0:0:0:0:
192,192,102720,1,0,0:0:0:0:
320,192,102783,1,0,0:0:0:0:
64,192,102839,1,0,0:0:0:0:
448,192,102901,1,0,0:0:0:0:
320,192,102958,1,0,0:0:0:0:
192,192,103020,1,0,0:0:0:0:
448,192,103083,1,0,0:0:0:0:
64,192,103139,1,0,0:0:0:0:
192,192,103201,1,0,0:0:0:0:
320,192,103258,1,0,0:0:0:0:
64,192,103320,1,0,0:0:0:0:
192,192,103320,1,0,0:0:0:0:
448,192,103320,1,0,0:0:0:0:
320,192,103395,1,0,0:0:0:0:
64,192,103470,1,0,0:0:0:0:
192,192,103470,1,0,0:0:0:0:
448,192,103545,1,0,0:0:0:0:
64,192,103620,1,0,0:0:0:0:
320,192,103620,1,0,0:0:0:0:
192,192,103695,1,0,0:0:0:0:
64,192,103770,1,0,0:0:0:0:
320,192,103770,1,0,0:0:0:0:
448,192,103845,1,0,0:0:0:0:
192,192,103920,1,0,0:0:0:0:
320,192,103920,1,0,0:0:0:0:
64,192,103995,1,0,0:0:0:0:
320,192,104070,1,0,0:0:0:0:
448,192,104070,1,0,0:0:0:0:
192,192,104145,1,0,0:0:0:0:
64,192,104220,1,0,0:0:0:0:
320,192,104220,1,0,0:0:0:0:
192,192,104295,1,0,0:0:0:0:
64,192,104370,1,0,0:0:0:0:
320,192,104370,1,0,0:0:0:0:
192,192,104445,1,0,0:0:0:0:
64,192,104520,1,0,0:0:0:0:
320,192,104520,1,0,0:0:0:0:
448,192,104520,1,0,0:0:0:0:
192,192,104595,1,0,0:0:0:0:
320,192,104670,1,0,0:0:0:0:
448,192,104670,1,0,0:0:0:0:
64,192,104745,1,0,0:0:0:0:
192,192,104820,1,0,0:0:0:0:
448,192,104820,1,0,0:0:0:0:
320,192,104895,1,0,0:0:0:0:
64,192,104970,1,0,0:0:0:0:
192,192,104970,1,0,0:0:0:0:
320,192,105045,1,0,0:0:0:0:
64,192,105120,1,0,0:0:0:0:
192,192,105120,1,0,0:0:0:0:
448,192,105195,1,0,0:0:0:0:
320,192,105270,1,0,0:0:0:0:
192,192,105345,1,0,0:0:0:0:
320,192,105420,1,0,0:0:0:0:
448,192,105420,1,0,0:0:0:0:
64,192,105495,1,0,0:0:0:0:
192,192,105570,1,0,0:0:0:0:
320,192,105645,1,0,0:0:0:0:
64,192,105720,1,0,0:0:0:0:
192,192,105720,1,0,0:0:0:0:
448,192,105720,1,0,0:0:0:0:
320,192,105795,1,0,0:0:0:0:
64,192,105870,1,0,0:0:0:0:
192,192,105870,1,0,0:0:0:0:
320,192,105945,1,0,0:0:0:0:
192,192,106020,1,0,0:0:0:0:
448,192,106020,1,0,0:0:0:0:
320,192,106095,1,0,0:0:0:0:
64,192,106170,1,0,0:0:0:0:
448,192,106170,1,0,0:0:0:0:
192,192,106245,1,0,0:0:0:0:
320,192,106320,1,0,0:0:0:0:
448,192,106320,1,0,0:0:0:0:
192,192,106395,1,0,0:0:0:0:
320,192,106470,1,0,0:0:0:0:
448,192,106470,1,0,0:0:0:0:
192,192,106545,1,0,0:0:0:0:
64,192,106620,1,0,0:0:0:0:
320,192,106620,1,0,0:0:0:0:
448,192,106695,1,0,0:0:0:0:
64,192,106770,1,0,0:0:0:0:
320,192,106770,1,0,0:0:0:0:
192,192,106845,1,0,0:0:0:0:
64,192,106920,1,0,0:0:0:0:
320,192,106920,1,0,0:0:0:0:
448,192,106920,1,0,0:0:0:0:
192,192,106995,1,0,0:0:0:0:
320,192,107070,1,0,0:0:0:0:
448,192,107070,1,0,0:0:0:0:
64,192,107145,1,0,0:0:0:0:
192,192,107220,1,0,0:0:0:0:
448,192,107220,1,0,0:0:0:0:
320,192,107295,1,0,0:0:0:0:
64,192,107370,1,0,0:0:0:0:
192,192,107370,1,0,0:0:0:0:
448,192,107445,1,0,0:0:0:0:
64,192,107520,1,0,0:0:0:0:
320,192,107520,1,0,0:0:0:0:
192,192,107595,1,0,0:0:0:0:
320,192,107670,1,0,0:0:0:0:
448,192,107670,1,0,0:0:0:0:
192,192,107745,1,0,0:0:0:0:
64,192,107820,1,0,0:0:0:0:
192,192,107895,1,0,0:0:0:0:
320,192,107970,1,0,0:0:0:0:
448,192,107970,1,0,0:0:0:0:
192,192,108045,1,0,0:0:0:0:
64,192,108120,1,0,0:0:0:0:
320,192,108120,1,0,0:0:0:0:
448,192,108120,1,0,0:0:0:0:
192,192,108195,1,0,0:0:0:0:
64,192,108270,1,0,0:0:0:0:
320,192,108270,1,0,0:0:0:0:
448,192,108345,1,0,0:0:0:0:
64,192,108420,1,0,0:0:0:0:
192,192,108420,1,0,0:0:0:0:
320,192,108495,1,0,0:0:0:0:
64,192,108570,1,0,0:0:0:0:
192,192,108570,1,0,0:0:0:0:
320,192,108645,1,0,0:0:0:0:
192,192,108720,1,0,0:0:0:0:
448,192,108720,1,0,0:0:0:0:
320,192,108795,1,0,0:0:0:0:
64,192,108870,1,0,0:0:0:0:
448,192,108870,1,0,0:0:0:0:
192,192,108945,1,0,0:0:0:0:
64,192,109020,1,0,0:0:0:0:
320,192,109020,1,0,0:0:0:0:
192,192,109095,1,0,0:0:0:0:
320,192,109170,1,0,0:0:0:0:
448,192,109170,1,0,0:0:0:0:
192,192,109245,1,0,0:0:0:0:
64,192,109320,1,0,0:0:0:0:
320,192,109320,1,0,0:0:0:0:
448,192,109320,1,0,0:0:0:0:
192,192,109370,1,0,0:0:0:0:
320,192,109420,1,0,0:0:0:0:
448,192,109470,1,0,0:0:0:0:
64,192,109520,1,0,0:0:0:0:
192,192,109570,1,0,0:0:0:0:
320,192,109620,1,0,0:0:0:0:
64,192,109670,1,0,0:0:0:0:
448,192,109720,1,0,0:0:0:0:
320,192,109770,1,0,0:0:0:0:
192,192,109820,1,0,0:0:0:0:
320,192,109870,1,0,0:0:0:0:
448,192,109920,1,0,0:0:0:0:
192,192,109970,1,0,0:0:0:0:
64,192,110020,1,0,0:0:0:0:
320,192,110070,1,0,0:0:0:0:
192,192,110120,1,0,0:0:0:0:
448,192,110170,1,0,0:0:0:0:
64,192,110220,1,0,0:0:0:0:
320,192,110220,1,0,0:0:0:0:
192,192,110270,1,0,0:0:0:0:
448,192,110320,1,0,0:0:0:0:
64,192,110370,1,0,0:0:0:0:
192,192,110420,1,0,0:0:0:0:
448,192,110470,1,0,0:0:0:0:
64,192,110520,1,0,0:0:0:0:
320,192,110520,1,0,0:0:0:0:
192,192,110595,1,0,0:0:0:0:
320,192,110670,1,0,0:0:0:0:
448,192,110670,1,0,0:0:0:0:
192,192,110745,1,0,0:0:0:0:
320,192,110820,1,0,0:0:0:0:
448,192,110820,1,0,0:0:0:0:
64,192,110895,1,0,0:0:0:0:
192,192,110970,1,0,0:0:0:0:
320,192,111045,1,0,0:0:0:0:
64,192,111120,1,0,0:0:0:0:
192,192,111120,1,0,0:0:0:0:
320,192,111195,1,0,0:0:0:0:
64,192,111270,1,0,0:0:0:0:
192,192,111270,1,0,0:0:0:0:
448,192,111345,1,0,0:0:0:0:
320,192,111420,1,0,0:0:0:0:
192,192,111495,1,0,0:0:0:0:
64,192,111570,1,0,0:0:0:0:
320,192,111570,1,0,0:0:0:0:
192,192,111645,1,0,0:0:0:0:
64,192,111720,1,0,0:0:0:0:
320,192,111720,1,0,0:0:0:0:
448,192,111720,1,0,0:0:0:0:
192,192,111795,1,0,0:0:0:0:
320,192,111870,1,0,0:0:0:0:
448,192,111870,1,0,0:0:0:0:
64,192,111945,1,0,0:0:0:0:
320,192,112020,1,0,0:0:0:0:
448,192,112020,1,0,0:0:0:0:
192,192,112095,1,0,0:0:0:0:
320,192,112170,1,0,0:0:0:0:
448,192,112170,1,0,0:0:0:0:
64,192,112245,1,0,0:0:0:0:
192,192,112320,1,0,0:0:0:0:
320,192,112320,1,0,0:0:0:0:
448,192,112320,1,0,0:0:0:0:
64,192,112395,1,0,0:0:0:0:
192,192,112470,1,0,0:0:0:0:
320,192,112545,1,0,0:0:0:0:
64,192,112620,1,0,0:0:0:0:
192,192,112620,1,0,0:0:0:0:
448,192,112620,1,0,0:0:0:0:
320,192,112695,1,0,0:0:0:0:
192,192,112770,1,0,0:0:0:0:
448,192,112845,1,0,0:0:0:0:
64,192,112920,1,0,0:0:0:0:
192,192,112920,1,0,0:0:0:0:
320,192,112920,1,0,0:0:0:0:
448,192,112995,1,0,0:0:0:0:
320,192,113070,1,0,0:0:0:0:
192,192,113145,1,0,0:0:0:0:
64,192,113220,1,0,0:0:0:0:
192,192,113295,1,0,0:0:0:0:
64,192,113370,1,0,0:0:0:0:
320,192,113370,1,0,0:0:0:0:
448,192,113370,1,0,0:0:0:0:
192,192,113445,1,0,0:0:0:0:
320,192,113520,1,0,0:0:0:0:
448,192,113595,1,0,0:0:0:0:
320,192,113670,1,0,0:0:0:0:
192,192,113745,1,0,0:0:0:0:
64,192,113820,1,0,0:0:0:0:
320,192,113820,1,0,0:0:0:0:
448,192,113820,1,0,0:0:0:0:
192,192,113895,1,0,0:0:0:0:
320,192,113970,1,0,0:0:0:0:
192,192,114045,1,0,0:0:0:0:
64,192,114120,1,0,0:0:0:0:
320,192,114120,1,0,0:0:0:0:
448,192,114120,1,0,0:0:0:0:
192,192,114195,1,0,0:0:0:0:
64,192,114270,1,0,0:0:0:0:
320,192,114345,1,0,0:0:0:0:
192,192,114420,1,0,0:0:0:0:
448,192,114420,1,0,0:0:0:0:
320,192,114495,1,0,0:0:0:0:
64,192,114570,1,0,0:0:0:0:
192,192,114645,1,0,0:0:0:0:
320,192,114720,1,0,0:0:0:0:
448,192,114720,1,0,0:0:0:0:
64,192,114795,1,0,0:0:0:0:
192,192,114870,1,0,0:0:0:0:
320,192,114870,1,0,0:0:0:0:
448,192,114945,1,0,0:0:0:0:
64,192,115020,1,0,0:0:0:0:
192,192,115020,1,0,0:0:0:0:
320,192,115095,1,0,0:0:0:0:
64,192,115170,1,0,0:0:0:0:
192,192,115170,1,0,0:0:0:0:
320,192,115245,1,0,0:0:0:0:
64,192,115320,1,0,0:0:0:0:
192,192,115320,1,0,0:0:0:0:
448,192,115320,1,0,0:0:0:0:
320,192,115395,1,0,0:0:0:0:
448,192,115470,1,0,0:0:0:0:
192,192,115545,1,0,0:0:0:0:
64,192,115620,1,0,0:0:0:0:
320,192,115620,1,0,0:0:0:0:
192,192,115695,1,0,0:0:0:0:
320,192,115770,1,0,0:0:0:0:
448,192,115770,1,0,0:0:0:0:
64,192,115845,1,0,0:0:0:0:
192,192,115920,1,0,0:0:0:0:
64,192,115995,1,0,0:0:0:0:
320,192,116070,1,0,0:0:0:0:
448,192,116070,1,0,0:0:0:0:
192,192,116145,1,0,0:0:0:0:
64,192,116220,1,0,0:0:0:0:
320,192,116220,1,0,0:0:0:0:
448,192,116295,1,0,0:0:0:0:
320,192,116370,1,0,0:0:0:0:
192,192,116445,1,0,0:0:0:0:
64,192,116520,1,0,0:0:0:0:
448,192,116520,1,0,0:0:0:0:
192,192,116595,1,0,0:0:0:0:
64,192,116670,1,0,0:0:0:0:
448,192,116670,1,0,0:0:0:0:
320,192,116745,1,0,0:0:0:0:
64,192,116820,1,0,0:0:0:0:
192,192,116820,1,0,0:0:0:0:
448,192,116820,1,0,0:0:0:0:
320,192,116895,1,0,0:0:0:0:
192,192,116970,1,0,0:0:0:0:
320,192,117045,1,0,0:0:0:0:
64,192,117120,1,0,0:0:0:0:
192,192,117120,1,0,0:0:0:0:
448,192,117120,1,0,0:0:0:0:
320,192,117195,1,0,0:0:0:0:
64,192,117270,1,0,0:0:0:0:
448,192,117270,1,0,0:0:0:0:
192,192,117345,1,0,0:0:0:0:
320,192,117420,1,0,0:0:0:0:
448,192,117495,1,0,0:0:0:0:
64,192,117570,1,0,0:0:0:0:
320,192,117570,1,0,0:0:0:0:
192,192,117645,1,0,0:0:0:0:
64,192,117720,1,0,0:0:0:0:
320,192,117720,1,0,0:0:0:0:
448,192,117720,1,0,0:0:0:0:
192,192,117795,1,0,0:0:0:0:
320,192,117870,1,0,0:0:0:0:
448,192,117945,1,0,0:0:0:0:
64,192,118020,1,0,0:0:0:0:
320,192,118020,1,0,0:0:0:0:
192,192,118095,1,0,0:0:0:0:
320,192,118170,1,0,0:0:0:0:
64,192,118245,1,0,0:0:0:0:
192,192,118320,1,0,0:0:0:0:
448,192,118320,1,0,0:0:0:0:
64,192,118395,1,0,0:0:0:0:
192,192,118470,1,0,0:0:0:0:
320,192,118545,1,0,0:0:0:0:
64,192,118620,1,0,0:0:0:0:
448,192,118620,1,0,0:0:0:0:
320,192,118695,1,0,0:0:0:0:
192,192,118770,1,0,0:0:0:0:
64,192,118845,1,0,0:0:0:0:
192,192,118920,1,0,0:0:0:0:
320,192,118920,1,0,0:0:0:0:
448,192,118920,1,0,0:0:0:0:
64,192,118995,1,0,0:0:0:0:
192,192,119070,1,0,0:0:0:0:
320,192,119145,1,0,0:0:0:0:
192,192,119220,1,0,0:0:0:0:
448,192,119220,1,0,0:0:0:0:
64,192,119295,1,0,0:0:0:0:
320,192,119370,1,0,0:0:0:0:
448,192,119445,1,0,0:0:0:0:
192,192,119520,1,0,0:0:0:0:
320,192,119595,1,0,0:0:0:0:
64,192,119670,1,0,0:0:0:0:
192,192,119745,1,0,0:0:0:0:
320,192,119820,1,0,0:0:0:0:
448,192,119820,1,0,0:0:0:0:
64,192,119895,1,0,0:0:0:0:
192,192,119970,1,0,0:0:0:0:
320,192,120045,1,0,0:0:0:0:
64,192,120120,1,0,0:0:0:0:
192,192,120120,1,0,0:0:0:0:
448,192,120120,1,0,0:0:0:0:
320,192,120195,1,0,0:0:0:0:
192,192,120270,1,0,0:0:0:0:
320,192,120345,1,0,0:0:0:0:
192,192,120420,1,0,0:0:0:0:
64,192,120495,1,0,0:0:0:0:
192,192,120570,1,0,0:0:0:0:
320,192,120570,1,0,0:0:0:0:
448,192,120570,1,0,0:0:0:0:
64,192,120645,1,0,0:0:0:0:
192,192,120720,1,0,0:0:0:0:
320,192,120795,1,0,0:0:0:0:
448,192,120870,1,0,0:0:0:0:
320,192,120945,1,0,0:0:0:0:
64,192,121020,1,0,0:0:0:0:
192,192,121020,1,0,0:0:0:0:
448,192,121020,1,0,0:0:0:0:
320,192,121095,1,0,0:0:0:0:
192,192,121170,1,0,0:0:0:0:
320,192,121245,1,0,0:0:0:0:
64,192,121320,1,0,0:0:0:0:
192,192,121320,1,0,0:0:0:0:
448,192,121320,1,0,0:0:0:0:
320,192,121395,1,0,0:0:0:0:
192,192,121470,1,0,0:0:0:0:
64,192,121545,1,0,0:0:0:0:
192,192,121620,1,0,0:0:0:0:
320,192,121695,1,0,0:0:0:0:
192,192,121770,1,0,0:0:0:0:
64,192,121845,1,0,0:0:0:0:
192,192,121920,1,0,0:0:0:0:
320,192,121920,1,0,0:0:0:0:
448,192,121920,1,0,0:0:0:0:
64,192,121995,1,0,0:0:0:0:
192,192,122070,1,0,0:0:0:0:
320,192,122145,1,0,0:0:0:0:
448,192,122220,1,0,0:0:0:0:
320,192,122295,1,0,0:0:0:0:
192,192,122370,1,0,0:0:0:0:
64,192,122445,1,0,0:0:0:0:
320,192,122520,1,0,0:0:0:0:
448,192,122570,1,0,0:0:0:0:
192,192,122620,1,0,0:0:0:0:
320,192,122670,1,0,0:0:0:0:
64,192,122720,1,0,0:0:0:0:
192,192,122770,1,0,0:0:0:0:
320,192,122820,1,0,0:0:0:0:
448,192,122870,1,0,0:0:0:0:
320,192,122920,1,0,0:0:0:0:
64,192,122970,1,0,0:0:0:0:
448,192,123020,1,0,0:0:0:0:
192,192,123070,1,0,0:0:0:0:
64,192,123120,1,0,0:0:0:0:
448,192,123170,1,0,0:0:0:0:
320,192,123220,1,0,0:0:0:0:
192,192,123270,1,0,0:0:0:0:
448,192,123320,1,0,0:0:0:0:
64,192,123370,1,0,0:0:0:0:
192,192,123420,1,0,0:0:0:0:
320,192,123470,1,0,0:0:0:0:
64,192,123520,1,0,0:0:0:0:
448,192,123570,1,0,0:0:0:0:
320,192,123620,1,0,0:0:0:0:
192,192,123670,1,0,0:0:0:0:
64,192,123720,1,0,0:0:0:0:
448,192,123720,1,0,0:0:0:0:
320,192,123870,1,0,0:0:0:0:
192,192,124020,1,0,0:0:0:0:
64,192,124170,1,0,0:0:0:0:
320,192,124170,1,0,0:0:0:0:
448,192,124320,1,0,0:0:0:0:
192,192,124470,1,0,0:0:0:0:
64,192,124620,1,0,0:0:0:0:
192,192,124695,1,0,0:0:0:0:
64,192,124770,1,0,0:0:0:0:
192,192,124845,1,0,0:0:0:0:
320,192,124920,128,0,124970:0:0:0:0:
448,192,124920,1,0,0:0:0:0:
320,192,125070,1,0,0:0:0:0:
448,192,125070,1,0,0:0:0:0:
192,192,125220,1,0,0:0:0:0:
64,192,125370,1,0,0:0:0:0:
448,192,125370,1,0,0:0:0:0:
320,192,125520,1,0,0:0:0:0:
192,192,125670,1,0,0:0:0:0:
320,192,125820,1,0,0:0:0:0:
192,192,125895,1,0,0:0:0:0:
320,192,125970,1,0,0:0:0:0:
192,192,126045,1,0,0:0:0:0:
64,192,126120,128,0,126170:0:0:0:0:
448,192,126120,1,0,0:0:0:0:
192,192,126270,1,0,0:0:0:0:
320,192,126420,1,0,0:0:0:0:
192,192,126570,1,0,0:0:0:0:
448,192,126570,1,0,0:0:0:0:
320,192,126720,1,0,0:0:0:0:
64,192,126870,1,0,0:0:0:0:
320,192,127020,1,0,0:0:0:0:
448,192,127095,1,0,0:0:0:0:
320,192,127170,1,0,0:0:0:0:
448,192,127245,1,0,0:0:0:0:
64,192,127320,1,0,0:0:0:0:
192,192,127320,128,0,127370:0:0:0:0:
64,192,127470,1,0,0:0:0:0:
192,192,127470,1,0,0:0:0:0:
320,192,127620,1,0,0:0:0:0:
64,192,127770,1,0,0:0:0:0:
192,192,127770,1,0,0:0:0:0:
320,192,127920,128,0,128220:0:0:0:0:
64,192,128070,1,0,0:0:0:0:
192,192,128070,1,0,0:0:0:0:
448,192,128145,1,0,0:0:0:0:
192,192,128220,1,0,0:0:0:0:
448,192,128295,1,0,0:0:0:0:
192,192,128370,1,0,0:0:0:0:
448,192,128445,1,0,0:0:0:0:
64,192,128520,128,0,128970:0:0:0:0:
320,192,128520,128,0,128570:0:0:0:0:
192,192,128670,1,0,0:0:0:0:
320,192,128820,1,0,0:0:0:0:
192,192,128970,1,0,0:0:0:0:
448,192,128970,1,0,0:0:0:0:
320,192,129120,1,0,0:0:0:0:
448,192,129270,1,0,0:0:0:0:
320,192,129420,1,0,0:0:0:0:
64,192,129495,1,0,0:0:0:0:
320,192,129570,1,0,0:0:0:0:
64,192,129645,1,0,0:0:0:0:
192,192,129720,1,0,0:0:0:0:
448,192,129720,128,0,129770:0:0:0:0:
192,192,129870,1,0,0:0:0:0:
448,192,129870,1,0,0:0:0:0:
320,192,130020,1,0,0:0:0:0:
64,192,130170,1,0,0:0:0:0:
192,192,130170,1,0,0:0:0:0:
320,192,130320,1,0,0:0:0:0:
448,192,130320,128,0,130620:0:0:0:0:
192,192,130470,1,0,0:0:0:0:
320,192,130620,1,0,0:0:0:0:
64,192,130695,1,0,0:0:0:0:
320,192,130770,1,0,0:0:0:0:
64,192,130845,1,0,0:0:0:0:
192,192,130920,128,0,131370:0:0:0:0:
448,192,130920,128,0,130970:0:0:0:0:
320,192,131070,1,0,0:0:0:0:
448,192,131220,1,0,0:0:0:0:
64,192,131370,1,0,0:0:0:0:
320,192,131370,1,0,0:0:0:0:
448,192,131520,1,0,0:0:0:0:
320,192,131670,1,0,0:0:0:0:
64,192,131820,1,0,0:0:0:0:
192,192,131895,1,0,0:0:0:0:
64,192,131970,1,0,0:0:0:0:
192,192,132045,1,0,0:0:0:0:
320,192,132120,128,0,132170:0:0:0:0:
448,192,132120,1,0,0:0:0:0:
320,192,132270,1,0,0:0:0:0:
448,192,132270,1,0,0:0:0:0:
64,192,132420,1,0,0:0:0:0:
192,192,132570,1,0,0:0:0:0:
448,192,132570,1,0,0:0:0:0:
64,192,132720,128,0,133020:0:0:0:0:
320,192,132720,1,0,0:0:0:0:
192,192,132870,1,0,0:0:0:0:
448,192,132870,1,0,0:0:0:0:
320,192,133020,1,0,0:0:0:0:
192,192,133095,1,0,0:0:0:0:
320,192,133170,1,0,0:0:0:0:
192,192,133245,1,0,0:0:0:0:
64,192,133320,128,0,133370:0:0:0:0:
320,192,133320,128,0,133770:0:0:0:0:
192,192,133470,1,0,0:0:0:0:
448,192,133620,1,0,0:0:0:0:
64,192,133770,1,0,0:0:0:0:
192,192,133770,1,0,0:0:0:0:
448,192,133920,1,0,0:0:0:0:
192,192,134070,1,0,0:0:0:0:
320,192,134220,1,0,0:0:0:0:
192,192,134295,1,0,0:0:0:0:
320,192,134370,1,0,0:0:0:0:
192,192,134445,1,0,0:0:0:0:
64,192,134520,1,0,0:0:0:0:
448,192,134520,128,0,134570:0:0:0:0:
64,192,134670,1,0,0:0:0:0:
448,192,134670,1,0,0:0:0:0:
320,192,134820,1,0,0:0:0:0:
64,192,134970,1,0,0:0:0:0:
192,192,134970,1,0,0:0:0:0:
320,192,135120,128,0,135420:0:0:0:0:
448,192,135120,1,0,0:0:0:0:
192,192,135270,1,0,0:0:0:0:
448,192,135420,1,0,0:0:0:0:
64,192,135495,1,0,0:0:0:0:
448,192,135570,1,0,0:0:0:0:
64,192,135645,1,0,0:0:0:0:
192,192,135720,128,0,135770:0:0:0:0:
448,192,135720,128,0,136170:0:0:0:0:
320,192,135870,1,0,0:0:0:0:
64,192,136020,1,0,0:0:0:0:
192,192,136170,1,0,0:0:0:0:
320,192,136170,1,0,0:0:0:0:
64,192,136320,1,0,0:0:0:0:
192,192,136470,1,0,0:0:0:0:
448,192,136620,1,0,0:0:0:0:
192,192,136695,1,0,0:0:0:0:
448,192,136770,1,0,0:0:0:0:
192,192,136845,1,0,0:0:0:0:
64,192,136920,128,0,141720:0:0:0:0:
320,192,136920,1,0,0:0:0:0:
320,192,137070,1,0,0:0:0:0:
192,192,137220,1,0,0:0:0:0:
320,192,137370,1,0,0:0:0:0:
448,192,137370,1,0,0:0:0:0:
192,192,137520,128,0,137670:0:0:0:0:
320,192,137670,1,0,0:0:0:0:
448,192,137820,1,0,0:0:0:0:
320,192,137895,1,0,0:0:0:0:
448,192,137970,1,0,0:0:0:0:
320,192,138045,1,0,0:0:0:0:
192,192,138120,1,0,0:0:0:0:
448,192,138120,1,0,0:0:0:0:
320,192,138270,1,0,0:0:0:0:
192,192,138420,1,0,0:0:0:0:
320,192,138570,1,0,0:0:0:0:
448,192,138570,1,0,0:0:0:0:
192,192,138720,1,0,0:0:0:0:
448,192,138870,1,0,0:0:0:0:
320,192,139020,1,0,0:0:0:0:
448,192,139095,1,0,0:0:0:0:
320,192,139170,1,0,0:0:0:0:
448,192,139245,1,0,0:0:0:0:
192,192,139320,128,0,139370:0:0:0:0:
320,192,139320,1,0,0:0:0:0:
320,192,139470,1,0,0:0:0:0:
192,192,139620,1,0,0:0:0:0:
320,192,139770,1,0,0:0:0:0:
448,192,139770,1,0,0:0:0:0:
192,192,139920,1,0,0:0:0:0:
320,192,140070,1,0,0:0:0:0:
448,192,140220,1,0,0:0:0:0:
320,192,140295,1,0,0:0:0:0:
448,192,140370,1,0,0:0:0:0:
320,192,140445,1,0,0:0:0:0:
192,192,140520,128,0,140570:0:0:0:0:
448,192,140520,1,0,0:0:0:0:
320,192,140670,1,0,0:0:0:0:
448,192,140820,1,0,0:0:0:0:
192,192,140970,1,0,0:0:0:0:
320,192,140970,1,0,0:0:0:0:
448,192,141120,1,0,0:0:0:0:
320,192,141270,1,0,0:0:0:0:
448,192,141420,1,0,0:0:0:0:
320,192,141495,1,0,0:0:0:0:
448,192,141570,1,0,0:0:0:0:
320,192,141645,1,0,0:0:0:0:
192,192,141720,1,0,0:0:0:0:
448,192,141720,1,0,0:0:0:0:
320,192,141770,1,0,0:0:0:0:
64,192,141820,1,0,0:0:0:0:
192,192,141870,1,0,0:0:0:0:
448,192,141920,1,0,0:0:0:0:
320,192,141970,1,0,0:0:0:0:
64,192,142020,128,0,142170:0:0:0:0:
192,192,142020,128,0,142170:0:0:0:0:
320,192,142220,1,0,0:0:0:0:
192,192,142270,1,0,0:0:0:0:
448,192,142320,128,0,142358:0:0:0:0:
320,192,142395,128,0,142433:0:0:0:0:
64,192,142470,128,0,142508:0:0:0:0:
192,192,142545,128,0,142583:0:0:0:0:
448,192,142620,128,0,142658:0:0:0:0:
64,192,142695,128,0,142733:0:0:0:0:
320,192,142770,128,0,142808:0:0:0:0:
192,192,142845,128,0,142883:0:0:0:0:
64,192,142920,1,0,0:0:0:0:
320,192,142920,1,0,0:0:0:0:
448,192,142920,1,0,0:0:0:0:
192,192,142995,1,0,0:0:0:0:
320,192,143070,1,0,0:0:0:0:
448,192,143070,1,0,0:0:0:0:
192,192,143145,1,0,0:0:0:0:
64,192,143220,1,0,0:0:0:0:
320,192,143220,1,0,0:0:0:0:
192,192,143295,1,0,0:0:0:0:
64,192,143370,1,0,0:0:0:0:
448,192,143370,1,0,0:0:0:0:
320,192,143445,1,0,0:0:0:0:
192,192,143520,1,0,0:0:0:0:
448,192,143520,1,0,0:0:0:0:
64,192,143595,1,0,0:0:0:0:
320,192,143670,1,0,0:0:0:0:
448,192,143745,1,0,0:0:0:0:
64,192,143820,1,0,0:0:0:0:
192,192,143820,1,0,0:0:0:0:
320,192,143895,1,0,0:0:0:0:
64,192,143970,1,0,0:0:0:0:
192,192,143970,1,0,0:0:0:0:
448,192,144045,1,0,0:0:0:0:
320,192,144120,1,0,0:0:0:0:
64,192,144195,1,0,0:0:0:0:
192,192,144270,1,0,0:0:0:0:
448,192,144270,1,0,0:0:0:0:
320,192,144345,1,0,0:0:0:0:
64,192,144420,1,0,0:0:0:0:
192,192,144420,1,0,0:0:0:0:
320,192,144495,1,0,0:0:0:0:
192,192,144570,1,0,0:0:0:0:
448,192,144570,1,0,0:0:0:0:
320,192,144645,1,0,0:0:0:0:
64,192,144720,1,0,0:0:0:0:
192,192,144720,1,0,0:0:0:0:
448,192,144795,1,0,0:0:0:0:
64,192,144870,1,0,0:0:0:0:
192,192,144945,1,0,0:0:0:0:
320,192,145020,1,0,0:0:0:0:
448,192,145020,1,0,0:0:0:0:
192,192,145095,1,0,0:0:0:0:
320,192,145170,1,0,0:0:0:0:
448,192,145170,1,0,0:0:0:0:
192,192,145245,1,0,0:0:0:0:
64,192,145320,1,0,0:0:0:0:
320,192,145320,1,0,0:0:0:0:
448,192,145320,1,0,0:0:0:0:
192,192,145395,1,0,0:0:0:0:
64,192,145470,1,0,0:0:0:0:
448,192,145470,1,0,0:0:0:0:
192,192,145545,1,0,0:0:0:0:
64,192,145620,1,0,0:0:0:0:
320,192,145620,1,0,0:0:0:0:
192,192,145695,1,0,0:0:0:0:
320,192,145770,1,0,0:0:0:0:
448,192,145770,1,0,0:0:0:0:
64,192,145845,1,0,0:0:0:0:
192,192,145920,1,0,0:0:0:0:
448,192,145920,1,0,0:0:0:0:
320,192,145995,1,0,0:0:0:0:
192,192,146070,1,0,0:0:0:0:
448,192,146145,1,0,0:0:0:0:
64,192,146220,1,0,0:0:0:0:
320,192,146220,1,0,0:0:0:0:
192,192,146295,1,0,0:0:0:0:
320,192,146370,1,0,0:0:0:0:
448,192,146370,1,0,0:0:0:0:
64,192,146445,1,0,0:0:0:0:
192,192,146520,1,0,0:0:0:0:
320,192,146595,1,0,0:0:0:0:
64,192,146670,1,0,0:0:0:0:
448,192,146720,1,0,0:0:0:0:
320,192,146770,1,0,0:0:0:0:
64,192,146820,1,0,0:0:0:0:
192,192,146820,1,0,0:0:0:0:
448,192,146895,1,0,0:0:0:0:
64,192,146970,1,0,0:0:0:0:
320,192,146970,1,0,0:0:0:0:
192,192,147045,1,0,0:0:0:0:
320,192,147120,1,0,0:0:0:0:
448,192,147120,1,0,0:0:0:0:
64,192,147195,1,0,0:0:0:0:
192,192,147195,1,0,0:0:0:0:
320,192,147270,1,0,0:0:0:0:
448,192,147270,1,0,0:0:0:0:
64,192,147345,1,0,0:0:0:0:
192,192,147345,1,0,0:0:0:0:
320,192,147420,1,0,0:0:0:0:
448,192,147420,1,0,0:0:0:0:
64,192,147495,1,0,0:0:0:0:
192,192,147495,1,0,0:0:0:0:
320,192,147570,1,0,0:0:0:0:
448,192,147570,1,0,0:0:0:0:
64,192,147645,1,0,0:0:0:0:
192,192,147645,1,0,0:0:0:0:
320,192,147720,1,0,0:0:0:0:
448,192,147720,1,0,0:0:0:0:
192,192,147795,1,0,0:0:0:0:
64,192,147870,1,0,0:0:0:0:
320,192,147870,1,0,0:0:0:0:
192,192,147945,1,0,0:0:0:0:
320,192,148020,1,0,0:0:0:0:
448,192,148020,1,0,0:0:0:0:
64,192,148095,1,0,0:0:0:0:
192,192,148170,1,0,0:0:0:0:
448,192,148170,1,0,0:0:0:0:
320,192,148245,1,0,0:0:0:0:
64,192,148320,1,0,0:0:0:0:
448,192,148320,1,0,0:0:0:0:
192,192,148395,1,0,0:0:0:0:
64,192,148470,1,0,0:0:0:0:
320,192,148545,1,0,0:0:0:0:
192,192,148620,1,0,0:0:0:0:
448,192,148620,1,0,0:0:0:0:
320,192,148695,1,0,0:0:0:0:
64,192,148770,1,0,0:0:0:0:
192,192,148770,1,0,0:0:0:0:
448,192,148845,1,0,0:0:0:0:
320,192,148920,1,0,0:0:0:0:
192,192,148995,1,0,0:0:0:0:
64,192,149070,1,0,0:0:0:0:
448,192,149070,1,0,0:0:0:0:
192,192,149145,1,0,0:0:0:0:
320,192,149220,1,0,0:0:0:0:
448,192,149220,1,0,0:0:0:0:
192,192,149295,1,0,0:0:0:0:
64,192,149370,1,0,0:0:0:0:
320,192,149370,1,0,0:0:0:0:
448,192,149445,1,0,0:0:0:0:
64,192,149520,1,0,0:0:0:0:
192,192,149520,1,0,0:0:0:0:
448,192,149595,1,0,0:0:0:0:
320,192,149670,1,0,0:0:0:0:
64,192,149745,1,0,0:0:0:0:
192,192,149820,1,0,0:0:0:0:
448,192,149820,1,0,0:0:0:0:
320,192,149895,1,0,0:0:0:0:
192,192,149970,1,0,0:0:0:0:
448,192,149970,1,0,0:0:0:0:
320,192,150045,1,0,0:0:0:0:
64,192,150120,1,0,0:0:0:0:
192,192,150120,1,0,0:0:0:0:
448,192,150120,1,0,0:0:0:0:
320,192,150195,1,0,0:0:0:0:
64,192,150270,1,0,0:0:0:0:
192,192,150270,1,0,0:0:0:0:
448,192,150345,1,0,0:0:0:0:
64,192,150420,1,0,0:0:0:0:
320,192,150420,1,0,0:0:0:0:
192,192,150495,1,0,0:0:0:0:
320,192,150570,1,0,0:0:0:0:
448,192,150570,1,0,0:0:0:0:
192,192,150645,1,0,0:0:0:0:
320,192,150720,1,0,0:0:0:0:
448,192,150720,1,0,0:0:0:0:
64,192,150795,1,0,0:0:0:0:
192,192,150795,1,0,0:0:0:0:
320,192,150870,1,0,0:0:0:0:
448,192,150870,1,0,0:0:0:0:
64,192,150945,1,0,0:0:0:0:
192,192,150945,1,0,0:0:0:0:
320,192,151020,1,0,0:0:0:0:
448,192,151020,1,0,0:0:0:0:
192,192,151095,1,0,0:0:0:0:
320,192,151170,1,0,0:0:0:0:
448,192,151170,1,0,0:0:0:0:
64,192,151245,1,0,0:0:0:0:
192,192,151320,1,0,0:0:0:0:
320,192,151320,1,0,0:0:0:0:
448,192,151395,1,0,0:0:0:0:
64,192,151470,1,0,0:0:0:0:
320,192,151470,1,0,0:0:0:0:
192,192,151545,1,0,0:0:0:0:
320,192,151620,1,0,0:0:0:0:
448,192,151620,1,0,0:0:0:0:
64,192,151695,1,0,0:0:0:0:
192,192,151770,1,0,0:0:0:0:
448,192,151770,1,0,0:0:0:0:
320,192,151845,1,0,0:0:0:0:
64,192,151920,1,0,0:0:0:0:
192,192,151920,1,0,0:0:0:0:
320,192,151995,1,0,0:0:0:0:
448,192,151995,1,0,0:0:0:0:
64,192,152070,1,0,0:0:0:0:
192,192,152070,1,0,0:0:0:0:
320,192,152145,1,0,0:0:0:0:
64,192,152220,1,0,0:0:0:0:
448,192,152220,1,0,0:0:0:0:
192,192,152295,1,0,0:0:0:0:
320,192,152295,1,0,0:0:0:0:
64,192,152370,1,0,0:0:0:0:
448,192,152370,1,0,0:0:0:0:
320,192,152445,1,0,0:0:0:0:
64,192,152520,1,0,0:0:0:0:
192,192,152520,1,0,0:0:0:0:
448,192,152520,1,0,0:0:0:0:
320,192,152595,1,0,0:0:0:0:
192,192,152670,1,0,0:0:0:0:
448,192,152670,1,0,0:0:0:0:
320,192,152745,1,0,0:0:0:0:
64,192,152820,1,0,0:0:0:0:
448,192,152820,1,0,0:0:0:0:
192,192,152895,1,0,0:0:0:0:
64,192,152970,1,0,0:0:0:0:
448,192,152970,1,0,0:0:0:0:
320,192,153045,1,0,0:0:0:0:
64,192,153120,1,0,0:0:0:0:
192,192,153120,1,0,0:0:0:0:
320,192,153195,1,0,0:0:0:0:
64,192,153270,1,0,0:0:0:0:
192,192,153270,1,0,0:0:0:0:
320,192,153345,1,0,0:0:0:0:
192,192,153420,1,0,0:0:0:0:
448,192,153420,1,0,0:0:0:0:
64,192,153495,1,0,0:0:0:0:
192,192,153570,1,0,0:0:0:0:
448,192,153570,1,0,0:0:0:0:
64,192,153645,1,0,0:0:0:0:
192,192,153720,1,0,0:0:0:0:
320,192,153720,1,0,0:0:0:0:
448,192,153720,1,0,0:0:0:0:
64,192,153795,1,0,0:0:0:0:
320,192,153870,1,0,0:0:0:0:
192,192,153945,1,0,0:0:0:0:
64,192,154020,1,0,0:0:0:0:
448,192,154020,1,0,0:0:0:0:
192,192,154095,1,0,0:0:0:0:
64,192,154170,1,0,0:0:0:0:
320,192,154170,1,0,0:0:0:0:
192,192,154245,1,0,0:0:0:0:
320,192,154320,1,0,0:0:0:0:
448,192,154320,1,0,0:0:0:0:
192,192,154395,1,0,0:0:0:0:
320,192,154470,1,0,0:0:0:0:
448,192,154470,1,0,0:0:0:0:
64,192,154545,1,0,0:0:0:0:
192,192,154620,1,0,0:0:0:0:
448,192,154620,1,0,0:0:0:0:
64,192,154695,1,0,0:0:0:0:
192,192,154770,1,0,0:0:0:0:
448,192,154845,1,0,0:0:0:0:
64,192,154920,1,0,0:0:0:0:
320,192,154920,1,0,0:0:0:0:
192,192,154995,1,0,0:0:0:0:
320,192,155070,1,0,0:0:0:0:
448,192,155070,1,0,0:0:0:0:
192,192,155145,1,0,0:0:0:0:
64,192,155220,1,0,0:0:0:0:
320,192,155220,1,0,0:0:0:0:
192,192,155295,1,0,0:0:0:0:
320,192,155370,1,0,0:0:0:0:
448,192,155370,1,0,0:0:0:0:
192,192,155445,1,0,0:0:0:0:
64,192,155520,1,0,0:0:0:0:
320,192,155520,1,0,0:0:0:0:
448,192,155520,1,0,0:0:0:0:
192,192,155595,1,0,0:0:0:0:
64,192,155670,1,0,0:0:0:0:
448,192,155670,1,0,0:0:0:0:
320,192,155745,1,0,0:0:0:0:
64,192,155820,1,0,0:0:0:0:
192,192,155820,1,0,0:0:0:0:
320,192,155895,1,0,0:0:0:0:
192,192,155970,1,0,0:0:0:0:
448,192,155970,1,0,0:0:0:0:
64,192,156045,1,0,0:0:0:0:
320,192,156120,1,0,0:0:0:0:
448,192,156120,1,0,0:0:0:0:
192,192,156195,1,0,0:0:0:0:
64,192,156270,1,0,0:0:0:0:
192,192,156345,1,0,0:0:0:0:
320,192,156420,1,0,0:0:0:0:
448,192,156420,1,0,0:0:0:0:
64,192,156495,1,0,0:0:0:0:
320,192,156570,1,0,0:0:0:0:
448,192,156570,1,0,0:0:0:0:
64,192,156645,1,0,0:0:0:0:
192,192,156720,1,0,0:0:0:0:
448,192,156720,1,0,0:0:0:0:
320,192,156795,1,0,0:0:0:0:
192,192,156870,1,0,0:0:0:0:
64,192,156945,1,0,0:0:0:0:
320,192,157020,1,0,0:0:0:0:
448,192,157020,1,0,0:0:0:0:
192,192,157095,1,0,0:0:0:0:
320,192,157170,1,0,0:0:0:0:
448,192,157245,1,0,0:0:0:0:
192,192,157320,1,0,0:0:0:0:
320,192,157320,1,0,0:0:0:0:
64,192,157395,1,0,0:0:0:0:
192,192,157470,1,0,0:0:0:0:
448,192,157470,1,0,0:0:0:0:
320,192,157545,1,0,0:0:0:0:
64,192,157620,1,0,0:0:0:0:
192,192,157620,1,0,0:0:0:0:
320,192,157695,1,0,0:0:0:0:
192,192,157770,1,0,0:0:0:0:
448,192,157770,1,0,0:0:0:0:
320,192,157845,1,0,0:0:0:0:
64,192,157920,1,0,0:0:0:0:
448,192,157920,1,0,0:0:0:0:
192,192,157995,1,0,0:0:0:0:
64,192,158070,1,0,0:0:0:0:
320,192,158070,1,0,0:0:0:0:
192,192,158145,1,0,0:0:0:0:
320,192,158220,1,0,0:0:0:0:
448,192,158220,1,0,0:0:0:0:
64,192,158295,1,0,0:0:0:0:
192,192,158370,1,0,0:0:0:0:
448,192,158370,1,0,0:0:0:0:
320,192,158445,1,0,0:0:0:0:
64,192,158520,1,0,0:0:0:0:
192,192,158520,1,0,0:0:0:0:
448,192,158570,1,0,0:0:0:0:
320,192,158620,1,0,0:0:0:0:
64,192,158670,1,0,0:0:0:0:
192,192,158745,1,0,0:0:0:0:
320,192,158820,1,0,0:0:0:0:
448,192,158820,1,0,0:0:0:0:
192,192,158895,1,0,0:0:0:0:
320,192,158970,1,0,0:0:0:0:
448,192,158970,1,0,0:0:0:0:
192,192,159045,1,0,0:0:0:0:
64,192,159120,1,0,0:0:0:0:
320,192,159120,1,0,0:0:0:0:
192,192,159195,1,0,0:0:0:0:
64,192,159270,1,0,0:0:0:0:
320,192,159270,1,0,0:0:0:0:
192,192,159345,1,0,0:0:0:0:
64,192,159420,1,0,0:0:0:0:
448,192,159420,1,0,0:0:0:0:
320,192,159495,1,0,0:0:0:0:
192,192,159570,1,0,0:0:0:0:
448,192,159570,1,0,0:0:0:0:
320,192,159645,1,0,0:0:0:0:
64,192,159720,1,0,0:0:0:0:
192,192,159720,1,0,0:0:0:0:
448,192,159720,1,0,0:0:0:0:
320,192,159870,1,0,0:0:0:0:
192,192,160020,1,0,0:0:0:0:
448,192,160020,1,0,0:0:0:0:
64,192,160170,1,0,0:0:0:0:
192,192,160170,1,0,0:0:0:0:
448,192,160170,1,0,0:0:0:0:
64,192,160320,1,0,0:0:0:0:
320,192,160320,1,0,0:0:0:0:
192,192,160470,1,0,0:0:0:0:
64,192,160620,1,0,0:0:0:0:
320,192,160620,1,0,0:0:0:0:
448,192,160620,1,0,0:0:0:0:
320,192,160770,1,0,0:0:0:0:
448,192,160770,1,0,0:0:0:0:
64,192,160920,1,0,0:0:0:0:
448,192,160920,1,0,0:0:0:0:
192,192,160995,1,0,0:0:0:0:
64,192,161070,1,0,0:0:0:0:
192,192,161145,1,0,0:0:0:0:
320,192,161220,1,0,0:0:0:0:
448,192,161220,1,0,0:0:0:0:
64,192,161295,1,0,0:0:0:0:
320,192,161370,1,0,0:0:0:0:
64,192,161445,1,0,0:0:0:0:
192,192,161520,1,0,0:0:0:0:
448,192,161520,1,0,0:0:0:0:
320,192,161595,1,0,0:0:0:0:
448,192,161670,1,0,0:0:0:0:
320,192,161745,1,0,0:0:0:0:
64,192,161820,1,0,0:0:0:0:
192,192,161820,1,0,0:0:0:0:
320,192,161895,1,0,0:0:0:0:
64,192,161970,1,0,0:0:0:0:
192,192,161970,1,0,0:0:0:0:
320,192,162045,1,0,0:0:0:0:
64,192,162120,1,0,0:0:0:0:
192,192,162120,1,0,0:0:0:0:
448,192,162120,1,0,0:0:0:0:
320,192,162170,1,0,0:0:0:0:
192,192,162220,1,0,0:0:0:0:
448,192,162270,1,0,0:0:0:0:
320,192,162320,1,0,0:0:0:0:
64,192,162370,1,0,0:0:0:0:
192,192,162420,1,0,0:0:0:0:
320,192,162470,1,0,0:0:0:0:
448,192,162520,1,0,0:0:0:0:
320,192,162570,1,0,0:0:0:0:
64,192,162620,1,0,0:0:0:0:
192,192,162670,1,0,0:0:0:0:
320,192,162720,1,0,0:0:0:0:
64,192,162770,1,0,0:0:0:0:
448,192,162820,1,0,0:0:0:0:
320,192,162870,1,0,0:0:0:0:
192,192,162920,1,0,0:0:0:0:
448,192,162970,1,0,0:0:0:0:
64,192,163020,1,0,0:0:0:0:
192,192,163070,1,0,0:0:0:0:
320,192,163120,1,0,0:0:0:0:
192,192,163170,1,0,0:0:0:0:
448,192,163220,1,0,0:0:0:0:
64,192,163270,1,0,0:0:0:0:
192,192,163320,1,0,0:0:0:0:
320,192,163320,1,0,0:0:0:0:
448,192,163383,1,0,0:0:0:0:
64,192,163439,1,0,0:0:0:0:
320,192,163501,1,0,0:0:0:0:
192,192,163558,1,0,0:0:0:0:
448,192,163620,1,0,0:0:0:0:
320,192,163683,1,0,0:0:0:0:
64,192,163739,1,0,0:0:0:0:
192,192,163801,1,0,0:0:0:0:
448,192,163858,1,0,0:0:0:0:
320,192,163920,1,0,0:0:0:0:
192,192,163983,1,0,0:0:0:0:
448,192,164039,1,0,0:0:0:0:
64,192,164101,1,0,0:0:0:0:
192,192,164158,1,0,0:0:0:0:
320,192,164220,1,0,0:0:0:0:
64,192,164283,1,0,0:0:0:0:
448,192,164339,1,0,0:0:0:0:
320,192,164401,1,0,0:0:0:0:
192,192,164458,1,0,0:0:0:0:
64,192,164520,1,0,0:0:0:0:
320,192,164520,1,0,0:0:0:0:
448,192,164520,1,0,0:0:0:0:
192,192,164595,1,0,0:0:0:0:
64,192,164670,1,0,0:0:0:0:
320,192,164670,1,0,0:0:0:0:
192,192,164745,1,0,0:0:0:0:
320,192,164820,1,0,0:0:0:0:
448,192,164820,1,0,0:0:0:0:
192,192,164895,1,0,0:0:0:0:
320,192,164970,1,0,0:0:0:0:
448,192,164970,1,0,0:0:0:0:
64,192,165045,1,0,0:0:0:0:
192,192,165120,1,0,0:0:0:0:
320,192,165120,1,0,0:0:0:0:
448,192,165195,1,0,0:0:0:0:
64,192,165270,1,0,0:0:0:0:
192,192,165270,1,0,0:0:0:0:
320,192,165345,1,0,0:0:0:0:
448,192,165420,1,0,0:0:0:0:
320,192,165495,1,0,0:0:0:0:
192,192,165570,1,0,0:0:0:0:
448,192,165570,1,0,0:0:0:0:
320,192,165645,1,0,0:0:0:0:
64,192,165720,1,0,0:0:0:0:
192,192,165720,1,0,0:0:0:0:
448,192,165720,1,0,0:0:0:0:
320,192,165795,1,0,0:0:0:0:
64,192,165870,1,0,0:0:0:0:
192,192,165870,1,0,0:0:0:0:
448,192,165945,1,0,0:0:0:0:
320,192,166020,1,0,0:0:0:0:
192,192,166095,1,0,0:0:0:0:
64,192,166170,1,0,0:0:0:0:
448,192,166170,1,0,0:0:0:0:
192,192,166245,1,0,0:0:0:0:
320,192,166320,1,0,0:0:0:0:
448,192,166320,1,0,0:0:0:0:
64,192,166395,1,0,0:0:0:0:
192,192,166470,1,0,0:0:0:0:
320,192,166470,1,0,0:0:0:0:
448,192,166545,1,0,0:0:0:0:
64,192,166620,1,0,0:0:0:0:
192,192,166620,1,0,0:0:0:0:
448,192,166695,1,0,0:0:0:0:
64,192,166770,1,0,0:0:0:0:
320,192,166770,1,0,0:0:0:0:
192,192,166845,1,0,0:0:0:0:
64,192,166920,1,0,0:0:0:0:
320,192,166920,1,0,0:0:0:0:
448,192,166920,1,0,0:0:0:0:
192,192,166995,1,0,0:0:0:0:
320,192,167070,1,0,0:0:0:0:
448,192,167070,1,0,0:0:0:0:
64,192,167145,1,0,0:0:0:0:
192,192,167220,1,0,0:0:0:0:
64,192,167295,1,0,0:0:0:0:
320,192,167370,1,0,0:0:0:0:
448,192,167370,1,0,0:0:0:0:
192,192,167445,1,0,0:0:0:0:
64,192,167520,1,0,0:0:0:0:
448,192,167520,1,0,0:0:0:0:
320,192,167595,1,0,0:0:0:0:
64,192,167670,1,0,0:0:0:0:
192,192,167670,1,0,0:0:0:0:
320,192,167745,1,0,0:0:0:0:
192,192,167820,1,0,0:0:0:0:
448,192,167820,1,0,0:0:0:0:
64,192,167895,1,0,0:0:0:0:
192,192,167970,1,0,0:0:0:0:
64,192,168045,1,0,0:0:0:0:
192,192,168120,1,0,0:0:0:0:
320,192,168120,1,0,0:0:0:0:
448,192,168120,1,0,0:0:0:0:
64,192,168195,1,0,0:0:0:0:
192,192,168270,1,0,0:0:0:0:
448,192,168270,1,0,0:0:0:0:
320,192,168345,1,0,0:0:0:0:
192,192,168420,1,0,0:0:0:0:
448,192,168420,1,0,0:0:0:0:
64,192,168495,1,0,0:0:0:0:
192,192,168570,1,0,0:0:0:0:
320,192,168570,1,0,0:0:0:0:
448,192,168645,1,0,0:0:0:0:
64,192,168720,1,0,0:0:0:0:
320,192,168720,1,0,0:0:0:0:
192,192,168795,1,0,0:0:0:0:
320,192,168870,1,0,0:0:0:0:
448,192,168945,1,0,0:0:0:0:
64,192,169020,1,0,0:0:0:0:
192,192,169020,1,0,0:0:0:0:
320,192,169095,1,0,0:0:0:0:
64,192,169170,1,0,0:0:0:0:
192,192,169170,1,0,0:0:0:0:
320,192,169245,1,0,0:0:0:0:
64,192,169320,1,0,0:0:0:0:
192,192,169320,1,0,0:0:0:0:
448,192,169320,1,0,0:0:0:0:
320,192,169395,1,0,0:0:0:0:
192,192,169470,1,0,0:0:0:0:
448,192,169470,1,0,0:0:0:0:
320,192,169545,1,0,0:0:0:0:
64,192,169620,1,0,0:0:0:0:
448,192,169620,1,0,0:0:0:0:
192,192,169695,1,0,0:0:0:0:
64,192,169770,1,0,0:0:0:0:
448,192,169770,1,0,0:0:0:0:
192,192,169845,1,0,0:0:0:0:
320,192,169920,1,0,0:0:0:0:
448,192,169920,1,0,0:0:0:0:
192,192,169995,1,0,0:0:0:0:
64,192,170070,1,0,0:0:0:0:
320,192,170070,1,0,0:0:0:0:
448,192,170145,1,0,0:0:0:0:
64,192,170220,1,0,0:0:0:0:
192,192,170220,1,0,0:0:0:0:
320,192,170295,1,0,0:0:0:0:
64,192,170370,1,0,0:0:0:0:
448,192,170370,1,0,0:0:0:0:
192,192,170445,1,0,0:0:0:0:
64,192,170520,1,0,0:0:0:0:
320,192,170520,1,0,0:0:0:0:
448,192,170520,1,0,0:0:0:0:
192,192,170570,1,0,0:0:0:0:
320,192,170620,1,0,0:0:0:0:
64,192,170670,1,0,0:0:0:0:
448,192,170720,1,0,0:0:0:0:
320,192,170770,1,0,0:0:0:0:
192,192,170820,1,0,0:0:0:0:
448,192,170870,1,0,0:0:0:0:
64,192,170920,1,0,0:0:0:0:
192,192,170970,1,0,0:0:0:0:
320,192,171020,1,0,0:0:0:0:
192,192,171070,1,0,0:0:0:0:
64,192,171120,1,0,0:0:0:0:
320,192,171170,1,0,0:0:0:0:
192,192,171220,1,0,0:0:0:0:
448,192,171270,1,0,0:0:0:0:
320,192,171320,1,0,0:0:0:0:
64,192,171370,1,0,0:0:0:0:
192,192,171420,1,0,0:0:0:0:
448,192,171420,1,0,0:0:0:0:
320,192,171470,1,0,0:0:0:0:
64,192,171520,1,0,0:0:0:0:
448,192,171570,1,0,0:0:0:0:
320,192,171620,1,0,0:0:0:0:
64,192,171670,1,0,0:0:0:0:
192,192,171720,1,0,0:0:0:0:
448,192,171720,1,0,0:0:0:0:
320,192,171795,1,0,0:0:0:0:
64,192,171870,1,0,0:0:0:0:
192,192,171870,1,0,0:0:0:0:
320,192,171945,1,0,0:0:0:0:
64,192,172020,1,0,0:0:0:0:
192,192,172020,1,0,0:0:0:0:
448,192,172095,1,0,0:0:0:0:
320,192,172170,1,0,0:0:0:0:
192,192,172245,1,0,0:0:0:0:
320,192,172320,1,0,0:0:0:0:
448,192,172320,1,0,0:0:0:0:
192,192,172395,1,0,0:0:0:0:
320,192,172470,1,0,0:0:0:0:
448,192,172470,1,0,0:0:0:0:
64,192,172545,1,0,0:0:0:0:
192,192,172620,1,0,0:0:0:0:
320,192,172695,1,0,0:0:0:0:
192,192,172770,1,0,0:0:0:0:
448,192,172770,1,0,0:0:0:0:
320,192,172845,1,0,0:0:0:0:
64,192,172920,1,0,0:0:0:0:
192,192,172920,1,0,0:0:0:0:
448,192,172920,1,0,0:0:0:0:
320,192,172995,1,0,0:0:0:0:
64,192,173070,1,0,0:0:0:0:
448,192,173070,1,0,0:0:0:0:
192,192,173145,1,0,0:0:0:0:
64,192,173220,1,0,0:0:0:0:
320,192,173220,1,0,0:0:0:0:
192,192,173295,1,0,0:0:0:0:
64,192,173370,1,0,0:0:0:0:
320,192,173370,1,0,0:0:0:0:
192,192,173445,1,0,0:0:0:0:
320,192,173520,1,0,0:0:0:0:
448,192,173520,1,0,0:0:0:0:
64,192,173595,1,0,0:0:0:0:
192,192,173670,1,0,0:0:0:0:
320,192,173745,1,0,0:0:0:0:
64,192,173820,1,0,0:0:0:0:
192,192,173820,1,0,0:0:0:0:
448,192,173820,1,0,0:0:0:0:
320,192,173895,1,0,0:0:0:0:
192,192,173970,1,0,0:0:0:0:
448,192,174045,1,0,0:0:0:0:
64,192,174120,1,0,0:0:0:0:
192,192,174120,1,0,0:0:0:0:
320,192,174120,1,0,0:0:0:0:
448,192,174195,1,0,0:0:0:0:
320,192,174270,1,0,0:0:0:0:
192,192,174345,1,0,0:0:0:0:
64,192,174420,1,0,0:0:0:0:
192,192,174495,1,0,0:0:0:0:
64,192,174570,1,0,0:0:0:0:
320,192,174570,1,0,0:0:0:0:
448,192,174570,1,0,0:0:0:0:
192,192,174645,1,0,0:0:0:0:
320,192,174720,1,0,0:0:0:0:
448,192,174795,1,0,0:0:0:0:
320,192,174870,1,0,0:0:0:0:
192,192,174945,1,0,0:0:0:0:
64,192,175020,1,0,0:0:0:0:
320,192,175020,1,0,0:0:0:0:
448,192,175020,1,0,0:0:0:0:
192,192,175095,1,0,0:0:0:0:
320,192,175170,1,0,0:0:0:0:
192,192,175245,1,0,0:0:0:0:
64,192,175320,1,0,0:0:0:0:
320,192,175320,1,0,0:0:0:0:
448,192,175320,1,0,0:0:0:0:
192,192,175395,1,0,0:0:0:0:
64,192,175470,1,0,0:0:0:0:
320,192,175545,1,0,0:0:0:0:
192,192,175620,1,0,0:0:0:0:
448,192,175620,1,0,0:0:0:0:
320,192,175695,1,0,0:0:0:0:
64,192,175770,1,0,0:0:0:0:
192,192,175845,1,0,0:0:0:0:
320,192,175920,1,0,0:0:0:0:
448,192,175920,1,0,0:0:0:0:
64,192,175995,1,0,0:0:0:0:
192,192,176070,1,0,0:0:0:0:
448,192,176070,1,0,0:0:0:0:
320,192,176145,1,0,0:0:0:0:
64,192,176220,1,0,0:0:0:0:
192,192,176220,1,0,0:0:0:0:
448,192,176295,1,0,0:0:0:0:
64,192,176370,1,0,0:0:0:0:
192,192,176370,1,0,0:0:0:0:
448,192,176445,1,0,0:0:0:0:
64,192,176520,1,0,0:0:0:0:
192,192,176520,1,0,0:0:0:0:
320,192,176520,1,0,0:0:0:0:
448,192,176595,1,0,0:0:0:0:
192,192,176670,1,0,0:0:0:0:
320,192,176670,1,0,0:0:0:0:
64,192,176745,1,0,0:0:0:0:
320,192,176820,1,0,0:0:0:0:
448,192,176820,1,0,0:0:0:0:
192,192,176895,1,0,0:0:0:0:
320,192,176970,1,0,0:0:0:0:
448,192,176970,1,0,0:0:0:0:
192,192,177045,1,0,0:0:0:0:
64,192,177120,1,0,0:0:0:0:
448,192,177120,1,0,0:0:0:0:
320,192,177195,1,0,0:0:0:0:
192,192,177270,1,0,0:0:0:0:
320,192,177345,1,0,0:0:0:0:
64,192,177420,1,0,0:0:0:0:
448,192,177420,1,0,0:0:0:0:
192,192,177495,1,0,0:0:0:0:
320,192,177570,1,0,0:0:0:0:
448,192,177645,1,0,0:0:0:0:
64,192,177720,1,0,0:0:0:0:
320,192,177720,1,0,0:0:0:0:
192,192,177795,1,0,0:0:0:0:
320,192,177870,1,0,0:0:0:0:
448,192,177870,1,0,0:0:0:0:
192,192,177945,1,0,0:0:0:0:
64,192,178020,1,0,0:0:0:0:
320,192,178020,1,0,0:0:0:0:
448,192,178020,1,0,0:0:0:0:
192,192,178095,1,0,0:0:0:0:
320,192,178170,1,0,0:0:0:0:
448,192,178245,1,0,0:0:0:0:
64,192,178320,1,0,0:0:0:0:
192,192,178320,1,0,0:0:0:0:
320,192,178320,1,0,0:0:0:0:
448,192,178395,1,0,0:0:0:0:
64,192,178470,1,0,0:0:0:0:
320,192,178470,1,0,0:0:0:0:
192,192,178545,1,0,0:0:0:0:
320,192,178620,1,0,0:0:0:0:
448,192,178695,1,0,0:0:0:0:
64,192,178770,1,0,0:0:0:0:
192,192,178770,1,0,0:0:0:0:
320,192,178845,1,0,0:0:0:0:
64,192,178920,1,0,0:0:0:0:
192,192,178920,1,0,0:0:0:0:
448,192,178920,1,0,0:0:0:0:
320,192,178995,1,0,0:0:0:0:
448,192,179070,1,0,0:0:0:0:
192,192,179145,1,0,0:0:0:0:
64,192,179220,1,0,0:0:0:0:
320,192,179220,1,0,0:0:0:0:
192,192,179295,1,0,0:0:0:0:
320,192,179370,1,0,0:0:0:0:
64,192,179445,1,0,0:0:0:0:
192,192,179520,1,0,0:0:0:0:
448,192,179520,1,0,0:0:0:0:
64,192,179595,1,0,0:0:0:0:
192,192,179670,1,0,0:0:0:0:
320,192,179745,1,0,0:0:0:0:
64,192,179820,1,0,0:0:0:0:
448,192,179820,1,0,0:0:0:0:
320,192,179895,1,0,0:0:0:0:
448,192,179970,1,0,0:0:0:0:
192,192,180045,1,0,0:0:0:0:
64,192,180120,1,0,0:0:0:0:
320,192,180120,1,0,0:0:0:0:
448,192,180120,1,0,0:0:0:0:
192,192,180195,1,0,0:0:0:0:
64,192,180270,1,0,0:0:0:0:
320,192,180270,1,0,0:0:0:0:
448,192,180345,1,0,0:0:0:0:
192,192,180420,1,0,0:0:0:0:
320,192,180420,1,0,0:0:0:0:
64,192,180495,1,0,0:0:0:0:
320,192,180570,1,0,0:0:0:0:
448,192,180570,1,0,0:0:0:0:
192,192,180645,1,0,0:0:0:0:
64,192,180720,1,0,0:0:0:0:
320,192,180720,1,0,0:0:0:0:
448,192,180795,1,0,0:0:0:0:
192,192,180870,1,0,0:0:0:0:
320,192,180870,1,0,0:0:0:0:
64,192,180945,1,0,0:0:0:0:
320,192,181020,1,0,0:0:0:0:
448,192,181020,1,0,0:0:0:0:
64,192,181095,1,0,0:0:0:0:
192,192,181095,1,0,0:0:0:0:
320,192,181170,1,0,0:0:0:0:
448,192,181170,1,0,0:0:0:0:
64,192,181245,1,0,0:0:0:0:
192,192,181245,1,0,0:0:0:0:
320,192,181320,1,0,0:0:0:0:
448,192,181320,1,0,0:0:0:0:
192,192,181370,1,0,0:0:0:0:
64,192,181420,1,0,0:0:0:0:
320,192,181470,1,0,0:0:0:0:
192,192,181520,1,0,0:0:0:0:
448,192,181570,1,0,0:0:0:0:
64,192,181620,1,0,0:0:0:0:
192,192,181670,1,0,0:0:0:0:
320,192,181720,1,0,0:0:0:0:
192,192,181770,1,0,0:0:0:0:
448,192,181820,1,0,0:0:0:0:
320,192,181870,1,0,0:0:0:0:
64,192,181920,1,0,0:0:0:0:
192,192,181970,1,0,0:0:0:0:
320,192,182020,1,0,0:0:0:0:
448,192,182070,1,0,0:0:0:0:
192,192,182120,1,0,0:0:0:0:
64,192,182170,1,0,0:0:0:0:
320,192,182220,1,0,0:0:0:0:
192,192,182270,1,0,0:0:0:0:
64,192,182320,1,0,0:0:0:0:
192,192,182370,1,0,0:0:0:0:
448,192,182420,1,0,0:0:0:0:
320,192,182470,1,0,0:0:0:0:
64,192,182520,1,0,0:0:0:0:
192,192,182583,1,0,0:0:0:0:
320,192,182639,1,0,0:0:0:0:
448,192,182701,1,0,0:0:0:0:
192,192,182758,1,0,0:0:0:0:
64,192,182820,1,0,0:0:0:0:
320,192,182883,1,0,0:0:0:0:
192,192,182939,1,0,0:0:0:0:
448,192,183001,1,0,0:0:0:0:
64,192,183058,1,0,0:0:0:0:
192,192,183120,1,0,0:0:0:0:
320,192,183183,1,0,0:0:0:0:
64,192,183239,1,0,0:0:0:0:
192,192,183301,1,0,0:0:0:0:
448,192,183358,1,0,0:0:0:0:
320,192,183420,1,0,0:0:0:0:
192,192,183483,1,0,0:0:0:0:
64,192,183539,1,0,0:0:0:0:
192,192,183601,1,0,0:0:0:0:
320,192,183658,1,0,0:0:0:0:
64,192,183720,1,0,0:0:0:0:
192,192,183720,1,0,0:0:0:0:
448,192,183720,1,0,0:0:0:0:
320,192,183795,1,0,0:0:0:0:
64,192,183870,1,0,0:0:0:0:
192,192,183870,1,0,0:0:0:0:
448,192,183945,1,0,0:0:0:0:
64,192,184020,1,0,0:0:0:0:
320,192,184020,1,0,0:0:0:0:
192,192,184095,1,0,0:0:0:0:
64,192,184170,1,0,0:0:0:0:
320,192,184170,1,0,0:0:0:0:
448,192,184245,1,0,0:0:0:0:
192,192,184320,1,0,0:0:0:0:
320,192,184320,1,0,0:0:0:0:
64,192,184395,1,0,0:0:0:0:
320,192,184470,1,0,0:0:0:0:
448,192,184470,1,0,0:0:0:0:
192,192,184545,1,0,0:0:0:0:
64,192,184620,1,0,0:0:0:0:
320,192,184620,1,0,0:0:0:0:
192,192,184695,1,0,0:0:0:0:
64,192,184770,1,0,0:0:0:0:
320,192,184770,1,0,0:0:0:0:
192,192,184845,1,0,0:0:0:0:
64,192,184920,1,0,0:0:0:0:
320,192,184920,1,0,0:0:0:0:
448,192,184920,1,0,0:0:0:0:
192,192,184995,1,0,0:0:0:0:
320,192,185070,1,0,0:0:0:0:
448,192,185070,1,0,0:0:0:0:
64,192,185145,1,0,0:0:0:0:
192,192,185220,1,0,0:0:0:0:
448,192,185220,1,0,0:0:0:0:
320,192,185295,1,0,0:0:0:0:
192,192,185370,1,0,0:0:0:0:
320,192,185445,1,0,0:0:0:0:
64,192,185520,1,0,0:0:0:0:
192,192,185520,1,0,0:0:0:0:
448,192,185595,1,0,0:0:0:0:
64,192,185670,1,0,0:0:0:0:
320,192,185670,1,0,0:0:0:0:
192,192,185745,1,0,0:0:0:0:
320,192,185820,1,0,0:0:0:0:
448,192,185820,1,0,0:0:0:0:
64,192,185895,1,0,0:0:0:0:
192,192,185970,1,0,0:0:0:0:
448,192,185970,1,0,0:0:0:0:
320,192,186045,1,0,0:0:0:0:
64,192,186120,1,0,0:0:0:0:
192,192,186120,1,0,0:0:0:0:
448,192,186120,1,0,0:0:0:0:
320,192,186195,1,0,0:0:0:0:
64,192,186270,1,0,0:0:0:0:
192,192,186270,1,0,0:0:0:0:
320,192,186345,1,0,0:0:0:0:
192,192,186420,1,0,0:0:0:0:
448,192,186420,1,0,0:0:0:0:
320,192,186495,1,0,0:0:0:0:
64,192,186570,1,0,0:0:0:0:
448,192,186570,1,0,0:0:0:0:
192,192,186645,1,0,0:0:0:0:
320,192,186720,1,0,0:0:0:0:
448,192,186720,1,0,0:0:0:0:
192,192,186795,1,0,0:0:0:0:
320,192,186870,1,0,0:0:0:0:
448,192,186870,1,0,0:0:0:0:
192,192,186945,1,0,0:0:0:0:
64,192,187020,1,0,0:0:0:0:
320,192,187020,1,0,0:0:0:0:
448,192,187095,1,0,0:0:0:0:
64,192,187170,1,0,0:0:0:0:
320,192,187170,1,0,0:0:0:0:
192,192,187245,1,0,0:0:0:0:
64,192,187320,1,0,0:0:0:0:
320,192,187320,1,0,0:0:0:0:
448,192,187320,1,0,0:0:0:0:
192,192,187395,1,0,0:0:0:0:
320,192,187470,1,0,0:0:0:0:
448,192,187470,1,0,0:0:0:0:
64,192,187545,1,0,0:0:0:0:
192,192,187620,1,0,0:0:0:0:
448,192,187620,1,0,0:0:0:0:
320,192,187695,1,0,0:0:0:0:
64,192,187770,1,0,0:0:0:0:
192,192,187770,1,0,0:0:0:0:
448,192,187845,1,0,0:0:0:0:
64,192,187920,1,0,0:0:0:0:
320,192,187920,1,0,0:0:0:0:
192,192,187995,1,0,0:0:0:0:
320,192,188070,1,0,0:0:0:0:
448,192,188070,1,0,0:0:0:0:
64,192,188145,1,0,0:0:0:0:
320,192,188220,1,0,0:0:0:0:
448,192,188220,1,0,0:0:0:0:
64,192,188295,1,0,0:0:0:0:
192,192,188370,1,0,0:0:0:0:
320,192,188445,1,0,0:0:0:0:
64,192,188520,1,0,0:0:0:0:
192,192,188520,1,0,0:0:0:0:
448,192,188520,1,0,0:0:0:0:
320,192,188595,1,0,0:0:0:0:
192,192,188670,1,0,0:0:0:0:
448,192,188670,1,0,0:0:0:0:
64,192,188745,1,0,0:0:0:0:
320,192,188820,1,0,0:0:0:0:
448,192,188820,1,0,0:0:0:0:
192,192,188895,1,0,0:0:0:0:
320,192,188970,1,0,0:0:0:0:
448,192,188970,1,0,0:0:0:0:
64,192,189045,1,0,0:0:0:0:
192,192,189120,1,0,0:0:0:0:
320,192,189120,1,0,0:0:0:0:
448,192,189195,1,0,0:0:0:0:
192,192,189270,1,0,0:0:0:0:
64,192,189345,1,0,0:0:0:0:
192,192,189420,1,0,0:0:0:0:
448,192,189420,1,0,0:0:0:0:
320,192,189495,1,0,0:0:0:0:
64,192,189570,1,0,0:0:0:0:
192,192,189570,1,0,0:0:0:0:
320,192,189645,1,0,0:0:0:0:
64,192,189720,1,0,0:0:0:0:
448,192,189720,1,0,0:0:0:0:
192,192,189770,1,0,0:0:0:0:
320,192,189820,1,0,0:0:0:0:
448,192,189870,1,0,0:0:0:0:
64,192,189920,1,0,0:0:0:0:
192,192,189970,1,0,0:0:0:0:
320,192,190020,1,0,0:0:0:0:
64,192,190070,1,0,0:0:0:0:
448,192,190120,1,0,0:0:0:0:
320,192,190170,1,0,0:0:0:0:
192,192,190220,1,0,0:0:0:0:
320,192,190270,1,0,0:0:0:0:
448,192,190320,1,0,0:0:0:0:
192,192,190370,1,0,0:0:0:0:
64,192,190420,1,0,0:0:0:0:
320,192,190470,1,0,0:0:0:0:
192,192,190520,1,0,0:0:0:0:
448,192,190570,1,0,0:0:0:0:
64,192,190620,1,0,0:0:0:0:
320,192,190620,1,0,0:0:0:0:
192,192,190670,1,0,0:0:0:0:
448,192,190720,1,0,0:0:0:0:
64,192,190770,1,0,0:0:0:0:
192,192,190820,1,0,0:0:0:0:
448,192,190870,1,0,0:0:0:0:
64,192,190920,1,0,0:0:0:0:
320,192,190920,1,0,0:0:0:0:
192,192,190995,1,0,0:0:0:0:
320,192,191070,1,0,0:0:0:0:
448,192,191070,1,0,0:0:0:0:
192,192,191145,1,0,0:0:0:0:
320,192,191220,1,0,0:0:0:0:
448,192,191220,1,0,0:0:0:0:
64,192,191295,1,0,0:0:0:0:
192,192,191370,1,0,0:0:0:0:
320,192,191445,1,0,0:0:0:0:
64,192,191520,1,0,0:0:0:0:
192,192,191520,1,0,0:0:0:0:
320,192,191595,1,0,0:0:0:0:
64,192,191670,1,0,0:0:0:0:
192,192,191670,1,0,0:0:0:0:
448,192,191745,1,0,0:0:0:0:
320,192,191820,1,0,0:0:0:0:
192,192,191895,1,0,0:0:0:0:
64,192,191970,1,0,0:0:0:0:
320,192,191970,1,0,0:0:0:0:
192,192,192045,1,0,0:0:0:0:
64,192,192120,1,0,0:0:0:0:
320,192,192120,1,0,0:0:0:0:
448,192,192120,1,0,0:0:0:0:
192,192,192195,1,0,0:0:0:0:
320,192,192270,1,0,0:0:0:0:
448,192,192270,1,0,0:0:0:0:
64,192,192345,1,0,0:0:0:0:
320,192,192420,1,0,0:0:0:0:
448,192,192420,1,0,0:0:0:0:
192,192,192495,1,0,0:0:0:0:
320,192,192570,1,0,0:0:0:0:
448,192,192570,1,0,0:0:0:0:
64,192,192645,1,0,0:0:0:0:
192,192,192720,1,0,0:0:0:0:
320,192,192720,1,0,0:0:0:0:
448,192,192720,1,0,0:0:0:0:
64,192,192795,1,0,0:0:0:0:
192,192,192870,1,0,0:0:0:0:
320,192,192945,1,0,0:0:0:0:
64,192,193020,1,0,0:0:0:0:
192,192,193020,1,0,0:0:0:0:
448,192,193020,1,0,0:0:0:0:
320,192,193095,1,0,0:0:0:0:
192,192,193170,1,0,0:0:0:0:
448,192,193245,1,0,0:0:0:0:
64,192,193320,1,0,0:0:0:0:
192,192,193320,1,0,0:0:0:0:
320,192,193320,1,0,0:0:0:0:
448,192,193395,1,0,0:0:0:0:
320,192,193470,1,0,0:0:0:0:
192,192,193545,1,0,0:0:0:0:
64,192,193620,1,0,0:0:0:0:
192,192,193695,1,0,0:0:0:0:
64,192,193770,1,0,0:0:0:0:
320,192,193770,1,0,0:0:0:0:
448,192,193770,1,0,0:0:0:0:
192,192,193845,1,0,0:0:0:0:
320,192,193920,1,0,0:0:0:0:
448,192,193995,1,0,0:0:0:0:
320,192,194070,1,0,0:0:0:0:
192,192,194145,1,0,0:0:0:0:
64,192,194220,1,0,0:0:0:0:
320,192,194220,1,0,0:0:0:0:
448,192,194220,1,0,0:0:0:0:
192,192,194295,1,0,0:0:0:0:
320,192,194370,1,0,0:0:0:0:
192,192,194445,1,0,0:0:0:0:
64,192,194520,1,0,0:0:0:0:
320,192,194520,1,0,0:0:0:0:
448,192,194520,1,0,0:0:0:0:
192,192,194595,1,0,0:0:0:0:
64,192,194670,1,0,0:0:0:0:
320,192,194745,1,0,0:0:0:0:
192,192,194820,1,0,0:0:0:0:
448,192,194820,1,0,0:0:0:0:
320,192,194895,1,0,0:0:0:0:
64,192,194970,1,0,0:0:0:0:
192,192,195045,1,0,0:0:0:0:
320,192,195120,1,0,0:0:0:0:
448,192,195120,1,0,0:0:0:0:
64,192,195195,1,0,0:0:0:0:
192,192,195270,1,0,0:0:0:0:
320,192,195270,1,0,0:0:0:0:
448,192,195345,1,0,0:0:0:0:
64,192,195420,1,0,0:0:0:0:
192,192,195420,1,0,0:0:0:0:
320,192,195495,1,0,0:0:0:0:
64,192,195570,1,0,0:0:0:0:
192,192,195570,1,0,0:0:0:0:
320,192,195645,1,0,0:0:0:0:
64,192,195720,1,0,0:0:0:0:
192,192,195720,1,0,0:0:0:0:
448,192,195720,1,0,0:0:0:0:
320,192,195795,1,0,0:0:0:0:
448,192,195870,1,0,0:0:0:0:
192,192,195945,1,0,0:0:0:0:
64,192,196020,1,0,0:0:0:0:
320,192,196020,1,0,0:0:0:0:
192,192,196095,1,0,0:0:0:0:
320,192,196170,1,0,0:0:0:0:
448,192,196170,1,0,0:0:0:0:
192,192,196245,1,0,0:0:0:0:
64,192,196320,1,0,0:0:0:0:
192,192,196395,1,0,0:0:0:0:
320,192,196470,1,0,0:0:0:0:
448,192,196470,1,0,0:0:0:0:
192,192,196545,1,0,0:0:0:0:
64,192,196620,1,0,0:0:0:0:
320,192,196620,1,0,0:0:0:0:
448,192,196695,1,0,0:0:0:0:
320,192,196770,1,0,0:0:0:0:
192,192,196845,1,0,0:0:0:0:
64,192,196920,1,0,0:0:0:0:
320,192,196920,1,0,0:0:0:0:
448,192,196920,1,0,0:0:0:0:
192,192,196995,1,0,0:0:0:0:
320,192,197070,1,0,0:0:0:0:
448,192,197145,1,0,0:0:0:0:
64,192,197220,1,0,0:0:0:0:
192,192,197220,1,0,0:0:0:0:
320,192,197220,1,0,0:0:0:0:
448,192,197295,1,0,0:0:0:0:
320,192,197370,1,0,0:0:0:0:
192,192,197445,1,0,0:0:0:0:
64,192,197520,1,0,0:0:0:0:
320,192,197520,1,0,0:0:0:0:
448,192,197520,1,0,0:0:0:0:
192,192,197595,1,0,0:0:0:0:
320,192,197670,1,0,0:0:0:0:
448,192,197670,1,0,0:0:0:0:
192,192,197745,1,0,0:0:0:0:
320,192,197820,1,0,0:0:0:0:
448,192,197895,1,0,0:0:0:0:
64,192,197970,1,0,0:0:0:0:
320,192,197970,1,0,0:0:0:0:
192,192,198045,1,0,0:0:0:0:
64,192,198120,1,0,0:0:0:0:
320,192,198120,1,0,0:0:0:0:
448,192,198120,1,0,0:0:0:0:
192,192,198195,1,0,0:0:0:0:
320,192,198270,1,0,0:0:0:0:
448,192,198345,1,0,0:0:0:0:
64,192,198420,1,0,0:0:0:0:
320,192,198420,1,0,0:0:0:0:
192,192,198495,1,0,0:0:0:0:
320,192,198570,1,0,0:0:0:0:
64,192,198645,1,0,0:0:0:0:
192,192,198720,1,0,0:0:0:0:
448,192,198720,1,0,0:0:0:0:
64,192,198795,1,0,0:0:0:0:
192,192,198870,1,0,0:0:0:0:
320,192,198945,1,0,0:0:0:0:
64,192,199020,1,0,0:0:0:0:
448,192,199020,1,0,0:0:0:0:
320,192,199095,1,0,0:0:0:0:
192,192,199170,1,0,0:0:0:0:
64,192,199245,1,0,0:0:0:0:
192,192,199320,1,0,0:0:0:0:
320,192,199320,1,0,0:0:0:0:
448,192,199320,1,0,0:0:0:0:
64,192,199395,1,0,0:0:0:0:
192,192,199470,1,0,0:0:0:0:
320,192,199545,1,0,0:0:0:0:
192,192,199620,1,0,0:0:0:0:
448,192,199620,1,0,0:0:0:0:
64,192,199695,1,0,0:0:0:0:
320,192,199770,1,0,0:0:0:0:
448,192,199845,1,0,0:0:0:0:
192,192,199920,1,0,0:0:0:0:
320,192,199995,1,0,0:0:0:0:
64,192,200070,1,0,0:0:0:0:
448,192,200070,1,0,0:0:0:0:
192,192,200145,1,0,0:0:0:0:
320,192,200220,1,0,0:0:0:0:
448,192,200220,1,0,0:0:0:0:
64,192,200295,1,0,0:0:0:0:
192,192,200370,1,0,0:0:0:0:
320,192,200445,1,0,0:0:0:0:
64,192,200520,1,0,0:0:0:0:
192,192,200520,1,0,0:0:0:0:
448,192,200520,1,0,0:0:0:0:
320,192,200595,1,0,0:0:0:0:
192,192,200670,1,0,0:0:0:0:
320,192,200745,1,0,0:0:0:0:
192,192,200820,1,0,0:0:0:0:
64,192,200895,1,0,0:0:0:0:
192,192,200970,1,0,0:0:0:0:
320,192,200970,1,0,0:0:0:0:
448,192,200970,1,0,0:0:0:0:
64,192,201045,1,0,0:0:0:0:
192,192,201120,1,0,0:0:0:0:
320,192,201195,1,0,0:0:0:0:
448,192,201270,1,0,0:0:0:0:
320,192,201345,1,0,0:0:0:0:
64,192,201420,1,0,0:0:0:0:
192,192,201420,1,0,0:0:0:0:
448,192,201420,1,0,0:0:0:0:
320,192,201495,1,0,0:0:0:0:
192,192,201570,1,0,0:0:0:0:
320,192,201645,1,0,0:0:0:0:
64,192,201720,1,0,0:0:0:0:
192,192,201720,1,0,0:0:0:0:
448,192,201720,1,0,0:0:0:0:
320,192,201870,1,0,0:0:0:0:
64,192,202020,1,0,0:0:0:0:
192,192,202020,1,0,0:0:0:0:
320,192,202170,1,0,0:0:0:0:
448,192,202170,1,0,0:0:0:0:
64,192,202320,1,0,0:0:0:0:
192,192,202320,1,0,0:0:0:0:
320,192,202470,1,0,0:0:0:0:
64,192,202620,1,0,0:0:0:0:
192,192,202620,1,0,0:0:0:0:
320,192,202770,1,0,0:0:0:0:
64,192,202920,1,0,0:0:0:0:
192,192,202920,1,0,0:0:0:0:
320,192,202995,1,0,0:0:0:0:
448,192,202995,1,0,0:0:0:0:
64,192,203070,1,0,0:0:0:0:
192,192,203070,1,0,0:0:0:0:
320,192,203145,1,0,0:0:0:0:
448,192,203145,1,0,0:0:0:0:
64,192,203220,1,0,0:0:0:0:
192,192,203220,1,0,0:0:0:0:
320,192,203295,1,0,0:0:0:0:
448,192,203295,1,0,0:0:0:0:
64,192,203370,1,0,0:0:0:0:
192,192,203370,1,0,0:0:0:0:
320,192,203445,1,0,0:0:0:0:
448,192,203445,1,0,0:0:0:0:
64,192,203520,1,0,0:0:0:0:
192,192,203520,1,0,0:0:0:0:
320,192,203595,1,0,0:0:0:0:
448,192,203595,1,0,0:0:0:0:
64,192,203670,1,0,0:0:0:0:
192,192,203670,1,0,0:0:0:0:
320,192,203745,1,0,0:0:0:0:
448,192,203745,1,0,0:0:0:0:
192,192,203820,1,0,0:0:0:0:
64,192,203870,1,0,0:0:0:0:
192,192,203920,1,0,0:0:0:0:
320,192,203970,1,0,0:0:0:0:
448,192,204020,1,0,0:0:0:0:
320,192,204070,1,0,0:0:0:0:
64,192,204120,1,0,0:0:0:0:
192,192,204120,1,0,0:0:0:0:
320,192,204195,1,0,0:0:0:0:
64,192,204270,1,0,0:0:0:0:
192,192,204270,1,0,0:0:0:0:
320,192,204345,1,0,0:0:0:0:
192,192,204420,1,0,0:0:0:0:
448,192,204420,1,0,0:0:0:0:
320,192,204495,1,0,0:0:0:0:
64,192,204570,1,0,0:0:0:0:
448,192,204570,1,0,0:0:0:0:
192,192,204645,1,0,0:0:0:0:
320,192,204720,1,0,0:0:0:0:
448,192,204720,1,0,0:0:0:0:
64,192,204795,1,0,0:0:0:0:
192,192,204870,1,0,0:0:0:0:
320,192,204945,1,0,0:0:0:0:
64,192,205020,1,0,0:0:0:0:
192,192,205020,1,0,0:0:0:0:
320,192,205095,1,0,0:0:0:0:
64,192,205170,1,0,0:0:0:0:
192,192,205170,1,0,0:0:0:0:
448,192,205245,1,0,0:0:0:0:
320,192,205320,1,0,0:0:0:0:
64,192,205395,1,0,0:0:0:0:
192,192,205470,1,0,0:0:0:0:
448,192,205470,1,0,0:0:0:0:
320,192,205545,1,0,0:0:0:0:
64,192,205620,1,0,0:0:0:0:
192,192,205620,1,0,0:0:0:0:
320,192,205695,1,0,0:0:0:0:
192,192,205770,1,0,0:0:0:0:
448,192,205770,1,0,0:0:0:0:
320,192,205845,1,0,0:0:0:0:
64,192,205920,1,0,0:0:0:0:
192,192,205920,1,0,0:0:0:0:
448,192,205995,1,0,0:0:0:0:
64,192,206070,1,0,0:0:0:0:
192,192,206145,1,0,0:0:0:0:
320,192,206220,1,0,0:0:0:0:
448,192,206220,1,0,0:0:0:0:
192,192,206295,1,0,0:0:0:0:
320,192,206370,1,0,0:0:0:0:
448,192,206370,1,0,0:0:0:0:
192,192,206445,1,0,0:0:0:0:
64,192,206520,1,0,0:0:0:0:
320,192,206520,1,0,0:0:0:0:
448,192,206520,1,0,0:0:0:0:
192,192,206595,1,0,0:0:0:0:
64,192,206670,1,0,0:0:0:0:
448,192,206670,1,0,0:0:0:0:
192,192,206745,1,0,0:0:0:0:
64,192,206820,1,0,0:0:0:0:
320,192,206820,1,0,0:0:0:0:
192,192,206895,1,0,0:0:0:0:
320,192,206970,1,0,0:0:0:0:
448,192,206970,1,0,0:0:0:0:
64,192,207045,1,0,0:0:0:0:
192,192,207120,1,0,0:0:0:0:
448,192,207120,1,0,0:0:0:0:
320,192,207195,1,0,0:0:0:0:
192,192,207270,1,0,0:0:0:0:
448,192,207345,1,0,0:0:0:0:
64,192,207420,1,0,0:0:0:0:
320,192,207420,1,0,0:0:0:0:
192,192,207495,1,0,0:0:0:0:
320,192,207570,1,0,0:0:0:0:
448,192,207570,1,0,0:0:0:0:
64,192,207645,1,0,0:0:0:0:
192,192,207720,1,0,0:0:0:0:
320,192,207795,1,0,0:0:0:0:
64,192,207870,1,0,0:0:0:0:
448,192,207920,1,0,0:0:0:0:
320,192,207970,1,0,0:0:0:0:
64,192,208020,1,0,0:0:0:0:
192,192,208020,1,0,0:0:0:0:
448,192,208095,1,0,0:0:0:0:
192,192,208170,1,0,0:0:0:0:
320,192,208170,1,0,0:0:0:0:
64,192,208245,1,0,0:0:0:0:
192,192,208320,1,0,0:0:0:0:
320,192,208320,1,0,0:0:0:0:
448,192,208320,1,0,0:0:0:0:
192,192,208470,1,0,0:0:0:0:
320,192,208470,1,0,0:0:0:0:
448,192,208470,1,0,0:0:0:0:
192,192,208620,1,0,0:0:0:0:
320,192,208620,1,0,0:0:0:0:
448,192,208620,1,0,0:0:0:0:
192,192,208770,1,0,0:0:0:0:
320,192,208770,1,0,0:0:0:0:
448,192,208770,1,0,0:0:0:0:
192,192,208920,1,0,0:0:0:0:
320,192,208920,1,0,0:0:0:0:
448,192,208920,1,0,0:0:0:0:
64,192,208995,1,0,0:0:0:0:
192,192,209070,1,0,0:0:0:0:
448,192,209070,1,0,0:0:0:0:
320,192,209145,1,0,0:0:0:0:
64,192,209220,1,0,0:0:0:0:
192,192,209220,1,0,0:0:0:0:
320,192,209295,1,0,0:0:0:0:
192,192,209370,1,0,0:0:0:0:
448,192,209370,1,0,0:0:0:0:
320,192,209445,1,0,0:0:0:0:
64,192,209520,1,0,0:0:0:0:
448,192,209520,1,0,0:0:0:0:
192,192,209595,1,0,0:0:0:0:
64,192,209670,1,0,0:0:0:0:
320,192,209745,1,0,0:0:0:0:
192,192,209820,1,0,0:0:0:0:
448,192,209820,1,0,0:0:0:0:
320,192,209895,1,0,0:0:0:0:
192,192,209970,1,0,0:0:0:0:
448,192,209970,1,0,0:0:0:0:
64,192,210045,1,0,0:0:0:0:
192,192,210120,1,0,0:0:0:0:
320,192,210195,1,0,0:0:0:0:
64,192,210270,1,0,0:0:0:0:
448,192,210270,1,0,0:0:0:0:
192,192,210345,1,0,0:0:0:0:
320,192,210420,1,0,0:0:0:0:
448,192,210420,1,0,0:0:0:0:
192,192,210495,1,0,0:0:0:0:
64,192,210570,1,0,0:0:0:0:
448,192,210570,1,0,0:0:0:0:
320,192,210645,1,0,0:0:0:0:
64,192,210720,1,0,0:0:0:0:
192,192,210720,1,0,0:0:0:0:
448,192,210795,1,0,0:0:0:0:
320,192,210870,1,0,0:0:0:0:
64,192,210945,1,0,0:0:0:0:
192,192,211020,1,0,0:0:0:0:
448,192,211020,1,0,0:0:0:0:
320,192,211095,1,0,0:0:0:0:
192,192,211170,1,0,0:0:0:0:
448,192,211170,1,0,0:0:0:0:
320,192,211245,1,0,0:0:0:0:
64,192,211320,1,0,0:0:0:0:
192,192,211320,1,0,0:0:0:0:
448,192,211320,1,0,0:0:0:0:
320,192,211395,1,0,0:0:0:0:
64,192,211470,1,0,0:0:0:0:
192,192,211470,1,0,0:0:0:0:
448,192,211545,1,0,0:0:0:0:
64,192,211620,1,0,0:0:0:0:
320,192,211620,1,0,0:0:0:0:
192,192,211695,1,0,0:0:0:0:
320,192,211770,1,0,0:0:0:0:
448,192,211770,1,0,0:0:0:0:
192,192,211845,1,0,0:0:0:0:
64,192,211920,1,0,0:0:0:0:
448,192,211920,1,0,0:0:0:0:
192,192,211995,1,0,0:0:0:0:
320,192,211995,1,0,0:0:0:0:
64,192,212070,1,0,0:0:0:0:
448,192,212070,1,0,0:0:0:0:
192,192,212145,1,0,0:0:0:0:
320,192,212145,1,0,0:0:0:0:
64,192,212220,1,0,0:0:0:0:
448,192,212220,1,0,0:0:0:0:
192,192,212295,1,0,0:0:0:0:
320,192,212370,1,0,0:0:0:0:
448,192,212370,1,0,0:0:0:0:
64,192,212445,1,0,0:0:0:0:
192,192,212520,1,0,0:0:0:0:
320,192,212520,1,0,0:0:0:0:
448,192,212595,1,0,0:0:0:0:
192,192,212670,1,0,0:0:0:0:
320,192,212670,1,0,0:0:0:0:
64,192,212745,1,0,0:0:0:0:
192,192,212820,1,0,0:0:0:0:
320,192,212895,1,0,0:0:0:0:
64,192,212970,1,0,0:0:0:0:
448,192,212970,1,0,0:0:0:0:
192,192,213045,1,0,0:0:0:0:
320,192,213120,1,0,0:0:0:0:
448,192,213195,1,0,0:0:0:0:
64,192,213270,1,0,0:0:0:0:
320,192,213270,1,0,0:0:0:0:
192,192,213345,1,0,0:0:0:0:
320,192,213420,1,0,0:0:0:0:
448,192,213420,1,0,0:0:0:0:
64,192,213495,1,0,0:0:0:0:
192,192,213495,1,0,0:0:0:0:
320,192,213570,1,0,0:0:0:0:
448,192,213570,1,0,0:0:0:0:
64,192,213645,1,0,0:0:0:0:
192,192,213645,1,0,0:0:0:0:
320,192,213720,1,0,0:0:0:0:
448,192,213720,1,0,0:0:0:0:
64,192,213795,1,0,0:0:0:0:
320,192,213870,1,0,0:0:0:0:
448,192,213870,1,0,0:0:0:0:
64,192,213945,1,0,0:0:0:0:
192,192,214020,1,0,0:0:0:0:
448,192,214020,1,0,0:0:0:0:
320,192,214095,1,0,0:0:0:0:
64,192,214170,1,0,0:0:0:0:
192,192,214170,1,0,0:0:0:0:
448,192,214245,1,0,0:0:0:0:
192,192,214320,1,0,0:0:0:0:
320,192,214320,1,0,0:0:0:0:
64,192,214395,1,0,0:0:0:0:
320,192,214470,1,0,0:0:0:0:
448,192,214545,1,0,0:0:0:0:
64,192,214620,1,0,0:0:0:0:
192,192,214620,1,0,0:0:0:0:
320,192,214695,1,0,0:0:0:0:
64,192,214770,1,0,0:0:0:0:
192,192,214770,1,0,0:0:0:0:
448,192,214845,1,0,0:0:0:0:
320,192,214920,1,0,0:0:0:0:
64,192,214995,1,0,0:0:0:0:
192,192,215070,1,0,0:0:0:0:
448,192,215070,1,0,0:0:0:0:
320,192,215145,1,0,0:0:0:0:
64,192,215220,1,0,0:0:0:0:
192,192,215220,1,0,0:0:0:0:
320,192,215295,1,0,0:0:0:0:
192,192,215370,1,0,0:0:0:0:
448,192,215370,1,0,0:0:0:0:
320,192,215445,1,0,0:0:0:0:
64,192,215520,1,0,0:0:0:0:
192,192,215520,1,0,0:0:0:0:
448,192,215595,1,0,0:0:0:0:
64,192,215670,1,0,0:0:0:0:
192,192,215745,1,0,0:0:0:0:
320,192,215820,1,0,0:0:0:0:
448,192,215820,1,0,0:0:0:0:
192,192,215895,1,0,0:0:0:0:
320,192,215970,1,0,0:0:0:0:
448,192,215970,1,0,0:0:0:0:
192,192,216045,1,0,0:0:0:0:
64,192,216120,1,0,0:0:0:0:
320,192,216120,1,0,0:0:0:0:
448,192,216120,1,0,0:0:0:0:
192,192,216195,1,0,0:0:0:0:
64,192,216270,1,0,0:0:0:0:
448,192,216270,1,0,0:0:0:0:
320,192,216345,1,0,0:0:0:0:
64,192,216420,1,0,0:0:0:0:
192,192,216420,1,0,0:0:0:0:
448,192,216495,1,0,0:0:0:0:
192,192,216570,1,0,0:0:0:0:
320,192,216570,1,0,0:0:0:0:
64,192,216645,1,0,0:0:0:0:
192,192,216720,1,0,0:0:0:0:
448,192,216720,1,0,0:0:0:0:
320,192,216795,1,0,0:0:0:0:
192,192,216870,1,0,0:0:0:0:
64,192,216945,1,0,0:0:0:0:
192,192,217020,1,0,0:0:0:0:
448,192,217020,1,0,0:0:0:0:
320,192,217095,1,0,0:0:0:0:
192,192,217170,1,0,0:0:0:0:
448,192,217170,1,0,0:0:0:0:
64,192,217245,1,0,0:0:0:0:
320,192,217320,1,0,0:0:0:0:
192,192,217395,1,0,0:0:0:0:
64,192,217470,1,0,0:0:0:0:
448,192,217520,1,0,0:0:0:0:
320,192,217570,1,0,0:0:0:0:
64,192,217620,1,0,0:0:0:0:
192,192,217620,1,0,0:0:0:0:
320,192,217695,1,0,0:0:0:0:
192,192,217770,1,0,0:0:0:0:
448,192,217770,1,0,0:0:0:0:
320,192,217845,1,0,0:0:0:0:
64,192,217920,1,0,0:0:0:0:
192,192,217920,1,0,0:0:0:0:
448,192,217920,1,0,0:0:0:0:
64,192,218070,1,0,0:0:0:0:
192,192,218070,1,0,0:0:0:0:
448,192,218070,1,0,0:0:0:0:
64,192,218220,1,0,0:0:0:0:
192,192,218220,1,0,0:0:0:0:
448,192,218220,1,0,0:0:0:0:
64,192,218370,1,0,0:0:0:0:
192,192,218370,1,0,0:0:0:0:
448,192,218370,1,0,0:0:0:0:
64,192,218520,1,0,0:0:0:0:
192,192,218520,1,0,0:0:0:0:
448,192,218520,1,0,0:0:0:0:
320,192,218595,1,0,0:0:0:0:
64,192,218670,1,0,0:0:0:0:
448,192,218670,1,0,0:0:0:0:
192,192,218745,1,0,0:0:0:0:
320,192,218820,1,0,0:0:0:0:
448,192,218820,1,0,0:0:0:0:
192,192,218895,1,0,0:0:0:0:
64,192,218970,1,0,0:0:0:0:
448,192,218970,1,0,0:0:0:0:
320,192,219045,1,0,0:0:0:0:
64,192,219120,1,0,0:0:0:0:
192,192,219120,1,0,0:0:0:0:
320,192,219195,1,0,0:0:0:0:
448,192,219270,1,0,0:0:0:0:
320,192,219345,1,0,0:0:0:0:
192,192,219420,1,0,0:0:0:0:
448,192,219420,1,0,0:0:0:0:
64,192,219495,1,0,0:0:0:0:
192,192,219570,1,0,0:0:0:0:
320,192,219570,1,0,0:0:0:0:
448,192,219645,1,0,0:0:0:0:
320,192,219720,1,0,0:0:0:0:
192,192,219795,1,0,0:0:0:0:
64,192,219870,1,0,0:0:0:0:
448,192,219870,1,0,0:0:0:0:
192,192,219945,1,0,0:0:0:0:
320,192,220020,1,0,0:0:0:0:
448,192,220020,1,0,0:0:0:0:
192,192,220095,1,0,0:0:0:0:
64,192,220170,1,0,0:0:0:0:
448,192,220170,1,0,0:0:0:0:
320,192,220245,1,0,0:0:0:0:
64,192,220320,1,0,0:0:0:0:
192,192,220320,1,0,0:0:0:0:
320,192,220395,1,0,0:0:0:0:
192,192,220470,1,0,0:0:0:0:
64,192,220545,1,0,0:0:0:0:
320,192,220620,1,0,0:0:0:0:
448,192,220620,1,0,0:0:0:0:
192,192,220695,1,0,0:0:0:0:
320,192,220770,1,0,0:0:0:0:
448,192,220770,1,0,0:0:0:0:
192,192,220845,1,0,0:0:0:0:
64,192,220920,1,0,0:0:0:0:
320,192,220920,1,0,0:0:0:0:
448,192,220920,1,0,0:0:0:0:
192,192,220995,1,0,0:0:0:0:
64,192,221070,1,0,0:0:0:0:
448,192,221070,1,0,0:0:0:0:
320,192,221145,1,0,0:0:0:0:
64,192,221220,1,0,0:0:0:0:
192,192,221220,1,0,0:0:0:0:
448,192,221295,1,0,0:0:0:0:
192,192,221370,1,0,0:0:0:0:
320,192,221370,1,0,0:0:0:0:
64,192,221445,1,0,0:0:0:0:
320,192,221520,1,0,0:0:0:0:
448,192,221520,1,0,0:0:0:0:
64,192,221595,1,0,0:0:0:0:
192,192,221595,1,0,0:0:0:0:
320,192,221670,1,0,0:0:0:0:
448,192,221670,1,0,0:0:0:0:
64,192,221745,1,0,0:0:0:0:
192,192,221745,1,0,0:0:0:0:
320,192,221820,1,0,0:0:0:0:
448,192,221820,1,0,0:0:0:0:
192,192,221895,1,0,0:0:0:0:
64,192,221970,1,0,0:0:0:0:
448,192,221970,1,0,0:0:0:0:
192,192,222045,1,0,0:0:0:0:
320,192,222120,1,0,0:0:0:0:
448,192,222120,1,0,0:0:0:0:
64,192,222195,1,0,0:0:0:0:
192,192,222195,1,0,0:0:0:0:
320,192,222270,1,0,0:0:0:0:
448,192,222270,1,0,0:0:0:0:
64,192,222345,1,0,0:0:0:0:
192,192,222345,1,0,0:0:0:0:
320,192,222420,1,0,0:0:0:0:
448,192,222420,1,0,0:0:0:0:
64,192,222495,1,0,0:0:0:0:
192,192,222495,1,0,0:0:0:0:
320,192,222570,1,0,0:0:0:0:
448,192,222570,1,0,0:0:0:0:
192,192,222645,1,0,0:0:0:0:
64,192,222720,1,0,0:0:0:0:
448,192,222720,1,0,0:0:0:0:
192,192,222795,1,0,0:0:0:0:
320,192,222795,1,0,0:0:0:0:
64,192,222870,1,0,0:0:0:0:
448,192,222870,1,0,0:0:0:0:
320,192,222945,1,0,0:0:0:0:
64,192,223020,1,0,0:0:0:0:
192,192,223020,1,0,0:0:0:0:
320,192,223095,1,0,0:0:0:0:
448,192,223095,1,0,0:0:0:0:
64,192,223170,1,0,0:0:0:0:
192,192,223170,1,0,0:0:0:0:
320,192,223245,1,0,0:0:0:0:
64,192,223320,1,0,0:0:0:0:
448,192,223320,1,0,0:0:0:0:
