osu file format v14

[General]
AudioFilename: audio.mp3
AudioLeadIn: 0
PreviewTime: 34101
Countdown: 0
SampleSet: Normal
StackLeniency: 0.7
Mode: 3
LetterboxInBreaks: 0
SpecialStyle: 0
WidescreenStoryboard: 1

[Editor]
DistanceSpacing: 0.7
BeatDivisor: 8
GridSize: 8
TimelineZoom: 3.599998

[Metadata]
Title:Chocolate Adventure
TitleUnicode:Chocolate Adventure
Artist:Neko Hacker feat. Nanahira
ArtistUnicode:Neko Hacker feat. ななひら
Creator:LostCool
Version:Chocolate~
Source:
Tags:Kawaii Future Rock Electronic Chocolate Loli LostCool _S h i r o_
BeatmapID:1946832
BeatmapSetID:932444

[Difficulty]
HPDrainRate:7.1
CircleSize:7
OverallDifficulty:6.9
ApproachRate:5
SliderMultiplier:1.4
SliderTickRate:1

[Events]
//Background and Video events
0,0,"bg owo.jpg",0,0
//Break Periods
//Storyboard Layer 0 (Background)
//Storyboard Layer 1 (Fail)
//Storyboard Layer 2 (Pass)
//Storyboard Layer 3 (Foreground)
//Storyboard Layer 4 (Overlay)
//Storyboard Sound Samples

[TimingPoints]
219,352.941176470588,4,1,0,15,1,0

[Colours]
Combo1 : 128,0,64
Combo2 : 157,79,79
Combo3 : 255,0,0
Combo4 : 255,0,255

[HitObjects]
256,192,219,128,0,307:0:0:0:0:
475,192,219,128,0,395:0:0:0:0:
182,192,395,128,0,483:0:0:0:0:
402,192,395,128,0,571:0:0:0:0:
109,192,571,128,0,660:0:0:0:0:
329,192,571,128,0,748:0:0:0:0:
36,192,748,128,0,836:0:0:0:0:
402,192,748,128,0,1101:0:0:0:0:
182,192,924,128,0,1013:0:0:0:0:
109,192,1101,128,0,1454:0:0:0:0:
256,192,1101,128,0,1189:0:0:0:0:
329,192,1277,128,0,1366:0:0:0:0:
402,192,1454,128,0,1542:0:0:0:0:
256,192,1454,128,0,1807:0:0:0:0:
475,192,1630,128,0,1718:0:0:0:0:
402,192,1807,128,0,1895:0:0:0:0:
109,192,1807,128,0,2160:0:0:0:0:
329,192,1983,128,0,2071:0:0:0:0:
329,192,2160,1,0,0:0:0:0:
256,192,2160,128,0,2513:0:0:0:0:
402,192,2336,1,0,0:0:0:0:
329,192,2513,1,0,0:0:0:0:
109,192,2513,128,0,2866:0:0:0:0:
475,192,2689,1,0,0:0:0:0:
329,192,2866,1,0,0:0:0:0:
256,192,3042,128,0,3130:0:0:0:0:
109,192,3042,128,0,3395:0:0:0:0:
329,192,3218,128,0,3307:0:0:0:0:
402,192,3395,128,0,3483:0:0:0:0:
256,192,3395,128,0,3571:0:0:0:0:
475,192,3571,128,0,3660:0:0:0:0:
109,192,3571,128,0,3924:0:0:0:0:
402,192,3748,128,0,3836:0:0:0:0:
329,192,3924,128,0,4013:0:0:0:0:
402,192,3924,128,0,4277:0:0:0:0:
256,192,4101,128,0,4189:0:0:0:0:
109,192,4277,128,0,4630:0:0:0:0:
182,192,4277,128,0,4366:0:0:0:0:
36,192,4454,128,0,4542:0:0:0:0:
256,192,4630,128,0,4983:0:0:0:0:
182,192,4630,128,0,4718:0:0:0:0:
329,192,4807,128,0,4895:0:0:0:0:
402,192,4983,128,0,5336:0:0:0:0:
475,192,4983,128,0,5071:0:0:0:0:
109,192,5160,128,0,5866:0:0:0:0:
256,192,5336,128,0,5513:0:0:0:0:
402,192,5513,128,0,5866:0:0:0:0:
182,192,5689,1,0,0:0:0:0:
329,192,5777,1,0,0:0:0:0:
182,192,5866,1,0,0:0:0:0:
36,192,5866,1,0,0:0:0:0:
256,192,5866,128,0,6218:0:0:0:0:
109,192,6571,1,0,0:0:0:0:
402,192,6571,1,0,0:0:0:0:
256,192,6571,128,0,6748:0:0:0:0:
182,192,6836,1,0,0:0:0:0:
329,192,6836,1,0,0:0:0:0:
256,192,6836,128,0,7013:0:0:0:0:
109,192,7101,1,0,0:0:0:0:
402,192,7101,1,0,0:0:0:0:
256,192,7101,128,0,7454:0:0:0:0:
36,192,7454,128,0,7542:0:0:0:0:
475,192,7454,128,0,7542:0:0:0:0:
182,192,7542,1,0,0:0:0:0:
329,192,7542,1,0,0:0:0:0:
36,192,7630,1,0,0:0:0:0:
475,192,7630,1,0,0:0:0:0:
256,192,7718,1,0,0:0:0:0:
402,192,7807,128,0,7895:0:0:0:0:
109,192,7807,128,0,7895:0:0:0:0:
182,192,7895,1,0,0:0:0:0:
329,192,7895,1,0,0:0:0:0:
109,192,7983,1,0,0:0:0:0:
402,192,7983,1,0,0:0:0:0:
182,192,8160,1,0,0:0:0:0:
475,192,8160,1,0,0:0:0:0:
402,192,8204,1,0,0:0:0:0:
109,192,8204,1,0,0:0:0:0:
36,192,8248,1,0,0:0:0:0:
329,192,8248,1,0,0:0:0:0:
182,192,8292,128,0,8336:0:0:0:0:
256,192,8292,128,0,8336:0:0:0:0:
182,192,8513,128,0,9042:0:0:0:0:
256,192,8513,128,0,8866:0:0:0:0:
402,192,8513,128,0,8866:0:0:0:0:
475,192,8513,128,0,9042:0:0:0:0:
329,192,8866,1,0,0:0:0:0:
256,192,9042,1,0,0:0:0:0:
402,192,9042,1,0,0:0:0:0:
329,192,9042,128,0,9395:0:0:0:0:
109,192,9042,1,0,0:0:0:0:
36,192,9042,1,0,0:0:0:0:
475,192,9218,1,0,0:0:0:0:
182,192,9218,1,0,0:0:0:0:
256,192,9218,128,0,9571:0:0:0:0:
402,192,9218,128,0,9571:0:0:0:0:
182,192,9395,128,0,9748:0:0:0:0:
475,192,9395,128,0,9748:0:0:0:0:
109,192,9395,1,0,0:0:0:0:
36,192,9395,1,0,0:0:0:0:
329,192,9571,128,0,9660:0:0:0:0:
109,192,9748,1,0,0:0:0:0:
256,192,9748,128,0,9836:0:0:0:0:
402,192,9748,128,0,9836:0:0:0:0:
36,192,9748,1,0,0:0:0:0:
475,192,9924,128,0,10013:0:0:0:0:
182,192,9924,128,0,10013:0:0:0:0:
329,192,10101,128,0,10189:0:0:0:0:
36,192,10101,128,0,10189:0:0:0:0:
109,192,10189,128,0,10277:0:0:0:0:
256,192,10189,128,0,10277:0:0:0:0:
182,192,10277,128,0,10366:0:0:0:0:
475,192,10277,128,0,10366:0:0:0:0:
402,192,10366,128,0,10454:0:0:0:0:
256,192,10366,128,0,10454:0:0:0:0:
329,192,10454,128,0,10542:0:0:0:0:
182,192,10454,128,0,10542:0:0:0:0:
109,192,10542,128,0,10630:0:0:0:0:
256,192,10542,128,0,10630:0:0:0:0:
36,192,10630,128,0,10718:0:0:0:0:
329,192,10630,128,0,10718:0:0:0:0:
256,192,10718,128,0,10807:0:0:0:0:
402,192,10718,128,0,10807:0:0:0:0:
36,192,10807,128,0,10851:0:0:0:0:
182,192,10807,128,0,10851:0:0:0:0:
475,192,10807,128,0,10851:0:0:0:0:
36,192,11160,128,0,11248:0:0:0:0:
329,192,11160,128,0,11248:0:0:0:0:
109,192,11248,128,0,11336:0:0:0:0:
256,192,11248,128,0,11336:0:0:0:0:
402,192,11248,128,0,11336:0:0:0:0:
182,192,11336,128,0,11424:0:0:0:0:
475,192,11336,128,0,11424:0:0:0:0:
256,192,11424,128,0,11513:0:0:0:0:
402,192,11424,128,0,11513:0:0:0:0:
109,192,11424,128,0,11513:0:0:0:0:
329,192,11513,128,0,11601:0:0:0:0:
36,192,11513,128,0,11866:0:0:0:0:
182,192,11513,1,0,0:0:0:0:
256,192,11601,128,0,11689:0:0:0:0:
402,192,11601,1,0,0:0:0:0:
182,192,11689,1,0,0:0:0:0:
475,192,11689,128,0,11777:0:0:0:0:
109,192,11689,1,0,0:0:0:0:
402,192,11777,128,0,11866:0:0:0:0:
256,192,11777,1,0,0:0:0:0:
182,192,11866,128,0,11954:0:0:0:0:
475,192,11866,128,0,12130:0:0:0:0:
329,192,11866,1,0,0:0:0:0:
256,192,11954,128,0,12042:0:0:0:0:
109,192,11954,1,0,0:0:0:0:
329,192,12042,1,0,0:0:0:0:
36,192,12042,128,0,12130:0:0:0:0:
402,192,12042,1,0,0:0:0:0:
256,192,12130,1,0,0:0:0:0:
109,192,12130,128,0,12218:0:0:0:0:
182,192,12218,128,0,12307:0:0:0:0:
475,192,12218,128,0,12395:0:0:0:0:
329,192,12218,1,0,0:0:0:0:
402,192,12307,128,0,12395:0:0:0:0:
109,192,12307,128,0,12395:0:0:0:0:
256,192,12307,128,0,12395:0:0:0:0:
329,192,12395,128,0,12483:0:0:0:0:
36,192,12395,128,0,12571:0:0:0:0:
109,192,12483,128,0,12571:0:0:0:0:
402,192,12483,128,0,12571:0:0:0:0:
256,192,12483,128,0,12571:0:0:0:0:
182,192,12571,128,0,12660:0:0:0:0:
475,192,12571,128,0,12748:0:0:0:0:
329,192,12571,1,0,0:0:0:0:
402,192,12660,128,0,12748:0:0:0:0:
109,192,12660,128,0,12748:0:0:0:0:
36,192,12748,128,0,12924:0:0:0:0:
182,192,12748,128,0,12836:0:0:0:0:
329,192,12748,128,0,13013:0:0:0:0:
256,192,12836,128,0,12924:0:0:0:0:
182,192,12924,1,0,0:0:0:0:
109,192,12924,1,0,0:0:0:0:
475,192,12924,1,0,0:0:0:0:
402,192,13013,1,0,0:0:0:0:
256,192,13013,1,0,0:0:0:0:
329,192,13101,1,0,0:0:0:0:
182,192,13101,128,0,13366:0:0:0:0:
256,192,13189,1,0,0:0:0:0:
109,192,13189,1,0,0:0:0:0:
36,192,13277,1,0,0:0:0:0:
329,192,13277,1,0,0:0:0:0:
402,192,13277,1,0,0:0:0:0:
256,192,13366,1,0,0:0:0:0:
109,192,13366,1,0,0:0:0:0:
182,192,13454,1,0,0:0:0:0:
329,192,13454,128,0,13718:0:0:0:0:
256,192,13542,1,0,0:0:0:0:
402,192,13542,1,0,0:0:0:0:
109,192,13630,1,0,0:0:0:0:
475,192,13630,1,0,0:0:0:0:
182,192,13630,128,0,13895:0:0:0:0:
36,192,13630,1,0,0:0:0:0:
402,192,13718,1,0,0:0:0:0:
256,192,13718,1,0,0:0:0:0:
329,192,13807,1,0,0:0:0:0:
256,192,13895,1,0,0:0:0:0:
109,192,13895,1,0,0:0:0:0:
182,192,13983,1,0,0:0:0:0:
36,192,13983,1,0,0:0:0:0:
475,192,13983,1,0,0:0:0:0:
329,192,13983,1,0,0:0:0:0:
402,192,14071,1,0,0:0:0:0:
256,192,14071,1,0,0:0:0:0:
329,192,14160,1,0,0:0:0:0:
182,192,14160,1,0,0:0:0:0:
256,192,14248,1,0,0:0:0:0:
109,192,14248,1,0,0:0:0:0:
182,192,14336,1,0,0:0:0:0:
36,192,14336,1,0,0:0:0:0:
329,192,14336,128,0,14468:0:0:0:0:
402,192,14336,128,0,14424:0:0:0:0:
475,192,14336,128,0,14380:0:0:0:0:
256,192,14424,1,0,0:0:0:0:
475,192,14468,128,0,14601:0:0:0:0:
182,192,14513,1,0,0:0:0:0:
36,192,14513,1,0,0:0:0:0:
402,192,14513,128,0,14601:0:0:0:0:
329,192,14557,128,0,14601:0:0:0:0:
256,192,14601,128,0,14689:0:0:0:0:
182,192,14689,128,0,14733:0:0:0:0:
109,192,14689,128,0,14777:0:0:0:0:
36,192,14689,128,0,14821:0:0:0:0:
329,192,14689,1,0,0:0:0:0:
475,192,14689,1,0,0:0:0:0:
256,192,14777,1,0,0:0:0:0:
182,192,14821,128,0,14954:0:0:0:0:
329,192,14866,1,0,0:0:0:0:
475,192,14866,1,0,0:0:0:0:
109,192,14866,128,0,14954:0:0:0:0:
36,192,14910,128,0,14954:0:0:0:0:
256,192,14954,1,0,0:0:0:0:
329,192,15042,128,0,15086:0:0:0:0:
402,192,15042,128,0,15130:0:0:0:0:
475,192,15042,128,0,15174:0:0:0:0:
182,192,15042,1,0,0:0:0:0:
109,192,15042,1,0,0:0:0:0:
36,192,15130,1,0,0:0:0:0:
329,192,15218,128,0,15307:0:0:0:0:
182,192,15218,1,0,0:0:0:0:
402,192,15263,128,0,15307:0:0:0:0:
475,192,15307,1,0,0:0:0:0:
256,192,15307,1,0,0:0:0:0:
109,192,15395,128,0,15483:0:0:0:0:
182,192,15395,128,0,15527:0:0:0:0:
36,192,15395,128,0,15439:0:0:0:0:
329,192,15395,1,0,0:0:0:0:
402,192,15395,1,0,0:0:0:0:
475,192,15483,1,0,0:0:0:0:
36,192,15571,128,0,15660:0:0:0:0:
329,192,15571,1,0,0:0:0:0:
109,192,15616,128,0,15660:0:0:0:0:
182,192,15660,1,0,0:0:0:0:
256,192,15660,1,0,0:0:0:0:
329,192,15748,128,0,16013:0:0:0:0:
402,192,15748,128,0,16277:0:0:0:0:
475,192,15748,128,0,16454:0:0:0:0:
109,192,15748,1,0,0:0:0:0:
36,192,15748,1,0,0:0:0:0:
182,192,15924,128,0,15968:0:0:0:0:
256,192,15924,128,0,15968:0:0:0:0:
109,192,16013,128,0,16057:0:0:0:0:
36,192,16013,128,0,16057:0:0:0:0:
329,192,16101,128,0,16145:0:0:0:0:
182,192,16101,128,0,16145:0:0:0:0:
256,192,16101,128,0,16454:0:0:0:0:
109,192,16277,128,0,16630:0:0:0:0:
36,192,16277,1,0,0:0:0:0:
329,192,16277,1,0,0:0:0:0:
182,192,16454,128,0,16498:0:0:0:0:
36,192,16454,128,0,16498:0:0:0:0:
402,192,16454,128,0,16807:0:0:0:0:
329,192,16630,128,0,16674:0:0:0:0:
475,192,16630,128,0,16674:0:0:0:0:
256,192,16630,128,0,16983:0:0:0:0:
109,192,16718,1,0,0:0:0:0:
182,192,16807,128,0,16851:0:0:0:0:
329,192,16807,128,0,16851:0:0:0:0:
109,192,16807,128,0,17160:0:0:0:0:
475,192,16807,1,0,0:0:0:0:
402,192,16895,1,0,0:0:0:0:
36,192,16983,128,0,17027:0:0:0:0:
182,192,16983,128,0,17027:0:0:0:0:
329,192,16983,1,0,0:0:0:0:
256,192,17071,1,0,0:0:0:0:
182,192,17160,1,0,0:0:0:0:
36,192,17160,1,0,0:0:0:0:
475,192,17160,128,0,17248:0:0:0:0:
402,192,17160,128,0,17292:0:0:0:0:
329,192,17160,128,0,17336:0:0:0:0:
256,192,17336,128,0,17380:0:0:0:0:
182,192,17336,128,0,17424:0:0:0:0:
109,192,17336,128,0,17468:0:0:0:0:
36,192,17336,128,0,17513:0:0:0:0:
256,192,17513,128,0,17557:0:0:0:0:
329,192,17513,128,0,17601:0:0:0:0:
402,192,17513,128,0,17645:0:0:0:0:
475,192,17513,128,0,17689:0:0:0:0:
109,192,17557,1,0,0:0:0:0:
182,192,17601,1,0,0:0:0:0:
256,192,17645,1,0,0:0:0:0:
36,192,17689,1,0,0:0:0:0:
329,192,17689,1,0,0:0:0:0:
256,192,17866,128,0,17910:0:0:0:0:
182,192,17866,128,0,17954:0:0:0:0:
109,192,17866,128,0,17998:0:0:0:0:
36,192,17866,128,0,18042:0:0:0:0:
475,192,17866,1,0,0:0:0:0:
402,192,17910,1,0,0:0:0:0:
329,192,17954,1,0,0:0:0:0:
256,192,17998,1,0,0:0:0:0:
182,192,18042,1,0,0:0:0:0:
475,192,18042,1,0,0:0:0:0:
182,192,18218,128,0,18263:0:0:0:0:
256,192,18218,128,0,18307:0:0:0:0:
329,192,18218,128,0,18351:0:0:0:0:
402,192,18218,128,0,18395:0:0:0:0:
475,192,18218,1,0,0:0:0:0:
36,192,18263,1,0,0:0:0:0:
109,192,18307,1,0,0:0:0:0:
182,192,18351,1,0,0:0:0:0:
256,192,18395,1,0,0:0:0:0:
475,192,18395,1,0,0:0:0:0:
329,192,18571,128,0,18616:0:0:0:0:
256,192,18571,128,0,18660:0:0:0:0:
182,192,18571,128,0,18704:0:0:0:0:
109,192,18571,128,0,18748:0:0:0:0:
36,192,18571,1,0,0:0:0:0:
475,192,18616,128,0,18836:0:0:0:0:
402,192,18660,128,0,18836:0:0:0:0:
329,192,18704,128,0,18836:0:0:0:0:
36,192,18748,1,0,0:0:0:0:
256,192,18748,128,0,18836:0:0:0:0:
109,192,18836,128,0,18924:0:0:0:0:
182,192,18924,128,0,19013:0:0:0:0:
36,192,18924,128,0,19101:0:0:0:0:
402,192,18924,1,0,0:0:0:0:
475,192,18924,1,0,0:0:0:0:
256,192,19013,128,0,19101:0:0:0:0:
329,192,19101,128,0,19189:0:0:0:0:
475,192,19101,128,0,19277:0:0:0:0:
402,192,19189,128,0,19277:0:0:0:0:
109,192,19277,128,0,19454:0:0:0:0:
182,192,19277,1,0,0:0:0:0:
36,192,19277,1,0,0:0:0:0:
256,192,19366,1,0,0:0:0:0:
329,192,19454,1,0,0:0:0:0:
402,192,19454,128,0,19630:0:0:0:0:
475,192,19454,1,0,0:0:0:0:
256,192,19542,128,0,19630:0:0:0:0:
109,192,19630,128,0,19763:0:0:0:0:
182,192,19630,1,0,0:0:0:0:
256,192,19718,128,0,19807:0:0:0:0:
402,192,19718,128,0,19851:0:0:0:0:
109,192,19807,1,0,0:0:0:0:
182,192,19807,1,0,0:0:0:0:
402,192,19895,1,0,0:0:0:0:
256,192,19895,128,0,19983:0:0:0:0:
109,192,19983,1,0,0:0:0:0:
182,192,19983,1,0,0:0:0:0:
36,192,19983,128,0,20116:0:0:0:0:
475,192,19983,1,0,0:0:0:0:
36,192,20160,1,0,0:0:0:0:
182,192,20160,128,0,20292:0:0:0:0:
256,192,20160,128,0,20292:0:0:0:0:
329,192,20160,128,0,20292:0:0:0:0:
402,192,20160,1,0,0:0:0:0:
182,192,20336,128,0,20468:0:0:0:0:
256,192,20336,1,0,0:0:0:0:
329,192,20336,1,0,0:0:0:0:
475,192,20336,128,0,20645:0:0:0:0:
182,192,20513,1,0,0:0:0:0:
36,192,20513,128,0,20557:0:0:0:0:
109,192,20513,128,0,20557:0:0:0:0:
256,192,20601,128,0,20645:0:0:0:0:
329,192,20689,1,0,0:0:0:0:
402,192,20689,1,0,0:0:0:0:
475,192,20689,128,0,20821:0:0:0:0:
36,192,20689,1,0,0:0:0:0:
475,192,20866,1,0,0:0:0:0:
182,192,20866,128,0,20998:0:0:0:0:
256,192,20866,128,0,20998:0:0:0:0:
329,192,20866,128,0,20998:0:0:0:0:
109,192,20866,1,0,0:0:0:0:
329,192,21042,128,0,21174:0:0:0:0:
256,192,21042,1,0,0:0:0:0:
182,192,21042,1,0,0:0:0:0:
36,192,21042,128,0,21351:0:0:0:0:
329,192,21218,1,0,0:0:0:0:
402,192,21218,128,0,21263:0:0:0:0:
475,192,21218,128,0,21263:0:0:0:0:
256,192,21307,128,0,21351:0:0:0:0:
36,192,21395,1,0,0:0:0:0:
109,192,21395,128,0,21704:0:0:0:0:
256,192,21483,128,0,21527:0:0:0:0:
402,192,21571,128,0,21792:0:0:0:0:
475,192,21571,128,0,21660:0:0:0:0:
329,192,21571,128,0,21660:0:0:0:0:
256,192,21660,128,0,21704:0:0:0:0:
109,192,21748,128,0,21792:0:0:0:0:
329,192,21748,128,0,21836:0:0:0:0:
475,192,21748,128,0,21836:0:0:0:0:
402,192,21836,128,0,21880:0:0:0:0:
256,192,21924,128,0,21968:0:0:0:0:
182,192,21924,128,0,22013:0:0:0:0:
36,192,21924,128,0,22013:0:0:0:0:
109,192,22013,128,0,22057:0:0:0:0:
36,192,22101,128,0,22189:0:0:0:0:
182,192,22101,128,0,22189:0:0:0:0:
256,192,22101,128,0,22145:0:0:0:0:
402,192,22189,128,0,22233:0:0:0:0:
109,192,22277,128,0,22321:0:0:0:0:
475,192,22277,128,0,22366:0:0:0:0:
329,192,22366,1,0,0:0:0:0:
256,192,22366,1,0,0:0:0:0:
182,192,22366,1,0,0:0:0:0:
402,192,22454,128,0,22498:0:0:0:0:
36,192,22454,128,0,22542:0:0:0:0:
182,192,22542,128,0,22630:0:0:0:0:
329,192,22542,128,0,22630:0:0:0:0:
256,192,22542,128,0,22630:0:0:0:0:
109,192,22630,128,0,22718:0:0:0:0:
475,192,22630,128,0,22718:0:0:0:0:
329,192,22718,128,0,22807:0:0:0:0:
256,192,22718,128,0,22807:0:0:0:0:
182,192,22718,128,0,22807:0:0:0:0:
36,192,22807,128,0,23160:0:0:0:0:
402,192,22807,128,0,22939:0:0:0:0:
402,192,22983,1,0,0:0:0:0:
256,192,22983,1,0,0:0:0:0:
329,192,23160,128,0,23292:0:0:0:0:
182,192,23160,1,0,0:0:0:0:
109,192,23160,1,0,0:0:0:0:
329,192,23336,1,0,0:0:0:0:
256,192,23336,1,0,0:0:0:0:
402,192,23424,1,0,0:0:0:0:
36,192,23513,128,0,23866:0:0:0:0:
329,192,23513,128,0,23645:0:0:0:0:
329,192,23689,1,0,0:0:0:0:
256,192,23689,1,0,0:0:0:0:
402,192,23777,1,0,0:0:0:0:
475,192,23777,1,0,0:0:0:0:
256,192,23866,128,0,23998:0:0:0:0:
182,192,23866,1,0,0:0:0:0:
109,192,23866,1,0,0:0:0:0:
256,192,24042,1,0,0:0:0:0:
402,192,24042,128,0,24218:0:0:0:0:
36,192,24218,128,0,24571:0:0:0:0:
256,192,24218,128,0,24263:0:0:0:0:
475,192,24218,1,0,0:0:0:0:
256,192,24395,128,0,24527:0:0:0:0:
402,192,24395,128,0,24439:0:0:0:0:
256,192,24571,1,0,0:0:0:0:
182,192,24571,1,0,0:0:0:0:
109,192,24571,1,0,0:0:0:0:
402,192,24571,128,0,24616:0:0:0:0:
182,192,24748,128,0,24924:0:0:0:0:
402,192,24748,128,0,24924:0:0:0:0:
36,192,24924,128,0,25277:0:0:0:0:
256,192,24924,128,0,25101:0:0:0:0:
475,192,24924,128,0,25101:0:0:0:0:
329,192,24924,1,0,0:0:0:0:
329,192,25101,128,0,25233:0:0:0:0:
109,192,25101,128,0,25145:0:0:0:0:
182,192,25189,128,0,25233:0:0:0:0:
402,192,25277,128,0,25410:0:0:0:0:
329,192,25277,1,0,0:0:0:0:
256,192,25277,128,0,25321:0:0:0:0:
402,192,25454,1,0,0:0:0:0:
475,192,25454,128,0,25586:0:0:0:0:
36,192,25454,128,0,25498:0:0:0:0:
109,192,25542,128,0,25586:0:0:0:0:
182,192,25630,128,0,25983:0:0:0:0:
475,192,25630,1,0,0:0:0:0:
256,192,25630,1,0,0:0:0:0:
402,192,25718,1,0,0:0:0:0:
329,192,25807,1,0,0:0:0:0:
109,192,25807,1,0,0:0:0:0:
402,192,25895,1,0,0:0:0:0:
475,192,25983,128,0,26027:0:0:0:0:
256,192,25983,1,0,0:0:0:0:
36,192,25983,1,0,0:0:0:0:
402,192,26071,128,0,26116:0:0:0:0:
329,192,26160,128,0,26204:0:0:0:0:
109,192,26160,1,0,0:0:0:0:
402,192,26248,128,0,26292:0:0:0:0:
182,192,26336,128,0,26689:0:0:0:0:
475,192,26336,128,0,26424:0:0:0:0:
256,192,26336,1,0,0:0:0:0:
402,192,26424,128,0,26513:0:0:0:0:
329,192,26513,128,0,26601:0:0:0:0:
36,192,26513,128,0,26557:0:0:0:0:
402,192,26601,128,0,26689:0:0:0:0:
109,192,26601,128,0,26645:0:0:0:0:
475,192,26689,128,0,26954:0:0:0:0:
256,192,26689,1,0,0:0:0:0:
402,192,26777,128,0,26866:0:0:0:0:
329,192,26866,128,0,27307:0:0:0:0:
182,192,26866,1,0,0:0:0:0:
402,192,26954,128,0,27130:0:0:0:0:
182,192,27042,128,0,27395:0:0:0:0:
475,192,27042,128,0,27660:0:0:0:0:
109,192,27042,1,0,0:0:0:0:
36,192,27042,1,0,0:0:0:0:
402,192,27218,128,0,27483:0:0:0:0:
256,192,27218,1,0,0:0:0:0:
329,192,27395,128,0,28013:0:0:0:0:
109,192,27395,1,0,0:0:0:0:
36,192,27395,1,0,0:0:0:0:
402,192,27571,128,0,27836:0:0:0:0:
256,192,27571,1,0,0:0:0:0:
182,192,27748,128,0,28101:0:0:0:0:
475,192,27748,128,0,28013:0:0:0:0:
109,192,27748,1,0,0:0:0:0:
36,192,27748,1,0,0:0:0:0:
402,192,27924,128,0,28189:0:0:0:0:
256,192,27924,128,0,28101:0:0:0:0:
329,192,28101,128,0,28366:0:0:0:0:
475,192,28101,128,0,28366:0:0:0:0:
109,192,28101,128,0,28277:0:0:0:0:
36,192,28101,128,0,28454:0:0:0:0:
402,192,28277,128,0,28939:0:0:0:0:
256,192,28277,128,0,28454:0:0:0:0:
182,192,28277,128,0,28321:0:0:0:0:
109,192,28454,128,0,28498:0:0:0:0:
329,192,28454,128,0,28674:0:0:0:0:
182,192,28454,128,0,28674:0:0:0:0:
475,192,28454,128,0,28763:0:0:0:0:
36,192,28630,128,0,28674:0:0:0:0:
256,192,28630,128,0,28851:0:0:0:0:
109,192,28630,128,0,28851:0:0:0:0:
36,192,28807,128,0,29027:0:0:0:0:
182,192,28807,128,0,29027:0:0:0:0:
329,192,28807,128,0,28851:0:0:0:0:
475,192,28807,1,0,0:0:0:0:
109,192,28983,128,0,29204:0:0:0:0:
256,192,28983,128,0,29204:0:0:0:0:
402,192,28983,128,0,29027:0:0:0:0:
182,192,29160,128,0,29380:0:0:0:0:
329,192,29160,128,0,29380:0:0:0:0:
475,192,29160,128,0,29204:0:0:0:0:
36,192,29160,128,0,29468:0:0:0:0:
256,192,29336,128,0,29557:0:0:0:0:
402,192,29336,128,0,29557:0:0:0:0:
109,192,29336,128,0,29380:0:0:0:0:
329,192,29513,128,0,29733:0:0:0:0:
475,192,29513,128,0,29733:0:0:0:0:
182,192,29513,128,0,29557:0:0:0:0:
36,192,29513,1,0,0:0:0:0:
109,192,29513,128,0,29689:0:0:0:0:
256,192,29689,128,0,29733:0:0:0:0:
402,192,29689,128,0,29910:0:0:0:0:
182,192,29689,128,0,29866:0:0:0:0:
36,192,29689,128,0,30174:0:0:0:0:
256,192,29866,128,0,29910:0:0:0:0:
109,192,29866,128,0,30042:0:0:0:0:
329,192,29910,128,0,29954:0:0:0:0:
475,192,29954,128,0,29998:0:0:0:0:
402,192,29998,128,0,30042:0:0:0:0:
182,192,30042,128,0,30263:0:0:0:0:
329,192,30042,128,0,30263:0:0:0:0:
256,192,30218,128,0,30439:0:0:0:0:
109,192,30218,128,0,30439:0:0:0:0:
36,192,30218,1,0,0:0:0:0:
402,192,30218,128,0,30263:0:0:0:0:
475,192,30218,128,0,30704:0:0:0:0:
329,192,30395,128,0,30616:0:0:0:0:
36,192,30395,128,0,30616:0:0:0:0:
182,192,30395,128,0,30439:0:0:0:0:
402,192,30395,128,0,30792:0:0:0:0:
109,192,30571,128,0,30792:0:0:0:0:
256,192,30571,128,0,30792:0:0:0:0:
182,192,30571,128,0,30616:0:0:0:0:
182,192,30748,128,0,30968:0:0:0:0:
475,192,30748,128,0,30968:0:0:0:0:
329,192,30748,128,0,30792:0:0:0:0:
36,192,30748,1,0,0:0:0:0:
256,192,30924,128,0,31145:0:0:0:0:
402,192,30924,128,0,31145:0:0:0:0:
329,192,30924,128,0,30968:0:0:0:0:
109,192,30924,1,0,0:0:0:0:
36,192,30924,128,0,31233:0:0:0:0:
475,192,31013,1,0,0:0:0:0:
329,192,31101,128,0,31321:0:0:0:0:
182,192,31101,1,0,0:0:0:0:
402,192,31189,1,0,0:0:0:0:
109,192,31189,1,0,0:0:0:0:
36,192,31277,128,0,31321:0:0:0:0:
256,192,31277,1,0,0:0:0:0:
475,192,31277,128,0,31630:0:0:0:0:
402,192,31277,128,0,31366:0:0:0:0:
182,192,31366,1,0,0:0:0:0:
109,192,31454,128,0,31498:0:0:0:0:
329,192,31454,128,0,31542:0:0:0:0:
256,192,31542,1,0,0:0:0:0:
182,192,31630,128,0,31674:0:0:0:0:
402,192,31630,1,0,0:0:0:0:
36,192,31630,128,0,31983:0:0:0:0:
109,192,31630,128,0,31718:0:0:0:0:
329,192,31718,1,0,0:0:0:0:
256,192,31807,128,0,31851:0:0:0:0:
182,192,31807,128,0,31895:0:0:0:0:
475,192,31807,128,0,31983:0:0:0:0:
109,192,31895,1,0,0:0:0:0:
182,192,31983,1,0,0:0:0:0:
329,192,31983,128,0,32027:0:0:0:0:
402,192,31983,128,0,32071:0:0:0:0:
109,192,31983,128,0,32336:0:0:0:0:
256,192,32071,1,0,0:0:0:0:
182,192,32160,1,0,0:0:0:0:
402,192,32160,128,0,32204:0:0:0:0:
475,192,32160,128,0,32248:0:0:0:0:
36,192,32160,128,0,32336:0:0:0:0:
256,192,32248,1,0,0:0:0:0:
475,192,32336,128,0,32380:0:0:0:0:
329,192,32336,1,0,0:0:0:0:
182,192,32336,128,0,32424:0:0:0:0:
256,192,32424,128,0,32468:0:0:0:0:
182,192,32513,1,0,0:0:0:0:
402,192,32513,128,0,32557:0:0:0:0:
36,192,32513,128,0,32601:0:0:0:0:
109,192,32601,128,0,32645:0:0:0:0:
329,192,32601,1,0,0:0:0:0:
36,192,32689,1,0,0:0:0:0:
256,192,32689,128,0,32733:0:0:0:0:
475,192,32689,128,0,32733:0:0:0:0:
475,192,32777,128,0,32998:0:0:0:0:
182,192,32777,128,0,32821:0:0:0:0:
402,192,32777,1,0,0:0:0:0:
329,192,32866,1,0,0:0:0:0:
109,192,32866,128,0,32910:0:0:0:0:
36,192,32954,128,0,32998:0:0:0:0:
256,192,32954,1,0,0:0:0:0:
475,192,33042,1,0,0:0:0:0:
402,192,33042,128,0,33086:0:0:0:0:
182,192,33042,1,0,0:0:0:0:
329,192,33042,128,0,33130:0:0:0:0:
402,192,33130,128,0,33351:0:0:0:0:
109,192,33130,1,0,0:0:0:0:
256,192,33130,128,0,33218:0:0:0:0:
36,192,33218,1,0,0:0:0:0:
182,192,33218,128,0,33307:0:0:0:0:
109,192,33307,128,0,33395:0:0:0:0:
475,192,33395,1,0,0:0:0:0:
402,192,33395,1,0,0:0:0:0:
36,192,33395,128,0,33439:0:0:0:0:
256,192,33395,128,0,33483:0:0:0:0:
36,192,33483,128,0,33704:0:0:0:0:
182,192,33483,1,0,0:0:0:0:
329,192,33483,128,0,33571:0:0:0:0:
256,192,33571,1,0,0:0:0:0:
109,192,33571,1,0,0:0:0:0:
402,192,33571,128,0,33660:0:0:0:0:
329,192,33660,1,0,0:0:0:0:
182,192,33660,128,0,33748:0:0:0:0:
36,192,33748,1,0,0:0:0:0:
109,192,33748,128,0,33924:0:0:0:0:
475,192,33748,1,0,0:0:0:0:
402,192,33748,128,0,33924:0:0:0:0:
256,192,33748,1,0,0:0:0:0:
182,192,33836,1,0,0:0:0:0:
329,192,33836,128,0,33924:0:0:0:0:
36,192,33924,128,0,34101:0:0:0:0:
475,192,33924,128,0,34101:0:0:0:0:
256,192,33924,128,0,34013:0:0:0:0:
329,192,34013,1,0,0:0:0:0:
182,192,34013,128,0,34101:0:0:0:0:
402,192,34101,1,0,0:0:0:0:
109,192,34101,1,0,0:0:0:0:
256,192,34277,1,0,0:0:0:0:
109,192,34454,1,0,0:0:0:0:
402,192,34454,1,0,0:0:0:0:
256,192,34630,1,0,0:0:0:0:
402,192,34807,1,0,0:0:0:0:
109,192,34807,1,0,0:0:0:0:
256,192,34983,1,0,0:0:0:0:
36,192,35160,1,0,0:0:0:0:
329,192,35160,1,0,0:0:0:0:
256,192,35336,1,0,0:0:0:0:
109,192,35513,1,0,0:0:0:0:
402,192,35513,1,0,0:0:0:0:
256,192,35689,1,0,0:0:0:0:
182,192,35866,1,0,0:0:0:0:
475,192,35866,1,0,0:0:0:0:
256,192,36042,1,0,0:0:0:0:
109,192,36218,128,0,36263:0:0:0:0:
402,192,36218,128,0,36263:0:0:0:0:
182,192,36395,128,0,36439:0:0:0:0:
329,192,36395,128,0,36439:0:0:0:0:
256,192,36571,128,0,36616:0:0:0:0:
182,192,36748,128,0,36792:0:0:0:0:
329,192,36748,128,0,36792:0:0:0:0:
402,192,36924,128,0,36968:0:0:0:0:
109,192,36924,128,0,36968:0:0:0:0:
256,192,37101,128,0,37145:0:0:0:0:
36,192,37277,128,0,37321:0:0:0:0:
329,192,37277,128,0,37321:0:0:0:0:
256,192,37454,128,0,37498:0:0:0:0:
109,192,37630,128,0,37674:0:0:0:0:
402,192,37630,128,0,37674:0:0:0:0:
256,192,37807,128,0,37851:0:0:0:0:
182,192,37983,128,0,38027:0:0:0:0:
475,192,37983,128,0,38027:0:0:0:0:
256,192,38160,128,0,38204:0:0:0:0:
109,192,38336,128,0,38380:0:0:0:0:
402,192,38336,128,0,38380:0:0:0:0:
329,192,38513,128,0,38557:0:0:0:0:
182,192,38513,128,0,38557:0:0:0:0:
256,192,38601,128,0,38645:0:0:0:0:
182,192,38689,128,0,38733:0:0:0:0:
329,192,38689,128,0,38733:0:0:0:0:
109,192,38866,128,0,38910:0:0:0:0:
402,192,38866,128,0,38910:0:0:0:0:
36,192,38866,128,0,38910:0:0:0:0:
475,192,38866,128,0,38910:0:0:0:0:
109,192,39042,1,0,0:0:0:0:
36,192,39042,1,0,0:0:0:0:
402,192,39042,1,0,0:0:0:0:
475,192,39042,1,0,0:0:0:0:
182,192,39086,1,0,0:0:0:0:
256,192,39130,1,0,0:0:0:0:
329,192,39174,1,0,0:0:0:0:
402,192,39218,1,0,0:0:0:0:
475,192,39218,1,0,0:0:0:0:
109,192,39218,1,0,0:0:0:0:
36,192,39218,1,0,0:0:0:0:
182,192,39263,1,0,0:0:0:0:
256,192,39307,1,0,0:0:0:0:
329,192,39351,1,0,0:0:0:0:
402,192,39395,1,0,0:0:0:0:
475,192,39395,1,0,0:0:0:0:
109,192,39395,1,0,0:0:0:0:
36,192,39395,1,0,0:0:0:0:
256,192,39571,128,0,39880:0:0:0:0:
109,192,39571,128,0,39880:0:0:0:0:
36,192,39571,128,0,39880:0:0:0:0:
402,192,39571,128,0,39880:0:0:0:0:
475,192,39571,128,0,39880:0:0:0:0:
36,192,39924,1,0,0:0:0:0:
109,192,39924,1,0,0:0:0:0:
256,192,39924,1,0,0:0:0:0:
402,192,39924,1,0,0:0:0:0:
475,192,39924,1,0,0:0:0:0:
182,192,40013,1,0,0:0:0:0:
329,192,40013,1,0,0:0:0:0:
256,192,40101,1,0,0:0:0:0:
109,192,40101,1,0,0:0:0:0:
475,192,40101,1,0,0:0:0:0:
402,192,40101,1,0,0:0:0:0:
36,192,40101,1,0,0:0:0:0:
182,192,40277,128,0,40586:0:0:0:0:
256,192,40277,128,0,40586:0:0:0:0:
329,192,40277,128,0,40586:0:0:0:0:
475,192,40277,128,0,40586:0:0:0:0:
36,192,40277,128,0,40586:0:0:0:0:
256,192,40630,1,0,0:0:0:0:
329,192,40630,1,0,0:0:0:0:
182,192,40630,1,0,0:0:0:0:
36,192,40630,1,0,0:0:0:0:
475,192,40630,1,0,0:0:0:0:
402,192,40718,1,0,0:0:0:0:
109,192,40718,1,0,0:0:0:0:
36,192,40807,1,0,0:0:0:0:
182,192,40807,1,0,0:0:0:0:
256,192,40807,1,0,0:0:0:0:
329,192,40807,1,0,0:0:0:0:
475,192,40807,1,0,0:0:0:0:
36,192,40983,128,0,41292:0:0:0:0:
402,192,40983,128,0,41292:0:0:0:0:
109,192,40983,128,0,41292:0:0:0:0:
475,192,40983,128,0,41292:0:0:0:0:
256,192,40983,128,0,41292:0:0:0:0:
402,192,41336,1,0,0:0:0:0:
109,192,41336,1,0,0:0:0:0:
256,192,41336,1,0,0:0:0:0:
36,192,41336,1,0,0:0:0:0:
475,192,41336,1,0,0:0:0:0:
182,192,41424,1,0,0:0:0:0:
329,192,41424,1,0,0:0:0:0:
109,192,41513,1,0,0:0:0:0:
402,192,41513,1,0,0:0:0:0:
475,192,41513,1,0,0:0:0:0:
256,192,41513,1,0,0:0:0:0:
36,192,41513,1,0,0:0:0:0:
109,192,41689,128,0,41998:0:0:0:0:
182,192,41689,128,0,41998:0:0:0:0:
36,192,41689,128,0,41998:0:0:0:0:
329,192,41689,128,0,41998:0:0:0:0:
402,192,41689,128,0,41998:0:0:0:0:
475,192,41689,128,0,41998:0:0:0:0:
109,192,42042,1,0,0:0:0:0:
36,192,42042,1,0,0:0:0:0:
182,192,42042,1,0,0:0:0:0:
329,192,42042,1,0,0:0:0:0:
402,192,42042,1,0,0:0:0:0:
475,192,42042,1,0,0:0:0:0:
256,192,42130,1,0,0:0:0:0:
182,192,42218,1,0,0:0:0:0:
109,192,42218,1,0,0:0:0:0:
36,192,42218,1,0,0:0:0:0:
329,192,42218,1,0,0:0:0:0:
402,192,42218,1,0,0:0:0:0:
475,192,42218,1,0,0:0:0:0:
256,192,42395,128,0,42704:0:0:0:0:
256,192,42748,128,0,42792:0:0:0:0:
256,192,42924,128,0,42968:0:0:0:0:
109,192,42924,1,0,0:0:0:0:
36,192,42924,1,0,0:0:0:0:
182,192,42924,1,0,0:0:0:0:
329,192,42924,1,0,0:0:0:0:
402,192,42924,1,0,0:0:0:0:
256,192,43101,128,0,43145:0:0:0:0:
256,192,43277,128,0,43321:0:0:0:0:
182,192,43277,1,0,0:0:0:0:
109,192,43277,1,0,0:0:0:0:
329,192,43277,1,0,0:0:0:0:
402,192,43277,1,0,0:0:0:0:
475,192,43277,1,0,0:0:0:0:
256,192,43454,128,0,43498:0:0:0:0:
182,192,43630,1,0,0:0:0:0:
36,192,43630,1,0,0:0:0:0:
109,192,43630,1,0,0:0:0:0:
256,192,43630,128,0,43674:0:0:0:0:
329,192,43630,1,0,0:0:0:0:
402,192,43630,1,0,0:0:0:0:
256,192,43807,128,0,43851:0:0:0:0:
182,192,43983,1,0,0:0:0:0:
256,192,43983,1,0,0:0:0:0:
329,192,43983,1,0,0:0:0:0:
475,192,43983,1,0,0:0:0:0:
402,192,43983,1,0,0:0:0:0:
402,192,44336,1,0,0:0:0:0:
329,192,44336,1,0,0:0:0:0:
256,192,44336,1,0,0:0:0:0:
109,192,44336,1,0,0:0:0:0:
182,192,44336,1,0,0:0:0:0:
36,192,44689,128,0,44711:0:0:0:0:
182,192,44689,128,0,44711:0:0:0:0:
109,192,44689,128,0,44711:0:0:0:0:
256,192,44689,128,0,44711:0:0:0:0:
329,192,44689,128,0,44711:0:0:0:0:
36,192,44866,1,0,0:0:0:0:
109,192,44866,1,0,0:0:0:0:
182,192,44866,1,0,0:0:0:0:
256,192,44866,1,0,0:0:0:0:
329,192,44866,1,0,0:0:0:0:
402,192,45042,1,0,0:0:0:0:
329,192,45042,1,0,0:0:0:0:
256,192,45042,1,0,0:0:0:0:
182,192,45042,1,0,0:0:0:0:
109,192,45042,1,0,0:0:0:0:
182,192,45218,1,0,0:0:0:0:
256,192,45218,1,0,0:0:0:0:
329,192,45218,1,0,0:0:0:0:
475,192,45218,1,0,0:0:0:0:
402,192,45218,1,0,0:0:0:0:
109,192,45263,128,0,45395:0:0:0:0:
36,192,45307,128,0,45395:0:0:0:0:
329,192,45395,1,0,0:0:0:0:
402,192,45395,1,0,0:0:0:0:
475,192,45395,1,0,0:0:0:0:
256,192,45395,128,0,45527:0:0:0:0:
182,192,45439,128,0,45527:0:0:0:0:
36,192,45571,1,0,0:0:0:0:
109,192,45571,1,0,0:0:0:0:
182,192,45571,1,0,0:0:0:0:
256,192,45571,1,0,0:0:0:0:
329,192,45571,1,0,0:0:0:0:
402,192,45616,128,0,45748:0:0:0:0:
475,192,45660,128,0,45748:0:0:0:0:
109,192,45748,1,0,0:0:0:0:
256,192,45748,128,0,45880:0:0:0:0:
182,192,45748,1,0,0:0:0:0:
36,192,45748,1,0,0:0:0:0:
329,192,45792,128,0,45880:0:0:0:0:
182,192,45924,1,0,0:0:0:0:
329,192,45924,1,0,0:0:0:0:
256,192,45924,1,0,0:0:0:0:
109,192,45968,128,0,46101:0:0:0:0:
475,192,45968,128,0,46101:0:0:0:0:
36,192,46013,128,0,46101:0:0:0:0:
402,192,46013,128,0,46101:0:0:0:0:
329,192,46101,1,0,0:0:0:0:
256,192,46101,1,0,0:0:0:0:
182,192,46101,1,0,0:0:0:0:
36,192,46189,128,0,46277:0:0:0:0:
109,192,46189,128,0,46277:0:0:0:0:
402,192,46189,1,0,0:0:0:0:
475,192,46189,1,0,0:0:0:0:
329,192,46277,1,0,0:0:0:0:
256,192,46277,1,0,0:0:0:0:
182,192,46277,1,0,0:0:0:0:
402,192,46366,128,0,46454:0:0:0:0:
475,192,46366,128,0,46454:0:0:0:0:
109,192,46366,1,0,0:0:0:0:
36,192,46366,1,0,0:0:0:0:
329,192,46454,1,0,0:0:0:0:
256,192,46454,128,0,46542:0:0:0:0:
182,192,46454,128,0,46542:0:0:0:0:
109,192,46542,128,0,46630:0:0:0:0:
36,192,46542,128,0,46630:0:0:0:0:
329,192,46630,128,0,46718:0:0:0:0:
402,192,46630,128,0,46718:0:0:0:0:
475,192,46630,128,0,46718:0:0:0:0:
256,192,46718,128,0,46807:0:0:0:0:
182,192,46718,128,0,46807:0:0:0:0:
109,192,46807,1,0,0:0:0:0:
36,192,46807,1,0,0:0:0:0:
329,192,46807,1,0,0:0:0:0:
402,192,46807,1,0,0:0:0:0:
475,192,46807,1,0,0:0:0:0:
182,192,46851,128,0,46983:0:0:0:0:
256,192,46895,128,0,47027:0:0:0:0:
329,192,46939,128,0,47071:0:0:0:0:
402,192,46983,128,0,47116:0:0:0:0:
109,192,46983,1,0,0:0:0:0:
182,192,47027,1,0,0:0:0:0:
256,192,47071,1,0,0:0:0:0:
329,192,47116,1,0,0:0:0:0:
402,192,47160,1,0,0:0:0:0:
109,192,47160,1,0,0:0:0:0:
36,192,47160,1,0,0:0:0:0:
182,192,47160,1,0,0:0:0:0:
475,192,47160,1,0,0:0:0:0:
329,192,47204,128,0,47336:0:0:0:0:
256,192,47248,128,0,47380:0:0:0:0:
182,192,47292,128,0,47424:0:0:0:0:
109,192,47336,128,0,47468:0:0:0:0:
402,192,47336,1,0,0:0:0:0:
329,192,47380,1,0,0:0:0:0:
256,192,47424,1,0,0:0:0:0:
182,192,47468,1,0,0:0:0:0:
109,192,47513,1,0,0:0:0:0:
36,192,47513,1,0,0:0:0:0:
475,192,47513,1,0,0:0:0:0:
402,192,47513,1,0,0:0:0:0:
329,192,47513,1,0,0:0:0:0:
256,192,47601,128,0,47689:0:0:0:0:
182,192,47601,128,0,47689:0:0:0:0:
329,192,47689,1,0,0:0:0:0:
402,192,47689,1,0,0:0:0:0:
475,192,47689,1,0,0:0:0:0:
182,192,47777,128,0,47866:0:0:0:0:
109,192,47777,128,0,47866:0:0:0:0:
256,192,47866,1,0,0:0:0:0:
329,192,47866,1,0,0:0:0:0:
402,192,47866,1,0,0:0:0:0:
109,192,47954,128,0,48042:0:0:0:0:
36,192,47954,128,0,48042:0:0:0:0:
182,192,48042,128,0,48218:0:0:0:0:
256,192,48042,128,0,48263:0:0:0:0:
329,192,48042,128,0,48307:0:0:0:0:
402,192,48042,128,0,48351:0:0:0:0:
475,192,48042,128,0,48395:0:0:0:0:
256,192,48395,128,0,48439:0:0:0:0:
182,192,48395,128,0,48483:0:0:0:0:
109,192,48395,128,0,48527:0:0:0:0:
36,192,48395,128,0,48571:0:0:0:0:
475,192,48483,1,0,0:0:0:0:
329,192,48571,128,0,48616:0:0:0:0:
182,192,48571,128,0,48704:0:0:0:0:
256,192,48571,128,0,48660:0:0:0:0:
402,192,48571,1,0,0:0:0:0:
36,192,48660,1,0,0:0:0:0:
329,192,48748,128,0,48880:0:0:0:0:
402,192,48748,128,0,48836:0:0:0:0:
475,192,48748,128,0,48792:0:0:0:0:
182,192,48748,1,0,0:0:0:0:
109,192,48836,1,0,0:0:0:0:
475,192,48924,128,0,49101:0:0:0:0:
402,192,48924,128,0,49057:0:0:0:0:
329,192,48924,128,0,49013:0:0:0:0:
256,192,48924,128,0,48968:0:0:0:0:
36,192,49013,1,0,0:0:0:0:
329,192,49101,128,0,49233:0:0:0:0:
256,192,49101,128,0,49189:0:0:0:0:
182,192,49101,128,0,49145:0:0:0:0:
109,192,49101,1,0,0:0:0:0:
475,192,49189,1,0,0:0:0:0:
182,192,49277,128,0,49410:0:0:0:0:
109,192,49277,128,0,49366:0:0:0:0:
36,192,49277,128,0,49321:0:0:0:0:
329,192,49277,1,0,0:0:0:0:
256,192,49366,1,0,0:0:0:0:
182,192,49454,1,0,0:0:0:0:
475,192,49454,128,0,49630:0:0:0:0:
402,192,49498,128,0,49630:0:0:0:0:
109,192,49542,1,0,0:0:0:0:
329,192,49542,128,0,49630:0:0:0:0:
256,192,49586,128,0,49630:0:0:0:0:
36,192,49630,1,0,0:0:0:0:
182,192,49630,1,0,0:0:0:0:
109,192,49718,1,0,0:0:0:0:
329,192,49718,1,0,0:0:0:0:
475,192,49807,1,0,0:0:0:0:
182,192,49807,1,0,0:0:0:0:
256,192,49807,128,0,49939:0:0:0:0:
36,192,49807,128,0,50160:0:0:0:0:
402,192,49895,1,0,0:0:0:0:
109,192,49895,128,0,50160:0:0:0:0:
329,192,49983,1,0,0:0:0:0:
475,192,49983,1,0,0:0:0:0:
256,192,49983,128,0,50116:0:0:0:0:
182,192,49983,128,0,50160:0:0:0:0:
402,192,50071,1,0,0:0:0:0:
329,192,50160,1,0,0:0:0:0:
475,192,50160,1,0,0:0:0:0:
256,192,50160,1,0,0:0:0:0:
402,192,50336,128,0,51263:0:0:0:0:
329,192,50513,1,0,0:0:0:0:
256,192,50513,1,0,0:0:0:0:
182,192,50513,1,0,0:0:0:0:
109,192,50601,128,0,50645:0:0:0:0:
182,192,50689,1,0,0:0:0:0:
256,192,50689,1,0,0:0:0:0:
329,192,50689,1,0,0:0:0:0:
109,192,50866,128,0,51263:0:0:0:0:
36,192,50866,1,0,0:0:0:0:
182,192,50866,1,0,0:0:0:0:
256,192,50866,1,0,0:0:0:0:
329,192,50866,1,0,0:0:0:0:
475,192,50866,1,0,0:0:0:0:
36,192,51218,128,0,51263:0:0:0:0:
182,192,51218,128,0,51263:0:0:0:0:
256,192,51218,128,0,51263:0:0:0:0:
329,192,51218,128,0,51263:0:0:0:0:
475,192,51218,128,0,51263:0:0:0:0:
109,192,51307,128,0,51483:0:0:0:0:
402,192,51307,128,0,51483:0:0:0:0:
182,192,51395,128,0,51439:0:0:0:0:
475,192,51395,128,0,51439:0:0:0:0:
256,192,51395,128,0,51483:0:0:0:0:
36,192,51483,128,0,51660:0:0:0:0:
329,192,51483,128,0,51660:0:0:0:0:
109,192,51571,128,0,51616:0:0:0:0:
402,192,51571,128,0,51616:0:0:0:0:
182,192,51660,128,0,51836:0:0:0:0:
256,192,51660,128,0,51748:0:0:0:0:
109,192,51748,128,0,51924:0:0:0:0:
36,192,51748,128,0,51792:0:0:0:0:
329,192,51748,128,0,51792:0:0:0:0:
475,192,51748,128,0,51836:0:0:0:0:
256,192,51836,128,0,52013:0:0:0:0:
402,192,51836,128,0,51924:0:0:0:0:
182,192,51924,128,0,52189:0:0:0:0:
475,192,51924,128,0,52013:0:0:0:0:
36,192,51924,128,0,52013:0:0:0:0:
329,192,52013,128,0,52189:0:0:0:0:
402,192,52013,128,0,52101:0:0:0:0:
109,192,52013,128,0,52101:0:0:0:0:
256,192,52101,128,0,52277:0:0:0:0:
36,192,52101,128,0,52189:0:0:0:0:
475,192,52101,128,0,52454:0:0:0:0:
402,192,52189,128,0,52366:0:0:0:0:
109,192,52189,128,0,52277:0:0:0:0:
329,192,52277,128,0,52454:0:0:0:0:
182,192,52277,128,0,52366:0:0:0:0:
256,192,52366,128,0,52454:0:0:0:0:
36,192,52454,128,0,52807:0:0:0:0:
182,192,52454,1,0,0:0:0:0:
109,192,52454,1,0,0:0:0:0:
402,192,52454,1,0,0:0:0:0:
329,192,52542,1,0,0:0:0:0:
475,192,52542,128,0,52586:0:0:0:0:
256,192,52630,1,0,0:0:0:0:
402,192,52630,128,0,52674:0:0:0:0:
182,192,52718,1,0,0:0:0:0:
329,192,52718,128,0,52763:0:0:0:0:
402,192,52807,128,0,53160:0:0:0:0:
109,192,52807,1,0,0:0:0:0:
256,192,52807,128,0,52895:0:0:0:0:
182,192,52895,128,0,52983:0:0:0:0:
475,192,52895,1,0,0:0:0:0:
109,192,52983,128,0,53071:0:0:0:0:
329,192,52983,1,0,0:0:0:0:
36,192,53071,128,0,53160:0:0:0:0:
256,192,53071,1,0,0:0:0:0:
109,192,53160,128,0,53513:0:0:0:0:
182,192,53160,1,0,0:0:0:0:
329,192,53160,128,0,53248:0:0:0:0:
475,192,53248,128,0,53336:0:0:0:0:
256,192,53248,128,0,53292:0:0:0:0:
329,192,53336,128,0,53424:0:0:0:0:
36,192,53336,1,0,0:0:0:0:
475,192,53424,128,0,53513:0:0:0:0:
256,192,53424,128,0,53468:0:0:0:0:
329,192,53513,128,0,53866:0:0:0:0:
182,192,53513,128,0,53601:0:0:0:0:
402,192,53513,128,0,53557:0:0:0:0:
36,192,53601,128,0,53689:0:0:0:0:
109,192,53601,1,0,0:0:0:0:
182,192,53689,128,0,53777:0:0:0:0:
475,192,53689,128,0,53733:0:0:0:0:
36,192,53777,128,0,53866:0:0:0:0:
256,192,53777,1,0,0:0:0:0:
182,192,53866,128,0,54218:0:0:0:0:
402,192,53866,1,0,0:0:0:0:
475,192,53866,1,0,0:0:0:0:
109,192,53866,128,0,53910:0:0:0:0:
256,192,53954,128,0,53998:0:0:0:0:
329,192,54042,1,0,0:0:0:0:
402,192,54042,1,0,0:0:0:0:
36,192,54042,128,0,54086:0:0:0:0:
475,192,54130,128,0,54174:0:0:0:0:
109,192,54130,128,0,54174:0:0:0:0:
402,192,54218,1,0,0:0:0:0:
329,192,54218,128,0,54395:0:0:0:0:
256,192,54218,128,0,54263:0:0:0:0:
36,192,54218,1,0,0:0:0:0:
109,192,54307,128,0,54351:0:0:0:0:
256,192,54395,128,0,54571:0:0:0:0:
475,192,54395,128,0,54439:0:0:0:0:
182,192,54395,1,0,0:0:0:0:
36,192,54395,1,0,0:0:0:0:
402,192,54483,128,0,54527:0:0:0:0:
182,192,54571,128,0,54748:0:0:0:0:
329,192,54571,128,0,54616:0:0:0:0:
109,192,54571,1,0,0:0:0:0:
36,192,54571,1,0,0:0:0:0:
475,192,54660,128,0,54704:0:0:0:0:
256,192,54748,128,0,54924:0:0:0:0:
36,192,54748,128,0,54792:0:0:0:0:
402,192,54748,1,0,0:0:0:0:
329,192,54748,1,0,0:0:0:0:
109,192,54836,128,0,54880:0:0:0:0:
329,192,54924,128,0,55101:0:0:0:0:
182,192,54924,128,0,54968:0:0:0:0:
402,192,54924,1,0,0:0:0:0:
475,192,54924,1,0,0:0:0:0:
36,192,55013,128,0,55057:0:0:0:0:
256,192,55101,128,0,56292:0:0:0:0:
402,192,55101,128,0,55145:0:0:0:0:
182,192,55101,1,0,0:0:0:0:
109,192,55101,1,0,0:0:0:0:
475,192,55189,128,0,55233:0:0:0:0:
182,192,55277,128,0,55366:0:0:0:0:
329,192,55277,1,0,0:0:0:0:
402,192,55277,1,0,0:0:0:0:
109,192,55366,128,0,55454:0:0:0:0:
475,192,55366,1,0,0:0:0:0:
36,192,55454,128,0,55542:0:0:0:0:
402,192,55454,1,0,0:0:0:0:
329,192,55454,1,0,0:0:0:0:
182,192,55542,1,0,0:0:0:0:
475,192,55542,128,0,55630:0:0:0:0:
109,192,55630,1,0,0:0:0:0:
36,192,55630,1,0,0:0:0:0:
402,192,55630,128,0,55718:0:0:0:0:
329,192,55718,128,0,55807:0:0:0:0:
182,192,55718,1,0,0:0:0:0:
109,192,55807,1,0,0:0:0:0:
36,192,55807,1,0,0:0:0:0:
182,192,55807,128,0,55895:0:0:0:0:
329,192,55895,128,0,55983:0:0:0:0:
402,192,55895,1,0,0:0:0:0:
475,192,55895,1,0,0:0:0:0:
182,192,55983,128,0,56071:0:0:0:0:
109,192,55983,1,0,0:0:0:0:
36,192,55983,1,0,0:0:0:0:
329,192,56071,128,0,56160:0:0:0:0:
475,192,56071,1,0,0:0:0:0:
402,192,56160,128,0,56248:0:0:0:0:
109,192,56160,1,0,0:0:0:0:
36,192,56160,1,0,0:0:0:0:
475,192,56248,128,0,56336:0:0:0:0:
182,192,56248,1,0,0:0:0:0:
256,192,56336,1,0,0:0:0:0:
36,192,56336,128,0,56601:0:0:0:0:
329,192,56424,1,0,0:0:0:0:
109,192,56424,128,0,56645:0:0:0:0:
402,192,56513,1,0,0:0:0:0:
182,192,56513,128,0,56777:0:0:0:0:
475,192,56601,1,0,0:0:0:0:
256,192,56601,128,0,56777:0:0:0:0:
402,192,56689,1,0,0:0:0:0:
36,192,56689,128,0,56866:0:0:0:0:
109,192,56689,128,0,56866:0:0:0:0:
329,192,56689,1,0,0:0:0:0:
475,192,56777,1,0,0:0:0:0:
402,192,56866,1,0,0:0:0:0:
182,192,56866,128,0,56954:0:0:0:0:
256,192,56866,128,0,56954:0:0:0:0:
109,192,56954,128,0,56998:0:0:0:0:
36,192,56954,128,0,56998:0:0:0:0:
329,192,56954,1,0,0:0:0:0:
182,192,57042,128,0,57086:0:0:0:0:
256,192,57042,128,0,57086:0:0:0:0:
475,192,57042,1,0,0:0:0:0:
402,192,57042,128,0,57395:0:0:0:0:
329,192,57130,128,0,57395:0:0:0:0:
109,192,57130,1,0,0:0:0:0:
256,192,57218,128,0,57483:0:0:0:0:
36,192,57218,1,0,0:0:0:0:
475,192,57218,128,0,57395:0:0:0:0:
182,192,57307,128,0,57483:0:0:0:0:
109,192,57395,128,0,57439:0:0:0:0:
36,192,57395,128,0,57439:0:0:0:0:
475,192,57483,1,0,0:0:0:0:
402,192,57483,128,0,57527:0:0:0:0:
329,192,57483,128,0,57527:0:0:0:0:
109,192,57571,1,0,0:0:0:0:
36,192,57571,1,0,0:0:0:0:
182,192,57571,128,0,57616:0:0:0:0:
256,192,57571,128,0,57616:0:0:0:0:
329,192,57660,128,0,57704:0:0:0:0:
402,192,57660,128,0,57704:0:0:0:0:
475,192,57748,1,0,0:0:0:0:
109,192,57748,128,0,57792:0:0:0:0:
36,192,57748,128,0,57792:0:0:0:0:
182,192,57748,1,0,0:0:0:0:
256,192,57836,1,0,0:0:0:0:
402,192,57836,128,0,57880:0:0:0:0:
329,192,57836,128,0,57880:0:0:0:0:
36,192,57924,1,0,0:0:0:0:
109,192,57924,128,0,57968:0:0:0:0:
182,192,57924,128,0,57968:0:0:0:0:
256,192,58013,128,0,58057:0:0:0:0:
329,192,58013,128,0,58057:0:0:0:0:
402,192,58013,1,0,0:0:0:0:
475,192,58101,1,0,0:0:0:0:
109,192,58101,1,0,0:0:0:0:
36,192,58101,128,0,58366:0:0:0:0:
182,192,58189,128,0,58454:0:0:0:0:
256,192,58189,1,0,0:0:0:0:
402,192,58277,1,0,0:0:0:0:
329,192,58277,128,0,58366:0:0:0:0:
475,192,58366,128,0,58718:0:0:0:0:
402,192,58454,1,0,0:0:0:0:
329,192,58454,1,0,0:0:0:0:
36,192,58454,1,0,0:0:0:0:
109,192,58454,128,0,58718:0:0:0:0:
256,192,58454,1,0,0:0:0:0:
182,192,58542,128,0,58807:0:0:0:0:
256,192,58630,1,0,0:0:0:0:
329,192,58630,128,0,58718:0:0:0:0:
402,192,58718,128,0,59071:0:0:0:0:
109,192,58807,1,0,0:0:0:0:
329,192,58807,1,0,0:0:0:0:
475,192,58807,1,0,0:0:0:0:
36,192,58807,128,0,59071:0:0:0:0:
256,192,58807,1,0,0:0:0:0:
182,192,58895,128,0,59160:0:0:0:0:
256,192,58983,1,0,0:0:0:0:
329,192,58983,128,0,59071:0:0:0:0:
475,192,59071,128,0,59424:0:0:0:0:
402,192,59160,1,0,0:0:0:0:
329,192,59160,1,0,0:0:0:0:
36,192,59160,1,0,0:0:0:0:
109,192,59160,128,0,59424:0:0:0:0:
256,192,59160,1,0,0:0:0:0:
182,192,59248,128,0,59424:0:0:0:0:
256,192,59336,1,0,0:0:0:0:
329,192,59336,128,0,59513:0:0:0:0:
402,192,59424,128,0,59513:0:0:0:0:
256,192,59513,128,0,59689:0:0:0:0:
109,192,59513,128,0,59557:0:0:0:0:
475,192,59513,128,0,59557:0:0:0:0:
182,192,59601,128,0,59689:0:0:0:0:
36,192,59601,128,0,59645:0:0:0:0:
402,192,59601,128,0,59645:0:0:0:0:
109,192,59689,128,0,59866:0:0:0:0:
329,192,59689,128,0,59733:0:0:0:0:
36,192,59777,128,0,59866:0:0:0:0:
182,192,59777,1,0,0:0:0:0:
475,192,59777,128,0,59821:0:0:0:0:
256,192,59777,128,0,59821:0:0:0:0:
402,192,59866,1,0,0:0:0:0:
329,192,59866,128,0,60042:0:0:0:0:
36,192,59954,128,0,59998:0:0:0:0:
109,192,59954,128,0,59998:0:0:0:0:
256,192,59954,128,0,60042:0:0:0:0:
475,192,60042,128,0,60218:0:0:0:0:
182,192,60042,128,0,60086:0:0:0:0:
329,192,60130,1,0,0:0:0:0:
402,192,60130,128,0,60218:0:0:0:0:
256,192,60130,128,0,60174:0:0:0:0:
182,192,60218,1,0,0:0:0:0:
109,192,60218,128,0,60263:0:0:0:0:
36,192,60218,128,0,60395:0:0:0:0:
329,192,60307,128,0,60395:0:0:0:0:
402,192,60307,128,0,60351:0:0:0:0:
475,192,60395,128,0,60571:0:0:0:0:
182,192,60395,128,0,60483:0:0:0:0:
109,192,60483,128,0,60660:0:0:0:0:
256,192,60483,128,0,60571:0:0:0:0:
402,192,60571,128,0,60748:0:0:0:0:
36,192,60571,128,0,60660:0:0:0:0:
329,192,60571,1,0,0:0:0:0:
182,192,60571,1,0,0:0:0:0:
256,192,60660,128,0,60748:0:0:0:0:
475,192,60660,128,0,60748:0:0:0:0:
182,192,60748,128,0,60924:0:0:0:0:
109,192,60748,128,0,60792:0:0:0:0:
329,192,60748,128,0,60792:0:0:0:0:
256,192,60836,128,0,60924:0:0:0:0:
36,192,60836,128,0,60924:0:0:0:0:
329,192,60924,128,0,61101:0:0:0:0:
402,192,60924,128,0,61013:0:0:0:0:
475,192,60924,128,0,60968:0:0:0:0:
109,192,60924,128,0,61013:0:0:0:0:
256,192,61013,1,0,0:0:0:0:
182,192,61013,128,0,61189:0:0:0:0:
402,192,61101,1,0,0:0:0:0:
109,192,61101,128,0,61189:0:0:0:0:
475,192,61189,1,0,0:0:0:0:
36,192,61189,128,0,61233:0:0:0:0:
256,192,61189,128,0,61366:0:0:0:0:
182,192,61277,128,0,61366:0:0:0:0:
402,192,61277,1,0,0:0:0:0:
109,192,61366,128,0,61410:0:0:0:0:
329,192,61366,128,0,61542:0:0:0:0:
256,192,61454,128,0,61542:0:0:0:0:
36,192,61454,1,0,0:0:0:0:
475,192,61454,1,0,0:0:0:0:
182,192,61542,128,0,61586:0:0:0:0:
402,192,61542,128,0,61718:0:0:0:0:
329,192,61630,128,0,61718:0:0:0:0:
36,192,61630,1,0,0:0:0:0:
475,192,61630,1,0,0:0:0:0:
182,192,61718,128,0,61763:0:0:0:0:
109,192,61718,128,0,61895:0:0:0:0:
329,192,61807,128,0,61895:0:0:0:0:
475,192,61807,1,0,0:0:0:0:
36,192,61807,1,0,0:0:0:0:
256,192,61895,128,0,61939:0:0:0:0:
182,192,61895,128,0,62071:0:0:0:0:
402,192,61895,1,0,0:0:0:0:
402,192,61983,128,0,62071:0:0:0:0:
109,192,61983,1,0,0:0:0:0:
475,192,61983,1,0,0:0:0:0:
329,192,62071,128,0,62116:0:0:0:0:
256,192,62071,128,0,62248:0:0:0:0:
182,192,62160,128,0,62204:0:0:0:0:
36,192,62160,1,0,0:0:0:0:
402,192,62204,128,0,62248:0:0:0:0:
109,192,62248,128,0,62292:0:0:0:0:
475,192,62292,128,0,62336:0:0:0:0:
36,192,62336,128,0,62380:0:0:0:0:
402,192,62380,1,0,0:0:0:0:
329,192,62689,128,0,62733:0:0:0:0:
109,192,62733,1,0,0:0:0:0:
256,192,63042,128,0,63086:0:0:0:0:
182,192,63042,128,0,63086:0:0:0:0:
109,192,63042,128,0,63086:0:0:0:0:
36,192,63130,128,0,63307:0:0:0:0:
256,192,63218,128,0,63263:0:0:0:0:
329,192,63218,128,0,63263:0:0:0:0:
402,192,63218,128,0,63263:0:0:0:0:
475,192,63307,128,0,63483:0:0:0:0:
182,192,63395,128,0,63439:0:0:0:0:
109,192,63395,128,0,63439:0:0:0:0:
36,192,63395,128,0,63439:0:0:0:0:
256,192,63483,1,0,0:0:0:0:
329,192,63571,128,0,63616:0:0:0:0:
402,192,63571,128,0,63616:0:0:0:0:
475,192,63571,128,0,63616:0:0:0:0:
256,192,63660,1,0,0:0:0:0:
182,192,63748,128,0,63792:0:0:0:0:
36,192,63748,128,0,63792:0:0:0:0:
402,192,63748,128,0,63968:0:0:0:0:
109,192,63748,128,0,63792:0:0:0:0:
329,192,63836,1,0,0:0:0:0:
256,192,63924,128,0,63968:0:0:0:0:
109,192,63924,128,0,63968:0:0:0:0:
402,192,64013,1,0,0:0:0:0:
329,192,64101,128,0,64145:0:0:0:0:
182,192,64101,128,0,64145:0:0:0:0:
36,192,64101,128,0,64321:0:0:0:0:
256,192,64101,128,0,64145:0:0:0:0:
475,192,64189,1,0,0:0:0:0:
402,192,64277,128,0,64321:0:0:0:0:
256,192,64277,128,0,64321:0:0:0:0:
36,192,64366,1,0,0:0:0:0:
182,192,64454,128,0,64498:0:0:0:0:
329,192,64454,128,0,64498:0:0:0:0:
402,192,64454,128,0,64674:0:0:0:0:
109,192,64454,128,0,64498:0:0:0:0:
475,192,64542,1,0,0:0:0:0:
109,192,64630,128,0,64674:0:0:0:0:
256,192,64630,128,0,64674:0:0:0:0:
402,192,64718,1,0,0:0:0:0:
182,192,64807,128,0,64851:0:0:0:0:
36,192,64807,128,0,64851:0:0:0:0:
329,192,64807,128,0,64851:0:0:0:0:
475,192,64807,128,0,64851:0:0:0:0:
109,192,64983,1,0,0:0:0:0:
256,192,64983,1,0,0:0:0:0:
402,192,64983,1,0,0:0:0:0:
182,192,65160,128,0,65248:0:0:0:0:
329,192,65160,128,0,65248:0:0:0:0:
256,192,65160,128,0,65248:0:0:0:0:
109,192,65336,128,0,65424:0:0:0:0:
402,192,65336,128,0,65424:0:0:0:0:
36,192,65513,128,0,65601:0:0:0:0:
475,192,65513,128,0,65601:0:0:0:0:
36,192,65689,1,0,0:0:0:0:
475,192,65689,1,0,0:0:0:0:
109,192,65777,1,0,0:0:0:0:
402,192,65777,1,0,0:0:0:0:
182,192,65866,1,0,0:0:0:0:
329,192,65866,1,0,0:0:0:0:
256,192,65866,1,0,0:0:0:0:
475,192,66042,1,0,0:0:0:0:
402,192,66042,1,0,0:0:0:0:
329,192,66042,1,0,0:0:0:0:
109,192,66042,1,0,0:0:0:0:
36,192,66042,1,0,0:0:0:0:
182,192,66042,1,0,0:0:0:0:
182,192,66218,1,0,0:0:0:0:
256,192,66218,1,0,0:0:0:0:
329,192,66218,1,0,0:0:0:0:
109,192,66307,1,0,0:0:0:0:
402,192,66307,1,0,0:0:0:0:
36,192,66395,1,0,0:0:0:0:
475,192,66395,1,0,0:0:0:0:
182,192,66395,128,0,66704:0:0:0:0:
256,192,66395,128,0,66704:0:0:0:0:
329,192,66395,128,0,66704:0:0:0:0:
182,192,66748,128,0,66836:0:0:0:0:
256,192,66748,128,0,66880:0:0:0:0:
329,192,66748,128,0,66924:0:0:0:0:
182,192,66924,1,0,0:0:0:0:
36,192,66924,128,0,66954:0:0:0:0:
475,192,66924,128,0,66954:0:0:0:0:
256,192,66946,1,0,0:0:0:0:
329,192,66968,1,0,0:0:0:0:
329,192,67101,128,0,67189:0:0:0:0:
256,192,67101,128,0,67233:0:0:0:0:
182,192,67101,128,0,67277:0:0:0:0:
329,192,67277,1,0,0:0:0:0:
36,192,67277,128,0,67307:0:0:0:0:
475,192,67277,128,0,67307:0:0:0:0:
256,192,67299,1,0,0:0:0:0:
182,192,67321,1,0,0:0:0:0:
182,192,67454,128,0,67542:0:0:0:0:
256,192,67454,128,0,67586:0:0:0:0:
329,192,67454,128,0,67630:0:0:0:0:
109,192,67542,1,0,0:0:0:0:
402,192,67542,1,0,0:0:0:0:
36,192,67630,128,0,67660:0:0:0:0:
475,192,67630,128,0,67660:0:0:0:0:
182,192,67630,1,0,0:0:0:0:
256,192,67652,1,0,0:0:0:0:
329,192,67674,1,0,0:0:0:0:
109,192,67807,1,0,0:0:0:0:
402,192,67807,1,0,0:0:0:0:
182,192,67895,1,0,0:0:0:0:
329,192,67895,1,0,0:0:0:0:
256,192,67983,1,0,0:0:0:0:
402,192,68160,1,0,0:0:0:0:
256,192,68336,1,0,0:0:0:0:
109,192,68513,1,0,0:0:0:0:
475,192,68866,1,0,0:0:0:0:
329,192,69042,1,0,0:0:0:0:
182,192,69218,1,0,0:0:0:0:
402,192,69571,1,0,0:0:0:0:
256,192,69748,1,0,0:0:0:0:
109,192,69924,1,0,0:0:0:0:
329,192,70277,1,0,0:0:0:0:
182,192,70454,1,0,0:0:0:0:
36,192,70630,1,0,0:0:0:0:
109,192,70807,1,0,0:0:0:0:
256,192,70983,1,0,0:0:0:0:
402,192,71160,1,0,0:0:0:0:
182,192,71336,1,0,0:0:0:0:
329,192,71513,1,0,0:0:0:0:
475,192,71689,128,0,71866:0:0:0:0:
256,192,71866,128,0,72042:0:0:0:0:
36,192,72042,128,0,72395:0:0:0:0:
256,192,72395,128,0,72571:0:0:0:0:
475,192,72571,128,0,72748:0:0:0:0:
109,192,72748,128,0,72924:0:0:0:0:
256,192,72924,128,0,73101:0:0:0:0:
402,192,73101,128,0,73277:0:0:0:0:
182,192,73277,128,0,73454:0:0:0:0:
329,192,73366,1,0,0:0:0:0:
256,192,73454,128,0,73630:0:0:0:0:
329,192,73542,1,0,0:0:0:0:
475,192,73630,128,0,73895:0:0:0:0:
109,192,73630,128,0,73718:0:0:0:0:
402,192,73630,128,0,73718:0:0:0:0:
36,192,73807,128,0,74071:0:0:0:0:
402,192,73807,1,0,0:0:0:0:
109,192,73807,1,0,0:0:0:0:
475,192,73983,128,0,74248:0:0:0:0:
256,192,73983,1,0,0:0:0:0:
182,192,73983,1,0,0:0:0:0:
329,192,73983,1,0,0:0:0:0:
36,192,74160,128,0,74424:0:0:0:0:
329,192,74160,128,0,74336:0:0:0:0:
109,192,74160,1,0,0:0:0:0:
182,192,74248,1,0,0:0:0:0:
402,192,74248,1,0,0:0:0:0:
475,192,74336,128,0,74601:0:0:0:0:
256,192,74336,128,0,74689:0:0:0:0:
36,192,74513,128,0,74777:0:0:0:0:
182,192,74513,128,0,74601:0:0:0:0:
329,192,74513,128,0,74601:0:0:0:0:
475,192,74689,128,0,74954:0:0:0:0:
182,192,74689,128,0,74866:0:0:0:0:
109,192,74689,1,0,0:0:0:0:
329,192,74689,1,0,0:0:0:0:
402,192,74689,1,0,0:0:0:0:
36,192,74866,128,0,75130:0:0:0:0:
402,192,74866,128,0,74954:0:0:0:0:
109,192,74866,128,0,74954:0:0:0:0:
402,192,75042,128,0,75307:0:0:0:0:
109,192,75042,1,0,0:0:0:0:
256,192,75042,128,0,75307:0:0:0:0:
109,192,75218,128,0,75483:0:0:0:0:
36,192,75218,1,0,0:0:0:0:
329,192,75218,1,0,0:0:0:0:
402,192,75395,128,0,75660:0:0:0:0:
256,192,75395,1,0,0:0:0:0:
475,192,75395,1,0,0:0:0:0:
182,192,75395,128,0,75660:0:0:0:0:
109,192,75571,128,0,75836:0:0:0:0:
329,192,75571,1,0,0:0:0:0:
36,192,75571,1,0,0:0:0:0:
402,192,75748,128,0,76013:0:0:0:0:
182,192,75748,1,0,0:0:0:0:
329,192,75748,1,0,0:0:0:0:
475,192,75748,1,0,0:0:0:0:
36,192,75836,1,0,0:0:0:0:
109,192,75924,128,0,76189:0:0:0:0:
329,192,75924,1,0,0:0:0:0:
256,192,75924,128,0,76101:0:0:0:0:
402,192,76101,128,0,76366:0:0:0:0:
329,192,76101,1,0,0:0:0:0:
36,192,76101,1,0,0:0:0:0:
182,192,76101,1,0,0:0:0:0:
109,192,76277,128,0,76542:0:0:0:0:
256,192,76277,1,0,0:0:0:0:
475,192,76277,128,0,76454:0:0:0:0:
329,192,76454,128,0,76718:0:0:0:0:
256,192,76454,1,0,0:0:0:0:
402,192,76454,128,0,76542:0:0:0:0:
36,192,76454,1,0,0:0:0:0:
182,192,76630,128,0,76895:0:0:0:0:
109,192,76630,128,0,76718:0:0:0:0:
475,192,76630,1,0,0:0:0:0:
402,192,76630,1,0,0:0:0:0:
329,192,76807,128,0,77071:0:0:0:0:
402,192,76807,128,0,76895:0:0:0:0:
256,192,76807,1,0,0:0:0:0:
36,192,76807,1,0,0:0:0:0:
109,192,76807,128,0,76851:0:0:0:0:
182,192,76983,128,0,77248:0:0:0:0:
109,192,76983,128,0,77071:0:0:0:0:
402,192,76983,1,0,0:0:0:0:
329,192,77160,128,0,77424:0:0:0:0:
475,192,77160,128,0,77248:0:0:0:0:
109,192,77160,128,0,77204:0:0:0:0:
256,192,77160,1,0,0:0:0:0:
182,192,77336,128,0,77601:0:0:0:0:
36,192,77336,128,0,77424:0:0:0:0:
475,192,77336,1,0,0:0:0:0:
329,192,77513,128,0,77777:0:0:0:0:
475,192,77513,128,0,77601:0:0:0:0:
109,192,77513,128,0,77557:0:0:0:0:
36,192,77513,1,0,0:0:0:0:
256,192,77513,1,0,0:0:0:0:
182,192,77689,128,0,77954:0:0:0:0:
36,192,77689,128,0,77777:0:0:0:0:
475,192,77689,1,0,0:0:0:0:
256,192,77866,128,0,78130:0:0:0:0:
109,192,77866,128,0,77910:0:0:0:0:
329,192,77866,1,0,0:0:0:0:
36,192,77866,1,0,0:0:0:0:
329,192,78042,128,0,78307:0:0:0:0:
182,192,78042,1,0,0:0:0:0:
402,192,78042,1,0,0:0:0:0:
256,192,78218,128,0,78483:0:0:0:0:
475,192,78218,1,0,0:0:0:0:
109,192,78218,1,0,0:0:0:0:
182,192,78395,128,0,78660:0:0:0:0:
329,192,78395,1,0,0:0:0:0:
402,192,78395,1,0,0:0:0:0:
36,192,78395,1,0,0:0:0:0:
256,192,78571,128,0,78836:0:0:0:0:
109,192,78571,1,0,0:0:0:0:
475,192,78571,1,0,0:0:0:0:
329,192,78748,128,0,79013:0:0:0:0:
182,192,78748,1,0,0:0:0:0:
402,192,78748,1,0,0:0:0:0:
256,192,78924,128,0,79189:0:0:0:0:
109,192,78924,1,0,0:0:0:0:
475,192,78924,1,0,0:0:0:0:
182,192,79101,128,0,79542:0:0:0:0:
329,192,79101,1,0,0:0:0:0:
402,192,79101,1,0,0:0:0:0:
36,192,79101,1,0,0:0:0:0:
109,192,79277,1,0,0:0:0:0:
36,192,79277,1,0,0:0:0:0:
256,192,79277,128,0,79542:0:0:0:0:
329,192,79277,1,0,0:0:0:0:
475,192,79277,1,0,0:0:0:0:
402,192,79277,1,0,0:0:0:0:
109,192,79454,1,0,0:0:0:0:
36,192,79454,1,0,0:0:0:0:
329,192,79454,128,0,79895:0:0:0:0:
36,192,79542,1,0,0:0:0:0:
109,192,79542,1,0,0:0:0:0:
402,192,79630,128,0,79895:0:0:0:0:
182,192,79630,1,0,0:0:0:0:
256,192,79630,1,0,0:0:0:0:
475,192,79630,1,0,0:0:0:0:
256,192,79807,1,0,0:0:0:0:
182,192,79807,1,0,0:0:0:0:
475,192,79807,128,0,80248:0:0:0:0:
182,192,79895,1,0,0:0:0:0:
256,192,79895,1,0,0:0:0:0:
329,192,79983,1,0,0:0:0:0:
402,192,79983,1,0,0:0:0:0:
109,192,79983,1,0,0:0:0:0:
36,192,79983,1,0,0:0:0:0:
329,192,80160,1,0,0:0:0:0:
402,192,80160,1,0,0:0:0:0:
109,192,80160,1,0,0:0:0:0:
36,192,80160,1,0,0:0:0:0:
402,192,80248,1,0,0:0:0:0:
329,192,80248,1,0,0:0:0:0:
109,192,80248,1,0,0:0:0:0:
36,192,80248,1,0,0:0:0:0:
256,192,80336,128,0,80513:0:0:0:0:
182,192,80336,128,0,80689:0:0:0:0:
475,192,80336,1,0,0:0:0:0:
329,192,80513,128,0,80866:0:0:0:0:
402,192,80513,1,0,0:0:0:0:
109,192,80513,1,0,0:0:0:0:
36,192,80513,1,0,0:0:0:0:
402,192,80689,1,0,0:0:0:0:
475,192,80689,1,0,0:0:0:0:
256,192,80689,128,0,80866:0:0:0:0:
109,192,80689,128,0,80954:0:0:0:0:
36,192,80689,128,0,81130:0:0:0:0:
402,192,80866,128,0,80910:0:0:0:0:
475,192,80866,128,0,80910:0:0:0:0:
182,192,80866,128,0,81130:0:0:0:0:
402,192,80954,1,0,0:0:0:0:
475,192,80954,1,0,0:0:0:0:
329,192,81042,1,0,0:0:0:0:
256,192,81042,1,0,0:0:0:0:
109,192,81042,128,0,81130:0:0:0:0:
109,192,81218,128,0,81263:0:0:0:0:
182,192,81218,128,0,81263:0:0:0:0:
36,192,81218,128,0,81660:0:0:0:0:
182,192,81307,1,0,0:0:0:0:
109,192,81307,1,0,0:0:0:0:
256,192,81395,1,0,0:0:0:0:
329,192,81395,1,0,0:0:0:0:
402,192,81395,128,0,81483:0:0:0:0:
475,192,81395,128,0,81483:0:0:0:0:
109,192,81571,128,0,81616:0:0:0:0:
182,192,81571,128,0,81616:0:0:0:0:
402,192,81571,128,0,81660:0:0:0:0:
475,192,81571,128,0,81660:0:0:0:0:
182,192,81660,1,0,0:0:0:0:
109,192,81660,1,0,0:0:0:0:
329,192,81660,128,0,81748:0:0:0:0:
256,192,81660,128,0,81748:0:0:0:0:
36,192,81748,128,0,82013:0:0:0:0:
402,192,81748,128,0,81836:0:0:0:0:
475,192,81748,128,0,81836:0:0:0:0:
182,192,81924,128,0,82013:0:0:0:0:
109,192,81924,128,0,82013:0:0:0:0:
256,192,81924,1,0,0:0:0:0:
329,192,81924,1,0,0:0:0:0:
402,192,81924,128,0,82013:0:0:0:0:
475,192,81924,128,0,82013:0:0:0:0:
256,192,82101,128,0,82366:0:0:0:0:
329,192,82101,128,0,82366:0:0:0:0:
36,192,82101,1,0,0:0:0:0:
402,192,82101,1,0,0:0:0:0:
475,192,82101,1,0,0:0:0:0:
109,192,82101,1,0,0:0:0:0:
182,192,82101,1,0,0:0:0:0:
475,192,82189,128,0,82277:0:0:0:0:
402,192,82189,128,0,82277:0:0:0:0:
182,192,82277,1,0,0:0:0:0:
109,192,82277,1,0,0:0:0:0:
36,192,82277,1,0,0:0:0:0:
475,192,82366,1,0,0:0:0:0:
402,192,82366,1,0,0:0:0:0:
329,192,82454,1,0,0:0:0:0:
256,192,82454,1,0,0:0:0:0:
182,192,82454,128,0,82718:0:0:0:0:
109,192,82454,128,0,82718:0:0:0:0:
36,192,82454,1,0,0:0:0:0:
475,192,82542,128,0,82630:0:0:0:0:
402,192,82542,128,0,82630:0:0:0:0:
256,192,82630,1,0,0:0:0:0:
329,192,82630,1,0,0:0:0:0:
256,192,82718,1,0,0:0:0:0:
329,192,82718,1,0,0:0:0:0:
109,192,82807,128,0,83071:0:0:0:0:
182,192,82807,128,0,83071:0:0:0:0:
36,192,82807,1,0,0:0:0:0:
402,192,82807,128,0,82895:0:0:0:0:
475,192,82807,128,0,82895:0:0:0:0:
402,192,82983,1,0,0:0:0:0:
475,192,82983,1,0,0:0:0:0:
402,192,83071,128,0,83160:0:0:0:0:
475,192,83071,128,0,83160:0:0:0:0:
256,192,83160,1,0,0:0:0:0:
36,192,83160,1,0,0:0:0:0:
109,192,83160,1,0,0:0:0:0:
329,192,83160,1,0,0:0:0:0:
182,192,83160,128,0,83248:0:0:0:0:
256,192,83336,128,0,83424:0:0:0:0:
182,192,83336,1,0,0:0:0:0:
109,192,83336,1,0,0:0:0:0:
329,192,83336,1,0,0:0:0:0:
402,192,83336,1,0,0:0:0:0:
256,192,83513,1,0,0:0:0:0:
182,192,83513,1,0,0:0:0:0:
475,192,83513,1,0,0:0:0:0:
329,192,83513,128,0,83601:0:0:0:0:
402,192,83513,1,0,0:0:0:0:
109,192,83601,1,0,0:0:0:0:
36,192,83601,1,0,0:0:0:0:
36,192,83689,1,0,0:0:0:0:
182,192,83689,1,0,0:0:0:0:
256,192,83777,1,0,0:0:0:0:
109,192,83777,1,0,0:0:0:0:
182,192,83866,128,0,83954:0:0:0:0:
109,192,83866,1,0,0:0:0:0:
36,192,83866,1,0,0:0:0:0:
256,192,83866,1,0,0:0:0:0:
329,192,83866,1,0,0:0:0:0:
402,192,83954,1,0,0:0:0:0:
475,192,83954,1,0,0:0:0:0:
475,192,84042,1,0,0:0:0:0:
329,192,84042,1,0,0:0:0:0:
402,192,84130,1,0,0:0:0:0:
256,192,84130,1,0,0:0:0:0:
329,192,84218,128,0,84307:0:0:0:0:
182,192,84218,128,0,84307:0:0:0:0:
182,192,84395,128,0,84439:0:0:0:0:
329,192,84395,128,0,84439:0:0:0:0:
256,192,84424,1,0,0:0:0:0:
182,192,84571,128,0,85013:0:0:0:0:
329,192,84571,128,0,85013:0:0:0:0:
109,192,84748,128,0,85013:0:0:0:0:
36,192,84748,128,0,85189:0:0:0:0:
402,192,84748,128,0,85013:0:0:0:0:
475,192,84748,128,0,85189:0:0:0:0:
109,192,85101,1,0,0:0:0:0:
182,192,85101,1,0,0:0:0:0:
329,192,85101,1,0,0:0:0:0:
402,192,85101,1,0,0:0:0:0:
182,192,85189,1,0,0:0:0:0:
109,192,85189,1,0,0:0:0:0:
329,192,85189,1,0,0:0:0:0:
402,192,85189,1,0,0:0:0:0:
256,192,85277,128,0,85454:0:0:0:0:
182,192,85454,128,0,85718:0:0:0:0:
109,192,85454,128,0,85718:0:0:0:0:
36,192,85454,128,0,85895:0:0:0:0:
329,192,85454,128,0,85718:0:0:0:0:
402,192,85454,128,0,85718:0:0:0:0:
475,192,85454,128,0,85895:0:0:0:0:
182,192,85807,1,0,0:0:0:0:
109,192,85807,1,0,0:0:0:0:
329,192,85807,1,0,0:0:0:0:
402,192,85807,1,0,0:0:0:0:
182,192,85895,1,0,0:0:0:0:
109,192,85895,1,0,0:0:0:0:
329,192,85895,1,0,0:0:0:0:
402,192,85895,1,0,0:0:0:0:
36,192,85983,128,0,86071:0:0:0:0:
256,192,85983,128,0,86071:0:0:0:0:
475,192,85983,128,0,86071:0:0:0:0:
36,192,86160,128,0,86601:0:0:0:0:
256,192,86160,128,0,86601:0:0:0:0:
475,192,86160,128,0,86601:0:0:0:0:
182,192,86513,1,0,0:0:0:0:
109,192,86513,1,0,0:0:0:0:
329,192,86513,1,0,0:0:0:0:
402,192,86513,1,0,0:0:0:0:
182,192,86601,1,0,0:0:0:0:
109,192,86601,1,0,0:0:0:0:
329,192,86601,1,0,0:0:0:0:
402,192,86601,1,0,0:0:0:0:
36,192,86689,128,0,86777:0:0:0:0:
475,192,86689,128,0,86777:0:0:0:0:
256,192,86689,1,0,0:0:0:0:
36,192,86866,1,0,0:0:0:0:
475,192,86866,1,0,0:0:0:0:
256,192,86866,128,0,87218:0:0:0:0:
182,192,87218,128,0,87277:0:0:0:0:
109,192,87218,128,0,87277:0:0:0:0:
36,192,87218,128,0,87277:0:0:0:0:
329,192,87218,128,0,87277:0:0:0:0:
402,192,87218,128,0,87277:0:0:0:0:
475,192,87218,128,0,87277:0:0:0:0:
36,192,87307,1,0,0:0:0:0:
109,192,87307,1,0,0:0:0:0:
182,192,87307,1,0,0:0:0:0:
402,192,87307,1,0,0:0:0:0:
329,192,87307,1,0,0:0:0:0:
475,192,87307,1,0,0:0:0:0:
182,192,87571,128,0,87924:0:0:0:0:
109,192,87571,128,0,88277:0:0:0:0:
36,192,87571,128,0,88630:0:0:0:0:
329,192,87571,128,0,87924:0:0:0:0:
402,192,87571,128,0,88277:0:0:0:0:
475,192,87571,128,0,88630:0:0:0:0:
256,192,87924,128,0,88101:0:0:0:0:
182,192,88101,1,0,0:0:0:0:
329,192,88101,1,0,0:0:0:0:
256,192,88277,128,0,88454:0:0:0:0:
109,192,88454,1,0,0:0:0:0:
402,192,88454,1,0,0:0:0:0:
182,192,88454,1,0,0:0:0:0:
329,192,88454,1,0,0:0:0:0:
256,192,88630,128,0,88807:0:0:0:0:
182,192,88807,1,0,0:0:0:0:
109,192,88807,1,0,0:0:0:0:
36,192,88807,1,0,0:0:0:0:
475,192,88807,1,0,0:0:0:0:
402,192,88807,128,0,88983:0:0:0:0:
329,192,88807,128,0,88895:0:0:0:0:
256,192,88895,128,0,89071:0:0:0:0:
109,192,88983,128,0,89160:0:0:0:0:
329,192,88983,1,0,0:0:0:0:
36,192,88983,1,0,0:0:0:0:
475,192,88983,1,0,0:0:0:0:
182,192,88983,128,0,89071:0:0:0:0:
402,192,89071,128,0,89336:0:0:0:0:
256,192,89160,128,0,89248:0:0:0:0:
182,192,89160,1,0,0:0:0:0:
329,192,89160,1,0,0:0:0:0:
475,192,89160,1,0,0:0:0:0:
36,192,89160,128,0,89248:0:0:0:0:
109,192,89248,128,0,89424:0:0:0:0:
256,192,89336,128,0,89601:0:0:0:0:
36,192,89336,1,0,0:0:0:0:
329,192,89336,1,0,0:0:0:0:
475,192,89336,1,0,0:0:0:0:
182,192,89336,128,0,89424:0:0:0:0:
402,192,89424,128,0,89777:0:0:0:0:
36,192,89513,128,0,89777:0:0:0:0:
109,192,89513,1,0,0:0:0:0:
475,192,89513,1,0,0:0:0:0:
329,192,89513,128,0,89601:0:0:0:0:
182,192,89601,128,0,89866:0:0:0:0:
329,192,89689,128,0,89954:0:0:0:0:
256,192,89689,1,0,0:0:0:0:
109,192,89689,128,0,89777:0:0:0:0:
475,192,89777,128,0,90042:0:0:0:0:
36,192,89866,128,0,90218:0:0:0:0:
109,192,89866,1,0,0:0:0:0:
402,192,89866,1,0,0:0:0:0:
256,192,89866,128,0,89954:0:0:0:0:
182,192,89954,128,0,90218:0:0:0:0:
329,192,90042,128,0,90218:0:0:0:0:
256,192,90042,1,0,0:0:0:0:
109,192,90042,1,0,0:0:0:0:
402,192,90042,128,0,90130:0:0:0:0:
475,192,90130,128,0,90218:0:0:0:0:
109,192,90218,1,0,0:0:0:0:
256,192,90218,1,0,0:0:0:0:
402,192,90218,1,0,0:0:0:0:
109,192,90395,128,0,90660:0:0:0:0:
256,192,90395,128,0,90660:0:0:0:0:
402,192,90395,128,0,90660:0:0:0:0:
182,192,90395,1,0,0:0:0:0:
36,192,90395,1,0,0:0:0:0:
329,192,90395,1,0,0:0:0:0:
475,192,90395,1,0,0:0:0:0:
109,192,90748,128,0,90836:0:0:0:0:
256,192,90748,128,0,90836:0:0:0:0:
402,192,90748,128,0,90836:0:0:0:0:
36,192,90748,1,0,0:0:0:0:
475,192,90748,1,0,0:0:0:0:
182,192,90836,1,0,0:0:0:0:
329,192,90836,1,0,0:0:0:0:
36,192,90924,128,0,91013:0:0:0:0:
256,192,90924,128,0,91013:0:0:0:0:
402,192,90924,128,0,91013:0:0:0:0:
475,192,90924,128,0,91013:0:0:0:0:
109,192,91013,128,0,91101:0:0:0:0:
182,192,91013,128,0,91101:0:0:0:0:
329,192,91101,128,0,91189:0:0:0:0:
402,192,91101,128,0,91189:0:0:0:0:
475,192,91101,128,0,91189:0:0:0:0:
256,192,91189,128,0,91277:0:0:0:0:
182,192,91189,128,0,91277:0:0:0:0:
36,192,91189,128,0,91277:0:0:0:0:
329,192,91277,1,0,0:0:0:0:
402,192,91277,1,0,0:0:0:0:
475,192,91277,1,0,0:0:0:0:
36,192,91366,128,0,91542:0:0:0:0:
109,192,91366,128,0,91542:0:0:0:0:
182,192,91366,128,0,91542:0:0:0:0:
475,192,91454,1,0,0:0:0:0:
402,192,91454,1,0,0:0:0:0:
329,192,91454,1,0,0:0:0:0:
256,192,91454,1,0,0:0:0:0:
329,192,91542,128,0,91718:0:0:0:0:
402,192,91542,128,0,91718:0:0:0:0:
475,192,91542,128,0,91718:0:0:0:0:
256,192,91630,1,0,0:0:0:0:
182,192,91630,1,0,0:0:0:0:
109,192,91630,1,0,0:0:0:0:
36,192,91630,1,0,0:0:0:0:
109,192,91807,1,0,0:0:0:0:
182,192,91807,1,0,0:0:0:0:
256,192,91807,1,0,0:0:0:0:
329,192,91807,128,0,91895:0:0:0:0:
402,192,91807,128,0,91895:0:0:0:0:
475,192,91807,128,0,91895:0:0:0:0:
402,192,91983,1,0,0:0:0:0:
329,192,91983,1,0,0:0:0:0:
256,192,91983,1,0,0:0:0:0:
182,192,91983,128,0,92071:0:0:0:0:
109,192,91983,128,0,92071:0:0:0:0:
36,192,91983,128,0,92071:0:0:0:0:
256,192,92160,1,0,0:0:0:0:
402,192,92160,1,0,0:0:0:0:
475,192,92160,1,0,0:0:0:0:
329,192,92160,1,0,0:0:0:0:
182,192,92204,128,0,92336:0:0:0:0:
109,192,92248,128,0,92336:0:0:0:0:
36,192,92292,128,0,92336:0:0:0:0:
475,192,92336,128,0,92380:0:0:0:0:
402,192,92336,128,0,92424:0:0:0:0:
329,192,92336,128,0,92468:0:0:0:0:
256,192,92336,128,0,92513:0:0:0:0:
182,192,92424,1,0,0:0:0:0:
109,192,92424,1,0,0:0:0:0:
36,192,92424,1,0,0:0:0:0:
36,192,92513,128,0,92557:0:0:0:0:
109,192,92513,128,0,92601:0:0:0:0:
182,192,92513,128,0,92645:0:0:0:0:
329,192,92601,1,0,0:0:0:0:
402,192,92601,1,0,0:0:0:0:
475,192,92601,1,0,0:0:0:0:
109,192,92689,1,0,0:0:0:0:
182,192,92689,1,0,0:0:0:0:
36,192,92689,1,0,0:0:0:0:
256,192,92689,1,0,0:0:0:0:
329,192,92733,128,0,92866:0:0:0:0:
402,192,92777,128,0,92866:0:0:0:0:
475,192,92821,128,0,92866:0:0:0:0:
256,192,92866,128,0,93042:0:0:0:0:
36,192,92866,128,0,92910:0:0:0:0:
182,192,92866,128,0,92998:0:0:0:0:
109,192,92866,128,0,92954:0:0:0:0:
402,192,92954,1,0,0:0:0:0:
329,192,92954,1,0,0:0:0:0:
475,192,92954,1,0,0:0:0:0:
329,192,93042,128,0,93174:0:0:0:0:
475,192,93042,128,0,93086:0:0:0:0:
402,192,93042,128,0,93130:0:0:0:0:
182,192,93130,1,0,0:0:0:0:
36,192,93130,1,0,0:0:0:0:
109,192,93130,1,0,0:0:0:0:
256,192,93218,128,0,93263:0:0:0:0:
329,192,93241,128,0,93329:0:0:0:0:
182,192,93241,128,0,93329:0:0:0:0:
402,192,93263,128,0,93395:0:0:0:0:
109,192,93263,128,0,93395:0:0:0:0:
475,192,93285,128,0,93395:0:0:0:0:
36,192,93285,128,0,93395:0:0:0:0:
109,192,93571,1,0,0:0:0:0:
36,192,93571,1,0,0:0:0:0:
402,192,93571,1,0,0:0:0:0:
475,192,93571,1,0,0:0:0:0:
329,192,93660,1,0,0:0:0:0:
182,192,93660,1,0,0:0:0:0:
109,192,93748,128,0,93836:0:0:0:0:
36,192,93748,128,0,93836:0:0:0:0:
402,192,93748,128,0,93836:0:0:0:0:
475,192,93748,128,0,93836:0:0:0:0:
256,192,93836,1,0,0:0:0:0:
402,192,93924,1,0,0:0:0:0:
475,192,93924,1,0,0:0:0:0:
109,192,93924,1,0,0:0:0:0:
36,192,93924,1,0,0:0:0:0:
182,192,93924,128,0,94101:0:0:0:0:
329,192,93924,128,0,94101:0:0:0:0:
256,192,94013,1,0,0:0:0:0:
36,192,94101,1,0,0:0:0:0:
475,192,94101,1,0,0:0:0:0:
109,192,94101,128,0,94277:0:0:0:0:
402,192,94101,128,0,94277:0:0:0:0:
182,192,94189,1,0,0:0:0:0:
329,192,94189,1,0,0:0:0:0:
256,192,94277,1,0,0:0:0:0:
36,192,94277,128,0,94454:0:0:0:0:
475,192,94277,128,0,94454:0:0:0:0:
402,192,94366,1,0,0:0:0:0:
109,192,94366,1,0,0:0:0:0:
329,192,94454,1,0,0:0:0:0:
182,192,94454,1,0,0:0:0:0:
256,192,94454,128,0,94542:0:0:0:0:
109,192,94542,1,0,0:0:0:0:
402,192,94542,1,0,0:0:0:0:
36,192,94630,1,0,0:0:0:0:
475,192,94630,1,0,0:0:0:0:
256,192,94630,128,0,94807:0:0:0:0:
182,192,94718,1,0,0:0:0:0:
329,192,94718,1,0,0:0:0:0:
109,192,94807,1,0,0:0:0:0:
36,192,94807,1,0,0:0:0:0:
402,192,94807,1,0,0:0:0:0:
475,192,94807,1,0,0:0:0:0:
256,192,94895,1,0,0:0:0:0:
182,192,94983,1,0,0:0:0:0:
109,192,94983,1,0,0:0:0:0:
329,192,94983,1,0,0:0:0:0:
402,192,94983,1,0,0:0:0:0:
256,192,95071,1,0,0:0:0:0:
182,192,95160,1,0,0:0:0:0:
36,192,95160,1,0,0:0:0:0:
329,192,95160,1,0,0:0:0:0:
475,192,95160,1,0,0:0:0:0:
402,192,95248,1,0,0:0:0:0:
109,192,95248,1,0,0:0:0:0:
256,192,95248,1,0,0:0:0:0:
182,192,95336,1,0,0:0:0:0:
36,192,95336,1,0,0:0:0:0:
329,192,95336,1,0,0:0:0:0:
475,192,95336,1,0,0:0:0:0:
182,192,95689,1,0,0:0:0:0:
109,192,95689,1,0,0:0:0:0:
36,192,95689,1,0,0:0:0:0:
256,192,95689,1,0,0:0:0:0:
329,192,95689,1,0,0:0:0:0:
402,192,95689,1,0,0:0:0:0:
475,192,95689,1,0,0:0:0:0:
36,192,95866,1,0,0:0:0:0:
109,192,95866,1,0,0:0:0:0:
182,192,95866,1,0,0:0:0:0:
256,192,95866,1,0,0:0:0:0:
329,192,95866,1,0,0:0:0:0:
402,192,95866,1,0,0:0:0:0:
475,192,95866,1,0,0:0:0:0:
36,192,96042,128,0,96174:0:0:0:0:
109,192,96042,128,0,96218:0:0:0:0:
182,192,96042,128,0,96263:0:0:0:0:
256,192,96042,128,0,96307:0:0:0:0:
329,192,96042,128,0,96263:0:0:0:0:
402,192,96042,128,0,96218:0:0:0:0:
475,192,96042,128,0,96174:0:0:0:0:
256,192,96395,1,0,0:0:0:0:
36,192,96395,128,0,96527:0:0:0:0:
109,192,96439,128,0,96527:0:0:0:0:
182,192,96483,128,0,96527:0:0:0:0:
475,192,96483,128,0,96616:0:0:0:0:
402,192,96527,128,0,96616:0:0:0:0:
329,192,96571,128,0,96616:0:0:0:0:
256,192,96571,1,0,0:0:0:0:
109,192,96571,1,0,0:0:0:0:
36,192,96571,1,0,0:0:0:0:
182,192,96660,1,0,0:0:0:0:
109,192,96748,1,0,0:0:0:0:
36,192,96748,1,0,0:0:0:0:
256,192,96748,128,0,96880:0:0:0:0:
475,192,96748,1,0,0:0:0:0:
329,192,96792,128,0,96880:0:0:0:0:
182,192,96836,1,0,0:0:0:0:
402,192,96836,128,0,96880:0:0:0:0:
475,192,96880,128,0,96924:0:0:0:0:
256,192,96924,128,0,97057:0:0:0:0:
36,192,96924,1,0,0:0:0:0:
182,192,96968,128,0,97057:0:0:0:0:
109,192,97013,128,0,97057:0:0:0:0:
329,192,97013,1,0,0:0:0:0:
36,192,97057,128,0,97101:0:0:0:0:
402,192,97101,1,0,0:0:0:0:
475,192,97101,128,0,97189:0:0:0:0:
329,192,97189,128,0,97277:0:0:0:0:
182,192,97189,128,0,97277:0:0:0:0:
402,192,97277,1,0,0:0:0:0:
475,192,97277,1,0,0:0:0:0:
109,192,97277,1,0,0:0:0:0:
256,192,97277,1,0,0:0:0:0:
36,192,97277,128,0,97366:0:0:0:0:
329,192,97366,128,0,97542:0:0:0:0:
182,192,97366,1,0,0:0:0:0:
182,192,97454,128,0,97630:0:0:0:0:
109,192,97454,1,0,0:0:0:0:
475,192,97454,1,0,0:0:0:0:
402,192,97542,128,0,97763:0:0:0:0:
36,192,97542,1,0,0:0:0:0:
109,192,97630,128,0,97851:0:0:0:0:
329,192,97630,1,0,0:0:0:0:
256,192,97630,1,0,0:0:0:0:
182,192,97718,1,0,0:0:0:0:
475,192,97718,128,0,97939:0:0:0:0:
402,192,97807,1,0,0:0:0:0:
36,192,97807,128,0,98027:0:0:0:0:
329,192,97807,1,0,0:0:0:0:
109,192,97895,1,0,0:0:0:0:
256,192,97895,1,0,0:0:0:0:
475,192,97983,1,0,0:0:0:0:
402,192,97983,128,0,98292:0:0:0:0:
182,192,97983,1,0,0:0:0:0:
329,192,97983,1,0,0:0:0:0:
36,192,98071,1,0,0:0:0:0:
109,192,98071,128,0,98468:0:0:0:0:
329,192,98160,128,0,98645:0:0:0:0:
256,192,98160,1,0,0:0:0:0:
182,192,98248,128,0,98821:0:0:0:0:
36,192,98248,1,0,0:0:0:0:
402,192,98336,1,0,0:0:0:0:
256,192,98336,128,0,98998:0:0:0:0:
475,192,98336,1,0,0:0:0:0:
36,192,98424,1,0,0:0:0:0:
109,192,98513,1,0,0:0:0:0:
402,192,98513,1,0,0:0:0:0:
475,192,98513,1,0,0:0:0:0:
36,192,98601,1,0,0:0:0:0:
329,192,98689,1,0,0:0:0:0:
402,192,98689,1,0,0:0:0:0:
109,192,98777,1,0,0:0:0:0:
36,192,98866,1,0,0:0:0:0:
182,192,98866,1,0,0:0:0:0:
402,192,98866,1,0,0:0:0:0:
475,192,98866,1,0,0:0:0:0:
329,192,98954,1,0,0:0:0:0:
256,192,99042,1,0,0:0:0:0:
109,192,99042,1,0,0:0:0:0:
36,192,99042,1,0,0:0:0:0:
475,192,99042,1,0,0:0:0:0:
402,192,99042,1,0,0:0:0:0:
329,192,99130,128,0,99395:0:0:0:0:
182,192,99130,128,0,99395:0:0:0:0:
36,192,99218,128,0,99263:0:0:0:0:
475,192,99218,128,0,99263:0:0:0:0:
109,192,99307,1,0,0:0:0:0:
402,192,99307,1,0,0:0:0:0:
475,192,99395,128,0,99439:0:0:0:0:
36,192,99395,128,0,99439:0:0:0:0:
256,192,99395,1,0,0:0:0:0:
329,192,99483,1,0,0:0:0:0:
182,192,99483,1,0,0:0:0:0:
109,192,99483,128,0,99748:0:0:0:0:
402,192,99483,128,0,99748:0:0:0:0:
36,192,99571,128,0,99616:0:0:0:0:
475,192,99571,128,0,99616:0:0:0:0:
182,192,99660,128,0,99704:0:0:0:0:
329,192,99660,128,0,99704:0:0:0:0:
36,192,99748,1,0,0:0:0:0:
475,192,99748,1,0,0:0:0:0:
256,192,99748,1,0,0:0:0:0:
36,192,99836,128,0,100101:0:0:0:0:
475,192,99836,128,0,100101:0:0:0:0:
182,192,99836,128,0,99880:0:0:0:0:
329,192,99836,128,0,99880:0:0:0:0:
109,192,99924,1,0,0:0:0:0:
402,192,99924,1,0,0:0:0:0:
109,192,100013,128,0,100057:0:0:0:0:
402,192,100013,128,0,100057:0:0:0:0:
329,192,100101,128,0,100189:0:0:0:0:
182,192,100101,128,0,100189:0:0:0:0:
256,192,100101,128,0,100277:0:0:0:0:
109,192,100189,1,0,0:0:0:0:
402,192,100189,1,0,0:0:0:0:
329,192,100277,1,0,0:0:0:0:
182,192,100277,1,0,0:0:0:0:
36,192,100277,128,0,100454:0:0:0:0:
475,192,100277,128,0,100718:0:0:0:0:
256,192,100366,1,0,0:0:0:0:
182,192,100454,1,0,0:0:0:0:
109,192,100454,1,0,0:0:0:0:
329,192,100454,128,0,100542:0:0:0:0:
402,192,100454,128,0,100542:0:0:0:0:
256,192,100542,1,0,0:0:0:0:
329,192,100630,1,0,0:0:0:0:
402,192,100630,1,0,0:0:0:0:
182,192,100630,128,0,100718:0:0:0:0:
109,192,100630,128,0,100718:0:0:0:0:
36,192,100630,128,0,101160:0:0:0:0:
256,192,100718,1,0,0:0:0:0:
182,192,100807,1,0,0:0:0:0:
109,192,100807,1,0,0:0:0:0:
329,192,100807,128,0,100895:0:0:0:0:
402,192,100807,128,0,100895:0:0:0:0:
475,192,100807,128,0,101071:0:0:0:0:
256,192,100895,1,0,0:0:0:0:
182,192,100983,128,0,101071:0:0:0:0:
109,192,100983,128,0,101071:0:0:0:0:
256,192,101071,128,0,101116:0:0:0:0:
475,192,101160,128,0,101204:0:0:0:0:
402,192,101204,128,0,101248:0:0:0:0:
329,192,101248,128,0,101292:0:0:0:0:
182,192,101248,128,0,101292:0:0:0:0:
256,192,101270,1,0,0:0:0:0:
109,192,101292,128,0,101336:0:0:0:0:
36,192,101336,128,0,101380:0:0:0:0:
475,192,101336,128,0,101380:0:0:0:0:
402,192,101380,128,0,101424:0:0:0:0:
329,192,101424,128,0,101468:0:0:0:0:
182,192,101424,128,0,101468:0:0:0:0:
256,192,101446,1,0,0:0:0:0:
109,192,101468,128,0,101513:0:0:0:0:
36,192,101513,128,0,101557:0:0:0:0:
475,192,101513,1,0,0:0:0:0:
402,192,101542,1,0,0:0:0:0:
329,192,101571,1,0,0:0:0:0:
256,192,101579,1,0,0:0:0:0:
182,192,101601,1,0,0:0:0:0:
109,192,101630,1,0,0:0:0:0:
36,192,101660,1,0,0:0:0:0:
475,192,101689,1,0,0:0:0:0:
402,192,101718,1,0,0:0:0:0:
329,192,101748,1,0,0:0:0:0:
256,192,101755,1,0,0:0:0:0:
182,192,101777,1,0,0:0:0:0:
109,192,101807,1,0,0:0:0:0:
36,192,101836,1,0,0:0:0:0:
329,192,101866,128,0,101954:0:0:0:0:
475,192,101866,128,0,102042:0:0:0:0:
402,192,101866,128,0,102042:0:0:0:0:
256,192,101866,128,0,101998:0:0:0:0:
109,192,101954,128,0,102042:0:0:0:0:
36,192,101954,128,0,102042:0:0:0:0:
182,192,102042,128,0,102174:0:0:0:0:
329,192,102042,1,0,0:0:0:0:
256,192,102086,128,0,102130:0:0:0:0:
329,192,102130,128,0,102307:0:0:0:0:
402,192,102130,128,0,102263:0:0:0:0:
475,192,102130,128,0,102263:0:0:0:0:
182,192,102218,128,0,102307:0:0:0:0:
36,192,102218,128,0,102395:0:0:0:0:
256,192,102218,128,0,102351:0:0:0:0:
109,192,102218,128,0,102395:0:0:0:0:
475,192,102307,128,0,102395:0:0:0:0:
402,192,102307,128,0,102395:0:0:0:0:
182,192,102395,1,0,0:0:0:0:
329,192,102395,128,0,102660:0:0:0:0:
256,192,102439,128,0,102483:0:0:0:0:
182,192,102483,128,0,102527:0:0:0:0:
109,192,102483,128,0,102660:0:0:0:0:
36,192,102483,128,0,102660:0:0:0:0:
182,192,102571,128,0,102660:0:0:0:0:
256,192,102571,128,0,102660:0:0:0:0:
402,192,102571,1,0,0:0:0:0:
475,192,102571,1,0,0:0:0:0:
402,192,102660,128,0,102748:0:0:0:0:
475,192,102660,128,0,102748:0:0:0:0:
256,192,102748,128,0,102836:0:0:0:0:
329,192,102748,128,0,102792:0:0:0:0:
182,192,102748,128,0,102880:0:0:0:0:
109,192,102748,1,0,0:0:0:0:
36,192,102748,1,0,0:0:0:0:
36,192,102836,128,0,102924:0:0:0:0:
109,192,102836,128,0,102924:0:0:0:0:
256,192,102924,1,0,0:0:0:0:
329,192,102924,128,0,103013:0:0:0:0:
402,192,102924,128,0,103101:0:0:0:0:
475,192,102924,128,0,103013:0:0:0:0:
182,192,102924,1,0,0:0:0:0:
256,192,103013,128,0,103101:0:0:0:0:
182,192,103013,128,0,103101:0:0:0:0:
329,192,103101,128,0,103189:0:0:0:0:
109,192,103101,128,0,103189:0:0:0:0:
36,192,103101,128,0,103189:0:0:0:0:
402,192,103189,128,0,103233:0:0:0:0:
256,192,103189,128,0,103277:0:0:0:0:
36,192,103277,128,0,103366:0:0:0:0:
109,192,103277,128,0,103454:0:0:0:0:
182,192,103277,128,0,103542:0:0:0:0:
329,192,103277,128,0,103321:0:0:0:0:
475,192,103277,128,0,103321:0:0:0:0:
402,192,103366,128,0,103454:0:0:0:0:
256,192,103366,128,0,103630:0:0:0:0:
36,192,103454,1,0,0:0:0:0:
475,192,103454,128,0,103630:0:0:0:0:
329,192,103454,1,0,0:0:0:0:
109,192,103542,1,0,0:0:0:0:
329,192,103542,128,0,103586:0:0:0:0:
182,192,103630,1,0,0:0:0:0:
36,192,103630,128,0,103851:0:0:0:0:
402,192,103630,128,0,103674:0:0:0:0:
329,192,103718,1,0,0:0:0:0:
109,192,103718,128,0,103895:0:0:0:0:
475,192,103718,128,0,103763:0:0:0:0:
182,192,103807,128,0,103939:0:0:0:0:
256,192,103807,1,0,0:0:0:0:
475,192,103807,1,0,0:0:0:0:
402,192,103807,128,0,103851:0:0:0:0:
329,192,103895,128,0,103939:0:0:0:0:
475,192,103983,128,0,104071:0:0:0:0:
402,192,103983,128,0,104160:0:0:0:0:
329,192,103983,128,0,104248:0:0:0:0:
182,192,103983,128,0,104027:0:0:0:0:
36,192,103983,128,0,104027:0:0:0:0:
109,192,104071,128,0,104160:0:0:0:0:
256,192,104071,128,0,104336:0:0:0:0:
475,192,104160,1,0,0:0:0:0:
36,192,104160,128,0,104336:0:0:0:0:
182,192,104160,1,0,0:0:0:0:
402,192,104248,1,0,0:0:0:0:
182,192,104248,128,0,104292:0:0:0:0:
329,192,104336,1,0,0:0:0:0:
475,192,104336,128,0,104557:0:0:0:0:
109,192,104336,128,0,104380:0:0:0:0:
182,192,104424,1,0,0:0:0:0:
402,192,104424,128,0,104601:0:0:0:0:
36,192,104424,128,0,104468:0:0:0:0:
256,192,104513,1,0,0:0:0:0:
36,192,104513,1,0,0:0:0:0:
329,192,104513,128,0,104645:0:0:0:0:
109,192,104513,128,0,104557:0:0:0:0:
182,192,104601,128,0,104645:0:0:0:0:
256,192,104689,128,0,104733:0:0:0:0:
109,192,104689,128,0,104777:0:0:0:0:
402,192,104689,128,0,104777:0:0:0:0:
475,192,104689,1,0,0:0:0:0:
329,192,104777,1,0,0:0:0:0:
36,192,104777,1,0,0:0:0:0:
475,192,104866,1,0,0:0:0:0:
402,192,104866,128,0,104954:0:0:0:0:
182,192,104866,128,0,105307:0:0:0:0:
109,192,104866,128,0,104954:0:0:0:0:
256,192,104866,128,0,104910:0:0:0:0:
36,192,104954,1,0,0:0:0:0:
329,192,104954,1,0,0:0:0:0:
256,192,105042,1,0,0:0:0:0:
402,192,105042,128,0,105218:0:0:0:0:
109,192,105042,128,0,105130:0:0:0:0:
475,192,105042,128,0,105086:0:0:0:0:
329,192,105130,1,0,0:0:0:0:
109,192,105218,1,0,0:0:0:0:
475,192,105218,1,0,0:0:0:0:
36,192,105218,128,0,105395:0:0:0:0:
256,192,105218,128,0,105307:0:0:0:0:
402,192,105307,1,0,0:0:0:0:
182,192,105395,1,0,0:0:0:0:
109,192,105395,128,0,105483:0:0:0:0:
329,192,105395,1,0,0:0:0:0:
256,192,105395,128,0,105483:0:0:0:0:
36,192,105483,1,0,0:0:0:0:
402,192,105483,1,0,0:0:0:0:
475,192,105483,128,0,105527:0:0:0:0:
256,192,105571,1,0,0:0:0:0:
109,192,105571,128,0,105660:0:0:0:0:
329,192,105571,128,0,106189:0:0:0:0:
182,192,105571,128,0,105660:0:0:0:0:
36,192,105660,1,0,0:0:0:0:
475,192,105660,1,0,0:0:0:0:
182,192,105748,1,0,0:0:0:0:
109,192,105748,128,0,105924:0:0:0:0:
402,192,105748,128,0,106013:0:0:0:0:
256,192,105748,128,0,105836:0:0:0:0:
36,192,105836,1,0,0:0:0:0:
256,192,105924,1,0,0:0:0:0:
475,192,105924,1,0,0:0:0:0:
182,192,105924,128,0,106013:0:0:0:0:
109,192,106013,1,0,0:0:0:0:
256,192,106101,1,0,0:0:0:0:
36,192,106101,1,0,0:0:0:0:
402,192,106101,128,0,106277:0:0:0:0:
475,192,106101,128,0,106277:0:0:0:0:
182,192,106189,128,0,106454:0:0:0:0:
109,192,106189,128,0,106366:0:0:0:0:
36,192,106277,1,0,0:0:0:0:
256,192,106277,128,0,106454:0:0:0:0:
329,192,106277,128,0,106366:0:0:0:0:
402,192,106366,128,0,106542:0:0:0:0:
475,192,106366,128,0,106542:0:0:0:0:
329,192,106454,1,0,0:0:0:0:
109,192,106454,128,0,106718:0:0:0:0:
36,192,106454,128,0,106630:0:0:0:0:
182,192,106542,128,0,106807:0:0:0:0:
256,192,106542,128,0,106895:0:0:0:0:
329,192,106630,128,0,106983:0:0:0:0:
402,192,106630,128,0,107071:0:0:0:0:
475,192,106630,1,0,0:0:0:0:
475,192,106807,1,0,0:0:0:0:
475,192,106983,128,0,107160:0:0:0:0:
256,192,107513,128,0,107645:0:0:0:0:
182,192,107513,128,0,107910:0:0:0:0:
109,192,107513,128,0,107998:0:0:0:0:
36,192,107513,128,0,108086:0:0:0:0:
402,192,107513,128,0,107601:0:0:0:0:
329,192,107601,1,0,0:0:0:0:
475,192,107601,1,0,0:0:0:0:
256,192,107689,128,0,107777:0:0:0:0:
402,192,107689,128,0,107777:0:0:0:0:
329,192,107777,1,0,0:0:0:0:
475,192,107777,1,0,0:0:0:0:
402,192,107866,1,0,0:0:0:0:
256,192,107866,128,0,107910:0:0:0:0:
329,192,107954,128,0,107998:0:0:0:0:
182,192,107954,128,0,108042:0:0:0:0:
256,192,108042,1,0,0:0:0:0:
109,192,108042,1,0,0:0:0:0:
402,192,108042,128,0,108086:0:0:0:0:
36,192,108130,1,0,0:0:0:0:
475,192,108130,128,0,108174:0:0:0:0:
182,192,108130,128,0,108218:0:0:0:0:
36,192,108218,128,0,108307:0:0:0:0:
109,192,108218,128,0,108395:0:0:0:0:
256,192,108218,128,0,108395:0:0:0:0:
329,192,108218,128,0,108307:0:0:0:0:
402,192,108218,128,0,108263:0:0:0:0:
182,192,108307,128,0,108483:0:0:0:0:
475,192,108307,128,0,108351:0:0:0:0:
36,192,108395,128,0,108439:0:0:0:0:
329,192,108395,128,0,108439:0:0:0:0:
402,192,108395,128,0,108571:0:0:0:0:
109,192,108483,128,0,108527:0:0:0:0:
256,192,108483,128,0,108527:0:0:0:0:
182,192,108571,128,0,108616:0:0:0:0:
329,192,108571,1,0,0:0:0:0:
475,192,108571,1,0,0:0:0:0:
402,192,108660,1,0,0:0:0:0:
256,192,108660,128,0,108704:0:0:0:0:
109,192,108660,128,0,108704:0:0:0:0:
402,192,108748,128,0,108880:0:0:0:0:
475,192,108748,1,0,0:0:0:0:
329,192,108748,128,0,108792:0:0:0:0:
36,192,108748,128,0,108792:0:0:0:0:
109,192,108836,128,0,108880:0:0:0:0:
256,192,108836,128,0,108880:0:0:0:0:
256,192,108924,128,0,109057:0:0:0:0:
329,192,108924,128,0,109321:0:0:0:0:
402,192,108924,128,0,109410:0:0:0:0:
475,192,108924,128,0,109498:0:0:0:0:
109,192,108924,128,0,109013:0:0:0:0:
182,192,109013,1,0,0:0:0:0:
36,192,109013,1,0,0:0:0:0:
256,192,109101,128,0,109189:0:0:0:0:
109,192,109101,128,0,109189:0:0:0:0:
182,192,109189,1,0,0:0:0:0:
36,192,109189,1,0,0:0:0:0:
109,192,109277,1,0,0:0:0:0:
256,192,109277,128,0,109321:0:0:0:0:
182,192,109366,128,0,109410:0:0:0:0:
329,192,109366,128,0,109454:0:0:0:0:
256,192,109454,1,0,0:0:0:0:
402,192,109454,1,0,0:0:0:0:
109,192,109454,128,0,109498:0:0:0:0:
475,192,109542,1,0,0:0:0:0:
36,192,109542,128,0,109586:0:0:0:0:
329,192,109542,128,0,109630:0:0:0:0:
475,192,109630,128,0,109718:0:0:0:0:
402,192,109630,128,0,109807:0:0:0:0:
256,192,109630,128,0,109807:0:0:0:0:
182,192,109630,128,0,109718:0:0:0:0:
109,192,109630,128,0,109674:0:0:0:0:
329,192,109718,128,0,109895:0:0:0:0:
36,192,109718,128,0,109763:0:0:0:0:
475,192,109807,128,0,109851:0:0:0:0:
182,192,109807,128,0,109851:0:0:0:0:
109,192,109807,128,0,109983:0:0:0:0:
402,192,109895,128,0,109939:0:0:0:0:
256,192,109895,128,0,109939:0:0:0:0:
329,192,109983,128,0,110027:0:0:0:0:
182,192,109983,1,0,0:0:0:0:
36,192,109983,1,0,0:0:0:0:
109,192,110071,1,0,0:0:0:0:
256,192,110071,128,0,110116:0:0:0:0:
402,192,110071,128,0,110116:0:0:0:0:
109,192,110160,128,0,110292:0:0:0:0:
36,192,110160,1,0,0:0:0:0:
182,192,110160,128,0,110204:0:0:0:0:
475,192,110160,128,0,110204:0:0:0:0:
402,192,110248,128,0,110292:0:0:0:0:
256,192,110248,128,0,110292:0:0:0:0:
256,192,110336,128,0,110468:0:0:0:0:
402,192,110336,128,0,110424:0:0:0:0:
109,192,110336,128,0,110424:0:0:0:0:
329,192,110424,1,0,0:0:0:0:
475,192,110424,1,0,0:0:0:0:
36,192,110424,1,0,0:0:0:0:
182,192,110424,1,0,0:0:0:0:
256,192,110513,128,0,110601:0:0:0:0:
402,192,110513,128,0,110601:0:0:0:0:
109,192,110513,128,0,110601:0:0:0:0:
329,192,110601,1,0,0:0:0:0:
475,192,110601,1,0,0:0:0:0:
36,192,110601,1,0,0:0:0:0:
182,192,110601,1,0,0:0:0:0:
402,192,110689,1,0,0:0:0:0:
256,192,110689,128,0,110733:0:0:0:0:
109,192,110689,1,0,0:0:0:0:
329,192,110777,128,0,110821:0:0:0:0:
182,192,110777,128,0,110821:0:0:0:0:
256,192,110866,1,0,0:0:0:0:
402,192,110866,128,0,110910:0:0:0:0:
109,192,110866,128,0,110910:0:0:0:0:
475,192,110954,128,0,110998:0:0:0:0:
36,192,110954,128,0,110998:0:0:0:0:
329,192,111042,128,0,111130:0:0:0:0:
402,192,111042,128,0,111218:0:0:0:0:
182,192,111042,128,0,111130:0:0:0:0:
109,192,111042,128,0,111218:0:0:0:0:
256,192,111042,128,0,111086:0:0:0:0:
475,192,111130,128,0,111307:0:0:0:0:
36,192,111130,128,0,111307:0:0:0:0:
329,192,111218,128,0,111263:0:0:0:0:
182,192,111218,128,0,111263:0:0:0:0:
256,192,111218,128,0,111351:0:0:0:0:
402,192,111307,128,0,111351:0:0:0:0:
109,192,111307,128,0,111351:0:0:0:0:
475,192,111395,128,0,111439:0:0:0:0:
36,192,111395,128,0,111439:0:0:0:0:
256,192,111395,1,0,0:0:0:0:
402,192,111483,128,0,111527:0:0:0:0:
109,192,111483,128,0,111527:0:0:0:0:
329,192,111571,128,0,111616:0:0:0:0:
182,192,111571,128,0,111616:0:0:0:0:
256,192,111571,1,0,0:0:0:0:
402,192,111660,128,0,111704:0:0:0:0:
109,192,111660,128,0,111704:0:0:0:0:
475,192,111748,128,0,111792:0:0:0:0:
36,192,111748,128,0,111792:0:0:0:0:
256,192,111748,1,0,0:0:0:0:
256,192,111924,1,0,0:0:0:0:
36,192,112101,128,0,112145:0:0:0:0:
475,192,112101,128,0,112145:0:0:0:0:
256,192,112101,1,0,0:0:0:0:
256,192,112277,1,0,0:0:0:0:
36,192,112454,128,0,112498:0:0:0:0:
475,192,112454,128,0,112498:0:0:0:0:
256,192,112454,1,0,0:0:0:0:
256,192,112630,1,0,0:0:0:0:
36,192,112807,128,0,113160:0:0:0:0:
475,192,112807,128,0,113160:0:0:0:0:
182,192,112983,1,0,0:0:0:0:
329,192,112983,1,0,0:0:0:0:
109,192,113071,1,0,0:0:0:0:
402,192,113071,1,0,0:0:0:0:
182,192,113160,1,0,0:0:0:0:
329,192,113160,1,0,0:0:0:0:
256,192,113160,128,0,113777:0:0:0:0:
182,192,113424,128,0,113777:0:0:0:0:
329,192,113424,128,0,113777:0:0:0:0:
109,192,113689,128,0,113777:0:0:0:0:
402,192,113689,128,0,113777:0:0:0:0:
109,192,113866,128,0,114086:0:0:0:0:
402,192,113866,128,0,114086:0:0:0:0:
182,192,113866,128,0,113910:0:0:0:0:
256,192,113866,128,0,113910:0:0:0:0:
329,192,113866,128,0,113910:0:0:0:0:
182,192,114042,128,0,114086:0:0:0:0:
329,192,114042,128,0,114086:0:0:0:0:
256,192,114042,128,0,114086:0:0:0:0:
256,192,114218,128,0,114263:0:0:0:0:
182,192,114307,128,0,114351:0:0:0:0:
329,192,114307,128,0,114351:0:0:0:0:
109,192,114395,128,0,114439:0:0:0:0:
402,192,114395,128,0,114439:0:0:0:0:
329,192,114483,128,0,114527:0:0:0:0:
182,192,114483,128,0,114527:0:0:0:0:
475,192,114571,128,0,114924:0:0:0:0:
256,192,114571,128,0,114616:0:0:0:0:
36,192,114571,128,0,114880:0:0:0:0:
329,192,114660,128,0,114836:0:0:0:0:
402,192,114660,1,0,0:0:0:0:
182,192,114748,128,0,114792:0:0:0:0:
109,192,114748,128,0,114792:0:0:0:0:
402,192,114836,1,0,0:0:0:0:
36,192,114924,128,0,115233:0:0:0:0:
329,192,114924,128,0,114968:0:0:0:0:
256,192,114924,128,0,114968:0:0:0:0:
109,192,114924,1,0,0:0:0:0:
182,192,114924,1,0,0:0:0:0:
475,192,115013,128,0,115145:0:0:0:0:
402,192,115013,128,0,115145:0:0:0:0:
109,192,115101,128,0,115145:0:0:0:0:
182,192,115101,128,0,115145:0:0:0:0:
329,192,115189,128,0,115233:0:0:0:0:
256,192,115189,128,0,115233:0:0:0:0:
402,192,115277,128,0,115321:0:0:0:0:
475,192,115277,128,0,115321:0:0:0:0:
36,192,115277,1,0,0:0:0:0:
109,192,115277,128,0,115586:0:0:0:0:
182,192,115366,128,0,115410:0:0:0:0:
329,192,115454,128,0,115498:0:0:0:0:
256,192,115454,128,0,115498:0:0:0:0:
402,192,115454,128,0,115630:0:0:0:0:
475,192,115454,1,0,0:0:0:0:
36,192,115542,128,0,115586:0:0:0:0:
182,192,115630,128,0,115674:0:0:0:0:
109,192,115630,128,0,115674:0:0:0:0:
256,192,115630,128,0,115939:0:0:0:0:
475,192,115630,1,0,0:0:0:0:
329,192,115718,128,0,115763:0:0:0:0:
402,192,115807,128,0,115851:0:0:0:0:
475,192,115807,128,0,115851:0:0:0:0:
36,192,115807,128,0,115851:0:0:0:0:
109,192,115807,128,0,115851:0:0:0:0:
182,192,115895,128,0,115939:0:0:0:0:
475,192,115983,128,0,116468:0:0:0:0:
36,192,115983,128,0,116292:0:0:0:0:
109,192,115983,1,0,0:0:0:0:
402,192,115983,1,0,0:0:0:0:
329,192,115983,1,0,0:0:0:0:
109,192,116160,128,0,116468:0:0:0:0:
402,192,116160,128,0,116292:0:0:0:0:
182,192,116160,1,0,0:0:0:0:
329,192,116160,1,0,0:0:0:0:
402,192,116336,128,0,116645:0:0:0:0:
36,192,116336,128,0,116645:0:0:0:0:
182,192,116336,128,0,116733:0:0:0:0:
256,192,116336,128,0,116821:0:0:0:0:
329,192,116336,128,0,116645:0:0:0:0:
109,192,116513,128,0,116733:0:0:0:0:
475,192,116513,128,0,116910:0:0:0:0:
36,192,116689,128,0,116998:0:0:0:0:
402,192,116689,128,0,116910:0:0:0:0:
329,192,116689,128,0,116821:0:0:0:0:
109,192,116777,128,0,116998:0:0:0:0:
182,192,116777,128,0,116998:0:0:0:0:
256,192,116866,128,0,117218:0:0:0:0:
329,192,116866,128,0,117218:0:0:0:0:
402,192,116954,128,0,117130:0:0:0:0:
475,192,116954,128,0,117130:0:0:0:0:
182,192,117042,128,0,117218:0:0:0:0:
109,192,117042,128,0,117307:0:0:0:0:
36,192,117042,128,0,117307:0:0:0:0:
402,192,117218,128,0,117307:0:0:0:0:
475,192,117218,128,0,117660:0:0:0:0:
329,192,117307,128,0,117483:0:0:0:0:
256,192,117307,128,0,117483:0:0:0:0:
182,192,117307,128,0,117571:0:0:0:0:
109,192,117395,128,0,117660:0:0:0:0:
36,192,117395,128,0,117660:0:0:0:0:
402,192,117395,128,0,117836:0:0:0:0:
256,192,117571,128,0,117880:0:0:0:0:
329,192,117571,128,0,118013:0:0:0:0:
182,192,117660,128,0,117880:0:0:0:0:
109,192,117748,128,0,118057:0:0:0:0:
36,192,117748,128,0,118233:0:0:0:0:
475,192,117748,128,0,118013:0:0:0:0:
182,192,117924,128,0,118057:0:0:0:0:
256,192,117924,128,0,118145:0:0:0:0:
402,192,117924,128,0,118233:0:0:0:0:
475,192,118101,128,0,118410:0:0:0:0:
182,192,118101,128,0,118410:0:0:0:0:
109,192,118101,128,0,118233:0:0:0:0:
329,192,118101,128,0,118321:0:0:0:0:
256,192,118189,128,0,118586:0:0:0:0:
402,192,118277,128,0,118498:0:0:0:0:
109,192,118277,128,0,118410:0:0:0:0:
36,192,118277,128,0,118454:0:0:0:0:
329,192,118366,128,0,118586:0:0:0:0:
475,192,118454,128,0,118630:0:0:0:0:
109,192,118454,128,0,118630:0:0:0:0:
182,192,118454,128,0,118586:0:0:0:0:
402,192,118542,128,0,118630:0:0:0:0:
256,192,118630,128,0,118718:0:0:0:0:
182,192,118630,128,0,118718:0:0:0:0:
36,192,118630,1,0,0:0:0:0:
329,192,118630,128,0,118718:0:0:0:0:
475,192,118718,1,0,0:0:0:0:
329,192,118807,1,0,0:0:0:0:
109,192,118807,1,0,0:0:0:0:
36,192,118807,1,0,0:0:0:0:
256,192,118807,1,0,0:0:0:0:
182,192,118895,1,0,0:0:0:0:
402,192,118895,1,0,0:0:0:0:
256,192,118983,1,0,0:0:0:0:
475,192,118983,1,0,0:0:0:0:
329,192,119071,1,0,0:0:0:0:
109,192,119071,1,0,0:0:0:0:
402,192,119160,1,0,0:0:0:0:
475,192,119160,1,0,0:0:0:0:
182,192,119160,1,0,0:0:0:0:
36,192,119160,1,0,0:0:0:0:
329,192,119248,1,0,0:0:0:0:
256,192,119248,1,0,0:0:0:0:
402,192,119336,1,0,0:0:0:0:
182,192,119336,1,0,0:0:0:0:
109,192,119424,1,0,0:0:0:0:
329,192,119424,1,0,0:0:0:0:
402,192,119513,1,0,0:0:0:0:
256,192,119513,128,0,119689:0:0:0:0:
475,192,119513,128,0,119954:0:0:0:0:
109,192,119513,128,0,119689:0:0:0:0:
36,192,119513,1,0,0:0:0:0:
182,192,119513,128,0,119645:0:0:0:0:
329,192,119601,1,0,0:0:0:0:
402,192,119689,128,0,119954:0:0:0:0:
182,192,119689,1,0,0:0:0:0:
256,192,119777,1,0,0:0:0:0:
109,192,119777,128,0,120130:0:0:0:0:
36,192,119777,128,0,120130:0:0:0:0:
329,192,119866,128,0,119954:0:0:0:0:
182,192,119866,128,0,120130:0:0:0:0:
256,192,119954,128,0,120042:0:0:0:0:
329,192,120042,128,0,120130:0:0:0:0:
402,192,120042,128,0,120130:0:0:0:0:
475,192,120042,128,0,120130:0:0:0:0:
256,192,120130,128,0,120218:0:0:0:0:
182,192,120218,128,0,120307:0:0:0:0:
109,192,120218,128,0,120483:0:0:0:0:
36,192,120218,128,0,120660:0:0:0:0:
402,192,120218,128,0,120395:0:0:0:0:
475,192,120218,128,0,120307:0:0:0:0:
329,192,120218,1,0,0:0:0:0:
329,192,120307,128,0,120571:0:0:0:0:
256,192,120395,128,0,120748:0:0:0:0:
182,192,120395,128,0,120483:0:0:0:0:
475,192,120395,128,0,120483:0:0:0:0:
402,192,120483,128,0,120571:0:0:0:0:
182,192,120571,128,0,120836:0:0:0:0:
109,192,120571,128,0,120660:0:0:0:0:
475,192,120571,128,0,120660:0:0:0:0:
329,192,120660,128,0,121013:0:0:0:0:
109,192,120748,128,0,120924:0:0:0:0:
36,192,120748,128,0,121013:0:0:0:0:
402,192,120748,128,0,120836:0:0:0:0:
475,192,120748,128,0,120836:0:0:0:0:
256,192,120836,128,0,120924:0:0:0:0:
182,192,120924,128,0,121013:0:0:0:0:
402,192,120924,128,0,121013:0:0:0:0:
475,192,120924,128,0,121013:0:0:0:0:
109,192,121013,128,0,121101:0:0:0:0:
36,192,121101,128,0,121189:0:0:0:0:
402,192,121101,128,0,121189:0:0:0:0:
329,192,121101,128,0,121189:0:0:0:0:
256,192,121101,128,0,121189:0:0:0:0:
475,192,121101,1,0,0:0:0:0:
182,192,121189,128,0,121277:0:0:0:0:
329,192,121277,128,0,121366:0:0:0:0:
256,192,121277,128,0,121366:0:0:0:0:
109,192,121277,128,0,121366:0:0:0:0:
36,192,121277,128,0,121366:0:0:0:0:
402,192,121277,1,0,0:0:0:0:
475,192,121366,128,0,121454:0:0:0:0:
256,192,121454,128,0,121542:0:0:0:0:
182,192,121454,128,0,121542:0:0:0:0:
402,192,121454,128,0,121542:0:0:0:0:
109,192,121454,128,0,121542:0:0:0:0:
329,192,121454,1,0,0:0:0:0:
36,192,121542,128,0,121895:0:0:0:0:
109,192,121630,128,0,121807:0:0:0:0:
182,192,121630,128,0,121718:0:0:0:0:
329,192,121630,128,0,121895:0:0:0:0:
475,192,121630,128,0,122071:0:0:0:0:
256,192,121630,1,0,0:0:0:0:
402,192,121630,128,0,121718:0:0:0:0:
256,192,121807,128,0,122248:0:0:0:0:
402,192,121807,128,0,122248:0:0:0:0:
182,192,121807,128,0,121895:0:0:0:0:
109,192,121983,128,0,122071:0:0:0:0:
36,192,121983,128,0,122160:0:0:0:0:
329,192,121983,1,0,0:0:0:0:
182,192,121983,128,0,122160:0:0:0:0:
329,192,122160,128,0,122336:0:0:0:0:
475,192,122160,128,0,122601:0:0:0:0:
109,192,122160,128,0,122248:0:0:0:0:
182,192,122336,128,0,122513:0:0:0:0:
256,192,122336,128,0,122513:0:0:0:0:
109,192,122336,1,0,0:0:0:0:
36,192,122336,1,0,0:0:0:0:
402,192,122336,128,0,122424:0:0:0:0:
109,192,122424,128,0,122601:0:0:0:0:
36,192,122424,128,0,122601:0:0:0:0:
329,192,122513,128,0,122689:0:0:0:0:
402,192,122513,128,0,122689:0:0:0:0:
182,192,122601,128,0,123130:0:0:0:0:
256,192,122601,128,0,123130:0:0:0:0:
109,192,122689,128,0,122866:0:0:0:0:
36,192,122689,128,0,122866:0:0:0:0:
475,192,122689,1,0,0:0:0:0:
329,192,122866,128,0,122954:0:0:0:0:
402,192,122866,128,0,122954:0:0:0:0:
475,192,122866,128,0,123042:0:0:0:0:
109,192,122954,1,0,0:0:0:0:
36,192,122954,1,0,0:0:0:0:
109,192,123042,128,0,123218:0:0:0:0:
36,192,123042,128,0,123218:0:0:0:0:
329,192,123042,1,0,0:0:0:0:
402,192,123042,1,0,0:0:0:0:
182,192,123218,128,0,123307:0:0:0:0:
402,192,123218,128,0,123571:0:0:0:0:
475,192,123218,128,0,123571:0:0:0:0:
329,192,123218,128,0,123307:0:0:0:0:
256,192,123218,128,0,123307:0:0:0:0:
109,192,123307,128,0,123483:0:0:0:0:
36,192,123307,128,0,123483:0:0:0:0:
182,192,123395,1,0,0:0:0:0:
256,192,123395,1,0,0:0:0:0:
329,192,123395,1,0,0:0:0:0:
329,192,123571,128,0,123748:0:0:0:0:
256,192,123571,128,0,123748:0:0:0:0:
182,192,123571,128,0,123836:0:0:0:0:
109,192,123571,128,0,123660:0:0:0:0:
36,192,123571,128,0,123660:0:0:0:0:
402,192,123660,1,0,0:0:0:0:
475,192,123660,1,0,0:0:0:0:
402,192,123748,128,0,124013:0:0:0:0:
475,192,123748,128,0,124013:0:0:0:0:
36,192,123748,128,0,124013:0:0:0:0:
109,192,123748,128,0,123836:0:0:0:0:
256,192,123836,1,0,0:0:0:0:
329,192,123836,1,0,0:0:0:0:
182,192,123924,128,0,124277:0:0:0:0:
109,192,123924,128,0,124013:0:0:0:0:
329,192,124013,128,0,124101:0:0:0:0:
256,192,124013,128,0,124101:0:0:0:0:
475,192,124101,128,0,124233:0:0:0:0:
402,192,124101,128,0,124233:0:0:0:0:
109,192,124101,128,0,124189:0:0:0:0:
36,192,124101,128,0,124189:0:0:0:0:
256,192,124189,128,0,124277:0:0:0:0:
329,192,124189,128,0,124277:0:0:0:0:
109,192,124277,1,0,0:0:0:0:
36,192,124277,1,0,0:0:0:0:
475,192,124277,1,0,0:0:0:0:
402,192,124277,1,0,0:0:0:0:
329,192,124366,1,0,0:0:0:0:
256,192,124366,1,0,0:0:0:0:
182,192,124366,1,0,0:0:0:0:
36,192,124454,128,0,124498:0:0:0:0:
109,192,124454,128,0,124498:0:0:0:0:
402,192,124454,128,0,124498:0:0:0:0:
475,192,124454,128,0,124498:0:0:0:0:
256,192,124630,128,0,124674:0:0:0:0:
36,192,124630,128,0,124674:0:0:0:0:
475,192,124630,128,0,124674:0:0:0:0:
109,192,124807,128,0,124851:0:0:0:0:
329,192,124807,128,0,124851:0:0:0:0:
182,192,124983,128,0,125027:0:0:0:0:
402,192,124983,128,0,125027:0:0:0:0:
329,192,125160,128,0,125204:0:0:0:0:
256,192,125160,128,0,125204:0:0:0:0:
109,192,125160,128,0,125204:0:0:0:0:
36,192,125160,128,0,125204:0:0:0:0:
475,192,125160,128,0,125204:0:0:0:0:
402,192,125160,128,0,125204:0:0:0:0:
182,192,125336,1,0,0:0:0:0:
402,192,125336,128,0,125380:0:0:0:0:
256,192,125513,1,0,0:0:0:0:
475,192,125513,128,0,125557:0:0:0:0:
329,192,125689,1,0,0:0:0:0:
182,192,125689,128,0,125733:0:0:0:0:
329,192,125866,128,0,125910:0:0:0:0:
256,192,125866,128,0,125910:0:0:0:0:
182,192,125866,128,0,125910:0:0:0:0:
109,192,125866,128,0,125910:0:0:0:0:
36,192,125866,128,0,125910:0:0:0:0:
475,192,125866,128,0,125910:0:0:0:0:
402,192,126042,1,0,0:0:0:0:
182,192,126042,128,0,126086:0:0:0:0:
329,192,126218,1,0,0:0:0:0:
109,192,126218,128,0,126263:0:0:0:0:
256,192,126395,1,0,0:0:0:0:
109,192,126395,128,0,126439:0:0:0:0:
36,192,126395,128,0,126439:0:0:0:0:
402,192,126395,128,0,126439:0:0:0:0:
475,192,126395,128,0,126439:0:0:0:0:
182,192,126571,1,0,0:0:0:0:
402,192,126571,128,0,126616:0:0:0:0:
475,192,126571,128,0,126616:0:0:0:0:
109,192,126571,128,0,126616:0:0:0:0:
36,192,126571,128,0,126616:0:0:0:0:
329,192,126571,128,0,127454:0:0:0:0:
256,192,126660,1,0,0:0:0:0:
402,192,126748,1,0,0:0:0:0:
256,192,126836,1,0,0:0:0:0:
182,192,126924,128,0,127454:0:0:0:0:
109,192,126924,1,0,0:0:0:0:
256,192,127013,1,0,0:0:0:0:
402,192,127101,1,0,0:0:0:0:
256,192,127189,1,0,0:0:0:0:
109,192,127454,1,0,0:0:0:0:
36,192,127454,128,0,127498:0:0:0:0:
256,192,127542,1,0,0:0:0:0:
402,192,127630,1,0,0:0:0:0:
475,192,127630,128,0,127674:0:0:0:0:
109,192,127807,128,0,127895:0:0:0:0:
182,192,127807,128,0,127895:0:0:0:0:
329,192,127983,128,0,128042:0:0:0:0:
402,192,127983,128,0,128042:0:0:0:0:
182,192,127983,128,0,128101:0:0:0:0:
109,192,127983,128,0,128101:0:0:0:0:
256,192,127983,128,0,128689:0:0:0:0:
36,192,127983,128,0,128689:0:0:0:0:
475,192,127983,128,0,128689:0:0:0:0:
329,192,128101,128,0,128218:0:0:0:0:
402,192,128101,128,0,128218:0:0:0:0:
182,192,128218,128,0,128336:0:0:0:0:
109,192,128218,128,0,128336:0:0:0:0:
329,192,128336,128,0,128454:0:0:0:0:
402,192,128336,128,0,128454:0:0:0:0:
182,192,128454,128,0,128571:0:0:0:0:
109,192,128454,128,0,128571:0:0:0:0:
329,192,128571,128,0,128630:0:0:0:0:
402,192,128571,128,0,128630:0:0:0:0:
329,192,128689,128,0,129042:0:0:0:0:
402,192,128689,128,0,129042:0:0:0:0:
109,192,128689,128,0,129218:0:0:0:0:
182,192,128689,128,0,129218:0:0:0:0:
36,192,128866,1,0,0:0:0:0:
256,192,128954,1,0,0:0:0:0:
475,192,129042,1,0,0:0:0:0:
256,192,129218,128,0,129571:0:0:0:0:
36,192,129218,128,0,129660:0:0:0:0:
475,192,129218,128,0,129483:0:0:0:0:
329,192,129218,128,0,129263:0:0:0:0:
402,192,129218,128,0,129263:0:0:0:0:
182,192,129395,128,0,129439:0:0:0:0:
109,192,129395,128,0,129439:0:0:0:0:
329,192,129395,1,0,0:0:0:0:
402,192,129395,1,0,0:0:0:0:
475,192,129571,1,0,0:0:0:0:
402,192,129571,128,0,129616:0:0:0:0:
109,192,129571,128,0,129616:0:0:0:0:
256,192,129660,1,0,0:0:0:0:
182,192,129660,128,0,129704:0:0:0:0:
329,192,129660,128,0,129704:0:0:0:0:
36,192,129748,1,0,0:0:0:0:
109,192,129748,128,0,129792:0:0:0:0:
402,192,129748,128,0,129792:0:0:0:0:
475,192,129748,1,0,0:0:0:0:
329,192,129836,128,0,129880:0:0:0:0:
182,192,129836,128,0,129880:0:0:0:0:
256,192,129924,128,0,130101:0:0:0:0:
36,192,130101,128,0,130145:0:0:0:0:
475,192,130101,128,0,130145:0:0:0:0:
109,192,130101,1,0,0:0:0:0:
402,192,130101,1,0,0:0:0:0:
402,192,130277,128,0,130321:0:0:0:0:
109,192,130277,128,0,130321:0:0:0:0:
475,192,130454,128,0,130498:0:0:0:0:
36,192,130454,128,0,130498:0:0:0:0:
402,192,130454,1,0,0:0:0:0:
329,192,130454,1,0,0:0:0:0:
256,192,130454,1,0,0:0:0:0:
182,192,130454,1,0,0:0:0:0:
109,192,130454,1,0,0:0:0:0:
182,192,130630,128,0,130674:0:0:0:0:
329,192,130630,128,0,130674:0:0:0:0:
36,192,130807,128,0,130851:0:0:0:0:
475,192,130807,128,0,130851:0:0:0:0:
256,192,130807,1,0,0:0:0:0:
402,192,130807,1,0,0:0:0:0:
182,192,130807,128,0,130851:0:0:0:0:
109,192,130807,1,0,0:0:0:0:
329,192,130807,128,0,130851:0:0:0:0:
256,192,130983,128,0,131027:0:0:0:0:
36,192,131160,128,0,131204:0:0:0:0:
475,192,131160,128,0,131204:0:0:0:0:
109,192,131160,1,0,0:0:0:0:
402,192,131160,1,0,0:0:0:0:
256,192,131336,128,0,131513:0:0:0:0:
36,192,131513,128,0,131998:0:0:0:0:
475,192,131513,128,0,131998:0:0:0:0:
109,192,131513,128,0,131557:0:0:0:0:
402,192,131513,128,0,131557:0:0:0:0:
329,192,131513,1,0,0:0:0:0:
182,192,131513,1,0,0:0:0:0:
182,192,131689,128,0,131733:0:0:0:0:
329,192,131689,128,0,131733:0:0:0:0:
256,192,131866,128,0,131910:0:0:0:0:
36,192,132042,128,0,132527:0:0:0:0:
475,192,132042,128,0,132527:0:0:0:0:
182,192,132042,128,0,132086:0:0:0:0:
329,192,132042,128,0,132086:0:0:0:0:
256,192,132042,1,0,0:0:0:0:
402,192,132042,1,0,0:0:0:0:
109,192,132042,1,0,0:0:0:0:
256,192,132218,1,0,0:0:0:0:
109,192,132218,128,0,132263:0:0:0:0:
402,192,132218,128,0,132263:0:0:0:0:
109,192,132395,128,0,132527:0:0:0:0:
402,192,132395,128,0,132527:0:0:0:0:
475,192,132571,128,0,133101:0:0:0:0:
36,192,132571,128,0,133101:0:0:0:0:
109,192,132571,128,0,132616:0:0:0:0:
402,192,132571,128,0,132616:0:0:0:0:
329,192,132571,1,0,0:0:0:0:
182,192,132571,1,0,0:0:0:0:
256,192,132571,1,0,0:0:0:0:
182,192,133101,128,0,133277:0:0:0:0:
329,192,133101,128,0,133277:0:0:0:0:
36,192,133277,1,0,0:0:0:0:
475,192,133277,1,0,0:0:0:0:
109,192,133454,128,0,133630:0:0:0:0:
402,192,133454,128,0,133630:0:0:0:0:
475,192,133630,1,0,0:0:0:0:
36,192,133630,1,0,0:0:0:0:
182,192,133807,128,0,133939:0:0:0:0:
329,192,133807,128,0,133939:0:0:0:0:
109,192,133983,1,0,0:0:0:0:
182,192,133983,128,0,134027:0:0:0:0:
329,192,133983,128,0,134027:0:0:0:0:
402,192,133983,1,0,0:0:0:0:
256,192,134160,128,0,134292:0:0:0:0:
182,192,134336,1,0,0:0:0:0:
329,192,134336,1,0,0:0:0:0:
256,192,134336,128,0,134645:0:0:0:0:
109,192,134689,1,0,0:0:0:0:
182,192,134689,1,0,0:0:0:0:
329,192,134689,1,0,0:0:0:0:
402,192,134689,1,0,0:0:0:0:
256,192,134689,128,0,135042:0:0:0:0:
475,192,135218,128,0,135263:0:0:0:0:
402,192,135263,128,0,135307:0:0:0:0:
329,192,135307,128,0,135351:0:0:0:0:
182,192,135351,128,0,135395:0:0:0:0:
109,192,135395,128,0,135439:0:0:0:0:
36,192,135439,128,0,135483:0:0:0:0:
256,192,135571,128,0,135924:0:0:0:0:
475,192,135924,128,0,136013:0:0:0:0:
36,192,135924,1,0,0:0:0:0:
329,192,135924,128,0,135954:0:0:0:0:
402,192,135924,128,0,135983:0:0:0:0:
109,192,135968,1,0,0:0:0:0:
182,192,136013,1,0,0:0:0:0:
256,192,136057,1,0,0:0:0:0:
329,192,136101,1,0,0:0:0:0:
402,192,136101,128,0,136366:0:0:0:0:
475,192,136101,128,0,136189:0:0:0:0:
109,192,136277,1,0,0:0:0:0:
475,192,136277,128,0,136366:0:0:0:0:
182,192,136321,1,0,0:0:0:0:
256,192,136366,1,0,0:0:0:0:
329,192,136410,1,0,0:0:0:0:
402,192,136454,1,0,0:0:0:0:
475,192,136454,128,0,136718:0:0:0:0:
36,192,136454,128,0,136542:0:0:0:0:
182,192,136630,1,0,0:0:0:0:
36,192,136630,128,0,136718:0:0:0:0:
256,192,136674,1,0,0:0:0:0:
329,192,136718,1,0,0:0:0:0:
402,192,136763,1,0,0:0:0:0:
475,192,136807,1,0,0:0:0:0:
36,192,136807,128,0,137071:0:0:0:0:
182,192,136807,1,0,0:0:0:0:
329,192,136983,1,0,0:0:0:0:
109,192,136983,128,0,137248:0:0:0:0:
402,192,137027,1,0,0:0:0:0:
475,192,137071,1,0,0:0:0:0:
402,192,137116,1,0,0:0:0:0:
329,192,137160,1,0,0:0:0:0:
182,192,137160,128,0,137336:0:0:0:0:
36,192,137160,1,0,0:0:0:0:
402,192,137336,1,0,0:0:0:0:
109,192,137336,1,0,0:0:0:0:
329,192,137380,1,0,0:0:0:0:
256,192,137424,1,0,0:0:0:0:
182,192,137468,1,0,0:0:0:0:
109,192,137513,1,0,0:0:0:0:
36,192,137513,128,0,137777:0:0:0:0:
475,192,137513,1,0,0:0:0:0:
402,192,137513,128,0,137601:0:0:0:0:
329,192,137689,1,0,0:0:0:0:
402,192,137689,128,0,138042:0:0:0:0:
256,192,137733,1,0,0:0:0:0:
182,192,137777,1,0,0:0:0:0:
109,192,137821,1,0,0:0:0:0:
36,192,137866,1,0,0:0:0:0:
475,192,137910,1,0,0:0:0:0:
329,192,137954,1,0,0:0:0:0:
182,192,137998,1,0,0:0:0:0:
256,192,138042,128,0,138130:0:0:0:0:
182,192,138130,128,0,138218:0:0:0:0:
329,192,138130,128,0,138218:0:0:0:0:
256,192,138218,1,0,0:0:0:0:
109,192,138218,128,0,138307:0:0:0:0:
402,192,138218,128,0,138307:0:0:0:0:
182,192,138395,1,0,0:0:0:0:
329,192,138395,1,0,0:0:0:0:
36,192,138395,128,0,138880:0:0:0:0:
475,192,138395,128,0,138880:0:0:0:0:
109,192,138748,128,0,138836:0:0:0:0:
182,192,138748,128,0,138807:0:0:0:0:
256,192,138748,128,0,138777:0:0:0:0:
329,192,138748,128,0,138807:0:0:0:0:
402,192,138748,128,0,138836:0:0:0:0:
329,192,138924,1,0,0:0:0:0:
402,192,138924,128,0,139013:0:0:0:0:
256,192,138968,1,0,0:0:0:0:
182,192,139013,1,0,0:0:0:0:
109,192,139057,1,0,0:0:0:0:
36,192,139101,1,0,0:0:0:0:
402,192,139101,128,0,139189:0:0:0:0:
256,192,139189,1,0,0:0:0:0:
402,192,139277,1,0,0:0:0:0:
475,192,139277,128,0,139366:0:0:0:0:
36,192,139277,128,0,139630:0:0:0:0:
329,192,139321,1,0,0:0:0:0:
256,192,139366,1,0,0:0:0:0:
182,192,139410,1,0,0:0:0:0:
109,192,139454,1,0,0:0:0:0:
475,192,139454,128,0,139542:0:0:0:0:
329,192,139542,1,0,0:0:0:0:
109,192,139630,1,0,0:0:0:0:
182,192,139630,1,0,0:0:0:0:
256,192,139674,1,0,0:0:0:0:
329,192,139718,1,0,0:0:0:0:
402,192,139763,1,0,0:0:0:0:
475,192,139807,1,0,0:0:0:0:
36,192,139807,128,0,140248:0:0:0:0:
402,192,139851,1,0,0:0:0:0:
329,192,139895,1,0,0:0:0:0:
182,192,139983,1,0,0:0:0:0:
109,192,139983,128,0,140071:0:0:0:0:
256,192,140027,1,0,0:0:0:0:
329,192,140071,1,0,0:0:0:0:
402,192,140116,1,0,0:0:0:0:
475,192,140160,1,0,0:0:0:0:
109,192,140160,128,0,140248:0:0:0:0:
256,192,140248,128,0,140292:0:0:0:0:
109,192,140336,1,0,0:0:0:0:
36,192,140336,128,0,140777:0:0:0:0:
475,192,140336,128,0,140424:0:0:0:0:
402,192,140336,128,0,140380:0:0:0:0:
182,192,140380,1,0,0:0:0:0:
256,192,140424,1,0,0:0:0:0:
329,192,140468,1,0,0:0:0:0:
402,192,140513,1,0,0:0:0:0:
475,192,140513,128,0,140777:0:0:0:0:
109,192,140513,128,0,140557:0:0:0:0:
36,192,140866,1,0,0:0:0:0:
475,192,140866,1,0,0:0:0:0:
182,192,140866,1,0,0:0:0:0:
329,192,140866,1,0,0:0:0:0:
475,192,141042,1,0,0:0:0:0:
36,192,141042,1,0,0:0:0:0:
256,192,141042,1,0,0:0:0:0:
36,192,141218,1,0,0:0:0:0:
475,192,141218,1,0,0:0:0:0:
329,192,141218,1,0,0:0:0:0:
182,192,141218,1,0,0:0:0:0:
109,192,141218,128,0,141571:0:0:0:0:
402,192,141218,128,0,141571:0:0:0:0:
256,192,141571,128,0,141616:0:0:0:0:
329,192,141571,1,0,0:0:0:0:
475,192,141571,1,0,0:0:0:0:
109,192,141616,128,0,141660:0:0:0:0:
182,192,141660,128,0,141704:0:0:0:0:
36,192,141704,128,0,141748:0:0:0:0:
475,192,141748,1,0,0:0:0:0:
402,192,141748,1,0,0:0:0:0:
329,192,141748,1,0,0:0:0:0:
256,192,141748,1,0,0:0:0:0:
329,192,141924,128,0,141968:0:0:0:0:
36,192,141924,1,0,0:0:0:0:
475,192,141924,1,0,0:0:0:0:
182,192,141968,128,0,142013:0:0:0:0:
256,192,142013,128,0,142057:0:0:0:0:
109,192,142057,128,0,142101:0:0:0:0:
475,192,142101,1,0,0:0:0:0:
329,192,142101,1,0,0:0:0:0:
402,192,142101,1,0,0:0:0:0:
36,192,142101,1,0,0:0:0:0:
402,192,142277,128,0,142321:0:0:0:0:
36,192,142277,1,0,0:0:0:0:
256,192,142321,128,0,142366:0:0:0:0:
329,192,142366,128,0,142410:0:0:0:0:
109,192,142366,1,0,0:0:0:0:
182,192,142410,128,0,142454:0:0:0:0:
36,192,142454,1,0,0:0:0:0:
475,192,142454,1,0,0:0:0:0:
402,192,142454,1,0,0:0:0:0:
256,192,142454,1,0,0:0:0:0:
475,192,142630,128,0,142674:0:0:0:0:
109,192,142630,1,0,0:0:0:0:
36,192,142630,1,0,0:0:0:0:
329,192,142674,128,0,142718:0:0:0:0:
402,192,142718,128,0,142763:0:0:0:0:
182,192,142718,1,0,0:0:0:0:
256,192,142763,128,0,142807:0:0:0:0:
36,192,142807,1,0,0:0:0:0:
475,192,142807,1,0,0:0:0:0:
109,192,142807,1,0,0:0:0:0:
329,192,142807,1,0,0:0:0:0:
36,192,142983,128,0,143027:0:0:0:0:
109,192,142983,1,0,0:0:0:0:
402,192,143027,128,0,143071:0:0:0:0:
475,192,143071,128,0,143116:0:0:0:0:
256,192,143071,1,0,0:0:0:0:
329,192,143116,128,0,143160:0:0:0:0:
109,192,143160,128,0,143204:0:0:0:0:
182,192,143160,1,0,0:0:0:0:
475,192,143204,128,0,143248:0:0:0:0:
36,192,143248,128,0,143292:0:0:0:0:
256,192,143248,1,0,0:0:0:0:
402,192,143292,128,0,143336:0:0:0:0:
182,192,143336,128,0,143380:0:0:0:0:
329,192,143336,1,0,0:0:0:0:
36,192,143380,128,0,143424:0:0:0:0:
109,192,143424,128,0,143468:0:0:0:0:
402,192,143424,1,0,0:0:0:0:
475,192,143468,128,0,143513:0:0:0:0:
256,192,143513,128,0,143557:0:0:0:0:
329,192,143513,1,0,0:0:0:0:
109,192,143557,128,0,143601:0:0:0:0:
182,192,143601,128,0,143645:0:0:0:0:
402,192,143601,1,0,0:0:0:0:
36,192,143645,128,0,143689:0:0:0:0:
475,192,143689,1,0,0:0:0:0:
329,192,143777,1,0,0:0:0:0:
256,192,143866,128,0,143910:0:0:0:0:
109,192,143866,1,0,0:0:0:0:
402,192,143910,128,0,143954:0:0:0:0:
329,192,143954,128,0,143998:0:0:0:0:
182,192,143954,1,0,0:0:0:0:
475,192,143998,128,0,144042:0:0:0:0:
36,192,144042,128,0,144086:0:0:0:0:
256,192,144042,1,0,0:0:0:0:
182,192,144086,128,0,144130:0:0:0:0:
109,192,144130,128,0,144174:0:0:0:0:
256,192,144174,128,0,144218:0:0:0:0:
329,192,144218,128,0,144263:0:0:0:0:
402,192,144218,128,0,144263:0:0:0:0:
475,192,144218,128,0,144263:0:0:0:0:
36,192,144218,128,0,144395:0:0:0:0:
329,192,144395,1,0,0:0:0:0:
402,192,144395,1,0,0:0:0:0:
475,192,144395,1,0,0:0:0:0:
182,192,144571,128,0,144616:0:0:0:0:
256,192,144571,128,0,144616:0:0:0:0:
329,192,144571,128,0,144616:0:0:0:0:
475,192,144571,128,0,144748:0:0:0:0:
329,192,144748,1,0,0:0:0:0:
256,192,144748,1,0,0:0:0:0:
182,192,144748,1,0,0:0:0:0:
182,192,144924,128,0,144968:0:0:0:0:
109,192,144924,128,0,144968:0:0:0:0:
36,192,144924,128,0,144968:0:0:0:0:
402,192,144924,128,0,145101:0:0:0:0:
109,192,145101,1,0,0:0:0:0:
182,192,145101,1,0,0:0:0:0:
36,192,145101,1,0,0:0:0:0:
256,192,145101,128,0,145277:0:0:0:0:
475,192,145277,128,0,145321:0:0:0:0:
402,192,145277,128,0,145321:0:0:0:0:
329,192,145277,128,0,145321:0:0:0:0:
109,192,145277,128,0,145454:0:0:0:0:
329,192,145454,1,0,0:0:0:0:
402,192,145454,1,0,0:0:0:0:
475,192,145454,1,0,0:0:0:0:
256,192,145454,128,0,145674:0:0:0:0:
182,192,145630,128,0,145674:0:0:0:0:
329,192,145630,128,0,145674:0:0:0:0:
109,192,145718,1,0,0:0:0:0:
36,192,145718,1,0,0:0:0:0:
402,192,145718,1,0,0:0:0:0:
475,192,145718,1,0,0:0:0:0:
256,192,145807,128,0,145895:0:0:0:0:
182,192,145807,128,0,145895:0:0:0:0:
329,192,145807,128,0,145895:0:0:0:0:
36,192,145895,1,0,0:0:0:0:
109,192,145895,1,0,0:0:0:0:
402,192,145895,1,0,0:0:0:0:
475,192,145895,1,0,0:0:0:0:
182,192,145983,128,0,146116:0:0:0:0:
256,192,145983,128,0,146116:0:0:0:0:
329,192,145983,128,0,146116:0:0:0:0:
109,192,146071,1,0,0:0:0:0:
36,192,146071,1,0,0:0:0:0:
402,192,146071,1,0,0:0:0:0:
475,192,146071,1,0,0:0:0:0:
182,192,146160,128,0,146204:0:0:0:0:
256,192,146160,128,0,146204:0:0:0:0:
329,192,146160,128,0,146204:0:0:0:0:
109,192,146248,1,0,0:0:0:0:
36,192,146248,1,0,0:0:0:0:
402,192,146248,1,0,0:0:0:0:
475,192,146248,1,0,0:0:0:0:
182,192,146336,128,0,146358:0:0:0:0:
256,192,146336,128,0,146358:0:0:0:0:
329,192,146336,128,0,146358:0:0:0:0:
109,192,146513,128,0,146535:0:0:0:0:
182,192,146513,128,0,146535:0:0:0:0:
329,192,146513,128,0,146535:0:0:0:0:
402,192,146513,128,0,146535:0:0:0:0:
36,192,146513,128,0,146535:0:0:0:0:
475,192,146513,128,0,146535:0:0:0:0:
182,192,146689,128,0,146711:0:0:0:0:
109,192,146689,128,0,146711:0:0:0:0:
256,192,146689,128,0,146711:0:0:0:0:
329,192,146689,128,0,146711:0:0:0:0:
402,192,146689,128,0,146711:0:0:0:0:
329,192,146866,1,0,0:0:0:0:
256,192,146866,1,0,0:0:0:0:
182,192,146866,1,0,0:0:0:0:
36,192,146866,1,0,0:0:0:0:
475,192,146866,1,0,0:0:0:0:
109,192,147218,128,0,147395:0:0:0:0:
329,192,147218,1,0,0:0:0:0:
36,192,147218,1,0,0:0:0:0:
182,192,147218,1,0,0:0:0:0:
182,192,147307,128,0,147483:0:0:0:0:
402,192,147307,1,0,0:0:0:0:
256,192,147395,128,0,147571:0:0:0:0:
475,192,147395,1,0,0:0:0:0:
36,192,147395,1,0,0:0:0:0:
329,192,147454,128,0,147630:0:0:0:0:
109,192,147483,1,0,0:0:0:0:
402,192,147483,1,0,0:0:0:0:
36,192,147571,128,0,147748:0:0:0:0:
182,192,147571,1,0,0:0:0:0:
475,192,147571,1,0,0:0:0:0:
109,192,147630,128,0,147807:0:0:0:0:
402,192,147660,1,0,0:0:0:0:
256,192,147660,1,0,0:0:0:0:
182,192,147748,128,0,147924:0:0:0:0:
329,192,147748,1,0,0:0:0:0:
475,192,147748,1,0,0:0:0:0:
256,192,147807,128,0,147983:0:0:0:0:
36,192,147836,1,0,0:0:0:0:
402,192,147924,128,0,148101:0:0:0:0:
109,192,147924,1,0,0:0:0:0:
475,192,147924,1,0,0:0:0:0:
329,192,147983,128,0,148160:0:0:0:0:
182,192,148013,1,0,0:0:0:0:
36,192,148013,1,0,0:0:0:0:
475,192,148101,1,0,0:0:0:0:
256,192,148101,128,0,148277:0:0:0:0:
109,192,148101,1,0,0:0:0:0:
182,192,148160,128,0,148307:0:0:0:0:
402,192,148189,1,0,0:0:0:0:
475,192,148277,128,0,148454:0:0:0:0:
329,192,148277,1,0,0:0:0:0:
109,192,148277,1,0,0:0:0:0:
36,192,148277,1,0,0:0:0:0:
402,192,148336,128,0,148513:0:0:0:0:
256,192,148366,1,0,0:0:0:0:
182,192,148366,1,0,0:0:0:0:
329,192,148454,128,0,148630:0:0:0:0:
109,192,148454,128,0,148483:0:0:0:0:
36,192,148483,128,0,148513:0:0:0:0:
256,192,148513,128,0,148689:0:0:0:0:
182,192,148542,1,0,0:0:0:0:
109,192,148630,128,0,148748:0:0:0:0:
402,192,148630,128,0,148660:0:0:0:0:
475,192,148660,128,0,148689:0:0:0:0:
182,192,148689,128,0,148866:0:0:0:0:
329,192,148718,1,0,0:0:0:0:
109,192,148807,128,0,148836:0:0:0:0:
329,192,148807,128,0,148983:0:0:0:0:
36,192,148836,128,0,148866:0:0:0:0:
256,192,148866,128,0,149042:0:0:0:0:
182,192,148895,1,0,0:0:0:0:
109,192,148983,128,0,149101:0:0:0:0:
402,192,148983,128,0,149013:0:0:0:0:
475,192,149013,128,0,149042:0:0:0:0:
182,192,149042,128,0,149218:0:0:0:0:
329,192,149071,1,0,0:0:0:0:
109,192,149160,128,0,149189:0:0:0:0:
329,192,149160,128,0,149336:0:0:0:0:
36,192,149189,128,0,149218:0:0:0:0:
402,192,149218,128,0,149395:0:0:0:0:
475,192,149248,128,0,149336:0:0:0:0:
256,192,149336,128,0,149395:0:0:0:0:
182,192,149336,128,0,149395:0:0:0:0:
109,192,149424,128,0,149468:0:0:0:0:
36,192,149424,128,0,149468:0:0:0:0:
329,192,149513,1,0,0:0:0:0:
402,192,149513,1,0,0:0:0:0:
475,192,149513,1,0,0:0:0:0:
109,192,149601,128,0,149645:0:0:0:0:
36,192,149601,128,0,149645:0:0:0:0:
182,192,149689,1,0,0:0:0:0:
256,192,149689,1,0,0:0:0:0:
329,192,149689,1,0,0:0:0:0:
402,192,149777,128,0,150042:0:0:0:0:
475,192,149777,128,0,150042:0:0:0:0:
109,192,150042,128,0,150086:0:0:0:0:
329,192,150042,128,0,150130:0:0:0:0:
182,192,150042,128,0,150130:0:0:0:0:
256,192,150042,128,0,150130:0:0:0:0:
36,192,150086,128,0,150263:0:0:0:0:
256,192,150218,128,0,150263:0:0:0:0:
109,192,150218,128,0,150307:0:0:0:0:
402,192,150218,128,0,150307:0:0:0:0:
475,192,150218,128,0,150307:0:0:0:0:
182,192,150263,128,0,150439:0:0:0:0:
329,192,150395,128,0,150439:0:0:0:0:
36,192,150395,128,0,150483:0:0:0:0:
475,192,150395,128,0,150483:0:0:0:0:
256,192,150439,128,0,150616:0:0:0:0:
109,192,150483,128,0,150571:0:0:0:0:
402,192,150483,128,0,150571:0:0:0:0:
36,192,150571,128,0,150616:0:0:0:0:
329,192,150571,128,0,150660:0:0:0:0:
182,192,150571,128,0,150660:0:0:0:0:
109,192,150616,128,0,150792:0:0:0:0:
402,192,150660,128,0,150748:0:0:0:0:
182,192,150748,128,0,150792:0:0:0:0:
475,192,150748,128,0,150836:0:0:0:0:
36,192,150748,128,0,150836:0:0:0:0:
256,192,150792,128,0,150968:0:0:0:0:
109,192,150836,128,0,150924:0:0:0:0:
402,192,150836,128,0,150924:0:0:0:0:
329,192,150924,128,0,150968:0:0:0:0:
36,192,150924,128,0,151013:0:0:0:0:
475,192,150924,128,0,151013:0:0:0:0:
182,192,150968,128,0,151145:0:0:0:0:
402,192,151013,128,0,151101:0:0:0:0:
256,192,151101,128,0,151145:0:0:0:0:
329,192,151101,128,0,151189:0:0:0:0:
109,192,151145,128,0,151321:0:0:0:0:
402,192,151189,128,0,151277:0:0:0:0:
182,192,151277,128,0,151321:0:0:0:0:
475,192,151277,128,0,151366:0:0:0:0:
256,192,151277,128,0,151366:0:0:0:0:
36,192,151321,128,0,151498:0:0:0:0:
329,192,151366,128,0,151454:0:0:0:0:
475,192,151454,128,0,151498:0:0:0:0:
402,192,151454,128,0,151542:0:0:0:0:
109,192,151454,128,0,151542:0:0:0:0:
329,192,151498,128,0,151674:0:0:0:0:
182,192,151542,128,0,151630:0:0:0:0:
36,192,151630,128,0,151674:0:0:0:0:
256,192,151630,128,0,151718:0:0:0:0:
475,192,151630,128,0,151718:0:0:0:0:
182,192,151674,128,0,151807:0:0:0:0:
402,192,151718,128,0,151807:0:0:0:0:
109,192,151718,128,0,151807:0:0:0:0:
256,192,151807,128,0,151895:0:0:0:0:
36,192,151807,128,0,152248:0:0:0:0:
329,192,151807,128,0,151895:0:0:0:0:
475,192,151895,128,0,152248:0:0:0:0:
109,192,151895,128,0,152248:0:0:0:0:
402,192,151895,128,0,152248:0:0:0:0:
182,192,152160,1,0,0:0:0:0:
256,192,152160,1,0,0:0:0:0:
329,192,152160,1,0,0:0:0:0:
182,192,152336,1,0,0:0:0:0:
36,192,152336,1,0,0:0:0:0:
329,192,152336,1,0,0:0:0:0:
475,192,152336,1,0,0:0:0:0:
36,192,152513,128,0,152748:0:0:0:0:
109,192,152571,128,0,152807:0:0:0:0:
182,192,152630,128,0,152866:0:0:0:0:
256,192,152689,128,0,152924:0:0:0:0:
329,192,152748,128,0,152983:0:0:0:0:
402,192,152807,128,0,153042:0:0:0:0:
475,192,152866,128,0,153101:0:0:0:0:
109,192,152866,128,0,152983:0:0:0:0:
36,192,152866,128,0,153160:0:0:0:0:
256,192,153042,128,0,153336:0:0:0:0:
182,192,153042,128,0,153160:0:0:0:0:
329,192,153042,128,0,153160:0:0:0:0:
109,192,153042,1,0,0:0:0:0:
402,192,153218,128,0,153336:0:0:0:0:
475,192,153218,128,0,153513:0:0:0:0:
182,192,153218,1,0,0:0:0:0:
36,192,153218,1,0,0:0:0:0:
329,192,153218,1,0,0:0:0:0:
109,192,153395,128,0,153689:0:0:0:0:
36,192,153395,128,0,153513:0:0:0:0:
182,192,153395,128,0,153513:0:0:0:0:
402,192,153395,1,0,0:0:0:0:
256,192,153395,1,0,0:0:0:0:
256,192,153571,128,0,153866:0:0:0:0:
475,192,153571,1,0,0:0:0:0:
182,192,153571,1,0,0:0:0:0:
36,192,153571,1,0,0:0:0:0:
402,192,153748,128,0,154042:0:0:0:0:
329,192,153748,128,0,153866:0:0:0:0:
475,192,153748,128,0,153866:0:0:0:0:
109,192,153748,1,0,0:0:0:0:
182,192,153924,128,0,154042:0:0:0:0:
109,192,153924,128,0,154218:0:0:0:0:
329,192,153924,1,0,0:0:0:0:
475,192,153924,1,0,0:0:0:0:
36,192,153924,1,0,0:0:0:0:
256,192,154101,128,0,154395:0:0:0:0:
36,192,154101,128,0,154218:0:0:0:0:
475,192,154101,128,0,154218:0:0:0:0:
402,192,154101,1,0,0:0:0:0:
182,192,154101,1,0,0:0:0:0:
329,192,154277,128,0,154395:0:0:0:0:
402,192,154277,128,0,154571:0:0:0:0:
109,192,154277,1,0,0:0:0:0:
475,192,154277,1,0,0:0:0:0:
36,192,154277,1,0,0:0:0:0:
109,192,154454,128,0,154748:0:0:0:0:
36,192,154454,1,0,0:0:0:0:
329,192,154454,1,0,0:0:0:0:
182,192,154454,128,0,154571:0:0:0:0:
256,192,154454,1,0,0:0:0:0:
475,192,154454,1,0,0:0:0:0:
402,192,154630,128,0,154748:0:0:0:0:
475,192,154630,128,0,154924:0:0:0:0:
182,192,154630,1,0,0:0:0:0:
329,192,154630,1,0,0:0:0:0:
109,192,154807,128,0,154924:0:0:0:0:
36,192,154807,128,0,155101:0:0:0:0:
402,192,154807,1,0,0:0:0:0:
256,192,154807,1,0,0:0:0:0:
475,192,154983,128,0,155454:0:0:0:0:
109,192,154983,1,0,0:0:0:0:
329,192,154983,1,0,0:0:0:0:
256,192,155071,1,0,0:0:0:0:
36,192,155160,128,0,155454:0:0:0:0:
182,192,155160,1,0,0:0:0:0:
402,192,155160,1,0,0:0:0:0:
109,192,155336,128,0,155395:0:0:0:0:
182,192,155336,128,0,155395:0:0:0:0:
329,192,155336,128,0,155395:0:0:0:0:
402,192,155336,128,0,155395:0:0:0:0:
256,192,155424,128,0,155483:0:0:0:0:
109,192,155513,128,0,155895:0:0:0:0:
36,192,155513,1,0,0:0:0:0:
475,192,155513,1,0,0:0:0:0:
182,192,155571,128,0,155866:0:0:0:0:
256,192,155630,128,0,155807:0:0:0:0:
329,192,155689,1,0,0:0:0:0:
402,192,155689,1,0,0:0:0:0:
475,192,155689,1,0,0:0:0:0:
36,192,155689,1,0,0:0:0:0:
329,192,155777,1,0,0:0:0:0:
402,192,155777,1,0,0:0:0:0:
475,192,155777,1,0,0:0:0:0:
36,192,155866,128,0,156277:0:0:0:0:
109,192,155924,128,0,156218:0:0:0:0:
182,192,155983,128,0,156160:0:0:0:0:
329,192,156042,128,0,156101:0:0:0:0:
402,192,156042,128,0,156101:0:0:0:0:
256,192,156042,128,0,156101:0:0:0:0:
475,192,156042,1,0,0:0:0:0:
475,192,156218,128,0,156630:0:0:0:0:
182,192,156218,128,0,156277:0:0:0:0:
256,192,156218,128,0,156277:0:0:0:0:
329,192,156218,128,0,156277:0:0:0:0:
402,192,156277,128,0,156571:0:0:0:0:
329,192,156336,128,0,156513:0:0:0:0:
109,192,156395,128,0,156454:0:0:0:0:
36,192,156395,1,0,0:0:0:0:
182,192,156395,128,0,156454:0:0:0:0:
256,192,156395,128,0,156454:0:0:0:0:
36,192,156571,128,0,156983:0:0:0:0:
256,192,156571,128,0,156630:0:0:0:0:
329,192,156571,128,0,156630:0:0:0:0:
182,192,156571,128,0,156630:0:0:0:0:
109,192,156630,128,0,156924:0:0:0:0:
182,192,156689,128,0,156866:0:0:0:0:
256,192,156748,128,0,156807:0:0:0:0:
475,192,156748,1,0,0:0:0:0:
329,192,156748,128,0,156807:0:0:0:0:
402,192,156748,128,0,156807:0:0:0:0:
475,192,156924,1,0,0:0:0:0:
402,192,156924,128,0,157307:0:0:0:0:
329,192,156983,128,0,157277:0:0:0:0:
256,192,157042,128,0,157218:0:0:0:0:
109,192,157101,1,0,0:0:0:0:
475,192,157101,1,0,0:0:0:0:
36,192,157101,1,0,0:0:0:0:
182,192,157101,1,0,0:0:0:0:
36,192,157189,1,0,0:0:0:0:
182,192,157189,1,0,0:0:0:0:
109,192,157189,1,0,0:0:0:0:
256,192,157277,128,0,157571:0:0:0:0:
475,192,157277,1,0,0:0:0:0:
182,192,157336,128,0,157513:0:0:0:0:
329,192,157336,128,0,157513:0:0:0:0:
109,192,157395,128,0,157454:0:0:0:0:
402,192,157395,128,0,157454:0:0:0:0:
36,192,157454,1,0,0:0:0:0:
475,192,157454,1,0,0:0:0:0:
36,192,157542,1,0,0:0:0:0:
109,192,157542,1,0,0:0:0:0:
402,192,157542,1,0,0:0:0:0:
475,192,157542,1,0,0:0:0:0:
182,192,157630,128,0,157924:0:0:0:0:
329,192,157630,128,0,157924:0:0:0:0:
256,192,157630,1,0,0:0:0:0:
109,192,157689,128,0,157866:0:0:0:0:
402,192,157689,128,0,157866:0:0:0:0:
36,192,157748,128,0,157807:0:0:0:0:
475,192,157748,128,0,157807:0:0:0:0:
256,192,157807,1,0,0:0:0:0:
256,192,157895,1,0,0:0:0:0:
36,192,157983,128,0,158101:0:0:0:0:
475,192,157983,128,0,158101:0:0:0:0:
109,192,158013,128,0,158101:0:0:0:0:
402,192,158013,128,0,158101:0:0:0:0:
182,192,158042,128,0,158101:0:0:0:0:
329,192,158042,128,0,158101:0:0:0:0:
475,192,158160,128,0,158277:0:0:0:0:
36,192,158160,128,0,158277:0:0:0:0:
109,192,158160,128,0,158248:0:0:0:0:
402,192,158160,128,0,158248:0:0:0:0:
329,192,158160,128,0,158218:0:0:0:0:
182,192,158160,128,0,158218:0:0:0:0:
256,192,158248,1,0,0:0:0:0:
402,192,158336,128,0,158424:0:0:0:0:
329,192,158336,128,0,158380:0:0:0:0:
36,192,158336,128,0,158468:0:0:0:0:
109,192,158336,128,0,158424:0:0:0:0:
182,192,158336,128,0,158380:0:0:0:0:
475,192,158336,128,0,158468:0:0:0:0:
256,192,158424,128,0,158557:0:0:0:0:
182,192,158468,128,0,158513:0:0:0:0:
329,192,158468,128,0,158513:0:0:0:0:
475,192,158513,128,0,158689:0:0:0:0:
36,192,158513,128,0,158733:0:0:0:0:
109,192,158557,128,0,158689:0:0:0:0:
402,192,158557,128,0,158733:0:0:0:0:
182,192,158601,128,0,158645:0:0:0:0:
329,192,158645,128,0,158777:0:0:0:0:
256,192,158689,128,0,158910:0:0:0:0:
182,192,158733,128,0,158821:0:0:0:0:
109,192,158777,128,0,158866:0:0:0:0:
475,192,158777,128,0,158954:0:0:0:0:
36,192,158821,128,0,158910:0:0:0:0:
402,192,158821,128,0,158954:0:0:0:0:
329,192,158866,128,0,158954:0:0:0:0:
182,192,158910,128,0,159042:0:0:0:0:
109,192,158954,128,0,159042:0:0:0:0:
36,192,158998,128,0,159042:0:0:0:0:
256,192,159042,128,0,159086:0:0:0:0:
329,192,159042,128,0,159130:0:0:0:0:
402,192,159042,128,0,159174:0:0:0:0:
475,192,159042,128,0,159218:0:0:0:0:
109,192,159086,128,0,159263:0:0:0:0:
182,192,159130,128,0,159218:0:0:0:0:
36,192,159130,128,0,159307:0:0:0:0:
256,192,159174,128,0,159263:0:0:0:0:
329,192,159218,128,0,159307:0:0:0:0:
402,192,159263,128,0,159351:0:0:0:0:
475,192,159307,128,0,159351:0:0:0:0:
182,192,159307,128,0,159351:0:0:0:0:
256,192,159351,1,0,0:0:0:0:
109,192,159395,128,0,159483:0:0:0:0:
182,192,159395,128,0,159439:0:0:0:0:
475,192,159395,128,0,159527:0:0:0:0:
402,192,159395,128,0,159483:0:0:0:0:
329,192,159395,128,0,159439:0:0:0:0:
36,192,159395,128,0,159527:0:0:0:0:
256,192,159483,128,0,159616:0:0:0:0:
329,192,159527,128,0,159571:0:0:0:0:
182,192,159527,128,0,159571:0:0:0:0:
475,192,159571,128,0,159792:0:0:0:0:
36,192,159571,128,0,159704:0:0:0:0:
109,192,159616,128,0,159748:0:0:0:0:
402,192,159616,128,0,159748:0:0:0:0:
329,192,159660,128,0,159704:0:0:0:0:
182,192,159704,128,0,159792:0:0:0:0:
256,192,159748,128,0,159968:0:0:0:0:
36,192,159748,128,0,159880:0:0:0:0:
182,192,159836,1,0,0:0:0:0:
329,192,159836,1,0,0:0:0:0:
36,192,159924,128,0,160057:0:0:0:0:
475,192,159924,128,0,160057:0:0:0:0:
109,192,159924,128,0,159968:0:0:0:0:
402,192,159924,128,0,159968:0:0:0:0:
182,192,160013,1,0,0:0:0:0:
329,192,160013,1,0,0:0:0:0:
109,192,160101,1,0,0:0:0:0:
402,192,160101,1,0,0:0:0:0:
36,192,160101,128,0,160454:0:0:0:0:
475,192,160101,128,0,160454:0:0:0:0:
256,192,160189,1,0,0:0:0:0:
109,192,160277,1,0,0:0:0:0:
402,192,160277,1,0,0:0:0:0:
329,192,160321,1,0,0:0:0:0:
182,192,160321,1,0,0:0:0:0:
256,192,160366,128,0,160718:0:0:0:0:
182,192,160410,128,0,160630:0:0:0:0:
329,192,160410,128,0,160630:0:0:0:0:
109,192,160454,128,0,160542:0:0:0:0:
402,192,160454,128,0,160542:0:0:0:0:
36,192,160542,128,0,160718:0:0:0:0:
475,192,160542,128,0,160718:0:0:0:0:
109,192,160630,128,0,160807:0:0:0:0:
402,192,160630,128,0,160807:0:0:0:0:
182,192,160718,128,0,160895:0:0:0:0:
329,192,160718,128,0,160895:0:0:0:0:
256,192,160807,128,0,161160:0:0:0:0:
475,192,160807,128,0,161071:0:0:0:0:
36,192,160807,128,0,161071:0:0:0:0:
402,192,160895,128,0,160983:0:0:0:0:
109,192,160895,128,0,160983:0:0:0:0:
182,192,160983,128,0,161160:0:0:0:0:
329,192,160983,128,0,161160:0:0:0:0:
109,192,161071,128,0,161160:0:0:0:0:
402,192,161071,128,0,161160:0:0:0:0:
475,192,161160,1,0,0:0:0:0:
36,192,161160,1,0,0:0:0:0:
256,192,161336,128,0,161380:0:0:0:0:
109,192,161513,1,0,0:0:0:0:
36,192,161513,1,0,0:0:0:0:
402,192,161513,1,0,0:0:0:0:
475,192,161513,1,0,0:0:0:0:
256,192,161689,128,0,161733:0:0:0:0:
182,192,161866,1,0,0:0:0:0:
36,192,161866,1,0,0:0:0:0:
109,192,161866,1,0,0:0:0:0:
329,192,161866,1,0,0:0:0:0:
402,192,161866,1,0,0:0:0:0:
475,192,161866,1,0,0:0:0:0:
256,192,162042,128,0,162086:0:0:0:0:
182,192,162218,1,0,0:0:0:0:
109,192,162218,1,0,0:0:0:0:
329,192,162218,1,0,0:0:0:0:
402,192,162218,1,0,0:0:0:0:
109,192,162307,1,0,0:0:0:0:
36,192,162307,1,0,0:0:0:0:
402,192,162307,1,0,0:0:0:0:
475,192,162307,1,0,0:0:0:0:
36,192,162395,1,0,0:0:0:0:
475,192,162395,1,0,0:0:0:0:
256,192,162395,128,0,162748:0:0:0:0:
36,192,162748,128,0,163101:0:0:0:0:
475,192,162748,128,0,163101:0:0:0:0:
402,192,162748,1,0,0:0:0:0:
109,192,162748,1,0,0:0:0:0:
182,192,162924,1,0,0:0:0:0:
329,192,162924,1,0,0:0:0:0:
256,192,162924,128,0,163101:0:0:0:0:
109,192,163101,1,0,0:0:0:0:
402,192,163101,1,0,0:0:0:0:
182,192,163101,128,0,163233:0:0:0:0:
329,192,163101,128,0,163233:0:0:0:0:
329,192,163277,1,0,0:0:0:0:
182,192,163277,1,0,0:0:0:0:
36,192,163277,128,0,163410:0:0:0:0:
475,192,163277,128,0,163410:0:0:0:0:
475,192,163454,1,0,0:0:0:0:
36,192,163454,1,0,0:0:0:0:
109,192,163454,128,0,163586:0:0:0:0:
402,192,163454,128,0,163586:0:0:0:0:
109,192,163630,1,0,0:0:0:0:
402,192,163630,1,0,0:0:0:0:
182,192,163630,128,0,163718:0:0:0:0:
329,192,163630,128,0,163718:0:0:0:0:
182,192,163807,1,0,0:0:0:0:
329,192,163807,1,0,0:0:0:0:
256,192,163895,128,0,163983:0:0:0:0:
109,192,163983,128,0,164071:0:0:0:0:
36,192,163983,128,0,164027:0:0:0:0:
256,192,164071,128,0,164116:0:0:0:0:
329,192,164071,128,0,164116:0:0:0:0:
402,192,164071,128,0,164116:0:0:0:0:
475,192,164071,128,0,164116:0:0:0:0:
109,192,164160,128,0,164204:0:0:0:0:
182,192,164160,128,0,164248:0:0:0:0:
402,192,164248,128,0,164292:0:0:0:0:
329,192,164248,128,0,164292:0:0:0:0:
475,192,164248,128,0,164292:0:0:0:0:
182,192,164336,128,0,164380:0:0:0:0:
256,192,164336,128,0,164424:0:0:0:0:
402,192,164424,128,0,164468:0:0:0:0:
475,192,164424,128,0,164468:0:0:0:0:
256,192,164513,128,0,164557:0:0:0:0:
329,192,164513,128,0,164601:0:0:0:0:
475,192,164601,128,0,164645:0:0:0:0:
329,192,164689,128,0,164733:0:0:0:0:
402,192,164689,128,0,164777:0:0:0:0:
402,192,164866,128,0,164910:0:0:0:0:
475,192,164866,128,0,164954:0:0:0:0:
475,192,165042,128,0,165086:0:0:0:0:
475,192,165218,1,0,0:0:0:0:
475,192,165395,128,0,165527:0:0:0:0:
182,192,165395,128,0,165439:0:0:0:0:
109,192,165395,128,0,165483:0:0:0:0:
256,192,165395,1,0,0:0:0:0:
402,192,165439,128,0,165616:0:0:0:0:
36,192,165483,128,0,165616:0:0:0:0:
329,192,165483,128,0,165704:0:0:0:0:
256,192,165527,128,0,165836:0:0:0:0:
182,192,165571,128,0,165924:0:0:0:0:
475,192,165571,1,0,0:0:0:0:
109,192,165571,128,0,165616:0:0:0:0:
402,192,165660,1,0,0:0:0:0:
36,192,165660,128,0,165704:0:0:0:0:
329,192,165748,1,0,0:0:0:0:
109,192,165748,128,0,165792:0:0:0:0:
475,192,165836,128,0,165880:0:0:0:0:
36,192,165836,1,0,0:0:0:0:
402,192,165836,128,0,166101:0:0:0:0:
329,192,165924,128,0,165968:0:0:0:0:
256,192,165924,128,0,166189:0:0:0:0:
182,192,166013,128,0,166057:0:0:0:0:
109,192,166013,128,0,166277:0:0:0:0:
475,192,166057,128,0,166189:0:0:0:0:
36,192,166101,1,0,0:0:0:0:
329,192,166145,128,0,166277:0:0:0:0:
402,192,166189,128,0,166277:0:0:0:0:
182,192,166233,128,0,166366:0:0:0:0:
475,192,166277,1,0,0:0:0:0:
256,192,166277,128,0,166366:0:0:0:0:
36,192,166321,128,0,166454:0:0:0:0:
402,192,166366,1,0,0:0:0:0:
109,192,166366,128,0,166454:0:0:0:0:
329,192,166454,128,0,166630:0:0:0:0:
475,192,166454,128,0,166542:0:0:0:0:
182,192,166454,1,0,0:0:0:0:
256,192,166542,1,0,0:0:0:0:
109,192,166542,1,0,0:0:0:0:
402,192,166630,1,0,0:0:0:0:
182,192,166630,128,0,166718:0:0:0:0:
36,192,166630,128,0,166718:0:0:0:0:
475,192,166630,128,0,166807:0:0:0:0:
109,192,166718,1,0,0:0:0:0:
256,192,166718,1,0,0:0:0:0:
402,192,166807,1,0,0:0:0:0:
329,192,166807,128,0,167071:0:0:0:0:
182,192,166807,128,0,166895:0:0:0:0:
36,192,166807,128,0,166983:0:0:0:0:
256,192,166895,128,0,166983:0:0:0:0:
475,192,166895,128,0,166983:0:0:0:0:
109,192,166895,1,0,0:0:0:0:
402,192,166983,128,0,167204:0:0:0:0:
182,192,166983,1,0,0:0:0:0:
256,192,167071,1,0,0:0:0:0:
36,192,167071,128,0,167160:0:0:0:0:
475,192,167071,1,0,0:0:0:0:
256,192,167160,128,0,167380:0:0:0:0:
329,192,167160,128,0,167204:0:0:0:0:
109,192,167160,128,0,167248:0:0:0:0:
402,192,167248,128,0,167292:0:0:0:0:
475,192,167248,128,0,167424:0:0:0:0:
182,192,167248,128,0,167336:0:0:0:0:
329,192,167336,128,0,167380:0:0:0:0:
36,192,167336,128,0,167513:0:0:0:0:
109,192,167336,1,0,0:0:0:0:
402,192,167424,128,0,167513:0:0:0:0:
256,192,167424,1,0,0:0:0:0:
182,192,167513,128,0,167777:0:0:0:0:
109,192,167513,1,0,0:0:0:0:
329,192,167513,128,0,167601:0:0:0:0:
475,192,167513,128,0,167689:0:0:0:0:
256,192,167601,128,0,167689:0:0:0:0:
36,192,167601,128,0,167689:0:0:0:0:
402,192,167601,1,0,0:0:0:0:
109,192,167689,128,0,167910:0:0:0:0:
329,192,167689,1,0,0:0:0:0:
256,192,167777,1,0,0:0:0:0:
475,192,167777,128,0,167866:0:0:0:0:
36,192,167777,128,0,167866:0:0:0:0:
256,192,167866,128,0,168086:0:0:0:0:
182,192,167866,128,0,167910:0:0:0:0:
402,192,167866,128,0,167954:0:0:0:0:
36,192,167954,128,0,168130:0:0:0:0:
109,192,167954,128,0,167998:0:0:0:0:
329,192,167954,128,0,168042:0:0:0:0:
475,192,167954,1,0,0:0:0:0:
182,192,168042,128,0,168086:0:0:0:0:
402,192,168042,1,0,0:0:0:0:
109,192,168130,128,0,168218:0:0:0:0:
256,192,168130,1,0,0:0:0:0:
475,192,168130,1,0,0:0:0:0:
36,192,168218,128,0,168351:0:0:0:0:
329,192,168218,128,0,168263:0:0:0:0:
402,192,168218,128,0,168307:0:0:0:0:
256,192,168218,1,0,0:0:0:0:
109,192,168263,128,0,168439:0:0:0:0:
475,192,168307,128,0,168439:0:0:0:0:
182,192,168307,128,0,168527:0:0:0:0:
256,192,168351,128,0,168660:0:0:0:0:
329,192,168395,128,0,168704:0:0:0:0:
36,192,168395,1,0,0:0:0:0:
402,192,168395,128,0,168439:0:0:0:0:
109,192,168483,1,0,0:0:0:0:
475,192,168483,128,0,168527:0:0:0:0:
182,192,168571,1,0,0:0:0:0:
402,192,168571,128,0,168616:0:0:0:0:
36,192,168571,128,0,168616:0:0:0:0:
475,192,168660,1,0,0:0:0:0:
109,192,168660,128,0,168924:0:0:0:0:
182,192,168660,128,0,168704:0:0:0:0:
256,192,168748,128,0,169013:0:0:0:0:
329,192,168748,128,0,168792:0:0:0:0:
402,192,168748,1,0,0:0:0:0:
36,192,168748,1,0,0:0:0:0:
402,192,168836,128,0,169101:0:0:0:0:
475,192,168836,128,0,168880:0:0:0:0:
182,192,168836,1,0,0:0:0:0:
36,192,168880,128,0,169013:0:0:0:0:
329,192,168924,1,0,0:0:0:0:
182,192,168968,128,0,169101:0:0:0:0:
109,192,169013,128,0,169101:0:0:0:0:
475,192,169013,1,0,0:0:0:0:
329,192,169057,128,0,169189:0:0:0:0:
256,192,169101,128,0,169189:0:0:0:0:
36,192,169101,128,0,169277:0:0:0:0:
475,192,169145,128,0,169277:0:0:0:0:
402,192,169189,128,0,169277:0:0:0:0:
182,192,169189,128,0,169366:0:0:0:0:
329,192,169277,128,0,169454:0:0:0:0:
109,192,169277,128,0,169366:0:0:0:0:
475,192,169366,128,0,169542:0:0:0:0:
256,192,169366,128,0,169454:0:0:0:0:
402,192,169454,128,0,169542:0:0:0:0:
109,192,169454,128,0,169542:0:0:0:0:
182,192,169454,128,0,169498:0:0:0:0:
36,192,169454,128,0,169630:0:0:0:0:
182,192,169630,128,0,169674:0:0:0:0:
256,192,169630,128,0,169718:0:0:0:0:
329,192,169630,128,0,169674:0:0:0:0:
475,192,169630,1,0,0:0:0:0:
402,192,169630,1,0,0:0:0:0:
182,192,169718,1,0,0:0:0:0:
329,192,169807,128,0,169851:0:0:0:0:
402,192,169807,128,0,169895:0:0:0:0:
475,192,169807,128,0,169983:0:0:0:0:
109,192,169807,1,0,0:0:0:0:
36,192,169807,1,0,0:0:0:0:
256,192,169895,1,0,0:0:0:0:
182,192,169983,128,0,170027:0:0:0:0:
256,192,169983,128,0,170071:0:0:0:0:
329,192,169983,128,0,170027:0:0:0:0:
36,192,169983,1,0,0:0:0:0:
402,192,170071,128,0,170116:0:0:0:0:
109,192,170071,128,0,170116:0:0:0:0:
182,192,170160,128,0,170645:0:0:0:0:
36,192,170160,128,0,170204:0:0:0:0:
256,192,170160,128,0,170204:0:0:0:0:
475,192,170160,1,0,0:0:0:0:
109,192,170248,128,0,170557:0:0:0:0:
329,192,170248,128,0,170292:0:0:0:0:
36,192,170336,128,0,170468:0:0:0:0:
402,192,170336,1,0,0:0:0:0:
475,192,170336,1,0,0:0:0:0:
256,192,170424,128,0,170468:0:0:0:0:
36,192,170513,1,0,0:0:0:0:
329,192,170513,128,0,170601:0:0:0:0:
475,192,170513,128,0,170777:0:0:0:0:
402,192,170513,128,0,170689:0:0:0:0:
109,192,170601,1,0,0:0:0:0:
329,192,170689,128,0,170733:0:0:0:0:
256,192,170689,128,0,170777:0:0:0:0:
182,192,170689,128,0,170733:0:0:0:0:
402,192,170777,128,0,170821:0:0:0:0:
109,192,170777,128,0,170821:0:0:0:0:
475,192,170866,128,0,170910:0:0:0:0:
256,192,170866,128,0,170910:0:0:0:0:
329,192,170866,128,0,171130:0:0:0:0:
36,192,170866,1,0,0:0:0:0:
402,192,170954,128,0,171130:0:0:0:0:
182,192,170954,128,0,170998:0:0:0:0:
475,192,171042,128,0,171130:0:0:0:0:
109,192,171042,1,0,0:0:0:0:
36,192,171042,1,0,0:0:0:0:
256,192,171042,128,0,171263:0:0:0:0:
182,192,171130,1,0,0:0:0:0:
475,192,171218,1,0,0:0:0:0:
36,192,171218,128,0,171263:0:0:0:0:
109,192,171218,128,0,171351:0:0:0:0:
182,192,171307,128,0,171351:0:0:0:0:
256,192,171307,1,0,0:0:0:0:
329,192,171307,128,0,171351:0:0:0:0:
402,192,171307,128,0,171439:0:0:0:0:
475,192,171395,128,0,171439:0:0:0:0:
256,192,171395,128,0,171616:0:0:0:0:
36,192,171395,1,0,0:0:0:0:
109,192,171395,1,0,0:0:0:0:
182,192,171483,1,0,0:0:0:0:
329,192,171483,128,0,171527:0:0:0:0:
109,192,171571,128,0,171704:0:0:0:0:
36,192,171571,128,0,171616:0:0:0:0:
402,192,171571,128,0,171704:0:0:0:0:
475,192,171571,128,0,171616:0:0:0:0:
256,192,171660,1,0,0:0:0:0:
182,192,171660,128,0,171704:0:0:0:0:
329,192,171660,128,0,171704:0:0:0:0:
256,192,171748,128,0,171968:0:0:0:0:
475,192,171748,1,0,0:0:0:0:
402,192,171748,1,0,0:0:0:0:
36,192,171748,128,0,171792:0:0:0:0:
109,192,171748,128,0,171880:0:0:0:0:
329,192,171836,1,0,0:0:0:0:
182,192,171836,128,0,171880:0:0:0:0:
475,192,171924,128,0,171968:0:0:0:0:
402,192,171924,128,0,172057:0:0:0:0:
36,192,171924,1,0,0:0:0:0:
109,192,172013,128,0,172145:0:0:0:0:
182,192,172013,128,0,172057:0:0:0:0:
256,192,172013,1,0,0:0:0:0:
329,192,172013,128,0,172057:0:0:0:0:
36,192,172101,128,0,172145:0:0:0:0:
475,192,172101,1,0,0:0:0:0:
256,192,172101,128,0,172321:0:0:0:0:
402,192,172101,1,0,0:0:0:0:
329,192,172189,1,0,0:0:0:0:
182,192,172189,128,0,172233:0:0:0:0:
475,192,172277,128,0,172321:0:0:0:0:
402,192,172277,128,0,172410:0:0:0:0:
109,192,172277,128,0,172410:0:0:0:0:
36,192,172277,128,0,172321:0:0:0:0:
329,192,172366,128,0,172410:0:0:0:0:
256,192,172366,1,0,0:0:0:0:
182,192,172366,128,0,172410:0:0:0:0:
36,192,172454,128,0,172983:0:0:0:0:
109,192,172454,128,0,172542:0:0:0:0:
402,192,172454,128,0,172542:0:0:0:0:
256,192,172454,128,0,172542:0:0:0:0:
475,192,172542,128,0,172630:0:0:0:0:
329,192,172542,128,0,172630:0:0:0:0:
182,192,172542,128,0,172630:0:0:0:0:
256,192,172630,128,0,172718:0:0:0:0:
402,192,172630,128,0,172718:0:0:0:0:
329,192,172718,128,0,172807:0:0:0:0:
109,192,172718,128,0,172807:0:0:0:0:
182,192,172807,128,0,172895:0:0:0:0:
402,192,172807,128,0,172895:0:0:0:0:
475,192,172807,128,0,172895:0:0:0:0:
256,192,172807,1,0,0:0:0:0:
329,192,172895,128,0,172983:0:0:0:0:
109,192,172895,128,0,172983:0:0:0:0:
256,192,172983,128,0,173027:0:0:0:0:
182,192,172983,128,0,173071:0:0:0:0:
475,192,172983,128,0,173071:0:0:0:0:
402,192,173071,128,0,173160:0:0:0:0:
109,192,173071,128,0,173160:0:0:0:0:
475,192,173160,128,0,173689:0:0:0:0:
329,192,173160,128,0,173248:0:0:0:0:
182,192,173160,128,0,173248:0:0:0:0:
36,192,173160,128,0,173248:0:0:0:0:
109,192,173248,128,0,173336:0:0:0:0:
256,192,173248,128,0,173336:0:0:0:0:
402,192,173248,128,0,173336:0:0:0:0:
329,192,173336,128,0,173424:0:0:0:0:
182,192,173336,128,0,173424:0:0:0:0:
36,192,173424,128,0,173513:0:0:0:0:
256,192,173424,128,0,173513:0:0:0:0:
109,192,173513,128,0,173601:0:0:0:0:
329,192,173513,128,0,173601:0:0:0:0:
402,192,173513,128,0,173601:0:0:0:0:
182,192,173513,1,0,0:0:0:0:
182,192,173601,128,0,173689:0:0:0:0:
36,192,173601,128,0,173689:0:0:0:0:
256,192,173689,128,0,173733:0:0:0:0:
402,192,173689,128,0,173777:0:0:0:0:
109,192,173689,128,0,173777:0:0:0:0:
182,192,173777,128,0,173866:0:0:0:0:
329,192,173777,128,0,173866:0:0:0:0:
475,192,173777,128,0,173866:0:0:0:0:
36,192,173866,128,0,174218:0:0:0:0:
109,192,173866,128,0,173954:0:0:0:0:
256,192,173866,128,0,173954:0:0:0:0:
402,192,173866,128,0,173954:0:0:0:0:
182,192,173954,128,0,174042:0:0:0:0:
329,192,173954,128,0,174042:0:0:0:0:
256,192,174042,128,0,174130:0:0:0:0:
475,192,174042,128,0,174130:0:0:0:0:
402,192,174130,128,0,174218:0:0:0:0:
182,192,174130,128,0,174218:0:0:0:0:
329,192,174218,128,0,174307:0:0:0:0:
109,192,174218,128,0,174307:0:0:0:0:
475,192,174218,128,0,174395:0:0:0:0:
256,192,174218,1,0,0:0:0:0:
182,192,174307,1,0,0:0:0:0:
256,192,174395,128,0,174483:0:0:0:0:
402,192,174395,128,0,174571:0:0:0:0:
36,192,174395,1,0,0:0:0:0:
329,192,174395,1,0,0:0:0:0:
109,192,174483,1,0,0:0:0:0:
182,192,174571,128,0,174660:0:0:0:0:
329,192,174571,128,0,174748:0:0:0:0:
36,192,174571,1,0,0:0:0:0:
256,192,174571,1,0,0:0:0:0:
475,192,174571,128,0,174924:0:0:0:0:
109,192,174748,128,0,174836:0:0:0:0:
256,192,174748,128,0,174924:0:0:0:0:
182,192,174748,1,0,0:0:0:0:
402,192,174748,128,0,175101:0:0:0:0:
36,192,174924,128,0,175013:0:0:0:0:
182,192,174924,128,0,175101:0:0:0:0:
109,192,174924,1,0,0:0:0:0:
329,192,174924,128,0,175277:0:0:0:0:
109,192,175101,128,0,175277:0:0:0:0:
36,192,175101,1,0,0:0:0:0:
256,192,175101,128,0,175277:0:0:0:0:
475,192,175101,1,0,0:0:0:0:
36,192,175277,128,0,175454:0:0:0:0:
402,192,175277,1,0,0:0:0:0:
182,192,175277,1,0,0:0:0:0:
256,192,175366,1,0,0:0:0:0:
475,192,175454,128,0,175718:0:0:0:0:
109,192,175454,1,0,0:0:0:0:
329,192,175454,1,0,0:0:0:0:
182,192,175542,1,0,0:0:0:0:
109,192,175630,128,0,175807:0:0:0:0:
402,192,175630,1,0,0:0:0:0:
36,192,175630,1,0,0:0:0:0:
256,192,175718,1,0,0:0:0:0:
402,192,175807,128,0,176071:0:0:0:0:
475,192,175807,1,0,0:0:0:0:
182,192,175807,1,0,0:0:0:0:
256,192,175895,1,0,0:0:0:0:
182,192,175983,128,0,176160:0:0:0:0:
36,192,175983,1,0,0:0:0:0:
329,192,175983,1,0,0:0:0:0:
256,192,176071,1,0,0:0:0:0:
329,192,176160,128,0,176424:0:0:0:0:
475,192,176160,1,0,0:0:0:0:
109,192,176160,1,0,0:0:0:0:
402,192,176160,128,0,176248:0:0:0:0:
256,192,176248,1,0,0:0:0:0:
182,192,176336,128,0,176601:0:0:0:0:
109,192,176336,128,0,176424:0:0:0:0:
36,192,176336,1,0,0:0:0:0:
402,192,176336,1,0,0:0:0:0:
256,192,176424,1,0,0:0:0:0:
329,192,176513,128,0,176777:0:0:0:0:
402,192,176513,128,0,176601:0:0:0:0:
475,192,176513,1,0,0:0:0:0:
109,192,176513,1,0,0:0:0:0:
256,192,176601,1,0,0:0:0:0:
402,192,176689,1,0,0:0:0:0:
182,192,176689,1,0,0:0:0:0:
36,192,176689,1,0,0:0:0:0:
256,192,176777,1,0,0:0:0:0:
109,192,176777,1,0,0:0:0:0:
329,192,176866,1,0,0:0:0:0:
182,192,176866,1,0,0:0:0:0:
256,192,176954,1,0,0:0:0:0:
109,192,176954,1,0,0:0:0:0:
182,192,177042,1,0,0:0:0:0:
329,192,177042,128,0,177071:0:0:0:0:
36,192,177042,1,0,0:0:0:0:
475,192,177042,1,0,0:0:0:0:
256,192,177130,128,0,177160:0:0:0:0:
402,192,177130,1,0,0:0:0:0:
182,192,177218,128,0,177248:0:0:0:0:
329,192,177218,1,0,0:0:0:0:
256,192,177307,128,0,177336:0:0:0:0:
402,192,177307,1,0,0:0:0:0:
329,192,177395,128,0,177424:0:0:0:0:
182,192,177395,128,0,177439:0:0:0:0:
475,192,177395,1,0,0:0:0:0:
36,192,177395,1,0,0:0:0:0:
256,192,177483,128,0,177527:0:0:0:0:
109,192,177483,1,0,0:0:0:0:
329,192,177571,128,0,177616:0:0:0:0:
182,192,177571,1,0,0:0:0:0:
256,192,177660,128,0,177704:0:0:0:0:
109,192,177660,1,0,0:0:0:0:
182,192,177748,128,0,177792:0:0:0:0:
329,192,177748,128,0,178013:0:0:0:0:
36,192,177748,1,0,0:0:0:0:
475,192,177748,1,0,0:0:0:0:
256,192,177836,128,0,177924:0:0:0:0:
402,192,177836,1,0,0:0:0:0:
182,192,177924,128,0,178013:0:0:0:0:
36,192,177924,1,0,0:0:0:0:
475,192,177924,1,0,0:0:0:0:
256,192,178013,128,0,178101:0:0:0:0:
109,192,178013,1,0,0:0:0:0:
402,192,178101,128,0,178189:0:0:0:0:
36,192,178101,128,0,178189:0:0:0:0:
475,192,178101,128,0,178189:0:0:0:0:
329,192,178101,1,0,0:0:0:0:
256,192,178189,128,0,178277:0:0:0:0:
182,192,178189,128,0,178277:0:0:0:0:
109,192,178277,128,0,178366:0:0:0:0:
475,192,178277,128,0,178366:0:0:0:0:
402,192,178277,1,0,0:0:0:0:
256,192,178366,128,0,178454:0:0:0:0:
329,192,178366,128,0,178454:0:0:0:0:
36,192,178366,128,0,178454:0:0:0:0:
402,192,178454,128,0,178542:0:0:0:0:
109,192,178454,128,0,178564:0:0:0:0:
182,192,178454,128,0,178542:0:0:0:0:
475,192,178454,128,0,178542:0:0:0:0:
256,192,178542,128,0,178652:0:0:0:0:
402,192,178630,128,0,178741:0:0:0:0:
36,192,178630,128,0,178718:0:0:0:0:
182,192,178630,128,0,178718:0:0:0:0:
475,192,178630,1,0,0:0:0:0:
256,192,178718,128,0,178829:0:0:0:0:
109,192,178807,128,0,178917:0:0:0:0:
402,192,178807,128,0,178924:0:0:0:0:
329,192,178807,128,0,178895:0:0:0:0:
475,192,178807,128,0,178895:0:0:0:0:
182,192,178807,1,0,0:0:0:0:
256,192,178895,128,0,179013:0:0:0:0:
36,192,178895,128,0,178983:0:0:0:0:
109,192,178983,128,0,179101:0:0:0:0:
182,192,178983,128,0,179071:0:0:0:0:
329,192,178983,128,0,179071:0:0:0:0:
402,192,178983,1,0,0:0:0:0:
256,192,179071,128,0,179189:0:0:0:0:
475,192,179071,128,0,179160:0:0:0:0:
402,192,179160,128,0,179277:0:0:0:0:
109,192,179160,128,0,179292:0:0:0:0:
36,192,179160,128,0,179248:0:0:0:0:
182,192,179160,128,0,179248:0:0:0:0:
329,192,179160,1,0,0:0:0:0:
256,192,179248,128,0,179380:0:0:0:0:
329,192,179248,128,0,179336:0:0:0:0:
402,192,179336,128,0,179468:0:0:0:0:
182,192,179336,128,0,179424:0:0:0:0:
475,192,179336,128,0,179424:0:0:0:0:
109,192,179336,1,0,0:0:0:0:
256,192,179424,128,0,179557:0:0:0:0:
109,192,179424,128,0,179513:0:0:0:0:
329,192,179424,128,0,179513:0:0:0:0:
36,192,179513,128,0,179645:0:0:0:0:
182,192,179513,128,0,179645:0:0:0:0:
475,192,179513,128,0,179645:0:0:0:0:
402,192,179513,1,0,0:0:0:0:
256,192,179601,128,0,179733:0:0:0:0:
402,192,179601,128,0,179733:0:0:0:0:
109,192,179601,128,0,179733:0:0:0:0:
475,192,179689,128,0,179821:0:0:0:0:
36,192,179689,128,0,179733:0:0:0:0:
329,192,179689,128,0,179821:0:0:0:0:
36,192,179777,128,0,179910:0:0:0:0:
182,192,179777,128,0,179910:0:0:0:0:
402,192,179777,128,0,179910:0:0:0:0:
256,192,179866,128,0,179998:0:0:0:0:
109,192,179866,128,0,179910:0:0:0:0:
475,192,179866,128,0,179910:0:0:0:0:
329,192,179866,128,0,179998:0:0:0:0:
475,192,179954,128,0,180086:0:0:0:0:
182,192,179954,128,0,180086:0:0:0:0:
36,192,179954,128,0,180086:0:0:0:0:
256,192,180042,128,0,180174:0:0:0:0:
109,192,180042,128,0,180174:0:0:0:0:
329,192,180042,128,0,180086:0:0:0:0:
36,192,180130,128,0,180263:0:0:0:0:
402,192,180130,128,0,180263:0:0:0:0:
475,192,180218,128,0,180351:0:0:0:0:
329,192,180218,128,0,180263:0:0:0:0:
182,192,180218,128,0,180351:0:0:0:0:
109,192,180218,128,0,180351:0:0:0:0:
256,192,180218,1,0,0:0:0:0:
256,192,180307,128,0,180439:0:0:0:0:
402,192,180307,128,0,180351:0:0:0:0:
36,192,180395,128,0,180527:0:0:0:0:
475,192,180395,128,0,180439:0:0:0:0:
329,192,180395,128,0,180527:0:0:0:0:
182,192,180395,128,0,180527:0:0:0:0:
109,192,180395,128,0,180439:0:0:0:0:
256,192,180483,128,0,180616:0:0:0:0:
402,192,180483,128,0,180527:0:0:0:0:
475,192,180571,128,0,180704:0:0:0:0:
329,192,180571,128,0,180616:0:0:0:0:
109,192,180571,128,0,180704:0:0:0:0:
36,192,180571,128,0,180616:0:0:0:0:
256,192,180660,128,0,180792:0:0:0:0:
402,192,180660,128,0,180792:0:0:0:0:
182,192,180660,128,0,180704:0:0:0:0:
36,192,180748,128,0,180880:0:0:0:0:
329,192,180748,128,0,180880:0:0:0:0:
475,192,180748,128,0,180792:0:0:0:0:
109,192,180748,128,0,180792:0:0:0:0:
256,192,180836,128,0,180968:0:0:0:0:
182,192,180836,128,0,180880:0:0:0:0:
402,192,180836,128,0,180880:0:0:0:0:
475,192,180924,128,0,181057:0:0:0:0:
36,192,180924,128,0,181071:0:0:0:0:
402,192,180924,128,0,181079:0:0:0:0:
109,192,180924,128,0,181079:0:0:0:0:
256,192,181013,128,0,181160:0:0:0:0:
329,192,181013,128,0,181167:0:0:0:0:
475,192,181101,128,0,181248:0:0:0:0:
182,192,181101,128,0,181255:0:0:0:0:
36,192,181101,128,0,181255:0:0:0:0:
256,192,181189,128,0,181336:0:0:0:0:
402,192,181189,128,0,181410:0:0:0:0:
36,192,181277,128,0,181424:0:0:0:0:
475,192,181277,128,0,181432:0:0:0:0:
329,192,181277,128,0,181432:0:0:0:0:
109,192,181277,128,0,181520:0:0:0:0:
256,192,181366,128,0,181520:0:0:0:0:
182,192,181366,128,0,181608:0:0:0:0:
36,192,181454,128,0,181608:0:0:0:0:
329,192,181454,128,0,181696:0:0:0:0:
475,192,181454,128,0,181608:0:0:0:0:
256,192,181542,128,0,181696:0:0:0:0:
109,192,181542,1,0,0:0:0:0:
475,192,181630,128,0,181785:0:0:0:0:
36,192,181630,128,0,181785:0:0:0:0:
182,192,181630,128,0,181785:0:0:0:0:
402,192,181630,128,0,181873:0:0:0:0:
256,192,181718,128,0,181873:0:0:0:0:
329,192,181718,1,0,0:0:0:0:
475,192,181807,128,0,181961:0:0:0:0:
36,192,181807,128,0,182130:0:0:0:0:
182,192,181807,1,0,0:0:0:0:
109,192,181807,128,0,181961:0:0:0:0:
256,192,181895,128,0,182049:0:0:0:0:
329,192,181895,1,0,0:0:0:0:
402,192,181895,1,0,0:0:0:0:
475,192,181983,128,0,182160:0:0:0:0:
182,192,181983,1,0,0:0:0:0:
109,192,181983,1,0,0:0:0:0:
402,192,182013,128,0,182160:0:0:0:0:
329,192,182042,128,0,182160:0:0:0:0:
256,192,182071,128,0,182160:0:0:0:0:
182,192,182101,128,0,182160:0:0:0:0:
109,192,182130,128,0,182160:0:0:0:0:
36,192,182160,1,0,0:0:0:0:
402,192,182336,128,0,182424:0:0:0:0:
109,192,182336,128,0,182366:0:0:0:0:
329,192,182336,128,0,182446:0:0:0:0:
475,192,182336,128,0,182402:0:0:0:0:
256,192,182358,128,0,182468:0:0:0:0:
36,192,182366,1,0,0:0:0:0:
182,192,182380,128,0,182424:0:0:0:0:
109,192,182689,128,0,182777:0:0:0:0:
182,192,182689,128,0,182799:0:0:0:0:
36,192,182689,128,0,182755:0:0:0:0:
402,192,182689,128,0,182718:0:0:0:0:
256,192,182711,128,0,182821:0:0:0:0:
475,192,182718,1,0,0:0:0:0:
329,192,182733,128,0,182777:0:0:0:0:
36,192,182866,1,0,0:0:0:0:
109,192,182888,1,0,0:0:0:0:
182,192,182910,1,0,0:0:0:0:
256,192,182932,1,0,0:0:0:0:
402,192,183042,128,0,183130:0:0:0:0:
475,192,183042,128,0,183108:0:0:0:0:
109,192,183042,128,0,183071:0:0:0:0:
329,192,183042,128,0,183152:0:0:0:0:
256,192,183064,128,0,183174:0:0:0:0:
36,192,183071,1,0,0:0:0:0:
182,192,183086,128,0,183130:0:0:0:0:
475,192,183218,1,0,0:0:0:0:
402,192,183241,1,0,0:0:0:0:
329,192,183263,1,0,0:0:0:0:
256,192,183285,1,0,0:0:0:0:
182,192,183395,128,0,183417:0:0:0:0:
109,192,183395,128,0,183417:0:0:0:0:
36,192,183395,128,0,183417:0:0:0:0:
329,192,183395,128,0,183417:0:0:0:0:
402,192,183395,128,0,183417:0:0:0:0:
475,192,183395,128,0,183417:0:0:0:0:
256,192,183571,128,0,183593:0:0:0:0:
36,192,183571,128,0,183593:0:0:0:0:
402,192,183571,128,0,183593:0:0:0:0:
475,192,183571,128,0,183593:0:0:0:0:
109,192,183571,128,0,183593:0:0:0:0:
36,192,183924,1,0,0:0:0:0:
256,192,183924,1,0,0:0:0:0:
109,192,183946,1,0,0:0:0:0:
182,192,183968,1,0,0:0:0:0:
109,192,184101,1,0,0:0:0:0:
329,192,184101,1,0,0:0:0:0:
182,192,184123,1,0,0:0:0:0:
256,192,184145,1,0,0:0:0:0:
402,192,184277,1,0,0:0:0:0:
182,192,184277,1,0,0:0:0:0:
256,192,184299,1,0,0:0:0:0:
329,192,184321,1,0,0:0:0:0:
256,192,184454,1,0,0:0:0:0:
475,192,184454,1,0,0:0:0:0:
109,192,184454,1,0,0:0:0:0:
36,192,184454,1,0,0:0:0:0:
329,192,184476,1,0,0:0:0:0:
402,192,184498,1,0,0:0:0:0:
256,192,184807,1,0,0:0:0:0:
402,192,184807,1,0,0:0:0:0:
36,192,184807,1,0,0:0:0:0:
475,192,184807,1,0,0:0:0:0:
182,192,184829,1,0,0:0:0:0:
109,192,184851,1,0,0:0:0:0:
256,192,185160,128,0,185189:0:0:0:0:
329,192,185160,128,0,185218:0:0:0:0:
402,192,185160,128,0,185248:0:0:0:0:
182,192,185182,128,0,185204:0:0:0:0:
475,192,185189,128,0,185277:0:0:0:0:
109,192,185204,128,0,185248:0:0:0:0:
36,192,185226,128,0,185292:0:0:0:0:
36,192,185336,128,0,185402:0:0:0:0:
475,192,185350,128,0,185438:0:0:0:0:
402,192,185380,128,0,185468:0:0:0:0:
109,192,185380,128,0,185424:0:0:0:0:
329,192,185409,128,0,185468:0:0:0:0:
182,192,185424,128,0,185446:0:0:0:0:
256,192,185438,128,0,185468:0:0:0:0:
182,192,185513,128,0,185571:0:0:0:0:
109,192,185513,128,0,185601:0:0:0:0:
256,192,185513,128,0,185542:0:0:0:0:
329,192,185535,128,0,185557:0:0:0:0:
36,192,185542,128,0,185630:0:0:0:0:
402,192,185557,128,0,185601:0:0:0:0:
475,192,185579,128,0,185645:0:0:0:0:
475,192,185689,128,0,185755:0:0:0:0:
36,192,185703,128,0,185791:0:0:0:0:
402,192,185733,128,0,185777:0:0:0:0:
109,192,185733,128,0,185821:0:0:0:0:
182,192,185762,128,0,185821:0:0:0:0:
329,192,185777,128,0,185799:0:0:0:0:
256,192,185791,128,0,185821:0:0:0:0:
36,192,185866,128,0,185932:0:0:0:0:
475,192,185866,128,0,186013:0:0:0:0:
329,192,185866,1,0,0:0:0:0:
256,192,185866,1,0,0:0:0:0:
109,192,185888,128,0,185954:0:0:0:0:
402,192,185895,128,0,186013:0:0:0:0:
182,192,185910,128,0,185976:0:0:0:0:
182,192,186042,1,0,0:0:0:0:
109,192,186042,1,0,0:0:0:0:
36,192,186042,1,0,0:0:0:0:
402,192,186042,1,0,0:0:0:0:
475,192,186042,1,0,0:0:0:0:
36,192,186218,128,0,186366:0:0:0:0:
475,192,186218,128,0,186285:0:0:0:0:
256,192,186218,1,0,0:0:0:0:
182,192,186218,1,0,0:0:0:0:
402,192,186241,128,0,186307:0:0:0:0:
109,192,186248,128,0,186366:0:0:0:0:
329,192,186263,128,0,186329:0:0:0:0:
475,192,186395,1,0,0:0:0:0:
36,192,186395,1,0,0:0:0:0:
109,192,186395,1,0,0:0:0:0:
402,192,186395,1,0,0:0:0:0:
329,192,186395,1,0,0:0:0:0:
256,192,186417,128,0,187255:0:0:0:0:
109,192,186748,1,0,0:0:0:0:
36,192,186748,1,0,0:0:0:0:
329,192,186748,1,0,0:0:0:0:
109,192,186924,1,0,0:0:0:0:
182,192,186924,1,0,0:0:0:0:
402,192,186924,1,0,0:0:0:0:
329,192,187101,1,0,0:0:0:0:
182,192,187101,1,0,0:0:0:0:
475,192,187101,1,0,0:0:0:0:
256,192,187277,128,0,187454:0:0:0:0:
402,192,187277,1,0,0:0:0:0:
475,192,187277,1,0,0:0:0:0:
109,192,187277,1,0,0:0:0:0:
329,192,187299,128,0,187454:0:0:0:0:
36,192,187299,128,0,187454:0:0:0:0:
256,192,187630,128,0,187807:0:0:0:0:
36,192,187630,1,0,0:0:0:0:
109,192,187630,1,0,0:0:0:0:
402,192,187630,1,0,0:0:0:0:
182,192,187652,128,0,187807:0:0:0:0:
475,192,187652,128,0,187807:0:0:0:0:
182,192,187983,128,0,188042:0:0:0:0:
109,192,187983,128,0,188071:0:0:0:0:
256,192,187983,128,0,188013:0:0:0:0:
475,192,187983,1,0,0:0:0:0:
402,192,187983,1,0,0:0:0:0:
36,192,188013,128,0,188101:0:0:0:0:
329,192,188071,128,0,188093:0:0:0:0:
402,192,188093,128,0,188138:0:0:0:0:
475,192,188116,128,0,188182:0:0:0:0:
256,192,188160,128,0,188226:0:0:0:0:
182,192,188204,128,0,188248:0:0:0:0:
109,192,188248,128,0,188270:0:0:0:0:
475,192,188248,1,0,0:0:0:0:
36,192,188270,128,0,188292:0:0:0:0:
36,192,188336,128,0,188424:0:0:0:0:
329,192,188336,1,0,0:0:0:0:
402,192,188336,1,0,0:0:0:0:
109,192,188366,128,0,188454:0:0:0:0:
182,192,188395,128,0,188454:0:0:0:0:
256,192,188424,128,0,188454:0:0:0:0:
475,192,188424,128,0,188491:0:0:0:0:
402,192,188468,128,0,188513:0:0:0:0:
329,192,188513,128,0,188535:0:0:0:0:
256,192,188535,128,0,188557:0:0:0:0:
182,192,188571,128,0,188601:0:0:0:0:
109,192,188601,128,0,188660:0:0:0:0:
36,192,188630,128,0,188689:0:0:0:0:
329,192,188689,128,0,188748:0:0:0:0:
402,192,188689,128,0,188777:0:0:0:0:
256,192,188689,128,0,188718:0:0:0:0:
475,192,188718,128,0,188807:0:0:0:0:
182,192,188777,128,0,188799:0:0:0:0:
109,192,188799,128,0,188843:0:0:0:0:
36,192,188821,128,0,188888:0:0:0:0:
256,192,188866,128,0,188932:0:0:0:0:
329,192,188910,128,0,188954:0:0:0:0:
402,192,188954,128,0,188976:0:0:0:0:
36,192,188954,1,0,0:0:0:0:
475,192,188976,128,0,188998:0:0:0:0:
475,192,189042,128,0,189130:0:0:0:0:
182,192,189042,1,0,0:0:0:0:
109,192,189042,1,0,0:0:0:0:
402,192,189071,128,0,189160:0:0:0:0:
329,192,189101,128,0,189160:0:0:0:0:
256,192,189130,128,0,189160:0:0:0:0:
36,192,189130,128,0,189196:0:0:0:0:
109,192,189174,128,0,189218:0:0:0:0:
182,192,189218,128,0,189241:0:0:0:0:
256,192,189241,128,0,189263:0:0:0:0:
329,192,189285,128,0,189307:0:0:0:0:
402,192,189307,128,0,189351:0:0:0:0:
475,192,189329,128,0,189395:0:0:0:0:
182,192,189395,128,0,189439:0:0:0:0:
256,192,189395,128,0,189483:0:0:0:0:
329,192,189395,128,0,189527:0:0:0:0:
36,192,189439,128,0,189571:0:0:0:0:
109,192,189483,128,0,189601:0:0:0:0:
402,192,189483,128,0,189571:0:0:0:0:
475,192,189483,128,0,189601:0:0:0:0:
182,192,189527,128,0,189638:0:0:0:0:
256,192,189571,128,0,189660:0:0:0:0:
329,192,189616,128,0,189682:0:0:0:0:
402,192,189660,128,0,189704:0:0:0:0:
475,192,189660,128,0,189718:0:0:0:0:
36,192,189660,128,0,189704:0:0:0:0:
109,192,189660,128,0,189748:0:0:0:0:
329,192,189748,128,0,189792:0:0:0:0:
256,192,189748,128,0,189836:0:0:0:0:
182,192,189748,128,0,189880:0:0:0:0:
475,192,189792,128,0,189924:0:0:0:0:
402,192,189836,128,0,189954:0:0:0:0:
109,192,189836,128,0,189924:0:0:0:0:
36,192,189836,128,0,189954:0:0:0:0:
329,192,189880,128,0,189991:0:0:0:0:
256,192,189924,128,0,190013:0:0:0:0:
182,192,189968,128,0,190035:0:0:0:0:
36,192,190013,128,0,190071:0:0:0:0:
109,192,190013,128,0,190057:0:0:0:0:
402,192,190013,128,0,190101:0:0:0:0:
475,192,190013,128,0,190057:0:0:0:0:
182,192,190101,128,0,190145:0:0:0:0:
256,192,190101,128,0,190189:0:0:0:0:
329,192,190101,128,0,190233:0:0:0:0:
36,192,190145,128,0,190277:0:0:0:0:
109,192,190189,128,0,190307:0:0:0:0:
402,192,190189,128,0,190277:0:0:0:0:
475,192,190189,128,0,190307:0:0:0:0:
182,192,190233,128,0,190343:0:0:0:0:
256,192,190277,128,0,190366:0:0:0:0:
329,192,190321,128,0,190388:0:0:0:0:
402,192,190366,128,0,190410:0:0:0:0:
475,192,190366,128,0,190424:0:0:0:0:
36,192,190366,128,0,190410:0:0:0:0:
109,192,190366,128,0,190454:0:0:0:0:
329,192,190454,128,0,190498:0:0:0:0:
256,192,190454,128,0,190542:0:0:0:0:
182,192,190454,128,0,190586:0:0:0:0:
475,192,190498,128,0,190630:0:0:0:0:
402,192,190542,128,0,190660:0:0:0:0:
109,192,190542,128,0,190630:0:0:0:0:
36,192,190542,128,0,190660:0:0:0:0:
329,192,190586,128,0,190696:0:0:0:0:
256,192,190630,128,0,190718:0:0:0:0:
182,192,190674,128,0,190741:0:0:0:0:
402,192,190718,1,0,0:0:0:0:
475,192,190718,1,0,0:0:0:0:
36,192,190718,128,0,190777:0:0:0:0:
109,192,190718,128,0,190763:0:0:0:0:
182,192,190807,128,0,190836:0:0:0:0:
256,192,190807,128,0,190836:0:0:0:0:
329,192,190807,128,0,190836:0:0:0:0:
109,192,190895,1,0,0:0:0:0:
36,192,190895,1,0,0:0:0:0:
329,192,190983,128,0,191013:0:0:0:0:
402,192,190983,128,0,191013:0:0:0:0:
475,192,190983,128,0,191013:0:0:0:0:
256,192,191071,1,0,0:0:0:0:
182,192,191160,128,0,191189:0:0:0:0:
109,192,191160,128,0,191189:0:0:0:0:
36,192,191160,128,0,191189:0:0:0:0:
475,192,191248,1,0,0:0:0:0:
402,192,191248,1,0,0:0:0:0:
329,192,191336,128,0,191366:0:0:0:0:
256,192,191336,128,0,191366:0:0:0:0:
182,192,191336,128,0,191366:0:0:0:0:
109,192,191424,1,0,0:0:0:0:
36,192,191424,1,0,0:0:0:0:
329,192,191513,128,0,191542:0:0:0:0:
402,192,191513,128,0,191542:0:0:0:0:
475,192,191513,128,0,191542:0:0:0:0:
256,192,191601,1,0,0:0:0:0:
182,192,191689,128,0,191718:0:0:0:0:
109,192,191689,128,0,191718:0:0:0:0:
36,192,191689,128,0,191718:0:0:0:0:
475,192,191777,1,0,0:0:0:0:
402,192,191777,1,0,0:0:0:0:
329,192,191866,128,0,191895:0:0:0:0:
256,192,191866,128,0,191895:0:0:0:0:
182,192,191866,128,0,191895:0:0:0:0:
36,192,191954,1,0,0:0:0:0:
109,192,191954,1,0,0:0:0:0:
329,192,192042,128,0,192071:0:0:0:0:
402,192,192042,128,0,192071:0:0:0:0:
475,192,192042,128,0,192071:0:0:0:0:
256,192,192130,1,0,0:0:0:0:
182,192,192218,128,0,192285:0:0:0:0:
109,192,192218,128,0,192263:0:0:0:0:
36,192,192218,128,0,192241:0:0:0:0:
36,192,192307,128,0,192483:0:0:0:0:
329,192,192307,128,0,192329:0:0:0:0:
402,192,192307,128,0,192351:0:0:0:0:
475,192,192307,128,0,192373:0:0:0:0:
109,192,192329,128,0,192483:0:0:0:0:
182,192,192351,128,0,192483:0:0:0:0:
329,192,192395,128,0,192571:0:0:0:0:
402,192,192417,128,0,192571:0:0:0:0:
475,192,192439,128,0,192571:0:0:0:0:
256,192,192483,1,0,0:0:0:0:
36,192,192571,128,0,192593:0:0:0:0:
109,192,192571,128,0,192616:0:0:0:0:
182,192,192571,128,0,192638:0:0:0:0:
36,192,192660,128,0,192836:0:0:0:0:
329,192,192660,128,0,192682:0:0:0:0:
402,192,192660,128,0,192704:0:0:0:0:
475,192,192660,128,0,192726:0:0:0:0:
109,192,192682,128,0,192836:0:0:0:0:
182,192,192704,128,0,192836:0:0:0:0:
329,192,192748,128,0,192924:0:0:0:0:
402,192,192770,128,0,192924:0:0:0:0:
475,192,192792,128,0,192924:0:0:0:0:
256,192,192836,1,0,0:0:0:0:
109,192,192924,128,0,192968:0:0:0:0:
36,192,192924,128,0,192946:0:0:0:0:
182,192,192924,128,0,192991:0:0:0:0:
36,192,193013,128,0,193189:0:0:0:0:
475,192,193013,128,0,193079:0:0:0:0:
329,192,193013,128,0,193035:0:0:0:0:
402,192,193013,128,0,193057:0:0:0:0:
109,192,193035,128,0,193189:0:0:0:0:
182,192,193057,128,0,193189:0:0:0:0:
329,192,193101,128,0,193277:0:0:0:0:
402,192,193123,128,0,193277:0:0:0:0:
475,192,193145,128,0,193277:0:0:0:0:
256,192,193189,1,0,0:0:0:0:
182,192,193277,128,0,193343:0:0:0:0:
109,192,193277,128,0,193321:0:0:0:0:
36,192,193277,128,0,193299:0:0:0:0:
36,192,193366,128,0,193542:0:0:0:0:
402,192,193366,128,0,193410:0:0:0:0:
329,192,193366,128,0,193388:0:0:0:0:
475,192,193366,128,0,193432:0:0:0:0:
109,192,193388,128,0,193542:0:0:0:0:
182,192,193410,128,0,193542:0:0:0:0:
329,192,193454,128,0,193630:0:0:0:0:
402,192,193476,128,0,193630:0:0:0:0:
475,192,193498,128,0,193630:0:0:0:0:
256,192,193542,1,0,0:0:0:0:
182,192,193630,128,0,193652:0:0:0:0:
109,192,193630,128,0,194138:0:0:0:0:
36,192,193807,128,0,193851:0:0:0:0:
182,192,193983,128,0,194071:0:0:0:0:
109,192,194160,1,0,0:0:0:0:
329,192,194160,128,0,194182:0:0:0:0:
402,192,194160,128,0,194667:0:0:0:0:
475,192,194336,128,0,194380:0:0:0:0:
329,192,194513,128,0,194601:0:0:0:0:
402,192,194689,1,0,0:0:0:0:
109,192,194689,128,0,195196:0:0:0:0:
182,192,194689,128,0,194711:0:0:0:0:
36,192,194866,128,0,194910:0:0:0:0:
182,192,195042,128,0,195130:0:0:0:0:
402,192,195218,128,0,195726:0:0:0:0:
329,192,195218,128,0,195241:0:0:0:0:
109,192,195218,1,0,0:0:0:0:
475,192,195395,128,0,195439:0:0:0:0:
329,192,195571,128,0,195660:0:0:0:0:
402,192,195748,1,0,0:0:0:0:
256,192,195748,128,0,196101:0:0:0:0:
36,192,195748,128,0,195836:0:0:0:0:
402,192,195924,128,0,195946:0:0:0:0:
109,192,196101,128,0,196277:0:0:0:0:
475,192,196101,128,0,196189:0:0:0:0:
256,192,196277,128,0,196299:0:0:0:0:
182,192,196454,128,0,196961:0:0:0:0:
109,192,196454,128,0,196476:0:0:0:0:
256,192,196630,128,0,196674:0:0:0:0:
109,192,196807,128,0,196895:0:0:0:0:
182,192,196983,1,0,0:0:0:0:
402,192,196983,128,0,197005:0:0:0:0:
329,192,196983,128,0,197491:0:0:0:0:
256,192,197160,128,0,197204:0:0:0:0:
402,192,197336,128,0,197424:0:0:0:0:
109,192,197513,128,0,197535:0:0:0:0:
36,192,197513,128,0,198020:0:0:0:0:
329,192,197513,1,0,0:0:0:0:
182,192,197689,128,0,197733:0:0:0:0:
109,192,197866,128,0,197954:0:0:0:0:
36,192,198042,1,0,0:0:0:0:
475,192,198042,128,0,198549:0:0:0:0:
402,192,198042,128,0,198064:0:0:0:0:
329,192,198218,128,0,198263:0:0:0:0:
402,192,198395,128,0,198483:0:0:0:0:
475,192,198571,1,0,0:0:0:0:
36,192,198571,128,0,199101:0:0:0:0:
109,192,198593,128,0,198616:0:0:0:0:
256,192,198748,1,0,0:0:0:0:
475,192,198924,128,0,199101:0:0:0:0:
402,192,198946,128,0,198968:0:0:0:0:
256,192,199101,1,0,0:0:0:0:
