osu file format v14

[General]
AudioFilename: audio.mp3
AudioLeadIn: 0
PreviewTime: 55285
Countdown: 0
SampleSet: None
StackLeniency: 0.2
Mode: 2
LetterboxInBreaks: 0
WidescreenStoryboard: 1

[Editor]
Bookmarks: 535,14249,27963,41677,55392,75963,82820,96535,117106,123963,151392,165106,178820,199392,204535,206249
DistanceSpacing: 0.9
BeatDivisor: 16
GridSize: 16
TimelineZoom: 1

[Metadata]
Title:Sweet Dreams feat. Rika
TitleUnicode:Sweet Dreams feat. Rika
Artist:Neko Hacker
ArtistUnicode:Neko Hacker
Creator:NO PLEASEGOD NO
Version:Overdose
Source:
Tags:
BeatmapID:1703799
BeatmapSetID:812090

[Difficulty]
HPDrainRate:9
CircleSize:2
OverallDifficulty:10
ApproachRate:9
SliderMultiplier:1.4
SliderTickRate:1

[Events]
//Background and Video events
0,0,"butterflies.jpg",0,0
//Break Periods
2,150828,161988
//Storyboard Layer 0 (Background)
//Storyboard Layer 1 (Fail)
//Storyboard Layer 2 (Pass)
//Storyboard Layer 3 (Foreground)
//Storyboard Sound Samples

[TimingPoints]
535,428.571428571429,4,3,0,100,1,0
535,-133.333333333333,4,3,0,100,0,0
14249,-80,4,3,0,100,0,0
27963,-200,4,3,0,100,0,0
33106,-80,4,3,0,100,0,0
41677,-133.333333333333,4,3,0,100,0,0
55392,-66.6666666666667,4,3,0,100,0,1
62677,-66.6666666666667,4,3,0,100,0,1
69106,-66.6666666666667,4,3,0,100,0,1
75963,-133.333333333333,4,3,0,100,0,0
82820,-80,4,3,0,100,0,0
123963,-66.6666666666667,4,3,0,100,0,1
131249,-66.6666666666667,4,3,0,100,0,1
137570,-100,4,3,0,100,0,0
137677,-66.6666666666667,4,3,0,100,0,1
150535,-100,4,3,0,100,0,0
178820,-66.6666666666667,4,3,0,100,0,1
185677,-100,4,3,0,100,0,0
186106,-100,4,3,0,100,0,1
192427,-100,4,3,0,100,0,0
192535,-66.6666666666667,4,3,0,100,0,1
199392,-100,4,3,0,100,0,0

[Colours]
Combo1 : 241,235,152
Combo2 : 239,167,239
Combo3 : 173,150,243
Combo4 : 179,238,242
Combo5 : 160,233,148
Combo6 : 245,180,120

[HitObjects]
125,132,29168,6,0,L|152:222,1,91.875
219,163,29677,2,0,L|211:216,1,52.5
266,170,30106,2,0,L|239:225,1,61.25
320,191,30615,2,0,L|292:225,1,43.75
380,207,31285,2,0,L|323:243,1,65.625
318,198,31874,2,0,L|271:236,1,61.25
241,212,32329,2,0,L|213:239,2,39.375
183,203,33079,2,0,L|183:267,1,61.25
262,198,34017,2,0,L|251:260,3,54.6875
201,211,34767,2,0,L|138:242,3,65.625
149,278,35677,2,0,L|132:296,6,21.875
319,240,36454,2,0,L|316:283,4,43.75
211,232,37338,2,0,L|293:249,3,76.5625
294,176,38249,2,0,L|216:204,2,76.5625
176,191,39106,2,0,L|174:241,2,43.75
232,207,39535,2,0,L|238:286,1,76.5625
362,233,39963,2,0,L|360:281,2,43.75
289,210,40418,2,0,L|215:253,1,76.5625
205,224,40847,2,0,L|160:243,2,43.75
315,221,41677,2,0,L|285:263,2,52.5000020027161
231,212,42347,2,0,L|154:255,3,85.3125032544137
167,193,43847,2,0,L|108:237,1,72.1875027537347
137,211,45079,2,0,L|167:269,3,65.6250025033952
213,218,46231,2,0,L|224:277,2,59.0625022530557
286,233,46927,2,0,L|229:272,1,65.6250025033952
190,232,47410,2,0,L|127:269,2,72.1875027537347
213,243,48588,2,0,L|239:268,2,32.8125012516976
307,192,49311,2,0,L|249:232,1,65.6250025033952
246,195,49793,2,0,L|89:233,1,157.500006008148
117,101,51347,2,0,B|125:174|78:104|109:158,3,72.1875027537347
182,115,52713,2,0,L|194:180,1,65.6250025033952
116,152,53356,2,0,L|97:192,1,39.3750015020371
163,165,53758,2,0,L|134:183,2,32.8125012516976
302,131,54133,2,0,L|215:152,1,85.3125032544137
329,124,54535,2,0,L|206:121,1,118.125004506111
180,110,55231,2,0,L|177:119,10,6.56250025033952
103,112,55793,2,0,P|149:203|161:221,1,118.125004506111
239,125,56356,2,0,L|112:214,1,144.375005507469
165,140,56918,2,0,L|150:251,2,105.000004005432
127,158,57481,2,0,L|141:249,2,91.8750035047532
353,176,57883,2,0,B|233:243|184:161|276:222,2,183.750007009506
178,189,58713,2,0,L|143:276,2,91.8750035047532
188,226,59651,2,0,L|262:226,2,65.6250025033952
224,170,60267,2,0,L|135:197,2,91.8750035047532
223,218,60910,2,0,L|153:285,2,91.8750035047532
367,221,61338,2,0,L|280:294,1,105.000004005432
195,218,62195,2,0,L|374:186,2,170.625006508827
345,147,63133,2,0,L|199:211,1,157.500006008148
270,181,63749,2,0,L|189:259,2,105.000004005432
254,194,64338,2,0,L|149:263,1,118.125004506111
329,186,64793,2,0,L|172:241,1,157.500006008148
316,180,65677,2,0,L|238:233,1,91.8750035047532
319,178,66133,2,0,L|261:211,2,65.6250025033952
331,172,66508,2,0,B|277:200|309:130|260:151,4,78.7500030040742
337,156,67392,2,0,L|289:126,4,52.5000020027161
327,160,67954,2,0,L|309:222,4,52.5000020027161
327,178,68543,2,0,L|312:213,4,26.2500010013581
350,165,68972,2,0,P|335:193|429:268,1,183.750007009506
206,56,69749,2,0,L|201:153,1,91.8750035047532
246,121,70204,2,0,L|220:193,2,65.6250025033952
326,131,70633,2,0,L|292:194,2,65.6250025033952
347,113,71088,2,0,L|241:171,1,118.125004506111
208,131,71490,2,0,L|189:236,1,105.000004005432
173,188,71999,2,0,L|233:233,2,65.6250025033952
185,184,72481,2,0,L|122:221,3,65.6250025033952
294,183,72990,2,0,L|193:210,1,105.000004005432
209,155,73418,2,0,L|166:171,3,39.3750015020371
331,220,73901,2,0,L|265:229,2,65.6250025033952
251,163,74383,2,0,L|217:203,2,52.5000020027161
318,176,74918,2,0,L|289:211,3,39.3750015020371
247,153,75374,2,0,L|225:192,3,39.3750015020371
300,147,75802,2,0,L|287:189,3,39.3750015020371
223,156,76311,2,0,L|211:189,2,32.8125012516976
249,169,77008,2,0,L|280:210,2,45.9375017523766
281,157,77490,2,0,L|195:201,1,91.8750035047532
159,172,78133,2,0,L|289:250,1,150.937505757809
258,184,79365,2,0,L|311:294,1,118.125004506111
349,224,80008,2,0,L|236:260,1,118.125004506111
317,226,80677,2,0,L|252:257,1,72.1875027537347
258,191,81588,2,0,L|255:230,6,39.3750015020371
212,173,82954,2,0,L|183:260,2,87.5
213,203,83463,2,0,L|199:283,2,76.5625
347,233,84106,2,0,L|371:235,2,21.875
214,203,85231,2,0,L|252:229,4,43.75
220,271,85529,1,0,0:0:0:0:
294,177,86168,2,0,L|277:212,4,32.8125
209,184,86731,2,0,L|160:236,2,65.625
291,194,87347,2,0,L|193:241,1,109.375
278,130,88151,2,0,L|107:212,1,185.9375
334,118,88660,2,0,L|144:212,1,207.8125
415,104,89222,2,0,L|196:180,1,229.6875
263,128,89651,2,0,L|122:195,1,153.125
318,116,90079,2,0,L|151:182,1,175
220,140,90508,2,0,L|150:189,1,76.5625
320,122,90936,2,0,L|262:151,2,65.625
274,136,91338,2,0,L|234:157,2,43.75
247,146,91767,2,0,L|176:182,1,76.5625
354,114,92035,2,0,L|270:167,1,98.4375
377,123,92276,2,0,L|235:155,1,142.1875
361,138,92624,2,0,L|251:164,1,109.375
361,138,93079,2,0,L|235:176,1,131.25
356,147,93481,2,0,L|269:179,1,87.5
349,138,93910,2,0,L|253:176,1,98.4375
283,156,94418,2,0,L|84:202,1,196.875
162,136,96535,6,0,L|177:240,2,98.4375
228,171,97847,2,0,L|151:304,1,153.125
120,247,98543,2,0,L|236:248,1,109.375
179,229,98918,2,0,L|104:254,2,76.5625
148,307,99856,2,0,L|327:326,1,175
332,226,100606,2,0,L|152:273,1,185.9375
214,195,101115,2,0,L|143:215,1,65.625
196,176,101651,2,0,L|139:193,1,54.6875
242,150,101999,2,0,L|144:201,1,109.375
257,160,102481,2,0,L|216:217,2,65.625
196,166,103258,2,0,L|266:182,3,65.625
253,117,103847,2,0,L|230:204,1,87.5
222,185,104195,2,0,L|249:272,2,87.5
211,228,104651,2,0,L|230:288,2,54.6875
283,255,105133,2,0,L|180:279,1,98.4375
254,241,105535,2,0,L|155:255,1,98.4375
253,199,105990,2,0,L|165:207,1,87.5
320,168,106392,2,0,L|263:244,1,87.5
170,263,106847,2,0,L|103:285,2,65.625
416,176,107677,2,0,L|342:206,1,76.5625
273,163,108481,2,0,L|462:172,2,185.9375
298,152,110249,2,0,L|182:191,1,120.3125
315,111,110811,2,0,L|212:277,1,185.9375
385,220,111347,2,0,L|303:296,1,109.375
314,209,111829,2,0,L|211:287,1,120.3125
205,210,112231,2,0,L|148:275,1,76.5625
179,186,112686,2,0,L|161:280,1,87.5
272,226,113115,2,0,L|209:262,2,65.625
399,247,113570,2,0,L|274:224,1,120.3125
228,164,114106,2,0,L|168:169,2,54.6875
234,174,114642,2,0,L|157:176,3,76.5625
337,181,115338,2,0,L|167:217,1,164.0625
258,201,115820,2,0,L|177:221,2,76.5625
86,224,116276,2,0,L|243:210,3,153.125
207,182,117883,2,0,L|200:243,2,54.6875
119,177,118285,2,0,L|183:250,2,87.5
237,119,119195,2,0,L|179:192,2,87.5
137,138,119811,2,0,L|144:194,2,54.6875
313,131,120481,2,0,L|307:159,5,21.875
239,127,120936,2,0,L|211:181,2,54.6875
141,157,121392,2,0,L|219:184,4,76.5625
320,160,122222,2,0,L|260:172,3,54.6875
211,138,122731,2,0,L|168:154,2,43.75
193,224,123133,2,0,L|203:242,9,10.9375
288,180,123561,2,0,L|269:209,4,32.8125
216,172,124017,2,0,L|281:178,3,65.6250025033952
259,184,124499,2,0,L|183:210,2,78.7500030040742
249,205,124927,2,0,L|194:220,10,52.5000020027161
136,238,126079,2,0,B|283:237|264:237,3,131.25000500679
321,232,127713,2,0,L|172:232,1,144.375005507469
176,232,128115,2,0,B|288:220|288:220|211:196|230:189|276:189,3,210.000008010865
257,113,129802,2,0,L|247:195,1,78.7500030040742
237,158,130231,2,0,L|361:158,1,118.125004506111
250,152,130713,2,0,L|150:201,3,105.000004005432
417,148,131704,2,0,L|217:172,1,196.875007510186
241,126,132293,2,0,L|66:129,1,170.625006508827
381,131,132883,2,0,L|214:135,1,157.500006008148
447,126,133365,2,0,L|231:139,1,210.000008010865
432,98,133847,2,0,L|194:129,1,236.250009012223
277,112,134249,2,0,L|173:142,1,105.000004005432
270,131,134704,2,0,L|209:171,2,65.6250025033952
97,163,135133,6,0,L|121:169,5,13.125000500679
247,168,135588,6,0,L|202:164,5,39.3750015020371
207,164,136124,6,0,P|157:161|143:161,4,65.6250025033952
105,159,136686,6,0,L|86:165,11,13.125000500679
295,151,136981,6,0,L|296:183,7,26.2500010013581
223,147,137651,6,0,L|196:168,2,35
121,129,138133,6,0,L|104:146,7,13.125000500679
245,146,138535,6,0,L|185:160,2,52.5000020027161
307,133,138936,6,0,L|266:149,3,39.3750015020371
372,121,139365,6,0,L|331:136,2,39.3750015020371
198,101,139793,6,0,L|173:115,4,26.2500010013581
282,107,140249,6,0,L|252:121,4,26.2500010013581
382,110,140677,6,0,B|323:128|270:136|180:139,3,196.875007510186
155,140,142204,6,0,L|148:165,4,26.2500010013581
263,135,142606,6,0,L|254:165,5,26.2500010013581
381,126,143142,6,0,L|-138:183,2,511.875019526482
0,181,145633,6,0,L|381:126,2,511.875019526482
156,140,147963,2,0,P|169:148|155:117,2,91.8750035047532
144,176,148740,2,0,L|149:227,2,39.3750015020371
255,160,148901,6,0,L|263:135,5,26.2500010013581
187,138,149423,6,0,B|270:136|323:128|382:110,3,196.875007510186
154,93,162588,6,0,L|154:141,5,43.75
219,114,163445,2,0,L|203:146,3,35
286,137,163927,2,0,B|259:113|228:126|170:162,3,122.5
120,121,165695,6,0,L|125:167,1,43.75
206,113,165963,2,0,L|201:134,5,17.5
285,102,166472,2,0,L|279:118,5,17.5
224,113,166901,2,0,L|202:138,3,26.25
184,204,167276,2,0,B|299:205|299:205|308:117|305:117,2,201.25
161,88,168883,2,0,L|145:116,4,26.25
281,84,169418,2,0,L|270:95,10,8.75
412,186,169847,2,0,L|390:191,5,17.5
318,168,170302,2,0,L|289:174,4,26.25
231,163,170731,2,0,L|168:172,2,61.25
382,157,171267,2,0,L|384:170,9,8.75
292,138,171776,2,0,L|274:163,3,26.25
194,126,172285,2,0,L|168:148,2,35
317,139,172767,2,0,L|300:148,3,17.5
388,133,173195,2,0,L|363:156,3,26.25
270,130,173651,2,0,L|254:149,4,17.5
194,121,174026,2,0,L|184:133,14,8.75
194,121,174026,2,0,L|184:133,14,8.75
194,121,174026,2,0,L|184:133,14,8.75
194,121,174026,2,0,L|184:133,14,8.75
194,121,174133,2,0,L|184:133,14,8.75
194,121,174133,2,0,L|184:133,14,8.75
194,121,174133,2,0,L|184:133,14,8.75
194,121,174133,2,0,L|184:133,14,8.75
342,128,174615,2,0,L|325:141,5,17.5
236,100,175124,2,0,L|219:111,4,17.5
350,111,175606,2,0,L|333:118,4,17.5
398,128,176035,2,0,L|389:138,8,8.75
419,155,176543,2,0,L|399:166,4,17.5
325,147,176972,2,0,L|311:155,6,8.75
206,108,177508,2,0,L|209:133,7,17.5
272,95,178204,2,0,L|263:116,3,17.5
154,166,178954,6,0,L|109:227,3,65.6250025033952
102,183,179651,2,0,L|205:290,2,144.375005507469
176,207,180427,2,0,L|181:320,2,105.000004005432
161,245,181017,2,0,L|268:276,3,105.000004005432
303,206,181874,2,0,L|218:268,1,105.000004005432
157,171,182543,2,0,L|315:229,1,157.500006008148
309,190,183079,2,0,L|259:286,1,105.000004005432
201,197,183561,2,0,L|138:277,1,91.8750035047532
113,218,183990,2,0,L|66:303,1,91.8750035047532
195,256,184418,2,0,L|315:292,1,118.125004506111
210,212,185517,2,0,P|297:284|298:284,1,118.125004506111
323,210,186079,2,0,L|222:261,1,113.75
213,275,186481,2,0,P|244:314|246:315,1,52.5
312,332,186722,2,0,L|349:319,2,35
248,255,187285,2,0,L|239:318,1,61.25
194,231,187793,2,0,L|59:253,1,131.25
255,254,189052,2,0,L|295:275,2,43.75
235,238,189588,2,0,L|183:260,2,52.5
153,225,190017,2,0,L|123:235,3,26.25
54,201,190445,2,0,L|46:205,9,8.75
103,216,190927,2,0,L|137:242,9,43.75
197,60,192856,1,0,0:0:0:0:
209,63,192909,1,0,0:0:0:0:
129,160,193204,2,0,L|182:250,1,105.000004005432
219,200,193606,2,0,L|268:286,1,91.8750035047532
326,207,194088,2,0,L|305:266,2,52.5000020027161
228,193,194543,2,0,L|167:220,2,65.6250025033952
159,216,194972,2,0,L|134:262,2,52.5000020027161
396,238,195427,2,0,L|262:277,1,131.25000500679
269,274,195963,2,0,L|396:238,1,131.25000500679
134,262,196471,2,0,L|159:216,2,52.5000020027161
167,219,196847,2,0,L|228:193,2,65.6250025033952
308,256,197355,2,0,L|326:207,2,52.5000020027161
264,279,197864,2,0,L|219:200,1,91.8750035047532
182,250,198239,2,0,L|129:160,1,105.000004005432
209,63,198748,1,0,0:0:0:0:
197,60,198801,1,0,0:0:0:0:
315,60,199043,1,0,0:0:0:0:
303,63,199096,1,0,0:0:0:0:
383,160,199391,2,0,L|330:250,1,105.000004005432
293,200,199793,2,0,L|244:286,1,91.8750035047532
186,207,200275,2,0,L|207:266,2,52.5000020027161
284,193,200730,2,0,L|345:220,2,65.6250025033952
353,216,201159,2,0,L|378:262,2,52.5000020027161
116,238,201614,2,0,L|250:277,1,131.25000500679
256,192,202392,12,0,206677,0:0:0:0:
