osu file format v14

[General]
AudioFilename: audio.mp3
AudioLeadIn: 0
PreviewTime: 93953
Countdown: 0
SampleSet: Soft
StackLeniency: 0.7
Mode: 0
LetterboxInBreaks: 0
WidescreenStoryboard: 1

[Editor]
DistanceSpacing: 1
BeatDivisor: 4
GridSize: 32
TimelineZoom: 8

[Metadata]
Title:Shadows feat. Such
TitleUnicode:Shadows feat. Such
Artist:Neko Hacker
ArtistUnicode:Neko Hacker
Creator:Nevertary
Version:Normal
Source:
Tags:NNZN Funya future bass ネコハッカー シャドウズ フィーチャリング サチ Featured Artist FA Reincarnation japanese electronic pop j-pop jpop
BeatmapID:3745657
BeatmapSetID:1819607

[Difficulty]
HPDrainRate:3.5
CircleSize:3.5
OverallDifficulty:4
ApproachRate:5
SliderMultiplier:1
SliderTickRate:1

[Events]
//Background and Video events
0,0,"BG.jpg",0,0
Video,0,"bgv.mp4"
//Break Periods
2,33182,37217
//Storyboard Layer 0 (Background)
//Storyboard Layer 1 (Fail)
//Storyboard Layer 2 (Pass)
//Storyboard Layer 3 (Foreground)
//Storyboard Layer 4 (Overlay)
//Storyboard Sound Samples

[TimingPoints]
512,352.941176470588,4,2,1,65,1,0
512,-111.111111111111,4,2,1,65,0,0
6159,-100,4,1,4,70,0,0
8982,-100,4,2,3,70,0,0
10041,-100,4,2,1,70,0,0
10394,-111.111111111111,4,2,3,60,0,0
21688,-105.263157894737,4,2,3,65,0,0
32982,-111.111111111111,4,2,3,70,0,0
38629,-111.111111111111,4,2,3,30,0,0
40041,-111.111111111111,4,2,3,40,0,0
41453,-111.111111111111,4,2,3,50,0,0
42511,-111.111111111111,4,2,3,60,0,0
44276,-111.111111111111,4,2,3,65,0,0
49923,-105.263157894737,4,2,3,70,0,0
55217,-105.263157894737,4,2,1,70,0,0
55570,-100,4,2,1,75,0,0
78159,352.941176470588,6,2,1,75,1,0
78159,-100,6,2,1,75,0,0
78511,-100,6,2,2,75,0,0
95100,-90.9090909090909,6,2,1,80,0,1
112041,-90.9090909090909,6,2,1,5,0,0

[Colours]
Combo1 : 136,170,213
Combo2 : 50,87,124
Combo3 : 232,207,151

[HitObjects]
32,32,512,6,0,B|109:19|128:102|128:102|144:176|230:162,1,269.999991760254,6|0,1:2|0:0,0:0:0:0:
319,143,1923,2,0,P|366:129|406:143,1,89.9999972534181,2|0,1:2|0:0,0:0:0:0:
438,170,2453,2,0,P|451:217|438:257,1,89.9999972534181,2|0,1:2|0:0,0:0:0:0:
417,294,2982,1,6,1:2:0:0:
349,353,3335,6,0,L|259:338,1,89.9999972534181,6|0,1:2|0:0,0:0:0:0:
177,374,4041,2,0,L|87:359,1,89.9999972534181,2|0,1:2|0:0,0:0:0:0:
21,298,4747,2,0,P|7:250|21:211,1,89.9999972534181,2|0,1:2|0:0,0:0:0:0:
54,184,5276,2,0,P|101:170|141:184,1,89.9999972534181,6|0,1:2|1:0,0:0:0:0:
175,209,5806,1,10,0:0:0:0:
247,277,6159,6,0,P|249:304|256:329,2,50,4|0|0,1:2|0:0|0:0,0:0:0:0:
267,231,6688,2,0,P|307:214|368:210,1,100
412,219,7217,1,0,0:0:0:0:
511,228,7570,2,0,P|509:255|502:280,2,50,4|0|0,1:2|0:0|0:0,0:0:0:0:
498,179,8099,2,0,P|481:139|477:78,1,100
482,32,8629,1,0,0:0:0:0:
385,59,8982,6,0,L|286:44,1,100,6|0,1:2|0:0,0:0:0:0:
243,69,9511,2,0,L|144:54,1,100,2|0,0:0|0:0,0:0:0:0:
93,48,10041,1,12,0:0:0:0:
36,117,10394,6,0,P|22:164|36:204,1,89.9999972534181,6|2,1:2|1:2,0:0:0:0:
63,287,11100,2,0,P|39:297|24:313,2,44.999998626709,2|0|0,1:2|0:0|1:0,0:0:0:0:
107,277,11629,2,0,L|196:265,1,89.9999972534181,2|2,0:0|0:0,0:0:0:0:
264,324,12335,2,0,L|401:304,1,134.999995880127,2|0,0:0|1:0,0:0:0:0:
474,257,13217,5,2,1:2:0:0:
510,174,13570,1,2,1:2:0:0:
481,88,13923,2,0,P|441:71|395:68,1,89.9999972534181,2|0,1:2|1:0,0:0:0:0:
352,83,14453,2,0,P|328:119|318:164,1,89.9999972534181,2|2,0:0|0:0,0:0:0:0:
323,254,15159,2,0,P|251:256|196:291,1,134.999995880127,2|0,0:0|1:0,0:0:0:0:
134,350,16041,6,0,L|45:338,1,89.9999972534181,2|2,1:2|1:2,0:0:0:0:
4,264,16747,1,0,1:0:0:0:
4,264,16923,1,2,0:0:0:0:
60,193,17276,2,0,L|48:104,1,89.9999972534181,2|2,0:0|0:0,0:0:0:0:
110,38,17982,1,2,0:0:0:0:
185,87,18335,2,0,L|197:176,1,89.9999972534181,2|0,0:0|0:0,0:0:0:0:
211,219,18864,6,0,P|256:200|297:209,1,89.9999972534181,2|0,1:2|1:0,0:0:0:0:
337,224,19394,2,0,P|380:231|421:213,1,89.9999972534181,2|0,0:0|0:0,0:0:0:0:
460,191,19923,1,2,1:2:0:0:
494,107,20276,2,0,P|466:73|427:48,1,89.9999972534181,2|0,1:2|1:0,0:0:0:0:
383,37,20806,2,0,P|339:43|298:64,1,89.9999972534181,2|0,0:0|0:0,0:0:0:0:
266,95,21335,1,2,1:2:0:0:
236,185,21688,6,0,P|220:235|234:275,1,94.9999974632264,6|0,1:2|1:0,0:0:0:0:
264,316,22217,1,10,0:0:0:0:
264,316,22394,2,0,P|213:300|174:314,1,94.9999974632264,2|0,1:2|1:0,0:0:0:0:
134,337,22923,1,10,0:0:0:0:
39,323,23276,2,0,L|31:266,1,47.4999987316132,10|0,0:0|1:0,0:0:0:0:
25,228,23629,2,0,L|9:115,1,94.9999974632264,10|8,0:0|0:0,0:0:0:0:
8,86,24159,1,0,1:0:0:0:
74,19,24511,6,0,P|90:39|116:50,1,47.4999987316132,2|8,1:2|0:0,0:0:0:0:
151,69,24864,1,2,1:2:0:0:
245,43,25217,2,0,P|285:26|338:22,1,94.9999974632264,2|0,1:2|1:0,0:0:0:0:
382,32,25747,1,10,0:0:0:0:
457,89,26100,2,0,P|471:107|477:130,1,47.4999987316132,10|0,0:0|1:0,0:0:0:0:
478,177,26453,2,0,P|457:241|427:275,1,94.9999974632264,10|8,0:0|0:0,0:0:0:0:
404,292,26982,1,0,1:0:0:0:
315,325,27335,6,0,P|263:337|223:322,1,94.9999974632264,2|2,1:2|1:2,0:0:0:0:
149,275,28041,1,0,1:0:0:0:
149,275,28217,1,10,0:0:0:0:
70,327,28570,2,0,L|54:214,1,94.9999974632264,10|10,0:0|0:0,0:0:0:0:
44,138,29276,2,0,L|36:81,1,47.4999987316132,10|0,0:0|1:0,0:0:0:0:
31,43,29629,1,10,0:0:0:0:
129,51,29982,5,10,0:0:0:0:
129,51,30159,2,0,L|224:36,1,94.9999974632264,0|0,1:0|1:0,0:0:0:0:
265,56,30688,2,0,L|360:41,1,94.9999974632264,10|10,0:0|0:0,0:0:0:0:
442,86,31394,1,10,0:0:0:0:
476,174,31747,2,0,L|468:231,1,47.4999987316132,10|0,0:0|1:0,0:0:0:0:
463,269,32100,1,8,0:0:0:0:
386,321,32453,2,0,P|399:343|401:366,2,47.4999987316132,8|8|8,0:0|0:0|0:0,0:0:0:0:
353,290,32982,5,4,0:0:0:0:
472,167,38629,6,0,P|409:167|348:127,1,134.999995880127,2|0,0:0|0:0,0:0:0:0:
276,76,39511,2,0,P|284:61|306:42,2,44.999998626709,2|0|2,0:0|0:0|0:0,0:0:0:0:
256,116,40041,2,0,L|121:98,1,134.999995880127,2|0,0:0|0:0,0:0:0:0:
40,135,40923,2,0,P|25:184|41:221,1,89.9999972534181,2|0,0:0|0:0,0:0:0:0:
68,252,41453,6,0,B|146:271|91:313|171:328,2,134.999995880127,2|2|2,0:0|0:0|0:0,0:0:0:0:
14,179,42864,1,0,0:0:0:0:
14,179,43041,2,0,P|19:123|30:88,1,89.9999972534181,2|0,0:0|0:0,0:0:0:0:
46,49,43570,1,2,0:0:0:0:
128,85,43923,1,2,0:0:0:0:
207,42,44276,6,0,L|296:30,1,89.9999972534181,6|10,1:2|0:0,0:0:0:0:
383,53,44982,2,0,L|388:8,2,44.999998626709,2|0|10,1:2|0:0|0:0,0:0:0:0:
403,93,45511,2,0,L|398:138,1,44.999998626709,2|0,0:0|1:0,0:0:0:0:
395,182,45864,1,2,0:0:0:0:
316,226,46217,2,0,P|269:240|229:226,1,89.9999972534181,2|2,0:0|0:0,0:0:0:0:
192,203,46747,1,10,0:0:0:0:
114,156,47100,6,0,P|123:131|123:110,2,44.999998626709,2|0|10,1:2|0:0|0:0,0:0:0:0:
87,193,47629,1,0,0:0:0:0:
87,193,47806,2,0,P|70:233|67:279,1,89.9999972534181,2|8,1:2|0:0,0:0:0:0:
80,321,48335,1,2,0:0:0:0:
152,371,48688,1,2,0:0:0:0:
230,327,49041,2,0,P|270:310|316:307,1,89.9999972534181,2|0,0:0|0:0,0:0:0:0:
360,312,49570,1,10,0:0:0:0:
419,237,49923,6,0,L|515:253,2,94.9999974632264,6|0|2,1:2|1:0|1:2,0:0:0:0:
351,170,50982,1,0,1:0:0:0:
398,88,51335,1,2,1:2:0:0:
336,14,51688,1,2,1:2:0:0:
250,56,52041,1,2,1:2:0:0:
254,150,52394,1,2,1:2:0:0:
163,179,52747,6,0,L|94:166,1,47.4999987316132,2|0,1:2|1:0,0:0:0:0:
72,164,53100,1,2,1:2:0:0:
7,235,53453,2,0,L|15:285,1,47.4999987316132,10|8,0:0|0:0,0:0:0:0:
57,302,53806,2,0,L|65:352,1,47.4999987316132,10|8,0:0|0:0,0:0:0:0:
103,376,54159,5,0,1:0:0:0:
46,96,55217,5,12,0:0:0:0:
133,47,55570,6,0,P|181:31|230:46,1,100,4|10,1:3|0:0,0:0:0:0:
313,95,56276,2,0,P|343:103|366:100,1,50,2|0,0:0|1:0,0:0:0:0:
410,90,56629,1,10,0:0:0:0:
478,162,56982,2,0,P|458:212|452:262,1,100,2|10,1:2|0:0,0:0:0:0:
433,356,57688,2,0,P|412:348|384:343,1,50,2|0,0:0|1:0,0:0:0:0:
335,336,58041,1,10,0:0:0:0:
237,314,58394,6,0,L|138:299,1,100,2|10,1:2|0:0,0:0:0:0:
41,324,59100,2,0,L|32:271,1,50,2|0,0:0|1:0,0:0:0:0:
21,226,59453,1,10,0:0:0:0:
21,122,59806,2,0,P|43:76|88:52,1,100,0|8,1:0|0:0,0:0:0:0:
131,51,60335,1,0,1:0:0:0:
131,51,60511,1,2,0:0:0:0:
230,64,60864,1,10,0:0:0:0:
278,151,61217,6,0,P|296:197|300:247,1,100,6|10,1:2|0:0,0:0:0:0:
299,347,61923,2,0,P|320:339|348:334,1,50,2|0,0:0|1:0,0:0:0:0:
397,328,62276,1,10,0:0:0:0:
475,265,62629,2,0,L|490:166,1,100,2|10,1:2|0:0,0:0:0:0:
505,67,63335,2,0,L|452:58,1,50,2|0,0:0|1:0,0:0:0:0:
407,47,63688,1,14,0:0:0:0:
312,79,64041,6,0,P|264:95|215:80,1,100,6|8,1:2|0:0,0:0:0:0:
176,57,64570,1,2,1:2:0:0:
176,57,64747,2,0,P|128:41|79:56,1,100,2|8,0:0|0:0,0:0:0:0:
42,83,65276,1,2,0:0:0:0:
42,83,65453,2,0,P|26:131|41:180,1,100,6|8,1:2|0:0,0:0:0:0:
58,223,65982,2,0,P|29:232|10:247,2,50,2|0|2,1:2|0:0|1:2,0:0:0:0:
107,228,66511,1,10,0:0:0:0:
197,185,66864,6,0,P|212:136|215:87,1,100,6|10,1:2|0:0,0:0:0:0:
309,51,67570,2,0,P|330:59|358:64,1,50,2|0,0:0|1:0,0:0:0:0:
407,70,67923,1,10,0:0:0:0:
447,161,68276,2,0,L|432:260,1,100,2|10,1:2|0:0,0:0:0:0:
373,341,68982,2,0,L|320:332,1,50,2|0,0:0|1:0,0:0:0:0:
275,321,69335,1,14,0:0:0:0:
180,349,69688,5,6,1:2:0:0:
125,265,70041,1,10,0:0:0:0:
186,185,70394,1,2,0:0:0:0:
280,219,70747,1,10,0:0:0:0:
275,321,71100,6,0,P|323:337|372:322,1,100,0|8,1:0|0:0,0:0:0:0:
415,300,71629,1,0,1:0:0:0:
415,300,71806,1,2,0:0:0:0:
490,234,72159,1,10,0:0:0:0:
487,134,72511,6,0,P|480:84|461:38,1,100,6|10,1:2|0:0,0:0:0:0:
363,16,73217,2,0,P|341:27|321:43,1,50,2|0,0:0|1:0,0:0:0:0:
287,79,73570,1,10,0:0:0:0:
192,45,73923,2,0,L|93:30,1,100,6|10,1:2|0:0,0:0:0:0:
47,23,74453,1,2,1:2:0:0:
47,23,74629,1,2,0:0:0:0:
69,120,74982,1,10,0:0:0:0:
11,201,75335,6,0,P|-4:249|13:295,1,100,6|8,1:2|0:0,0:0:0:0:
48,329,75864,2,0,P|94:345|140:329,1,100,2|0,1:2|1:0,0:0:0:0:
182,300,76394,1,8,0:0:0:0:
260,237,76747,2,0,P|308:220|354:239,1,100,2|8,1:2|0:0,0:0:0:0:
388,274,77276,1,0,1:0:0:0:
388,274,77453,2,0,P|405:319|389:365,1,100,2|8,0:0|0:0,0:0:0:0:
293,375,78159,6,0,P|253:358|196:349,1,100,4|0,1:3|1:0,0:0:0:0:
98,364,78864,2,0,P|64:360|47:354,1,50,0|8,1:0|0:0,0:0:0:0:
32,307,79217,2,0,P|25:257|7:211,1,100,2|0,1:2|1:0,0:0:0:0:
39,116,79923,1,2,1:2:0:0:
134,95,80276,6,0,L|233:80,1,100,6|0,1:2|1:0,0:0:0:0:
326,116,80982,2,0,L|379:108,1,50,0|8,1:0|0:0,0:0:0:0:
424,100,81335,2,0,L|439:199,1,100,2|0,1:2|1:0,0:0:0:0:
452,298,82041,1,2,1:2:0:0:
369,354,82394,6,0,P|321:370|272:355,1,100,6|0,1:2|1:0,0:0:0:0:
176,338,83100,2,0,P|144:334|124:340,1,50,2|8,1:2|0:0,0:0:0:0:
78,348,83453,2,0,P|94:300|79:251,1,100,2|0,1:2|1:0,0:0:0:0:
17,176,84159,1,2,1:2:0:0:
53,81,84511,6,0,P|41:50|38:32,2,50,6|10|2,1:2|0:0|1:2,0:0:0:0:
131,143,85217,1,0,1:0:0:0:
215,196,85570,2,0,P|232:236|241:293,1,100,2|8,1:2|0:0,0:0:0:0:
316,357,86276,2,0,P|347:345|365:342,1,50,2|8,1:2|0:0,0:0:0:0:
413,343,86629,6,0,L|428:244,1,100,6|0,1:2|1:0,0:0:0:0:
386,153,87335,2,0,L|394:100,1,50,0|8,1:0|0:0,0:0:0:0:
400,53,87688,2,0,L|301:38,1,100,2|0,1:2|1:0,0:0:0:0:
208,76,88394,1,2,1:2:0:0:
114,41,88747,6,0,P|66:62|44:102,1,100,6|0,1:2|1:0,0:0:0:0:
56,201,89453,2,0,P|60:233|54:253,1,50,0|8,1:0|0:0,0:0:0:0:
35,295,89806,2,0,P|83:279|132:294,1,100,2|0,1:2|1:0,0:0:0:0:
217,339,90511,1,2,1:2:0:0:
236,240,90864,6,0,P|243:190|261:144,1,100,6|0,1:2|1:0,0:0:0:0:
321,63,91570,2,0,P|352:51|370:48,1,50,2|8,1:2|0:0,0:0:0:0:
418,49,91923,2,0,P|436:95|443:144,1,100,2|0,1:2|1:0,0:0:0:0:
483,236,92629,1,2,1:2:0:0:
423,316,92982,6,0,L|324:301,1,100,6|0,1:2|1:0,0:0:0:0:
238,353,93688,2,0,L|185:345,1,50,0|8,1:0|0:0,0:0:0:0:
138,338,94041,1,2,1:2:0:0:
43,305,94394,2,0,L|35:358,2,50,10|10|2,0:0|0:0|1:2,0:0:0:0:
38,194,95100,6,0,P|22:147|46:87,1,110.000003356934,4|2,1:3|1:2,0:0:0:0:
136,36,95806,2,0,L|193:25,1,55.0000016784668,2|0,1:2|0:0,0:0:0:0:
244,18,96158,1,2,1:2:0:0:
350,46,96511,2,0,P|372:92|347:155,1,110.000003356934,2|2,1:2|1:2,0:0:0:0:
407,243,97217,6,0,P|457:250|522:277,2,110.000003356934,6|0|0,1:2|1:0|1:0,0:0:0:0:
315,304,98276,2,0,P|298:332|263:344,1,55.0000016784668,4|0,1:2|0:0,0:0:0:0:
226,358,98629,2,0,P|193:364|159:350,1,55.0000016784668,4|0,1:2|0:0,0:0:0:0:
124,331,98982,1,4,1:2:0:0:
23,374,99335,6,0,L|5:263,1,110.000003356934,6|2,1:2|1:2,0:0:0:0:
16,155,100041,2,0,L|73:146,1,55.0000016784668,2|0,1:2|0:0,0:0:0:0:
124,143,100393,1,2,1:2:0:0:
226,183,100747,2,0,L|210:70,1,110.000003356934,2|2,1:2|1:2,0:0:0:0:
312,31,101453,6,0,P|359:15|418:38,2,110.000003356934,6|0|0,1:2|1:0|1:0,0:0:0:0:
210,74,102511,2,0,L|220:134,1,55.0000016784668,4|0,1:2|0:0,0:0:0:0:
198,180,102864,2,0,L|207:240,1,55.0000016784668,4|0,1:2|0:0,0:0:0:0:
212,290,103217,1,4,1:2:0:0:
281,375,103570,6,0,P|327:356|392:353,1,110.000003356934,6|2,1:2|1:2,0:0:0:0:
476,288,104276,2,0,P|500:263|503:229,1,55.0000016784668,2|0,1:2|0:0,0:0:0:0:
506,188,104629,1,2,1:2:0:0:
503,78,104982,2,0,P|457:60|394:53,1,110.000003356934,2|2,1:2|1:2,0:0:0:0:
323,135,105688,6,0,L|307:245,2,110.000003356934,6|0|0,1:2|1:0|1:0,0:0:0:0:
272,36,106747,2,0,L|215:26,1,55.0000016784668,4|0,1:2|0:0,0:0:0:0:
164,41,107100,2,0,L|105:32,1,55.0000016784668,4|0,1:2|0:0,0:0:0:0:
54,33,107453,1,4,1:2:0:0:
28,143,107806,6,0,P|7:196|31:251,1,110.000003356934,6|2,1:2|1:2,0:0:0:0:
90,331,108511,2,0,L|145:321,1,55.0000016784668,2|0,1:2|0:0,0:0:0:0:
198,313,108863,1,2,1:2:0:0:
298,359,109217,2,0,P|313:312|289:252,1,110.000003356934,2|2,1:2|1:2,0:0:0:0:
239,160,109923,6,0,P|245:110|271:55,1,110.000003356934,6|0,1:2|1:0,0:0:0:0:
373,16,110629,1,2,1:2:0:0:
473,60,110982,2,0,P|494:84|495:121,1,55.0000016784668,4|0,1:2|0:0,0:0:0:0:
495,161,111335,2,0,P|490:193|463:222,1,55.0000016784668,4|0,1:2|0:0,0:0:0:0:
436,247,111688,2,0,P|389:228|325:222,1,110.000003356934,6|0,1:2|0:0,0:0:0:0:
