osu file format v14

[General]
AudioFilename: audio.mp3
AudioLeadIn: 0
PreviewTime: 93953
Countdown: 0
SampleSet: Soft
StackLeniency: 0.2
Mode: 0
LetterboxInBreaks: 0
WidescreenStoryboard: 0

[Editor]
DistanceSpacing: 0.4
BeatDivisor: 4
GridSize: 32
TimelineZoom: 8

[Metadata]
Title:Shadows feat. Such
TitleUnicode:Shadows feat. Such
Artist:Neko Hacker
ArtistUnicode:Neko Hacker
Creator:Nevertary
Version:Another
Source:
Tags:NNZN Funya future bass ネコハッカー シャドウズ フィーチャリング サチ Featured Artist FA Reincarnation japanese electronic pop j-pop jpop
BeatmapID:3733740
BeatmapSetID:1819607

[Difficulty]
HPDrainRate:4.5
CircleSize:4
OverallDifficulty:8
ApproachRate:9
SliderMultiplier:1.6
SliderTickRate:1

[Events]
//Background and Video events
0,0,"BG.jpg",0,0
Video,0,"bgv.mp4"
//Break Periods
2,33182,37923
//Storyboard Layer 0 (Background)
//Storyboard Layer 1 (Fail)
//Storyboard Layer 2 (Pass)
//Storyboard Layer 3 (Foreground)
//Storyboard Layer 4 (Overlay)
//Storyboard Sound Samples

[TimingPoints]
512,352.941176470588,4,2,1,65,1,0
512,-142.857142857143,4,2,1,65,0,0
1570,-142.857142857143,4,2,1,30,0,0
1923,-83.3333333333333,4,2,1,65,0,0
2276,-83.3333333333333,4,2,1,30,0,0
2453,-83.3333333333333,4,2,1,65,0,0
2806,-83.3333333333333,4,2,1,30,0,0
2982,-83.3333333333333,4,2,2,65,0,0
3247,-83.3333333333333,4,2,2,30,0,0
3335,-83.3333333333333,4,2,1,65,0,0
3688,-83.3333333333333,4,2,1,30,0,0
4041,-83.3333333333333,4,2,1,65,0,0
4394,-83.3333333333333,4,2,1,30,0,0
4570,-83.3333333333333,4,2,1,65,0,0
4747,-83.3333333333333,4,2,1,65,0,0
5100,-83.3333333333333,4,2,1,30,0,0
5276,-83.3333333333333,4,2,1,65,0,0
5629,-83.3333333333333,4,2,1,65,0,0
5806,-333.333333333333,4,2,1,65,0,0
6070,-333.333333333333,4,2,1,5,0,0
6159,-100,4,1,4,70,0,0
8982,-250,4,2,3,70,0,0
9335,-250,4,2,3,5,0,0
9511,-71.4285714285714,4,2,1,50,0,0
9953,-71.4285714285714,4,2,1,5,0,0
10041,-1000,4,2,1,70,0,0
10306,-1000,4,2,1,5,0,0
10394,-125,4,2,3,60,0,0
21688,-111.111111111111,4,2,3,65,0,0
32982,-166.666666666666,4,2,3,70,0,0
38629,-166.666666666666,4,2,3,30,0,0
40041,-166.666666666666,4,2,3,40,0,0
41453,-166.666666666666,4,2,3,50,0,0
42511,-142.857142857142,4,2,3,60,0,0
44188,-142.857142857142,4,2,3,5,0,0
44276,-125,4,2,3,65,0,0
49923,-111.111111111111,4,2,3,70,0,0
52747,-100,4,2,3,70,0,0
54953,-100,4,2,3,5,0,0
55041,-100,4,2,3,70,0,0
55129,-100,4,2,3,5,0,0
55217,-1000,4,2,1,70,0,0
55482,-1000,4,2,1,5,0,0
55570,-71.4285714285714,4,2,1,75,0,0
55835,-71.4285714285714,4,2,1,5,0,0
55923,-83.3333333333333,4,2,1,75,0,0
56629,-71.4285714285714,4,2,1,75,0,0
56894,-71.4285714285714,4,2,1,5,0,0
56982,-90.9090909090909,4,2,1,75,0,0
57247,-90.9090909090909,4,2,1,5,0,0
57335,-100,4,2,1,75,0,0
57688,-111.111111111111,4,2,1,75,0,0
58041,-125,4,2,1,75,0,0
58306,-125,4,2,1,5,0,0
58394,-125,4,2,1,75,0,0
58659,-125,4,2,1,5,0,0
58747,-125,4,2,1,75,0,0
59717,-125,4,2,1,5,0,0
59806,-125,4,2,1,75,0,0
61129,-125,4,2,1,5,0,0
61217,-125,4,2,1,75,0,0
61482,-125,4,2,1,5,0,0
61570,-111.111111111111,4,2,1,75,0,0
61923,-100,4,2,1,75,0,0
62276,-62.5,4,2,1,75,0,0
62541,-62.5,4,2,1,5,0,0
62629,-71.4285714285714,4,2,1,75,0,0
62894,-71.4285714285714,4,2,1,5,0,0
62982,-76.9230769230769,4,2,1,75,0,0
63335,-83.3333333333333,4,2,1,75,0,0
63688,-90.9090909090909,4,2,1,75,0,0
63953,-90.9090909090909,4,2,1,5,0,0
64041,-71.4285714285714,4,2,1,75,0,0
64306,-71.4285714285714,4,2,1,5,0,0
64394,-71.4285714285714,4,2,1,75,0,0
65364,-71.4285714285714,4,2,1,5,0,0
65453,-83.3333333333333,4,2,1,75,0,0
66864,-71.4285714285714,4,2,1,75,0,0
67129,-71.4285714285714,4,2,1,5,0,0
67217,-83.3333333333333,4,2,1,75,0,0
67923,-71.4285714285714,4,2,1,75,0,0
68188,-71.4285714285714,4,2,1,5,0,0
68276,-90.9090909090909,4,2,1,75,0,0
68541,-90.9090909090909,4,2,1,5,0,0
68629,-100,4,2,1,75,0,0
68982,-111.111111111111,4,2,1,75,0,0
69335,-125,4,2,1,75,0,0
69600,-125,4,2,1,5,0,0
69688,-71.4285714285714,4,2,1,75,0,0
69953,-71.4285714285714,4,2,1,5,0,0
70041,-66.6666666666667,4,2,1,75,0,0
70306,-66.6666666666667,4,2,1,5,0,0
70394,-58.8235294117647,4,2,1,75,0,0
70659,-58.8235294117647,4,2,1,5,0,0
70747,-66.6666666666667,4,2,1,75,0,0
71011,-66.6666666666667,4,2,1,5,0,0
71100,-83.3333333333333,4,2,1,75,0,0
71364,-83.3333333333333,4,2,1,5,0,0
71453,-83.3333333333333,4,2,1,75,0,0
71806,-100,4,2,1,75,0,0
72159,-111.111111111111,4,2,1,75,0,0
72423,-111.111111111111,4,2,1,5,0,0
72511,-83.3333333333333,4,2,1,75,0,0
72776,-83.3333333333333,4,2,1,5,0,0
72864,-83.3333333333333,4,2,1,75,0,0
73217,-100,4,2,1,75,0,0
73835,-100,4,2,1,5,0,0
73923,-83.3333333333333,4,2,1,75,0,0
74188,-83.3333333333333,4,2,1,5,0,0
74276,-100,4,2,1,75,0,0
75247,-100,4,2,1,5,0,0
75335,-83.3333333333333,4,2,1,75,0,0
75600,-83.3333333333333,4,2,1,5,0,0
75688,-83.3333333333333,4,2,1,75,0,0
76041,-83.3333333333333,4,2,1,5,0,0
76217,-83.3333333333333,4,2,1,75,0,0
77806,-83.3333333333333,4,2,2,75,0,0
78159,352.941176470588,6,2,1,75,1,0
78159,-83.3333333333333,6,2,1,75,0,0
78335,-83.3333333333333,6,2,2,75,0,0
80188,-83.3333333333333,6,2,2,5,0,0
80276,-83.3333333333333,6,2,2,75,0,0
82306,-83.3333333333333,6,2,2,5,0,0
82394,-83.3333333333333,6,2,2,75,0,0
84423,-83.3333333333333,6,2,2,5,0,0
84511,-83.3333333333333,6,2,2,75,0,0
86629,-83.3333333333333,6,2,1,75,0,0
86806,-83.3333333333333,6,2,2,75,0,0
88659,-83.3333333333333,6,2,2,5,0,0
88747,-83.3333333333333,6,2,2,75,0,0
90776,-83.3333333333333,6,2,2,5,0,0
90864,-83.3333333333333,6,2,2,80,0,0
92894,-83.3333333333333,6,2,2,5,0,0
92982,-83.3333333333333,6,2,2,75,0,0
95100,-62.5,6,2,1,80,0,1
95364,-62.5,6,2,1,5,0,1
95453,-62.5,6,2,1,80,0,1
95717,-62.5,6,2,1,5,0,1
95806,-62.5,6,2,1,80,0,1
96070,-62.5,6,2,1,5,0,1
96158,-55.5555555555556,6,2,1,80,0,1
96511,-62.5,6,2,1,80,0,1
96776,-62.5,6,2,1,5,0,1
96864,-66.6666666666667,6,2,1,80,0,1
97129,-66.6666666666667,6,2,1,5,0,1
97217,-71.4285714285714,6,2,1,80,0,1
98276,-66.6666666666667,6,2,2,80,0,1
98541,-66.6666666666667,6,2,2,5,0,1
98629,-58.8235294117647,6,2,2,80,0,1
98894,-58.8235294117647,6,2,2,5,0,1
98982,-52.6315789473684,6,2,2,80,0,1
99247,-52.6315789473684,6,2,2,5,0,1
99335,-62.5,6,2,1,80,0,1
99600,-62.5,6,2,1,5,0,1
99688,-62.5,6,2,1,80,0,1
99953,-62.5,6,2,1,5,0,1
100041,-62.5,6,2,1,80,0,1
100306,-62.5,6,2,1,5,0,1
100394,-62.5,6,2,1,80,0,1
100747,-62.5,6,2,1,80,0,1
101011,-62.5,6,2,1,5,0,1
101100,-55.5555555555556,6,2,1,80,0,1
101364,-55.5555555555556,6,2,1,5,0,1
101453,-62.5,6,2,1,80,0,1
102511,-55.5555555555556,6,2,2,80,0,1
102776,-55.5555555555556,6,2,2,5,0,1
102864,-50,6,2,2,80,0,1
103129,-50,6,2,2,5,0,1
103217,-45.4545454545455,6,2,2,80,0,1
103482,-45.4545454545455,6,2,2,5,0,1
103570,-62.5,6,2,1,80,0,1
103835,-62.5,6,2,1,5,0,1
103923,-62.5,6,2,1,80,0,1
104188,-62.5,6,2,1,5,0,1
104276,-62.5,6,2,1,80,0,1
104541,-62.5,6,2,1,5,0,1
104629,-55.5555555555556,6,2,1,80,0,1
104982,-62.5,6,2,1,80,0,1
105247,-62.5,6,2,1,5,0,1
105335,-66.6666666666667,6,2,1,80,0,1
105600,-66.6666666666667,6,2,1,5,0,1
105688,-71.4285714285714,6,2,1,80,0,1
106747,-66.6666666666667,6,2,2,80,0,1
107011,-66.6666666666667,6,2,2,5,0,1
107100,-62.5,6,2,2,80,0,1
107364,-62.5,6,2,2,5,0,1
107453,-58.8235294117647,6,2,2,80,0,1
107717,-58.8235294117647,6,2,2,5,0,1
107806,-62.5,6,2,1,80,0,1
108070,-62.5,6,2,1,5,0,1
108159,-62.5,6,2,1,80,0,1
108423,-62.5,6,2,1,5,0,1
108511,-62.5,6,2,1,80,0,1
108776,-62.5,6,2,1,5,0,1
108864,-62.5,6,2,1,80,0,1
109217,-62.5,6,2,1,80,0,1
109482,-62.5,6,2,1,5,0,1
109570,-55.5555555555556,6,2,1,80,0,1
109835,-55.5555555555556,6,2,1,5,0,1
109923,-62.5,6,2,1,80,0,1
110188,-62.5,6,2,1,5,0,1
110276,-62.5,6,2,1,80,0,1
110541,-62.5,6,2,1,5,0,1
110629,-62.5,6,2,1,80,0,1
110894,-62.5,6,2,1,5,0,1
110982,-55.5555555555556,6,2,2,80,0,1
111247,-55.5555555555556,6,2,2,5,0,1
111335,-50,6,2,2,80,0,1
111600,-50,6,2,2,5,0,1
111688,-45.4545454545455,6,2,2,80,0,1
112041,-100,6,2,1,5,0,0

[Colours]
Combo1 : 136,170,213
Combo2 : 50,87,124
Combo3 : 232,207,151

[HitObjects]
112,63,159,6,0,L|121:18,2,40,2|2|2,0:0|0:0|0:0,0:0:0:0:
40,200,512,6,0,P|44:105|123:216,1,335.999989746094,6|0,1:2|0:0,0:0:0:0:
338,43,1923,6,0,B|227:57|293:134|178:145,1,191.999994140625,2|0,1:2|0:0,0:0:0:0:
186,144,2453,2,0,B|297:158|231:235|346:246,1,191.999994140625,2|0,1:2|0:0,0:0:0:0:
337,245,2982,2,0,P|278:263|215:322,1,143.999995605469,6|0,1:2|0:0,0:0:0:0:
136,355,3335,6,0,P|66:351|95:256,1,191.999994140625,6|0,1:2|0:0,0:0:0:0:
241,182,4041,2,0,P|272:244|175:267,1,191.999994140625,2|0,1:2|0:0,0:0:0:0:
42,195,4570,1,2,0:0:0:0:
40,186,4659,1,0,0:0:0:0:
39,177,4747,2,0,P|77:118|145:190,1,191.999994140625,2|0,1:2|0:0,0:0:0:0:
89,283,5276,6,0,B|200:269|134:192|249:181,1,191.999994140625,6|0,1:2|1:0,0:0:0:0:
310,130,5717,5,0,1:0:0:0:
312,122,5806,2,0,L|321:84,1,35.9999989013672,10|0,0:0|0:0,0:0:0:0:
400,64,6159,6,0,L|391:19,3,40,4|0|0|0,1:2|0:0|0:0|0:0,0:0:0:0:
485,86,6511,2,0,L|476:41,3,40
445,179,6864,6,0,L|438:219,3,40
360,201,7216,2,0,L|353:241,3,40
384,321,7570,5,4,1:2:0:0:
359,328,7658,1,0,0:0:0:0:
335,327,7747,1,0,0:0:0:0:
311,319,7834,1,0,0:0:0:0:
291,303,7923,6,0,P|275:290|253:284,3,40
166,237,8276,2,0,P|182:224|204:218,3,40
83,239,8629,5,0,0:0:0:0:
50,226,8717,1,0,0:0:0:0:
27,200,8805,1,0,0:0:0:0:
19,167,8893,1,0,0:0:0:0:
25,133,8982,6,0,P|46:108|77:99,1,64,6|0,1:2|0:0,0:0:0:0:
49,211,9511,6,0,P|138:176|29:143,1,279.999991455078,2|0,0:0|0:0,0:0:0:0:
0,279,10041,6,0,L|2:290,1,12,12|0,0:0|0:0,0:0:0:0:
13,366,10394,6,0,L|25:303,1,64,6|0,1:2|0:0,0:0:0:0:
122,230,10747,2,0,L|135:297,1,64,2|0,1:2|0:0,0:0:0:0:
241,353,11100,5,2,1:2:0:0:
316,368,11276,1,0,0:0:0:0:
373,315,11453,1,0,1:0:0:0:
325,217,11629,6,0,P|296:240|288:270,1,64,2|0,0:0|1:0,0:0:0:0:
175,166,11982,2,0,L|238:178,1,64,2|0,0:0|1:0,0:0:0:0:
377,144,12335,6,0,P|410:96|377:38,1,128,2|0,0:0|0:0,0:0:0:0:
237,89,12864,1,0,1:0:0:0:
299,36,13041,1,2,0:0:0:0:
119,23,13217,6,0,P|148:46|156:76,1,64,2|0,1:2|0:0,0:0:0:0:
63,118,13570,2,0,P|34:141|26:171,1,64,2|0,1:2|0:0,0:0:0:0:
146,214,13923,2,0,B|217:229|175:274|242:288,1,128,2|0,1:2|1:0,0:0:0:0:
89,364,14453,6,0,L|101:297,1,64,2|0,0:0|1:0,0:0:0:0:
6,220,14806,2,0,L|18:284,1,64,2|0,0:0|1:0,0:0:0:0:
153,174,15159,6,0,P|117:125|59:143,1,128,2|0,0:0|0:0,0:0:0:0:
192,279,15688,1,0,1:0:0:0:
116,247,15865,1,2,0:0:0:0:
316,212,16041,6,0,B|387:197|345:152|412:138,2,128,2|2|0,1:2|1:2|1:0,0:0:0:0:
242,98,16923,2,0,P|276:110|293:136,1,64,2|0,0:0|1:0,0:0:0:0:
389,278,17276,6,0,P|402:307|406:339,1,64,2|0,0:0|1:0,0:0:0:0:
262,321,17629,2,0,P|249:350|245:382,1,64,2|0,0:0|1:0,0:0:0:0:
194,273,17982,6,0,P|190:241|176:212,1,64,2|0,0:0|1:0,0:0:0:0:
18,288,18335,2,0,P|51:246|112:272,1,128,2|0,0:0|0:0,0:0:0:0:
110,166,18864,6,0,B|39:151|81:106|14:92,1,128,2|0,1:2|1:0,0:0:0:0:
134,88,19394,2,0,P|161:49|238:49,1,128,2|0,0:0|0:0,0:0:0:0:
363,38,19923,6,0,P|329:50|312:76,1,64,2|0,1:2|0:0,0:0:0:0:
457,136,20276,2,0,P|463:100|449:72,1,64,2|0,1:2|0:0,0:0:0:0:
321,166,20629,5,0,1:0:0:0:
326,174,20806,2,0,P|353:197|384:199,1,64,2|0,0:0|1:0,0:0:0:0:
373,38,21159,1,0,0:0:0:0:
363,38,21335,2,0,P|328:50|312:76,1,64,2|8,1:2|0:0,0:0:0:0:
241,135,21600,5,8,0:0:0:0:
232,137,21688,2,0,L|119:158,1,107.999996704102,6|8,1:2|0:0,0:0:0:0:
114,162,22041,1,0,1:0:0:0:
40,253,22217,5,10,0:0:0:0:
62,332,22394,2,0,P|96:319|115:288,1,71.9999978027344,2|8,1:2|0:0,0:0:0:0:
118,274,22659,1,8,0:0:0:0:
119,265,22747,1,0,1:0:0:0:
305,227,22923,6,0,L|234:240,1,71.9999978027344,10|0,0:0|1:0,0:0:0:0:
61,119,23276,2,0,P|95:132|114:163,1,71.9999978027344,10|0,0:0|1:0,0:0:0:0:
367,127,23629,6,0,L|218:155,1,143.999995605469,10|8,0:0|0:0,0:0:0:0:
208,158,24070,1,8,0:0:0:0:
199,159,24159,1,0,1:0:0:0:
242,71,24335,1,10,0:0:0:0:
367,127,24511,6,0,P|434:125|461:91,1,107.999996704102,2|8,1:2|0:0,0:0:0:0:
461,82,24864,2,0,P|448:119|444:151,1,71.9999978027344,2|8,1:2|0:0,0:0:0:0:
242,71,25217,6,0,P|281:36|333:41,1,107.999996704102,2|8,1:2|0:0,0:0:0:0:
342,46,25570,1,0,1:0:0:0:
350,219,25747,5,10,0:0:0:0:
348,229,25835,1,8,0:0:0:0:
346,239,25923,1,0,1:0:0:0:
208,156,26100,2,0,P|242:169|261:200,1,71.9999978027344,10|0,0:0|1:0,0:0:0:0:
75,159,26453,6,0,B|158:148|105:91|188:77,1,143.999995605469,10|8,0:0|0:0,0:0:0:0:
200,75,26894,1,8,0:0:0:0:
210,75,26982,1,0,1:0:0:0:
94,31,27159,1,10,0:0:0:0:
307,10,27335,6,0,L|286:117,1,107.999996704102,2|8,1:2|0:0,0:0:0:0:
338,178,27688,2,0,P|318:148|285:135,1,71.9999978027344,2|8,1:2|0:0,0:0:0:0:
171,208,28041,1,0,1:0:0:0:
170,216,28217,2,0,L|156:287,1,71.9999978027344,10|0,0:0|1:0,0:0:0:0:
13,205,28570,6,0,P|47:195|67:166,1,71.9999978027344,10|0,0:0|1:0,0:0:0:0:
78,0,28923,2,0,P|68:34|84:66,1,71.9999978027344,10|0,0:0|1:0,0:0:0:0:
229,161,29276,2,0,P|203:135|168:133,1,71.9999978027344,10|0,0:0|1:0,0:0:0:0:
272,60,29629,1,2,0:0:0:0:
274,50,29717,1,8,0:0:0:0:
276,40,29805,1,0,1:0:0:0:
352,143,29982,5,10,0:0:0:0:
362,141,30159,2,0,L|478:118,1,107.999996704102,0|8,1:0|0:0,0:0:0:0:
480,118,30511,1,0,1:0:0:0:
449,281,30688,2,0,L|462:211,1,71.9999978027344,10|0,0:0|1:0,0:0:0:0:
473,371,31041,1,2,0:0:0:0:
483,373,31129,1,8,0:0:0:0:
493,375,31217,1,0,1:0:0:0:
326,304,31394,6,0,P|289:303|263:327,1,71.9999978027344,10|0,0:0|1:0,0:0:0:0:
164,193,31747,1,10,0:0:0:0:
160,183,31835,1,8,0:0:0:0:
157,173,31923,1,0,1:0:0:0:
91,367,32100,2,0,P|123:351|157:360,1,71.9999978027344,8|0,0:0|1:0,0:0:0:0:
230,110,32453,5,8,0:0:0:0:
190,275,32629,1,8,0:0:0:0:
63,163,32806,1,8,0:0:0:0:
160,183,32982,5,4,0:0:0:0:
123,117,38629,6,0,P|118:77|100:20,2,95.9999970703126,2|0|0,0:0|0:0|0:0,0:0:0:0:
165,203,39511,1,2,0:0:0:0:
168,196,39688,2,0,P|182:175|203:166,1,47.9999985351563,0|2,0:0|0:0,0:0:0:0:
98,247,40041,6,0,P|43:223|32:191,1,95.9999970703126,2|0,0:0|0:0,0:0:0:0:
0,88,40570,2,0,P|24:94|39:112,1,47.9999985351563,2|0,0:0|0:0,0:0:0:0:
149,58,40923,2,0,P|127:71|117:91,1,47.9999985351563,2|0,0:0|0:0,0:0:0:0:
220,171,41276,5,0,0:0:0:0:
220,163,41453,2,0,P|225:123|243:66,1,95.9999970703126,2|0,0:0|0:0,0:0:0:0:
321,14,41982,2,0,P|335:59|342:107,1,95.9999970703126,2|0,0:0|0:0,0:0:0:0:
399,177,42511,2,0,P|413:156|446:144,1,55.9999982910157,2|0,0:0|0:0,0:0:0:0:
475,250,42864,5,0,0:0:0:0:
480,257,43041,2,0,P|491:282|495:314,1,55.9999982910157,2|0,0:0|0:0,0:0:0:0:
385,318,43394,1,0,0:0:0:0:
380,325,43571,2,0,P|369:350|365:382,1,55.9999982910157,2|0,0:0|0:0,0:0:0:0:
237,246,43923,6,0,P|239:219|241:247,1,83.9999974365235,2|0,0:0|0:0,0:0:0:0:
222,319,44276,6,0,L|209:382,1,64,6|0,1:2|0:0,0:0:0:0:
103,250,44629,2,0,L|115:315,1,64,10|0,0:0|0:0,0:0:0:0:
43,193,44982,2,0,P|16:181|1:150,2,64,2|0|10,1:2|0:0|0:0,0:0:0:0:
81,120,45511,1,2,0:0:0:0:
164,171,45688,5,0,1:0:0:0:
166,162,45864,2,0,L|178:100,1,64,2|8,0:0|0:0,0:0:0:0:
259,10,46217,2,0,L|271:75,1,64,2|0,0:0|1:0,0:0:0:0:
333,135,46570,2,0,P|352:113|386:108,2,64,2|10|0,0:0|0:0|0:0,0:0:0:0:
258,278,47100,5,2,1:2:0:0:
275,193,47276,1,0,0:0:0:0:
360,211,47453,1,10,0:0:0:0:
342,295,47629,1,0,0:0:0:0:
248,280,47806,6,0,P|190:299|139:348,1,128,2|8,1:2|0:0,0:0:0:0:
13,363,48335,2,0,P|45:350|61:323,1,64,2|0,0:0|1:0,0:0:0:0:
62,214,48688,2,0,L|-2:226,1,64,2|8,0:0|0:0,0:0:0:0:
206,234,49041,6,0,P|174:221|158:194,1,64,2|0,0:0|1:0,0:0:0:0:
159,95,49394,1,0,0:0:0:0:
168,93,49570,2,0,L|232:80,1,64,10|0,0:0|0:0,0:0:0:0:
406,41,49923,6,0,P|374:54|354:91,1,71.9999978027344,6|0,1:2|0:0,0:0:0:0:
476,169,50276,2,0,P|463:137|426:117,1,71.9999978027344,0|0,1:0|0:0,0:0:0:0:
319,163,50629,2,0,P|288:144|275:112,1,71.9999978027344,2|0,1:2|0:0,0:0:0:0:
395,196,50982,2,0,P|376:226|344:239,1,71.9999978027344,0|0,1:0|0:0,0:0:0:0:
193,90,51335,6,0,L|150:81,3,35.9999989013672,2|0|0|0,1:2|0:0|0:0|0:0,0:0:0:0:
74,81,51688,2,0,L|83:38,3,35.9999989013672,2|0|0|0,1:2|0:0|0:0|0:0,0:0:0:0:
156,168,52041,2,0,L|147:211,3,35.9999989013672,2|0|0|0,1:2|0:0|0:0|0:0,0:0:0:0:
37,159,52394,2,0,L|80:168,3,35.9999989013672,2|0|0|0,1:2|0:0|0:0|0:0,0:0:0:0:
193,90,52747,5,2,1:2:0:0:
237,201,52923,1,2,1:2:0:0:
308,48,53100,1,2,1:2:0:0:
352,159,53276,1,2,1:2:0:0:
489,16,53453,5,10,0:0:0:0:
452,1,53541,1,8,0:0:0:0:
415,17,53629,1,8,0:0:0:0:
399,53,53717,1,8,0:0:0:0:
415,90,53806,1,10,0:0:0:0:
452,106,53894,1,8,0:0:0:0:
489,90,53982,1,8,0:0:0:0:
504,53,54070,1,8,0:0:0:0:
489,16,54159,5,0,1:0:0:0:
352,159,54688,5,2,0:0:0:0:
189,205,54864,6,0,P|179:183|183:162,1,40,2|0,0:0|0:0,0:0:0:0:
256,153,55041,2,0,P|266:175|262:196,1,40,2|0,0:0|0:0,0:0:0:0:
245,268,55217,6,0,L|247:280,1,12,12|0,0:0|0:0,0:0:0:0:
310,352,55570,6,0,P|234:312|149:313,1,167.999994873047,4|0,1:3|0:0,0:0:0:0:
78,338,55923,2,0,P|129:324|148:281,1,95.9999970703126,10|0,0:0|0:0,0:0:0:0:
69,197,56276,2,0,P|18:211|-1:254,1,95.9999970703126,2|0,0:0|1:0,0:0:0:0:
172,116,56629,6,0,B|155:8|155:8|160:43|138:72,1,167.999994873047,10|0,0:0|0:0,0:0:0:0:
153,197,56982,6,0,B|182:202|195:243|195:243|193:201|217:184,1,132.00000402832,2|0,1:2|0:0,0:0:0:0:
288,151,57335,2,0,P|330:157|356:189,1,80,10|0,0:0|1:0,0:0:0:0:
481,109,57688,2,0,P|449:125|436:164,1,71.9999978027344,2|0,0:0|1:0,0:0:0:0:
366,43,58041,6,0,P|383:69|372:43,1,96,10|0,0:0|0:0,0:0:0:0:
276,35,58394,6,0,P|228:43|187:75,1,96,2|0,1:2|0:0,0:0:0:0:
121,105,58747,2,0,L|110:39,1,64,10|0,0:0|0:0,0:0:0:0:
38,130,59100,2,0,L|22:194,1,64,2|0,0:0|1:0,0:0:0:0:
111,331,59453,6,0,P|83:301|26:301,1,96,10|0,0:0|0:0,0:0:0:0:
118,348,59806,6,0,L|245:319,1,128,0|8,1:0|0:0,0:0:0:0:
376,376,60335,1,0,1:0:0:0:
367,374,60511,2,0,P|338:361|323:328,1,64,2|0,0:0|1:0,0:0:0:0:
420,139,60864,6,0,L|401:236,1,96,10|0,0:0|0:0,0:0:0:0:
437,301,61217,6,0,P|405:262|356:261,1,96,6|0,1:2|0:0,0:0:0:0:
285,276,61570,2,0,L|271:206,1,71.9999978027344,10|0,0:0|0:0,0:0:0:0:
136,115,61923,2,0,P|158:153|192:162,1,80,2|0,0:0|1:0,0:0:0:0:
420,104,62276,6,0,B|312:117|388:192|269:206,1,192,10|0,0:0|0:0,0:0:0:0:
163,258,62629,6,0,B|99:278|100:352|100:352|114:327|140:327,1,167.999994873047,2|0,1:2|0:0,0:0:0:0:
214,334,62982,2,0,P|211:294|158:257,1,103.999995239258,10|0,0:0|1:0,0:0:0:0:
18,197,63335,2,0,L|-1:299,1,95.9999970703126,2|0,0:0|1:0,0:0:0:0:
113,24,63688,6,0,P|84:84|28:66,1,132.00000402832,14|0,0:0|0:0,0:0:0:0:
196,63,64041,6,0,B|300:82|231:133|331:149,1,167.999994873047,6|0,1:2|0:0,0:0:0:0:
351,151,64394,1,8,0:0:0:0:
235,213,64570,1,0,1:2:0:0:
342,63,64747,2,0,P|401:68|431:115,1,111.999996582031,2|0,0:0|1:0,0:0:0:0:
379,358,65100,5,8,0:0:0:0:
478,322,65276,1,2,0:0:0:0:
477,312,65453,2,0,P|441:247|334:255,1,191.999994140625,6|8,1:2|0:0,0:0:0:0:
204,374,65982,5,2,1:2:0:0:
21,255,66159,1,2,0:0:0:0:
156,274,66335,1,2,1:2:0:0:
72,384,66511,5,10,0:0:0:0:
74,368,66599,1,8,0:0:0:0:
76,352,66687,1,8,0:0:0:0:
79,336,66775,1,8,0:0:0:0:
82,321,66864,6,0,B|123:268|190:283|190:283|160:295|154:324,1,167.999994873047,6|0,1:2|0:0,0:0:0:0:
225,356,67217,2,0,P|265:323|272:272,1,95.9999970703126,10|0,0:0|0:0,0:0:0:0:
172,123,67570,2,0,P|132:156|125:207,1,95.9999970703126,2|0,0:0|1:0,0:0:0:0:
0,6,67923,6,0,P|33:58|129:42,1,167.999994873047,10|0,0:0|0:0,0:0:0:0:
216,35,68276,6,0,B|291:52|251:86|324:103,1,132.00000402832,2|0,1:2|0:0,0:0:0:0:
400,125,68629,2,0,P|404:87|383:51,1,80,10|0,0:0|1:0,0:0:0:0:
267,210,68982,2,0,L|340:195,1,71.9999978027344,2|0,0:0|1:0,0:0:0:0:
448,305,69335,6,0,P|479:301|449:302,1,96,14|0,0:0|0:0,0:0:0:0:
371,313,69688,6,0,B|302:325|302:325|282:354|282:354|219:366,1,167.999994873047,6|0,1:2|0:0,0:0:0:0:
160,322,70041,6,0,B|150:294|167:276|190:265|215:272|228:282|237:303|242:326|236:346|219:367,1,180.000006866455,10|0,0:0|0:0,0:0:0:0:
71,362,70394,6,0,B|41:355|13:382|13:382|70:334|68:250,1,204.000003890991,2|0,0:0|0:0,0:0:0:0:
69,140,70747,6,0,B|71:74|0:44|0:44|15:75|1:103,1,180.000006866455,10|0,0:0|0:0,0:0:0:0:
163,172,71100,6,0,P|224:171|260:99,1,143.999995605469,0|0,1:0|0:0,0:0:0:0:
259,92,71453,2,0,P|229:50|185:42,1,95.9999970703126,8|0,0:0|1:0,0:0:0:0:
158,182,71806,2,0,P|205:190|238:177,1,80,2|0,0:0|1:0,0:0:0:0:
386,52,72159,6,0,P|404:27|380:51,1,107.999996704102,10|0,0:0|0:0,0:0:0:0:
390,128,72511,6,0,P|395:181|426:266,1,143.999995605469,6|0,1:2|0:0,0:0:0:0:
441,349,72864,2,0,P|421:292|385:278,1,95.9999970703126,10|0,0:0|0:0,0:0:0:0:
273,286,73217,2,0,P|232:330|232:353,1,80,2|0,0:0|1:0,0:0:0:0:
20,363,73570,6,0,P|79:360|108:308,1,120,10|0,0:0|0:0,0:0:0:0:
127,229,73923,6,0,B|42:217|100:166|11:155,1,143.999995605469,6|0,1:2|0:0,0:0:0:0:
1,153,74276,1,10,0:0:0:0:
71,85,74453,1,2,1:2:0:0:
193,162,74629,2,0,L|209:82,1,80,2|0,0:0|1:0,0:0:0:0:
358,249,74982,6,0,P|316:189|273:188,1,120,10|0,0:0|0:0,0:0:0:0:
301,295,75335,6,0,L|446:266,1,143.999995605469,6|0,1:2|0:0,0:0:0:0:
456,266,75688,1,8,0:0:0:0:
287,284,75864,6,0,L|382:265,1,95.9999970703126,2|0,1:2|0:0,0:0:0:0:
381,265,76217,1,0,1:0:0:0:
175,213,76394,2,0,L|273:194,1,95.9999970703126,8|0,0:0|0:0,0:0:0:0:
473,120,76747,6,0,P|427:113|398:67,1,95.9999970703126,2|0,1:2|1:0,0:0:0:0:
397,58,77011,1,8,0:0:0:0:
397,48,77100,1,8,0:0:0:0:
486,35,77276,1,0,1:0:0:0:
235,29,77453,6,0,P|281:36|310:82,1,95.9999970703126,2|0,0:0|1:0,0:0:0:0:
301,247,77806,1,8,0:0:0:0:
296,276,77894,1,8,0:0:0:0:
292,306,77982,1,8,0:0:0:0:
287,336,78070,1,8,0:0:0:0:
283,365,78158,5,4,1:3:0:0:
383,319,78335,1,8,0:0:0:0:
205,295,78511,2,0,P|165:322|158:371,1,95.9999970703126,0|0,1:0|0:0,0:0:0:0:
87,187,78864,5,0,1:0:0:0:
0,285,79041,1,8,0:0:0:0:
10,284,79129,1,8,0:0:0:0:
20,282,79217,2,0,B|100:271|56:222|144:207,1,143.999995605469,2|8,1:2|0:0,0:0:0:0:
157,207,79570,1,0,1:0:0:0:
76,149,79747,1,8,0:0:0:0:
281,72,79923,6,0,P|210:80|161:31,1,143.999995605469,2|0,1:2|0:0,0:0:0:0:
154,16,80276,5,6,1:2:0:0:
189,113,80453,1,8,0:0:0:0:
359,16,80629,2,0,P|373:40|390:107,1,95.9999970703126,0|0,1:0|0:0,0:0:0:0:
358,329,80982,5,0,1:0:0:0:
274,304,81159,1,8,0:0:0:0:
275,294,81247,1,8,0:0:0:0:
277,285,81335,2,0,P|327:238|397:247,1,143.999995605469,2|8,1:2|0:0,0:0:0:0:
409,255,81688,1,0,1:0:0:0:
324,202,81864,1,8,0:0:0:0:
434,119,82041,6,0,P|481:124|434:122,1,143.999995605469,2|0,1:2|0:0,0:0:0:0:
359,111,82394,5,6,1:2:0:0:
402,17,82570,1,8,0:0:0:0:
259,109,82747,2,0,P|219:82|212:33,1,95.9999970703126,0|0,1:0|0:0,0:0:0:0:
15,194,83100,5,2,1:2:0:0:
81,78,83276,1,8,0:0:0:0:
85,88,83364,1,8,0:0:0:0:
89,97,83453,2,0,P|101:142|115:239,1,143.999995605469,2|8,1:2|0:0,0:0:0:0:
118,255,83806,1,0,1:0:0:0:
151,162,83982,1,8,0:0:0:0:
35,297,84159,6,0,P|100:283|155:336,1,143.999995605469,2|0,1:2|0:0,0:0:0:0:
226,374,84511,5,6,1:2:0:0:
297,308,84688,1,10,0:0:0:0:
415,373,84864,2,0,P|429:349|446:282,1,95.9999970703126,2|0,1:2|0:0,0:0:0:0:
456,95,85217,5,0,1:0:0:0:
378,202,85394,1,8,0:0:0:0:
376,212,85482,1,8,0:0:0:0:
374,222,85570,1,2,1:2:0:0:
339,103,85747,5,0,1:0:0:0:
337,92,85835,1,0,1:0:0:0:
336,82,85923,2,0,P|327:56|310:39,1,47.9999985351563,8|8,0:0|0:0,0:0:0:0:
269,151,86100,2,0,P|253:169|246:191,1,47.9999985351563,8|8,0:0|0:0,0:0:0:0:
221,68,86276,2,0,P|212:42|195:25,1,47.9999985351563,2|0,1:2|1:0,0:0:0:0:
154,137,86453,2,0,P|138:155|131:177,1,47.9999985351563,8|8,0:0|0:0,0:0:0:0:
6,16,86629,5,6,1:2:0:0:
104,42,86806,1,8,0:0:0:0:
15,207,86982,2,0,L|32:110,1,95.9999970703126,0|0,1:0|0:0,0:0:0:0:
221,68,87335,5,0,1:0:0:0:
128,183,87511,1,8,0:0:0:0:
138,182,87600,1,8,0:0:0:0:
147,180,87688,2,0,B|204:170|204:170|223:151|223:151|288:140,1,143.999995605469,2|8,1:2|0:0,0:0:0:0:
295,140,88041,1,0,1:0:0:0:
365,206,88217,1,8,0:0:0:0:
427,66,88394,6,0,P|444:22|424:64,1,143.999995605469,2|0,1:2|0:0,0:0:0:0:
398,136,88747,5,6,1:2:0:0:
328,70,88923,1,8,0:0:0:0:
297,243,89100,2,0,L|280:340,1,95.9999970703126,0|0,1:0|0:0,0:0:0:0:
163,158,89453,5,0,1:0:0:0:
90,299,89629,1,8,0:0:0:0:
83,293,89717,1,8,0:0:0:0:
77,288,89806,2,0,B|59:271|36:275|36:275|133:255,1,143.999995605469,2|8,1:2|0:0,0:0:0:0:
149,253,90159,1,0,1:0:0:0:
132,351,90335,1,8,0:0:0:0:
297,316,90511,6,0,B|307:294|329:288|329:288|232:307,1,143.999995605469,2|0,1:2|0:0,0:0:0:0:
219,311,90864,5,6,1:2:0:0:
240,212,91041,1,8,0:0:0:0:
426,246,91217,2,0,L|409:343,1,95.9999970703126,0|0,1:0|0:0,0:0:0:0:
371,119,91570,5,2,1:2:0:0:
505,175,91747,1,8,0:0:0:0:
496,173,91835,1,8,0:0:0:0:
487,171,91923,2,0,B|383:152|383:152|355:183,1,143.999995605469,2|8,1:2|0:0,0:0:0:0:
346,193,92276,1,0,1:0:0:0:
406,114,92453,1,8,0:0:0:0:
246,65,92629,6,0,P|205:40|247:61,1,143.999995605469,2|0,1:2|0:0,0:0:0:0:
310,105,92982,5,6,1:2:0:0:
250,184,93159,1,8,0:0:0:0:
113,135,93335,2,0,L|96:38,1,95.9999970703126,0|0,1:0|0:0,0:0:0:0:
5,315,93688,5,0,1:0:0:0:
112,237,93865,1,8,0:0:0:0:
122,235,93953,1,8,0:0:0:0:
132,233,94041,1,2,1:2:0:0:
247,337,94218,5,0,1:0:0:0:
258,335,94306,1,0,1:0:0:0:
268,333,94394,2,0,L|317:325,1,47.9999985351563,10|8,0:0|0:0,0:0:0:0:
411,258,94571,2,0,L|363:250,1,47.9999985351563,10|8,0:0|0:0,0:0:0:0:
268,184,94747,2,0,L|317:176,1,47.9999985351563,2|0,1:2|1:0,0:0:0:0:
411,109,94924,2,0,L|363:101,1,47.9999985351563,8|8,0:0|0:0,0:0:0:0:
116,160,95100,6,0,B|64:144|72:85|72:85|133:60|159:113,1,192,4|0,1:3|0:0,0:0:0:0:
215,251,95453,2,0,B|226:303|172:325|172:325|120:285|152:236,1,192,2|0,1:2|0:0,0:0:0:0:
243,122,95806,2,0,B|282:85|328:121|328:121|320:186|261:183,1,192,2|0,1:2|0:0,0:0:0:0:
116,160,96158,2,0,B|83:140|92:94|92:94|139:82|160:112,1,143.999995605469,2|0,1:2|0:0,0:0:0:0:
305,264,96511,6,0,B|377:251|377:251|415:265|415:265|492:251,1,192,2|0,1:2|0:0,0:0:0:0:
332,334,96864,2,0,B|317:372|271:374|248:345|252:313|266:273|318:261,1,180.000006866455,2|0,1:2|0:0,0:0:0:0:
385,151,97217,6,0,B|430:101|409:45|409:45|459:78|515:54,2,223.999993164063,6|0|0,1:2|1:0|1:0,0:0:0:0:
173,78,98100,5,0,0:0:0:0:
168,72,98188,1,0,0:0:0:0:
162,66,98276,2,0,P|168:4|164:66,1,180.000006866455,4|0,1:2|0:0,0:0:0:0:
276,99,98629,6,0,P|316:43|277:100,1,204.000003890991,4|0,1:2|0:0,0:0:0:0:
368,208,98982,6,0,P|437:178|372:214,1,227.999993911743,4|0,1:2|2:0,0:0:0:0:
214,332,99335,6,0,B|179:383|118:364|118:364|168:363|188:327,1,192,6|0,1:2|0:0,0:0:0:0:
308,315,99688,2,0,B|370:319|383:381|383:381|358:338|316:338,1,192,2|0,1:2|0:0,0:0:0:0:
247,243,100041,2,0,B|219:186|266:143|266:143|242:187|263:223,1,192,2|0,1:2|0:0,0:0:0:0:
214,332,100394,2,0,B|194:367|151:365|151:365|175:356|188:328,1,128,2|0,1:2|0:0,0:0:0:0:
351,187,100747,6,0,B|472:166|472:166|404:143,1,192,2|0,1:2|0:0,0:0:0:0:
361,2,101100,2,0,B|325:24|320:65|349:92|349:92|381:122|381:166|347:189,1,215.999993408203,2|0,1:2|0:0,0:0:0:0:
236,284,101453,6,0,B|209:331|163:314|130:348|130:348|163:314|142:266|193:239,2,256,6|0|0,1:2|1:0|1:0,0:0:0:0:
233,24,102335,5,0,0:0:0:0:
237,32,102423,1,0,0:0:0:0:
241,39,102511,2,0,P|306:98|426:85,1,215.999993408203,6|0,1:2|0:0,0:0:0:0:
512,85,102864,6,0,P|414:116|362:235,1,240,4|0,1:2|0:0,0:0:0:0:
368,322,103217,6,0,P|392:209|301:95,1,264.000008056641,4|0,1:2|0:0,0:0:0:0:
164,17,103570,6,0,B|182:139|182:139|173:92|139:86,1,192,6|0,1:2|0:0,0:0:0:0:
1,242,103923,2,0,B|96:166|96:166|62:194|72:229,1,192,2|0,1:2|0:0,0:0:0:0:
274,271,104276,2,0,B|159:227|159:227|202:242|226:216,1,192,2|0,1:2|0:0,0:0:0:0:
168,49,104629,2,0,B|181:143|181:143|175:109|149:98,1,143.999995605469,2|0,1:2|0:0,0:0:0:0:
208,359,104982,6,0,P|248:311|372:303,1,192,2|0,1:2|0:0,0:0:0:0:
437,378,105335,2,0,B|395:342|395:342|413:214,1,180.000006866455,2|0,1:2|0:0,0:0:0:0:
367,128,105688,6,0,B|423:103|473:136|473:136|452:79|496:29,2,223.999993164063,6|0|0,1:2|1:0|1:0,0:0:0:0:
123,84,106570,5,0,0:0:0:0:
119,77,106658,1,0,0:0:0:0:
114,70,106747,2,0,P|120:8|116:70,1,180.000006866455,4|0,1:2|0:0,0:0:0:0:
228,103,107100,6,0,P|268:51|229:104,1,192,4|0,1:2|0:0,0:0:0:0:
320,212,107453,6,0,P|385:185|324:218,1,204.000003890991,6|0,1:2|0:0,0:0:0:0:
168,365,107806,6,0,B|212:324|181:255|181:255|138:240|134:203,1,192,6|0,1:2|0:0,0:0:0:0:
71,52,108158,2,0,B|85:110|160:118|160:118|195:88|229:103,1,192,2|0,1:2|0:0,0:0:0:0:
389,119,108511,2,0,B|332:101|288:162|288:162|296:207|266:229,1,192,2|0,1:2|0:0,0:0:0:0:
168,365,108864,2,0,B|201:333|192:284|192:284|170:272|165:249,1,128,2|0,1:2|0:0,0:0:0:0:
397,234,109217,6,0,B|446:283|433:338|393:353|349:343|342:294|355:277,1,192,2|0,1:2|0:0,0:0:0:0:
389,119,109570,2,0,B|436:41|512:68|521:111|509:155|465:161|444:145,1,215.999993408203,2|0,1:2|0:0,0:0:0:0:
285,56,109923,6,0,B|204:43|204:43|184:50|184:50|92:35,1,192,6|0,1:2|0:0,0:0:0:0:
0,117,110276,2,0,B|81:130|81:130|101:123|101:123|193:138,1,192,0|0,1:0|0:0,0:0:0:0:
76,224,110629,2,0,B|89:143|89:143|82:123|82:123|97:31,1,192,2|0,1:2|0:0,0:0:0:0:
192,38,110982,6,0,B|341:58|231:119|383:143,1,215.999993408203,6|0,1:2|0:0,0:0:0:0:
512,173,111335,6,0,B|361:195|469:272|317:296,1,240,4|0,1:2|0:0,0:0:0:0:
176,367,111688,6,0,P|86:357|207:278,1,352.000010742188,6|0,1:2|0:0,0:0:0:0:
