osu file format v14

[General]
AudioFilename: audio.mp3
AudioLeadIn: 0
PreviewTime: 49467
Countdown: 0
SampleSet: None
StackLeniency: 0.7
Mode: 1
LetterboxInBreaks: 0
WidescreenStoryboard: 1

[Editor]
Bookmarks: 24983,50168
DistanceSpacing: 0.1
BeatDivisor: 4
GridSize: 32
TimelineZoom: 1.7

[Metadata]
Title:Setsuna no Chikai (feat. Yuzaki Tsukasa (CV: Kito Akari)) (TV Size)
TitleUnicode:刹那の誓い(feat. 由崎司 (CV: 鬼頭明里)) (TV Size)
Artist:Neko Hacker
ArtistUnicode:Neko Hacker
Creator:enneya
Version:sdf
Source:トニカクカワイイ(シーズン2)
Tags:japanese electronic anime opening tonikaku kawaii season 2
BeatmapID:4566789
BeatmapSetID:2164970

[Difficulty]
HPDrainRate:7
CircleSize:4
OverallDifficulty:7
ApproachRate:8
SliderMultiplier:1.4
SliderTickRate:1

[Events]
//Background and Video events
0,0,"tsukasa7.jpg",0,40
//Break Periods
//Storyboard Layer 0 (Background)
//Storyboard Layer 1 (Fail)
//Storyboard Layer 2 (Pass)
//Storyboard Layer 3 (Foreground)
//Storyboard Layer 4 (Overlay)
//Storyboard Sound Samples

[TimingPoints]
-162,370.37037037037,4,1,0,60,1,0

[Colours]
Combo1 : 251,208,111
Combo2 : 111,173,251
Combo3 : 255,106,106
Combo4 : 252,109,173

[HitObjects]
257,67,578,5,0,0:0:0:0:
257,67,949,1,0,0:0:0:0:
257,67,1319,1,8,0:0:0:0:
257,67,2060,1,0,0:0:0:0:
257,67,2430,1,8,0:0:0:0:
257,67,2800,1,0,0:0:0:0:
257,67,3541,1,8,0:0:0:0:
257,67,3912,1,8,0:0:0:0:
257,67,4282,1,0,0:0:0:0:
257,67,4652,1,8,0:0:0:0:
257,67,5023,1,0,0:0:0:0:
257,67,5393,1,0,0:0:0:0:
257,67,5763,1,8,0:0:0:0:
262,63,6504,1,0,0:0:0:0:
262,63,6875,1,0,0:0:0:0:
262,63,7245,1,8,0:0:0:0:
262,63,7986,1,0,0:0:0:0:
276,74,8078,1,0,0:0:0:0:
276,74,8171,1,0,0:0:0:0:
262,63,8356,1,8,0:0:0:0:
262,63,8726,1,0,0:0:0:0:
243,73,9467,1,8,0:0:0:0:
236,75,9560,1,8,0:0:0:0:
236,75,9652,1,8,0:0:0:0:
262,63,9837,1,0,0:0:0:0:
262,63,10208,1,8,0:0:0:0:
262,63,10578,1,8,0:0:0:0:
262,63,10949,1,0,0:0:0:0:
260,72,11041,1,0,0:0:0:0:
260,72,11134,1,0,0:0:0:0:
262,63,11319,1,8,0:0:0:0:
262,63,11689,1,8,0:0:0:0:
243,73,12060,1,0,0:0:0:0:
243,73,12430,1,8,0:0:0:0:
250,61,12523,1,8,0:0:0:0:
245,80,12615,1,8,0:0:0:0:
262,63,12800,1,0,0:0:0:0:
262,298,13171,1,12,0:0:0:0:
264,73,13356,1,0,0:0:0:0:
264,73,13449,1,0,0:0:0:0:
264,73,13541,1,0,0:0:0:0:
254,89,13912,1,8,0:0:0:0:
254,89,14282,1,0,0:0:0:0:
267,87,14467,1,0,0:0:0:0:
267,87,14652,1,8,0:0:0:0:
267,87,14837,1,0,0:0:0:0:
275,90,15208,1,0,0:0:0:0:
275,90,15393,1,8,0:0:0:0:
275,90,15763,1,0,0:0:0:0:
281,84,16134,1,8,0:0:0:0:
281,84,16319,1,0,0:0:0:0:
281,84,16412,1,0,0:0:0:0:
281,84,16504,1,0,0:0:0:0:
281,84,16689,1,0,0:0:0:0:
281,84,16875,1,8,0:0:0:0:
281,68,17245,1,8,0:0:0:0:
281,68,17615,1,0,0:0:0:0:
281,68,17800,1,8,0:0:0:0:
281,81,18171,1,0,0:0:0:0:
281,81,18263,1,0,0:0:0:0:
281,81,18356,1,8,0:0:0:0:
235,33,18541,1,8,0:0:0:0:
281,81,18726,1,0,0:0:0:0:
286,68,19097,1,8,0:0:0:0:
286,68,19282,1,8,0:0:0:0:
286,68,19375,1,8,0:0:0:0:
286,68,19467,1,8,0:0:0:0:
286,68,19652,1,0,0:0:0:0:
286,68,19837,1,8,0:0:0:0:
286,68,20208,1,8,0:0:0:0:
286,68,20393,1,0,0:0:0:0:
286,68,20578,1,8,0:0:0:0:
286,68,20671,1,8,0:0:0:0:
286,68,20763,1,0,0:0:0:0:
286,68,20949,1,8,0:0:0:0:
297,63,21134,1,0,0:0:0:0:
297,63,21226,1,0,0:0:0:0:
297,63,21319,1,8,0:0:0:0:
297,63,21689,1,0,0:0:0:0:
297,63,22060,1,8,0:0:0:0:
289,61,22245,1,8,0:0:0:0:
289,61,22337,1,8,0:0:0:0:
289,61,22430,1,8,0:0:0:0:
289,61,22615,1,0,0:0:0:0:
289,61,22800,1,8,0:0:0:0:
289,61,23171,1,0,0:0:0:0:
289,61,23356,1,8,0:0:0:0:
289,61,23449,1,8,0:0:0:0:
289,61,23541,1,0,0:0:0:0:
289,61,23726,1,8,0:0:0:0:
271,63,23912,1,0,0:0:0:0:
271,63,24004,1,0,0:0:0:0:
271,63,24097,1,8,0:0:0:0:
271,63,24189,1,8,0:0:0:0:
271,63,24282,1,0,0:0:0:0:
289,61,24375,1,0,0:0:0:0:
289,61,24467,1,8,0:0:0:0:
289,61,24560,1,0,0:0:0:0:
289,61,24652,1,8,0:0:0:0:
289,61,24745,1,8,0:0:0:0:
291,60,24837,1,0,0:0:0:0:
291,60,24930,1,0,0:0:0:0:
256,317,25023,1,12,0:0:0:0:
248,98,25208,1,0,0:0:0:0:
248,98,25393,1,8,0:0:0:0:
267,100,25578,1,0,0:0:0:0:
267,100,25671,1,0,0:0:0:0:
267,100,25763,1,0,0:0:0:0:
248,98,25856,1,0,0:0:0:0:
248,98,25949,1,8,0:0:0:0:
248,98,26134,1,0,0:0:0:0:
245,89,26319,1,8,0:0:0:0:
248,98,26412,1,0,0:0:0:0:
243,88,26504,1,0,0:0:0:0:
243,88,26597,1,8,0:0:0:0:
250,100,26782,1,0,0:0:0:0:
245,89,26875,1,8,0:0:0:0:
248,98,27060,1,8,0:0:0:0:
227,83,27245,1,0,0:0:0:0:
227,83,27337,1,0,0:0:0:0:
227,83,27430,1,8,0:0:0:0:
227,83,27615,1,0,0:0:0:0:
245,88,27800,1,0,0:0:0:0:
245,88,27986,1,8,0:0:0:0:
245,88,28078,1,8,0:0:0:0:
245,88,28171,1,0,0:0:0:0:
245,88,28263,1,0,0:0:0:0:
245,88,28356,1,8,0:0:0:0:
238,93,28541,1,0,0:0:0:0:
238,93,28634,1,0,0:0:0:0:
238,93,28726,1,0,0:0:0:0:
240,82,28819,1,0,0:0:0:0:
240,82,28912,1,8,0:0:0:0:
253,89,29097,1,0,0:0:0:0:
253,89,29189,1,8,0:0:0:0:
253,89,29375,1,0,0:0:0:0:
253,89,29467,1,8,0:0:0:0:
253,89,29560,1,8,0:0:0:0:
253,89,29652,1,0,0:0:0:0:
259,75,29837,1,8,0:0:0:0:
259,75,30023,1,8,0:0:0:0:
259,75,30208,1,0,0:0:0:0:
259,75,30300,1,0,0:0:0:0:
259,75,30393,1,8,0:0:0:0:
259,75,30486,1,0,0:0:0:0:
259,75,30578,1,8,0:0:0:0:
257,65,30763,1,8,0:0:0:0:
259,75,30949,1,0,0:0:0:0:
259,75,31041,1,0,0:0:0:0:
259,75,31134,1,0,0:0:0:0:
259,75,31226,1,0,0:0:0:0:
259,75,31319,1,8,0:0:0:0:
259,75,31504,1,0,0:0:0:0:
259,75,31597,1,0,0:0:0:0:
259,75,31689,1,8,0:0:0:0:
259,75,31782,1,8,0:0:0:0:
259,75,31875,1,0,0:0:0:0:
259,68,32060,1,8,0:0:0:0:
259,68,32152,1,8,0:0:0:0:
259,68,32245,1,0,0:0:0:0:
259,68,32337,1,0,0:0:0:0:
259,68,32430,1,8,0:0:0:0:
259,68,32523,1,0,0:0:0:0:
253,59,32615,1,8,0:0:0:0:
258,67,32708,1,8,0:0:0:0:
259,68,32800,1,0,0:0:0:0:
259,68,32893,1,8,0:0:0:0:
259,68,32986,1,0,0:0:0:0:
259,68,33078,1,0,0:0:0:0:
259,68,33171,1,8,0:0:0:0:
259,68,33263,1,8,0:0:0:0:
259,68,33356,1,0,0:0:0:0:
259,68,33449,1,0,0:0:0:0:
259,68,33541,1,8,0:0:0:0:
271,62,33912,1,0,0:0:0:0:
271,62,34097,1,8,0:0:0:0:
271,62,34282,1,8,0:0:0:0:
271,62,34467,1,0,0:0:0:0:
271,62,34652,1,8,0:0:0:0:
273,44,34745,1,8,0:0:0:0:
271,62,34837,1,8,0:0:0:0:
271,62,35023,1,0,0:0:0:0:
271,62,35208,1,0,0:0:0:0:
278,52,35393,1,8,0:0:0:0:
278,52,35486,1,8,0:0:0:0:
278,52,35578,1,0,0:0:0:0:
278,52,35671,1,0,0:0:0:0:
278,52,35763,1,8,0:0:0:0:
264,46,35856,1,0,0:0:0:0:
264,46,35949,1,8,0:0:0:0:
264,46,36041,1,8,0:0:0:0:
264,46,36134,1,0,0:0:0:0:
264,46,36226,1,8,0:0:0:0:
264,46,36319,1,8,0:0:0:0:
264,46,36412,1,8,0:0:0:0:
264,40,36504,1,0,0:0:0:0:
264,40,36597,1,0,0:0:0:0:
264,40,36689,1,8,0:0:0:0:
264,40,36782,1,0,0:0:0:0:
264,40,36875,1,8,0:0:0:0:
249,85,37615,1,0,0:0:0:0:
249,85,37708,1,0,0:0:0:0:
249,85,37800,1,0,0:0:0:0:
249,85,37893,1,0,0:0:0:0:
249,85,37986,1,8,0:0:0:0:
255,96,38171,1,8,0:0:0:0:
228,317,38356,1,4,0:0:0:0:
251,105,38634,1,0,0:0:0:0:
251,105,38912,1,0,0:0:0:0:
255,96,39097,1,8,0:0:0:0:
254,92,39282,1,0,0:0:0:0:
254,92,39375,1,8,0:0:0:0:
225,84,39560,1,0,0:0:0:0:
225,84,39652,1,8,0:0:0:0:
225,84,39745,1,8,0:0:0:0:
225,84,39837,1,0,0:0:0:0:
228,98,40023,1,0,0:0:0:0:
228,98,40115,1,0,0:0:0:0:
228,98,40208,1,8,0:0:0:0:
228,98,40393,1,0,0:0:0:0:
230,97,40578,1,8,0:0:0:0:
230,97,40671,1,8,0:0:0:0:
230,97,40763,1,8,0:0:0:0:
230,97,40856,1,0,0:0:0:0:
228,98,40949,1,8,0:0:0:0:
246,94,41134,1,0,0:0:0:0:
246,94,41319,1,8,0:0:0:0:
244,67,41412,1,0,0:0:0:0:
247,67,41504,1,8,0:0:0:0:
249,89,41689,1,0,0:0:0:0:
249,89,41782,1,0,0:0:0:0:
249,89,41875,1,8,0:0:0:0:
249,89,41967,1,8,0:0:0:0:
260,68,42060,1,0,0:0:0:0:
260,68,42152,1,0,0:0:0:0:
260,68,42245,1,8,0:0:0:0:
260,68,42337,1,0,0:0:0:0:
244,67,42430,1,8,0:0:0:0:
247,67,42523,1,0,0:0:0:0:
244,63,42615,1,0,0:0:0:0:
244,63,42708,1,0,0:0:0:0:
254,75,42800,1,8,0:0:0:0:
265,54,42986,1,0,0:0:0:0:
265,54,43078,1,8,0:0:0:0:
222,52,43263,1,0,0:0:0:0:
265,54,43356,1,8,0:0:0:0:
244,60,43541,1,0,0:0:0:0:
244,63,43726,1,8,0:0:0:0:
244,60,43819,1,0,0:0:0:0:
236,53,44004,1,8,0:0:0:0:
244,60,44097,1,0,0:0:0:0:
241,72,44282,1,8,0:0:0:0:
241,72,44560,1,8,0:0:0:0:
241,72,44837,1,8,0:0:0:0:
261,86,45023,1,0,0:0:0:0:
261,86,45115,1,8,0:0:0:0:
261,86,45300,1,0,0:0:0:0:
261,86,45393,1,8,0:0:0:0:
256,55,45578,1,8,0:0:0:0:
237,60,45671,1,8,0:0:0:0:
237,60,45763,1,0,0:0:0:0:
254,54,45949,1,8,0:0:0:0:
246,63,46041,1,0,0:0:0:0:
248,63,46134,1,8,0:0:0:0:
248,63,46319,1,0,0:0:0:0:
248,63,46504,1,8,0:0:0:0:
248,63,46597,1,8,0:0:0:0:
248,63,46689,1,0,0:0:0:0:
248,63,46782,1,0,0:0:0:0:
248,63,46875,1,8,0:0:0:0:
246,63,47060,1,0,0:0:0:0:
263,121,47245,1,8,0:0:0:0:
263,121,47337,1,8,0:0:0:0:
263,121,47430,1,8,0:0:0:0:
246,123,47615,1,0,0:0:0:0:
246,123,47708,1,0,0:0:0:0:
246,123,47800,1,0,0:0:0:0:
246,123,47893,1,0,0:0:0:0:
236,117,47986,1,8,0:0:0:0:
236,117,48078,1,8,0:0:0:0:
237,119,48171,1,0,0:0:0:0:
237,119,48263,1,0,0:0:0:0:
245,102,48356,1,8,0:0:0:0:
245,102,48449,1,8,0:0:0:0:
245,102,48541,1,8,0:0:0:0:
245,102,48634,1,0,0:0:0:0:
245,102,48726,1,8,0:0:0:0:
254,96,48819,1,0,0:0:0:0:
254,96,48912,1,0,0:0:0:0:
254,96,49004,1,8,0:0:0:0:
264,117,49097,1,0,0:0:0:0:
264,117,49189,1,0,0:0:0:0:
264,117,49282,1,8,0:0:0:0:
264,117,49375,1,8,0:0:0:0:
274,110,49467,1,0,0:0:0:0:
274,110,49560,1,8,0:0:0:0:
274,110,49652,1,0,0:0:0:0:
274,110,49745,1,8,0:0:0:0:
274,110,49837,1,0,0:0:0:0:
274,110,49930,1,8,0:0:0:0:
236,81,50023,1,0,0:0:0:0:
251,88,50115,1,8,0:0:0:0:
251,88,50208,1,0,0:0:0:0:
251,88,50300,1,0,0:0:0:0:
251,88,50393,1,0,0:0:0:0:
251,88,50486,1,0,0:0:0:0:
251,88,50578,1,8,0:0:0:0:
251,88,50763,1,0,0:0:0:0:
282,107,50949,1,8,0:0:0:0:
253,318,51319,1,4,0:0:0:0:
261,124,51504,1,8,0:0:0:0:
279,120,51689,1,0,0:0:0:0:
263,125,51782,1,8,0:0:0:0:
263,125,51967,1,0,0:0:0:0:
261,124,52060,1,8,0:0:0:0:
265,142,52245,1,0,0:0:0:0:
255,139,52430,1,8,0:0:0:0:
257,138,52523,1,8,0:0:0:0:
257,138,52615,1,0,0:0:0:0:
266,144,52708,1,8,0:0:0:0:
266,144,52800,1,8,0:0:0:0:
252,128,52986,1,0,0:0:0:0:
252,128,53171,1,8,0:0:0:0:
252,128,53263,1,0,0:0:0:0:
263,142,53356,1,0,0:0:0:0:
252,128,53449,1,8,0:0:0:0:
252,128,53541,1,0,0:0:0:0:
276,149,53634,1,0,0:0:0:0:
276,149,53726,1,8,0:0:0:0:
258,134,53912,1,0,0:0:0:0:
258,134,54004,1,8,0:0:0:0:
258,134,54189,1,0,0:0:0:0:
246,130,54282,1,8,0:0:0:0:
246,130,54467,1,8,0:0:0:0:
263,144,54652,1,0,0:0:0:0:
268,113,54837,1,8,0:0:0:0:
268,113,54930,1,8,0:0:0:0:
268,113,55023,1,0,0:0:0:0:
263,118,55208,1,8,0:0:0:0:
297,116,55393,1,0,0:0:0:0:
297,116,55578,1,0,0:0:0:0:
297,116,55763,1,8,0:0:0:0:
297,116,55949,1,8,0:0:0:0:
254,121,56134,1,0,0:0:0:0:
254,121,56226,1,8,0:0:0:0:
254,121,56412,1,0,0:0:0:0:
254,121,56504,1,8,0:0:0:0:
254,136,56689,1,0,0:0:0:0:
274,102,56875,1,8,0:0:0:0:
274,102,56967,1,0,0:0:0:0:
252,126,57152,1,8,0:0:0:0:
252,126,57245,1,0,0:0:0:0:
252,126,57430,1,8,0:0:0:0:
254,121,57615,1,0,0:0:0:0:
254,121,57707,1,8,0:0:0:0:
254,121,57893,1,0,0:0:0:0:
254,121,57985,1,8,0:0:0:0:
254,136,58170,1,0,0:0:0:0:
274,102,58356,1,8,0:0:0:0:
274,102,58448,1,8,0:0:0:0:
261,114,58541,1,0,0:0:0:0:
252,126,58633,1,8,0:0:0:0:
252,126,58726,1,8,0:0:0:0:
252,126,58911,1,0,0:0:0:0:
273,113,59097,1,8,0:0:0:0:
273,113,59189,1,0,0:0:0:0:
271,112,59281,1,0,0:0:0:0:
268,105,59375,1,0,0:0:0:0:
273,113,59467,1,8,0:0:0:0:
273,113,59559,1,0,0:0:0:0:
271,112,59651,1,0,0:0:0:0:
268,105,59745,1,0,0:0:0:0:
273,113,59837,1,8,0:0:0:0:
273,113,59929,1,8,0:0:0:0:
271,112,60021,1,0,0:0:0:0:
268,105,60115,1,0,0:0:0:0:
273,113,60208,1,8,0:0:0:0:
273,113,60300,1,8,0:0:0:0:
271,112,60392,1,0,0:0:0:0:
268,105,60486,1,0,0:0:0:0:
286,112,60578,1,8,0:0:0:0:
286,112,60671,1,0,0:0:0:0:
286,112,60763,1,8,0:0:0:0:
286,112,60856,1,0,0:0:0:0:
286,112,60949,1,8,0:0:0:0:
286,112,61042,1,8,0:0:0:0:
327,111,61134,1,0,0:0:0:0:
327,111,61226,1,8,0:0:0:0:
279,95,61319,1,0,0:0:0:0:
279,95,61412,1,8,0:0:0:0:
279,95,61504,1,8,0:0:0:0:
279,95,61597,1,8,0:0:0:0:
279,95,61689,1,0,0:0:0:0:
255,92,61782,1,0,0:0:0:0:
256,92,61875,1,0,0:0:0:0:
279,136,61967,1,0,0:0:0:0:
253,323,62060,1,12,0:0:0:0:
282,120,62337,1,0,0:0:0:0:
282,120,62430,1,8,0:0:0:0:
282,120,62615,1,0,0:0:0:0:
262,107,62708,1,0,0:0:0:0:
262,107,62800,1,8,0:0:0:0:
262,107,62893,1,0,0:0:0:0:
264,108,62986,1,8,0:0:0:0:
283,127,63171,1,0,0:0:0:0:
282,120,63356,1,8,0:0:0:0:
282,120,63449,1,0,0:0:0:0:
282,120,63541,1,0,0:0:0:0:
285,118,63726,1,8,0:0:0:0:
285,118,63819,1,8,0:0:0:0:
285,118,63912,1,8,0:0:0:0:
285,118,64004,1,8,0:0:0:0:
285,118,64097,1,0,0:0:0:0:
313,117,64282,1,8,0:0:0:0:
313,117,64375,1,0,0:0:0:0:
313,117,64467,1,8,0:0:0:0:
267,98,64652,1,0,0:0:0:0:
266,96,64837,1,0,0:0:0:0:
266,96,65023,1,8,0:0:0:0:
276,108,65300,1,0,0:0:0:0:
276,108,65393,1,8,0:0:0:0:
276,108,65578,1,0,0:0:0:0:
245,95,65763,1,8,0:0:0:0:
245,95,65856,1,8,0:0:0:0:
245,95,65949,1,0,0:0:0:0:
246,63,66041,1,8,0:0:0:0:
251,100,66134,1,0,0:0:0:0:
251,83,66319,1,8,0:0:0:0:
251,83,66412,1,8,0:0:0:0:
251,83,66504,1,8,0:0:0:0:
251,83,66689,1,0,0:0:0:0:
251,83,66875,1,8,0:0:0:0:
260,65,67060,1,0,0:0:0:0:
260,65,67152,1,0,0:0:0:0:
260,65,67245,1,8,0:0:0:0:
260,65,67430,1,0,0:0:0:0:
267,75,67615,1,8,0:0:0:0:
267,75,67708,1,8,0:0:0:0:
267,305,67986,1,12,0:0:0:0:
254,67,68263,1,0,0:0:0:0:
254,67,68356,1,8,0:0:0:0:
254,67,68541,1,8,0:0:0:0:
244,65,68726,1,0,0:0:0:0:
244,65,68819,1,0,0:0:0:0:
244,65,68912,1,8,0:0:0:0:
244,65,69004,1,8,0:0:0:0:
244,65,69097,1,0,0:0:0:0:
252,54,69282,1,8,0:0:0:0:
252,54,69375,1,8,0:0:0:0:
252,54,69467,1,8,0:0:0:0:
252,54,69560,1,0,0:0:0:0:
252,54,69652,1,8,0:0:0:0:
254,60,69837,1,0,0:0:0:0:
254,60,70023,1,8,0:0:0:0:
254,60,70115,1,8,0:0:0:0:
254,60,70208,1,8,0:0:0:0:
252,65,70300,1,8,0:0:0:0:
254,60,70393,1,0,0:0:0:0:
250,362,70578,1,12,0:0:0:0:
260,103,70949,1,8,0:0:0:0:
251,73,71041,1,0,0:0:0:0:
260,103,71134,1,8,0:0:0:0:
260,103,71319,1,0,0:0:0:0:
260,116,71504,1,8,0:0:0:0:
260,116,71597,1,8,0:0:0:0:
260,116,71689,1,0,0:0:0:0:
260,116,71782,1,0,0:0:0:0:
260,116,71875,1,8,0:0:0:0:
265,118,72060,1,0,0:0:0:0:
247,119,72245,1,0,0:0:0:0:
247,119,72337,1,0,0:0:0:0:
258,99,72430,1,8,0:0:0:0:
258,99,72615,1,8,0:0:0:0:
260,91,72800,1,0,0:0:0:0:
259,103,72893,1,8,0:0:0:0:
260,94,72986,1,8,0:0:0:0:
263,78,73171,1,0,0:0:0:0:
271,105,73356,1,8,0:0:0:0:
271,105,73541,1,0,0:0:0:0:
300,98,73634,1,0,0:0:0:0:
271,105,73726,1,0,0:0:0:0:
300,98,73819,1,0,0:0:0:0:
263,366,73912,1,12,0:0:0:0:
274,75,74282,1,8,0:0:0:0:
274,75,74467,1,0,0:0:0:0:
261,83,74560,1,0,0:0:0:0:
274,75,74652,1,8,0:0:0:0:
274,75,74837,1,0,0:0:0:0:
274,75,75023,1,8,0:0:0:0:
274,75,75115,1,8,0:0:0:0:
274,75,75208,1,0,0:0:0:0:
301,113,75393,1,8,0:0:0:0:
301,113,75578,1,8,0:0:0:0:
301,113,75763,1,0,0:0:0:0:
301,113,75949,1,8,0:0:0:0:
278,91,76041,1,0,0:0:0:0:
278,91,76134,1,8,0:0:0:0:
278,91,76319,1,0,0:0:0:0:
266,71,76504,1,8,0:0:0:0:
288,101,76597,1,8,0:0:0:0:
266,71,76689,1,0,0:0:0:0:
261,83,76875,1,8,0:0:0:0:
261,83,76967,1,8,0:0:0:0:
261,83,77060,1,0,0:0:0:0:
261,83,77152,1,0,0:0:0:0:
261,83,77245,1,8,0:0:0:0:
261,83,77430,1,0,0:0:0:0:
261,83,77615,1,8,0:0:0:0:
261,83,77708,1,8,0:0:0:0:
261,83,77800,1,8,0:0:0:0:
261,83,77986,1,0,0:0:0:0:
261,83,78171,1,0,0:0:0:0:
261,83,78356,1,8,0:0:0:0:
261,83,78541,1,0,0:0:0:0:
261,83,78634,1,0,0:0:0:0:
261,83,78726,1,8,0:0:0:0:
254,78,78912,1,0,0:0:0:0:
254,78,79004,1,0,0:0:0:0:
254,78,79097,1,8,0:0:0:0:
254,78,79189,1,8,0:0:0:0:
254,78,79282,1,0,0:0:0:0:
259,117,79467,1,8,0:0:0:0:
259,117,79652,1,8,0:0:0:0:
259,117,79837,1,0,0:0:0:0:
266,95,80023,1,8,0:0:0:0:
265,95,80115,1,0,0:0:0:0:
265,95,80208,1,8,0:0:0:0:
265,95,80393,1,0,0:0:0:0:
265,95,80578,1,8,0:0:0:0:
265,95,80671,1,8,0:0:0:0:
265,95,80763,1,0,0:0:0:0:
265,95,80856,1,0,0:0:0:0:
266,95,80949,1,8,0:0:0:0:
265,95,81134,1,0,0:0:0:0:
274,93,81319,1,8,0:0:0:0:
274,93,81412,1,8,0:0:0:0:
273,95,81504,1,0,0:0:0:0:
268,84,81689,1,8,0:0:0:0:
268,84,81782,1,8,0:0:0:0:
268,84,81875,1,8,0:0:0:0:
268,84,81967,1,8,0:0:0:0:
268,84,82060,1,0,0:0:0:0:
268,84,82245,1,0,0:0:0:0:
268,84,82430,1,8,0:0:0:0:
268,284,82800,1,12,0:0:0:0:
286,102,83171,1,0,0:0:0:0:
276,101,83356,1,8,0:0:0:0:
286,102,83541,1,8,0:0:0:0:
286,102,83726,1,0,0:0:0:0:
297,93,84097,1,0,0:0:0:0:
297,93,84282,1,8,0:0:0:0:
297,93,84652,1,0,0:0:0:0:
297,93,85023,1,8,0:0:0:0:
297,93,85208,1,8,0:0:0:0:
297,93,85393,1,8,0:0:0:0:
297,93,85578,1,8,0:0:0:0:
256,93,85763,1,0,0:0:0:0:
