osu file format v14

[General]
AudioFilename: audio.mp3
AudioLeadIn: 0
PreviewTime: 49467
Countdown: 0
SampleSet: Soft
StackLeniency: 0.5
Mode: 0
LetterboxInBreaks: 0
WidescreenStoryboard: 1

[Editor]
DistanceSpacing: 0.7
BeatDivisor: 4
GridSize: 16
TimelineZoom: 2.14

[Metadata]
Title:Setsuna no Chikai (feat. Yuzaki Tsukasa (CV: Kito Akari)) (TV Size)
TitleUnicode:刹那の誓い(feat. 由崎司 (CV: 鬼頭明里)) (TV Size)
Artist:Neko Hacker
ArtistUnicode:Neko Hacker
Creator:Vararaup
Version:iRedi's Light Insane
Source:トニカクカワイイ(シーズン2)
Tags:japanese pop jpop electronic tonikawa tonikaku kawaii op opening season 2 fly me to the moon anime nasa cute couple aurorance iredi lancien neonlights frozz -keqing
BeatmapID:4092441
BeatmapSetID:1970466

[Difficulty]
HPDrainRate:5
CircleSize:4
OverallDifficulty:7
ApproachRate:8.5
SliderMultiplier:1.45
SliderTickRate:1

[Events]
//Background and Video events
0,0,"tsukasa7.jpg",0,0
Video,0,"video.mp4"
//Break Periods
//Storyboard Layer 0 (Background)
//Storyboard Layer 1 (Fail)
//Storyboard Layer 2 (Pass)
//Storyboard Layer 3 (Foreground)
//Storyboard Layer 4 (Overlay)
//Storyboard Sound Samples

[TimingPoints]
-162,370.37037037037,4,2,2,30,1,0
578,-125,4,2,2,30,0,0
7245,-111.111111111111,4,2,2,30,0,0
13171,-100,4,2,2,50,0,0
25023,-90.9090909090909,4,2,2,60,0,0
38356,-76.9230769230769,4,2,2,70,0,0
39097,-125,4,2,2,70,0,0
39837,-76.9230769230769,4,2,2,70,0,0
43541,-111.111111111111,4,2,2,70,0,0
44282,-76.9230769230769,4,2,2,70,0,0
45023,-90.9090909090909,4,2,2,70,0,0
45763,-76.9230769230769,4,2,2,70,0,0
50208,-100,4,2,2,70,0,0
51319,-76.9230769230769,4,2,2,70,0,0
59097,-90.9090909090909,4,2,2,70,0,0
62060,-76.9230769230769,4,2,2,70,0,0
82800,-90.9090909090909,4,2,2,70,0,0
85763,-125,4,2,2,60,0,0
85856,-125,4,2,2,30,0,0
88356,-125,4,2,2,5,0,0

[Colours]
Combo1 : 252,131,216
Combo2 : 251,134,121
Combo3 : 255,117,128

[HitObjects]
65,25,578,5,0,0:0:0:0:
2,84,949,1,0,0:0:0:0:
68,162,1319,6,0,P|148:135|236:116,1,174,2|0,0:0|0:0,0:0:0:0:
290,21,2060,1,0,0:0:0:0:
372,65,2430,1,0,0:0:0:0:
474,34,2800,6,0,P|408:56|395:157,1,174,2|0,0:0|0:0,0:0:0:0:
496,193,3541,1,0,0:0:0:0:
419,246,3912,1,0,0:0:0:0:
496,349,4282,6,0,P|438:361|383:379,1,116,2|0,0:0|0:0,0:0:0:0:
259,292,5023,1,0,0:0:0:0:
348,293,5393,1,0,0:0:0:0:
232,384,5763,2,0,P|180:344|185:231,1,174,2|0,0:0|0:0,0:0:0:0:
285,210,6504,1,2,0:0:0:0:
211,163,6875,1,2,0:0:0:0:
222,40,7245,6,0,P|122:71|32:90,1,195.749994026184,2|0,0:0|0:0,0:0:0:0:
0,177,7986,2,0,P|23:207|55:217,1,65.2499980087281
54,307,8356,2,0,P|91:302|116:279,1,65.2499980087281
150,184,8726,6,0,P|216:183|280:292,1,195.749994026184,2|0,0:0|0:0,0:0:0:0:
340,359,9467,2,0,P|366:378|400:383,1,65.2499980087281
479,330,9837,2,0,P|482:297|470:264,1,65.2499980087281
373,263,10208,6,0,P|390:204|406:136,1,130.499996017456,2|0,0:0|0:0,0:0:0:0:
458,62,10763,1,0,0:0:0:0:
458,62,10949,2,0,P|426:55|395:45,1,65.2499980087281
319,0,11319,2,0,P|272:15|224:25,1,97.8749970130921
181,0,11689,6,0,P|131:32|121:114,1,130.499996017456,2|2,0:0|0:0,0:0:0:0:
207,118,12245,1,0,0:0:0:0:
207,118,12430,2,0,P|217:149|223:180,1,65.2499980087281,2|0,0:0|0:0,0:0:0:0:
277,254,12800,2,0,P|245:264|214:270,1,65.2499980087281,2|0,0:0|0:0,0:0:0:0:
125,203,13171,6,0,P|49:184|-14:165,1,145,10|0,0:0|0:0,0:0:0:0:
117,297,13912,1,10,0:1:0:0:
125,305,14282,2,0,P|138:351|166:371,1,72.5,2|0,0:0|0:0,0:0:0:0:
244,352,14652,1,2,0:0:0:0:
340,384,14837,6,0,P|371:346|466:339,1,145,8|8,0:0|0:0,0:0:0:0:
512,260,15393,2,0,P|500:226|493:189,1,72.5,10|0,0:1|0:0,0:0:0:0:
416,246,15763,1,10,0:0:0:0:
512,100,16134,6,0,P|461:51|391:53,1,145,10|2,0:0|0:0,0:0:0:0:
350,140,16689,1,8,0:0:0:0:
232,22,16875,1,10,0:1:0:0:
224,14,17245,1,2,0:0:0:0:
176,89,17430,2,0,P|186:122|194:159,1,72.5,8|2,0:0|0:0,0:0:0:0:
284,220,17800,6,0,P|262:286|246:360,1,145,8|8,0:0|0:0,0:0:0:0:
203,381,18263,1,8,0:0:0:0:
203,381,18356,2,0,P|156:328|100:278,1,145,10|2,0:1|0:0,0:0:0:0:
107,179,18912,1,8,0:0:0:0:
18,137,19097,6,0,P|41:68|117:35,1,145,10|2,0:0|0:0,0:0:0:0:
176,89,19652,1,8,0:0:0:0:
198,178,19837,2,0,P|267:155|337:140,1,145,8|2,0:1|0:0,0:0:0:0:
485,44,20578,6,0,L|423:27,1,36.25,2|0,0:0|0:0,0:0:0:0:
410,0,20763,2,0,P|420:33|428:70,1,72.5,8|0,0:0|0:0,0:0:0:0:
503,137,21134,1,8,0:0:0:0:
503,137,21226,1,8,0:0:0:0:
503,137,21319,2,0,P|492:170|484:207,1,72.5,10|0,0:1|0:0,0:0:0:0:
387,221,21689,1,0,0:0:0:0:
512,384,22060,6,0,P|444:362|371:346,1,145,10|0,0:0|0:0,0:0:0:0:
317,274,22615,1,8,0:0:0:0:
254,333,22800,2,0,P|211:321|189:298,1,72.5,8|0,0:1|0:0,0:0:0:0:
218,218,23171,2,0,P|260:206|282:183,2,72.5,0|8|0,0:0|0:0|0:0,0:0:0:0:
107,280,23726,6,0,P|23:226|21:156,1,145,8|0,0:0|0:0,0:0:0:0:
87,144,24189,1,0,3:0:0:0:
87,144,24282,2,0,L|96:108,3,36.25,0|0|0|0,3:0|3:0|3:0|3:0,0:0:0:0:
19,89,24652,2,0,L|9:53,3,36.25,0|0|0|0,3:0|3:0|3:0|3:0,0:0:0:0:
68,0,25023,6,0,P|117:7|139:29,1,79.7500024337769,14|2,0:0|0:0,0:0:0:0:
202,115,25393,2,0,P|251:108|273:86,1,79.7500024337769,10|2,0:1|0:0,0:0:0:0:
226,18,25671,1,0,0:0:0:0:
226,18,25763,1,2,0:0:0:0:
328,0,25949,1,10,0:0:0:0:
432,78,26134,2,0,P|418:114|411:155,1,79.7500024337769,10|0,0:1|0:0,0:0:0:0:
325,167,26412,1,2,0:0:0:0:
304,183,26504,5,10,0:0:0:0:
304,183,26597,2,0,P|328:217|332:255,1,79.7500024337769,2|2,0:0|0:0,0:0:0:0:
397,302,26875,2,0,P|379:339|348:362,1,79.7500024337769,10|2,0:1|0:0,0:0:0:0:
236,320,27245,1,2,0:0:0:0:
236,320,27337,1,2,0:0:0:0:
236,320,27430,1,10,0:0:0:0:
106,384,27615,2,0,P|59:372|29:294,1,119.625003650665,10|0,0:1|0:0,0:0:0:0:
11,238,27986,6,0,L|27:176,1,39.8750012168885,10|2,0:0|0:0,0:0:0:0:
84,258,28171,2,0,L|100:196,1,39.8750012168885,2|2,0:0|0:0,0:0:0:0:
79,138,28356,1,10,0:1:0:0:
174,197,28541,1,2,0:0:0:0:
268,120,28726,1,2,0:0:0:0:
268,120,28819,1,0,0:0:0:0:
268,120,28912,1,8,0:0:0:0:
137,40,29097,2,0,P|150:78|157:117,1,79.7500024337769,10|0,0:1|0:0,0:0:0:0:
174,197,29375,1,2,0:0:0:0:
174,197,29467,6,0,L|220:209,2,39.8750012168885,10|2|2,0:0|0:0|0:0,0:0:0:0:
84,258,29838,6,0,L|67:319,1,39.8750012168885,10|0,0:1|0:0,0:0:0:0:
11,238,30023,2,0,L|-5:299,1,39.8750012168885,2|0,0:0|0:0,0:0:0:0:
16,358,30208,1,2,0:0:0:0:
154,317,30393,1,10,0:0:0:0:
288,384,30578,2,0,P|349:364|375:289,1,119.625003650665,10|8,0:1|0:0,0:0:0:0:
327,250,30949,6,0,P|306:236|295:221,1,39.8750012168885,14|2,0:0|0:0,0:0:0:0:
313,143,31134,2,0,P|335:131|353:130,1,39.8750012168885,2|2,0:0|0:0,0:0:0:0:
406,205,31319,1,10,0:1:0:0:
260,76,31504,6,0,L|221:65,4,39.8750012168885,2|2|2|2|10,0:0|0:0|0:0|0:0|0:0,0:0:0:0:
495,0,32060,6,0,L|482:46,1,39.8750012168885,10|2,0:1|0:0,0:0:0:0:
420,90,32245,2,0,L|432:136,1,39.8750012168885,2|2,0:0|0:0,0:0:0:0:
512,179,32430,6,0,P|497:214|491:256,1,79.7500024337769,8|2,0:0|0:0,0:0:0:0:
433,321,32708,1,2,0:0:0:0:
433,321,32800,2,0,L|445:367,2,39.8750012168885,8|2|2,0:1|0:0|0:0,0:0:0:0:
297,224,33171,1,10,0:0:0:0:
277,227,33263,1,2,0:0:0:0:
259,236,33356,1,10,0:0:0:0:
245,250,33448,1,2,0:0:0:0:
237,268,33541,2,0,P|197:277|159:288,1,79.7500024337769,10|0,0:1|0:0,0:0:0:0:
325,384,33912,6,0,P|333:341|345:306,1,79.7500024337769,10|0,0:0|0:0,0:0:0:0:
454,230,34282,1,8,0:1:0:0:
313,141,34467,6,0,P|304:98|292:63,1,79.7500024337769,2|8,0:0|0:0,0:0:0:0:
399,120,34837,1,0,0:0:0:0:
245,190,35023,6,0,P|192:156|187:117,1,79.7500024337769,10|0,0:1|0:0,0:0:0:0:
197,50,35393,2,0,L|158:38,3,39.8750012168885,8|0|8|0,0:0|0:0|0:0|0:0,0:0:0:0:
87,0,35763,5,10,0:1:0:0:
87,0,35949,1,8,0:0:0:0:
3,97,36134,1,10,0:0:0:0:
12,114,36226,1,0,0:0:0:0:
19,133,36319,1,8,0:0:0:0:
22,152,36411,1,0,0:0:0:0:
23,172,36504,2,0,L|11:210,3,39.8750012168885,10|0|8|0,0:1|0:0|0:0|0:0,0:0:0:0:
81,265,36875,6,0,B|61:292|27:297|27:297|94:323|149:252|104:266|151:195|224:213,1,279.125008518219,10|0,0:0|0:0,0:0:0:0:
285,277,37615,5,10,0:0:0:0:
285,277,37708,1,8,0:0:0:0:
285,277,37800,2,0,L|268:338,1,39.8750012168885,10|0,0:0|0:0,0:0:0:0:
338,384,37986,2,0,P|386:375|397:307,1,119.625003650665,10|0,0:1|0:0,0:0:0:0:
347,206,38356,6,0,B|362:239|362:239|381:154|404:82|404:82|428:144,1,235.624989213944,14|0,0:0|0:0,0:0:0:0:
417,116,38912,1,8,0:0:0:0:
275,116,39097,2,0,B|250:104|238:70|238:70|250:104|238:132,1,116,10|0,0:1|0:0,0:0:0:0:
323,42,39652,5,0,0:0:0:0:
323,42,39745,1,0,0:0:0:0:
323,42,39837,2,0,P|280:89|145:88,1,188.499991371155,12|2,0:0|0:0,0:0:0:0:
21,191,40393,1,8,0:0:0:0:
64,0,40578,2,0,B|51:18|51:18|82:137,1,141.374993528366,14|0,0:1|0:0,0:0:0:0:
152,185,40949,2,0,P|135:237|96:255,1,94.2499956855776,2|0,0:0|0:0,0:0:0:0:
0,384,41319,6,0,P|50:347|144:344,1,141.374993528366,14|0,0:0|0:0,0:0:0:0:
194,384,41689,2,0,L|239:371,3,47.1249978427888,2|2|10|2,0:0|0:0|0:0|0:0,0:0:0:0:
285,303,42060,2,0,L|330:315,3,47.1249978427888,10|2|2|2,0:1|0:0|0:0|0:0,0:0:0:0:
389,384,42430,1,2,0:0:0:0:
389,384,42523,1,2,0:0:0:0:
389,384,42615,2,0,L|435:371,1,47.1249978427888,2|2,0:0|0:0,0:0:0:0:
501,302,42800,6,0,P|493:252|451:216,1,94.2499956855776,14|0,0:0|0:0,0:0:0:0:
455,133,43078,2,0,P|473:180|454:232,1,94.2499956855776,2|0,0:0|0:0,0:0:0:0:
382,247,43356,1,10,0:0:0:0:
192,277,43541,2,0,L|69:244,2,97.8749970130921,14|2|2,0:1|0:0|0:0,0:0:0:0:
87,134,44282,6,0,B|102:160|102:160|225:193|225:193|251:178,1,188.499991371155,14|0,0:0|0:0,0:0:0:0:
251,177,44837,1,8,0:0:0:0:
200,67,45023,2,0,P|226:19|302:11,2,119.625003650665,10|2|2,0:1|0:0|0:0,0:0:0:0:
359,168,45763,6,0,B|492:132|492:132|439:178,1,188.499991371155,14|2,0:0|0:0,0:0:0:0:
286,98,46319,1,8,0:0:0:0:
424,0,46504,2,0,B|401:8|401:8|357:169,1,188.499991371155,14|2,0:1|0:0,0:0:0:0:
315,271,47060,5,0,0:0:0:0:
315,271,47152,1,0,0:0:0:0:
315,271,47245,2,0,P|388:265|425:331,1,141.374993528366,12|0,0:0|0:0,0:0:0:0:
345,365,47615,2,0,L|267:344,1,47.1249978427888,2|2,0:0|0:0,0:0:0:0:
221,384,47800,2,0,L|143:363,1,47.1249978427888,10|2,0:0|0:0,0:0:0:0:
118,301,47986,1,10,0:1:0:0:
247,180,48171,5,2,0:0:0:0:
247,180,48263,1,2,0:0:0:0:
247,180,48356,2,0,L|169:200,1,47.1249978427888,2|2,0:0|0:0,0:0:0:0:
120,174,48541,2,0,L|42:194,1,47.1249978427888,2|2,0:0|0:0,0:0:0:0:
40,265,48726,6,0,B|15:268|-7:261|-7:261|16:269|33:285,1,94.2499956855776,12|0,0:0|0:0,0:0:0:0:
118,301,49004,1,0,0:0:0:0:
118,301,49097,2,0,L|241:267,1,94.2499956855776,8|0,0:0|0:0,0:0:0:0:
394,244,49467,6,0,P|388:299|350:330,1,94.2499956855776,10|10,0:1|0:0,0:0:0:0:
278,339,49745,1,8,0:0:0:0:
278,339,49837,1,10,0:1:0:0:
437,384,50023,1,10,0:0:0:0:
503,325,50208,6,0,B|476:301|476:301|496:223,1,108.75,10|10,0:0|0:0,0:0:0:0:
494,230,50578,1,8,0:0:0:0:
333,142,50949,2,0,B|346:110|377:99|377:99|358:117|350:139,1,108.75,10|2,0:1|0:0,0:0:0:0:
428,170,51319,6,0,B|416:150|416:150|92:63,1,329.874984899522,12|2,0:0|0:0,0:0:0:0:
69,0,52060,2,0,L|106:139,1,141.374993528366,8|0,0:0|0:0,0:0:0:0:
28,165,52430,6,0,P|2:207|3:256,2,94.2499956855776,10|0|0,0:1|0:0|0:0,0:0:0:0:
60,328,52986,5,2,0:0:0:0:
60,328,53078,1,0,0:0:0:0:
60,328,53171,2,0,B|71:308|71:308|148:288|248:261|248:261|186:308|210:379,1,329.874984899522,10|0,0:0|0:0,0:0:0:0:
207,369,53912,1,8,0:1:0:0:
490,295,54282,6,0,B|462:328|471:376|471:376|407:136,1,329.874984899522,8|0,0:0|0:0,0:0:0:0:
474,87,55023,2,0,P|434:58|385:54,1,94.2499956855776,10|2,0:0|0:0,0:0:0:0:
218,90,55393,6,0,P|203:43|193:-1,2,94.2499956855776,10|2|2,0:1|0:0|0:0,0:0:0:0:
301,172,55949,1,2,0:0:0:0:
120,71,56134,6,0,B|72:141|-3:179|-3:179|86:182|157:222,1,329.874984899522,8|0,0:0|0:0,0:0:0:0:
154,220,56875,1,10,0:1:0:0:
369,369,57245,6,0,B|357:349|357:349|187:303,1,188.499991371155,8|2,0:0|0:0,0:0:0:0:
67,200,57801,1,0,0:0:0:0:
4,358,57986,2,0,P|4:302|83:309,1,141.374993528366,8|0,0:0|0:0,0:0:0:0:
141,376,58356,2,0,L|434:297,1,282.749987056733,10|2,0:1|0:0,0:0:0:0:
491,158,59097,6,0,P|434:151|363:219,1,159.500004867554,10|0,0:0|0:0,0:0:0:0:
407,68,59652,1,2,0:0:0:0:
283,102,59837,6,0,P|335:124|363:219,1,159.500004867554,2|0,0:0|0:0,0:0:0:0:
408,71,60392,1,2,0:0:0:0:
275,195,60578,6,0,P|236:203|198:215,2,79.7500024337769,2|0|0,0:0|0:0|0:0,0:0:0:0:
281,103,61134,1,0,0:0:0:0:
183,15,61319,6,0,L|170:61,3,39.8750012168885,2|0|0|0,0:0|0:0|0:0|0:0,0:0:0:0:
104,96,61689,1,2,0:0:0:0:
331,271,62060,6,0,P|259:287|194:307,1,141.374993528366,10|0,0:0|0:0,0:0:0:0:
135,372,62430,2,0,P|90:358|43:347,1,94.2499956855776,8|8,0:1|0:0,0:0:0:0:
8,262,62708,1,8,0:0:0:0:
8,262,62800,1,10,0:0:0:0:
111,223,62986,1,10,0:0:0:0:
1,95,63171,2,0,P|68:115|137:132,1,141.374993528366,8|0,0:1|0:0,0:0:0:0:
198,203,63541,6,0,P|279:158|288:80,1,141.374993528366,8|0,0:0|0:0,0:0:0:0:
208,80,63912,2,0,P|249:34|300:27,1,94.2499956855776,8|8,0:1|0:0,0:0:0:0:
365,60,64190,1,8,0:0:0:0:
365,60,64282,2,0,P|384:118|363:166,1,94.2499956855776,10|8,0:0|0:0,0:0:0:0:
512,188,64652,2,0,P|461:220|433:319,1,141.374993528366,10|0,0:1|0:0,0:0:0:0:
446,384,65023,6,0,P|372:360|309:347,1,141.374993528366,10|0,0:0|0:0,0:0:0:0:
236,384,65393,1,8,0:1:0:0:
349,273,65578,2,0,L|336:226,2,47.1249978427888,8|8|10,0:0|0:0|0:0,0:0:0:0:
397,160,65949,1,10,0:0:0:0:
254,272,66134,2,0,P|203:255|162:247,1,94.2499956855776,8|2,0:1|0:0,0:0:0:0:
99,312,66412,1,0,0:0:0:0:
99,312,66504,6,0,P|44:281|34:223,1,94.2499956855776,8|2,0:0|0:0,0:0:0:0:
93,194,66782,1,0,0:0:0:0:
93,194,66875,1,8,0:1:0:0:
45,53,67060,2,0,L|-1:40,2,47.1249978427888,8|8|10,0:0|0:0|0:0,0:0:0:0:
141,0,67430,1,8,0:0:0:0:
230,183,67615,5,14,0:1:0:0:
187,156,67708,2,0,P|177:202|162:246,1,94.2499956855776
183,333,67986,6,0,P|238:306|319:334,1,141.374993528366,14|0,0:0|0:0,0:0:0:0:
369,383,68356,1,8,0:1:0:0:
509,230,68541,2,0,L|463:242,2,47.1249978427888,8|8|10,0:0|0:0|0:0,0:0:0:0:
398,303,68912,1,10,0:0:0:0:
289,184,69097,2,0,P|310:118|325:47,1,141.374993528366,8|0,0:1|0:0,0:0:0:0:
401,3,69467,6,0,P|410:49|425:93,1,94.2499956855776,8|2,0:0|0:0,0:0:0:0:
509,126,69745,1,0,0:0:0:0:
509,126,69837,1,8,0:1:0:0:
374,222,70023,2,0,L|386:176,2,47.1249978427888,14|8|8,0:0|0:0|0:0,0:0:0:0:
509,230,70393,1,10,0:0:0:0:
372,369,70578,2,0,P|304:325|305:256,1,141.374993528366,12|0,0:1|0:0,0:0:0:0:
292,179,70949,6,0,P|220:199|155:215,1,141.374993528366,14|0,0:0|0:0,0:0:0:0:
123,295,71319,1,8,0:1:0:0:
13,206,71504,2,0,L|29:144,2,47.1249978427888,10|8|8,0:0|0:0|0:0,0:0:0:0:
112,143,71875,1,10,0:0:0:0:
33,312,72060,2,0,P|56:359|121:383,1,94.2499956855776,8|8,0:1|0:0,0:0:0:0:
123,295,72337,1,8,0:0:0:0:
123,295,72430,5,14,0:0:0:0:
299,270,72615,2,0,P|343:284|390:294,1,94.2499956855776,8|8,0:0|0:1,0:0:0:0:
224,384,72986,1,8,0:0:0:0:
13,206,73356,1,8,0:0:0:0:
112,143,73541,2,0,L|158:156,3,47.1249978427888,10|8|8|8,0:1|0:0|0:1|0:1,0:0:0:0:
190,229,73912,5,10,0:0:0:0:
297,188,74097,1,0,0:0:0:0:
205,83,74282,2,0,P|225:28|272:6,1,94.2499956855776,8|8,0:1|0:0,0:0:0:0:
312,77,74560,1,8,0:0:0:0:
312,77,74652,2,0,L|357:89,2,47.1249978427888,10|8|8,0:0|0:0|0:0,0:0:0:0:
136,0,75023,2,0,P|62:27|45:105,1,141.374993528366,10|0,0:1|0:0,0:0:0:0:
112,143,75393,5,10,0:0:0:0:
13,206,75578,1,0,0:0:0:0:
45,336,75763,2,0,P|88:344|136:360,1,94.2499956855776,8|0,0:1|0:0,0:0:0:0:
218,322,76041,1,8,0:0:0:0:
218,322,76133,2,0,L|279:305,2,47.1249978427888,10|8|8,0:0|0:0|0:0,0:0:0:0:
105,231,76504,2,0,P|194:214|217:163,1,141.374993528366,10|0,0:1|0:0,0:0:0:0:
269,105,76875,6,0,P|317:70|368:76,1,94.2499956855776,10|0,0:0|0:0,0:0:0:0:
287,226,77245,1,10,0:1:0:0:
444,292,77430,2,0,P|427:241|419:200,1,94.2499956855776,0|10,0:0|0:0,0:0:0:0:
340,161,77708,1,8,0:0:0:0:
340,161,77800,1,8,0:0:0:0:
492,65,77986,1,10,0:1:0:0:
421,9,78171,1,0,0:0:0:0:
269,105,78356,6,0,P|174:76|86:56,1,188.499991371155,10|8,0:0|0:1,0:0:0:0:
57,215,78912,1,8,0:0:0:0:
57,215,79004,1,8,0:0:0:0:
57,215,79097,2,0,P|45:162|32:123,1,94.2499956855776,10|8,0:0|0:0,0:0:0:0:
163,191,79467,1,14,0:1:0:0:
79,298,79652,1,0,0:0:0:0:
224,384,79837,6,0,P|238:314|260:247,1,141.374993528366,10|0,0:0|0:0,0:0:0:0:
323,182,80208,2,0,P|372:197|399:242,1,94.2499956855776,10|0,0:1|0:0,0:0:0:0:
484,249,80486,1,8,0:0:0:0:
484,249,80578,2,0,P|495:298|470:344,1,94.2499956855776,10|0,0:0|0:0,0:0:0:0:
331,303,80949,1,10,0:1:0:0:
226,384,81134,1,0,0:0:0:0:
136,370,81319,6,0,P|121:300|99:233,1,141.374993528366,10|0,0:0|0:0,0:0:0:0:
22,194,81689,2,0,P|32:149|46:102,1,94.2499956855776,10|0,0:1|0:0,0:0:0:0:
126,72,81968,1,8,0:0:0:0:
126,72,82060,1,10,0:0:0:0:
0,0,82245,1,8,0:0:0:0:
201,0,82430,2,0,P|211:44|225:91,1,94.2499956855776,8|0,0:1|0:0,0:0:0:0:
453,136,82800,6,0,P|394:190|340:248,1,159.500004867554,14|2,0:0|0:0,0:0:0:0:
364,336,83356,1,8,0:0:0:0:
306,142,83541,5,14,0:1:0:0:
187,208,83726,2,0,P|264:225|340:249,1,159.500004867554,8|8,0:0|0:0,0:0:0:0:
466,362,84282,2,0,P|484:285|509:209,1,159.500004867554,14|8,0:0|0:0,0:0:0:0:
306,142,85023,5,10,0:1:0:0:
349,38,85208,1,8,0:0:0:0:
432,0,85393,1,10,0:0:0:0:
512,21,85578,1,8,0:0:0:0:
512,21,85763,1,6,0:0:0:0:
256,192,85856,12,0,88356,0:0:0:0:
