osu file format v14

[General]
AudioFilename: audio.mp3
AudioLeadIn: 0
PreviewTime: 49467
Countdown: 0
SampleSet: Soft
StackLeniency: 0.3
Mode: 0
LetterboxInBreaks: 0
WidescreenStoryboard: 1

[Editor]
DistanceSpacing: 0.7
BeatDivisor: 4
GridSize: 32
TimelineZoom: 2.539999

[Metadata]
Title:Setsuna no Chikai (feat. Yuzaki Tsukasa (CV: Kito Akari)) (TV Size)
TitleUnicode:刹那の誓い(feat. 由崎司 (CV: 鬼頭明里)) (TV Size)
Artist:Neko Hacker
ArtistUnicode:Neko Hacker
Creator:Vararaup
Version:frozz's Extra
Source:トニカクカワイイ(シーズン2)
Tags:japanese pop jpop electronic tonikawa tonikaku kawaii op opening season 2 fly me to the moon anime nasa cute couple aurorance iredi lancien neonlights frozz -keqing
BeatmapID:4088874
BeatmapSetID:1970466

[Difficulty]
HPDrainRate:6
CircleSize:3
OverallDifficulty:8.5
ApproachRate:9.3
SliderMultiplier:2.12
SliderTickRate:0.5

[Events]
//Background and Video events
0,0,"frozz-bg.jpg",0,0
Video,0,"video.mp4"
//Break Periods
//Storyboard Layer 0 (Background)
//Storyboard Layer 1 (Fail)
//Storyboard Layer 2 (Pass)
//Storyboard Layer 3 (Foreground)
//Storyboard Layer 4 (Overlay)
//Storyboard Sound Samples

[TimingPoints]
-162,370.37037037037,4,2,2,30,1,0
578,-500,4,2,2,30,0,0
5763,-250,4,2,2,30,0,0
7245,-333.333333333333,4,2,2,30,0,0
11689,-200,4,2,2,30,0,0
13171,-142.857142857143,4,2,2,50,0,0
13912,-250,4,2,2,50,0,0
14837,-81.9672131147541,4,2,2,50,0,0
15393,-71.4285714285714,4,2,2,50,0,0
15578,-38.4615384615385,4,2,2,50,0,0
15763,-62.5,4,2,2,50,0,0
16875,-250,4,2,2,50,0,0
17430,-125,4,2,2,50,0,0
17800,-62.5,4,2,2,50,0,0
19652,-90.9090909090909,4,2,2,50,0,0
19837,-111.111111111111,4,2,2,50,0,0
21504,-38.4615384615385,4,2,2,50,0,0
21689,-62.5,4,2,2,50,0,0
22615,-55.5555555555556,4,2,2,50,0,0
22800,-90.9090909090909,4,2,2,50,0,0
23356,-200,4,2,2,50,0,0
23402,-200,4,2,2,5,0,0
23449,-200,4,2,2,50,0,0
23726,-76.9230769230769,4,2,2,50,0,0
25023,-71.4285714285714,4,2,2,60,0,0
34652,-66.6666666666667,4,2,2,60,0,0
35023,-62.5,4,2,2,60,0,0
35393,-58.8235294117647,4,2,2,60,0,0
37569,-58.8235294117647,4,2,2,5,0,0
37615,-58.8235294117647,4,2,2,60,0,0
37986,-100,4,2,2,60,0,0
38356,-40.8163265306122,4,2,2,70,0,0
39097,-83.3333333333333,4,2,2,70,0,0
39837,-40,4,2,2,70,0,0
40347,-40,4,2,2,5,0,0
40393,-62.5,4,2,2,70,0,0
40578,-37.037037037037,4,2,2,70,0,0
40949,-45.4545454545455,4,2,2,70,0,0
41319,-47.6190476190476,4,2,2,70,0,0
42800,-27.027027027027,4,2,2,70,0,0
43078,-34.4827586206897,4,2,2,70,0,0
43356,-90.9090909090909,4,2,2,70,0,0
43541,-33.3333333333333,4,2,2,70,0,0
43819,-40,4,2,2,70,0,0
44097,-90.9090909090909,4,2,2,70,0,0
44282,-35.0877192982456,4,2,2,70,0,0
44837,-41.6666666666667,4,2,2,70,0,0
45023,-50,4,2,2,70,0,0
45393,-41.6666666666667,4,2,2,70,0,0
45578,-83.3333333333333,4,2,2,70,0,0
45763,-32.258064516129,4,2,2,70,0,0
46134,-50,4,2,2,70,0,0
46319,-76.9230769230769,4,2,2,70,0,0
46504,-40,4,2,2,70,0,0
46875,-40,4,2,2,70,0,0
47245,-41.6666666666667,4,2,2,70,0,0
48726,-35.7142857142857,4,2,2,70,0,0
49097,-50,4,2,2,70,0,0
49282,-40,4,2,2,70,0,0
49467,-28.5714285714286,4,2,2,70,0,0
50023,-58.8235294117647,4,2,2,70,0,0
50208,-58.8235294117647,4,2,2,70,0,0
50902,-58.8235294117647,4,2,2,5,0,0
50949,-50,4,2,2,70,0,0
51319,-35.7142857142857,4,2,2,70,0,0
52060,-58.8235294117647,4,2,2,70,0,0
52199,-58.8235294117647,4,2,2,5,0,0
52245,-58.8235294117647,4,2,2,70,0,0
52384,-58.8235294117647,4,2,2,5,0,0
52430,-40,4,2,2,70,0,0
52800,-90.9090909090909,4,2,2,70,0,0
53171,-35.7142857142857,4,2,2,70,0,0
53912,-50,4,2,2,70,0,0
54467,-40,4,2,2,70,0,0
54652,-38.4615384615385,4,2,2,70,0,0
55023,-41.6666666666667,4,2,2,70,0,0
55393,-100,4,2,2,70,0,0
55578,-76.9230769230769,4,2,2,70,0,0
55763,-62.5,4,2,2,70,0,0
55949,-52.6315789473684,4,2,2,70,0,0
56134,-35.7142857142857,4,2,2,70,0,0
56875,-43.4782608695652,4,2,2,70,0,0
57245,-41.6666666666667,4,2,2,70,0,0
57615,-50,4,2,2,70,0,0
57986,-41.6666666666667,4,2,2,70,0,0
58356,-35.7142857142857,4,2,2,70,0,0
58726,-50,4,2,2,70,0,0
60578,-111.111111111111,4,2,2,70,0,0
60949,-52.6315789473684,4,2,2,70,0,0
61319,-34.4827586206897,4,2,2,70,0,0
62060,-43.4782608695652,4,2,2,70,0,0
62986,-90.9090909090909,4,2,2,70,0,0
63125,-90.9090909090909,4,2,2,5,0,0
63171,-33.3333333333333,4,2,2,70,0,0
63541,-30.3030303030303,4,2,2,70,0,0
64282,-37.037037037037,4,2,2,70,0,0
64467,-76.9230769230769,4,2,2,70,0,0
64652,-40,4,2,2,70,0,0
66087,-40,4,2,2,5,0,0
66134,-50,4,2,2,70,0,0
66504,-35.7142857142857,4,2,2,70,0,0
66875,-90.9090909090909,4,2,2,70,0,0
67430,-52.6315789473684,4,2,2,70,0,0
67708,-28.5714285714286,4,2,2,70,0,0
67986,-33.3333333333333,4,2,2,70,0,0
68356,-62.5,4,2,2,70,0,0
68912,-55.5555555555556,4,2,2,70,0,0
69050,-55.5555555555556,4,2,2,5,0,0
69097,-35.7142857142857,4,2,2,70,0,0
69467,-43.4782608695652,4,2,2,70,0,0
69837,-71.4285714285714,4,2,2,70,0,0
70023,-33.3333333333333,4,2,2,70,0,0
70393,-71.4285714285714,4,2,2,70,0,0
70578,-47.6190476190476,4,2,2,70,0,0
70949,-50,4,2,2,70,0,0
72060,-25,4,2,2,70,0,0
72430,-38.4615384615385,4,2,2,70,0,0
72615,-34.4827586206897,4,2,2,70,0,0
72800,-31.25,4,2,2,70,0,0
73171,-125,4,2,2,70,0,0
73541,-41.6666666666667,4,2,2,70,0,0
73912,-62.5,4,2,2,70,0,0
75393,-52.6315789473684,4,2,2,70,0,0
75763,-71.4285714285714,4,2,2,70,0,0
76875,-62.5,4,2,2,70,0,0
78356,-52.6315789473684,4,2,2,70,0,0
78726,-71.4285714285714,4,2,2,70,0,0
79467,-52.6315789473684,4,2,2,70,0,0
79837,-90.9090909090909,4,2,2,70,0,0
80208,-52.6315789473684,4,2,2,70,0,0
80578,-62.5,4,2,2,70,0,0
81689,-47.6190476190476,4,2,2,70,0,0
82060,-66.6666666666667,4,2,2,70,0,0
82800,-50,4,2,2,70,0,0
83356,-76.9230769230769,4,2,2,70,0,0
83495,-76.9230769230769,4,2,2,5,0,0
83541,-41.6666666666667,4,2,2,70,0,0
83912,-83.3333333333333,4,2,2,70,0,0
84282,-50,4,2,2,70,0,0
85023,-71.4285714285714,4,2,2,70,0,0
85763,-80,4,2,2,60,0,0
85856,-80,4,2,2,30,0,0
88356,-80,4,2,2,5,0,0

[Colours]
Combo1 : 255,106,252
Combo2 : 173,106,255
Combo3 : 255,121,106

[HitObjects]
459,233,578,5,0,0:0:0:0:
380,251,763,1,0,0:0:0:0:
351,308,949,1,0,0:0:0:0:
352,353,1134,1,0,0:0:0:0:
364,368,1319,1,2,0:0:0:0:
371,370,2060,5,0,0:0:0:0:
383,355,2245,1,0,0:0:0:0:
384,310,2430,1,0,0:0:0:0:
355,253,2616,1,0,0:0:0:0:
276,235,2801,1,2,0:0:0:0:
191,279,3541,5,0,0:0:0:0:
93,292,3726,1,0,0:0:0:0:
25,245,3912,1,0,0:0:0:0:
13,182,4097,1,0,0:0:0:0:
26,145,4282,2,0,P|59:135|75:134,1,42.4,2|0,0:0|0:0,0:0:0:0:
0,279,5023,2,0,P|18:250|30:239,1,42.4
83,320,5763,6,0,P|82:341|86:361,1,42.4,2|0,0:0|0:0,0:0:0:0:
136,274,6134,6,0,P|125:292|118:312,1,42.4,2|0,0:0|0:0,0:0:0:0:
248,262,6504,6,0,P|229:272|213:286,1,42.4,2|0,0:0|0:0,0:0:0:0:
384,296,6875,6,0,P|362:295|342:299,1,42.4,2|0,0:0|0:0,0:0:0:0:
485,380,7245,5,2,0:0:0:0:
502,361,7430,1,0,0:0:0:0:
510,314,7615,1,0,0:0:0:0:
479,234,7800,1,0,0:0:0:0:
385,196,7986,2,0,L|373:194,4,7.94999975738526
461,145,8356,5,0,0:0:0:0:
400,287,8541,1,0,0:0:0:0:
292,158,8726,5,2,0:0:0:0:
283,157,8912,2,0,L|244:151,1,31.799999029541
210,66,9282,1,0,0:0:0:0:
182,218,9467,2,0,L|180:230,4,7.94999975738526
131,128,9837,1,0,0:0:0:0:
122,127,10023,1,0,0:0:0:0:
251,152,10208,6,0,L|329:164,1,63.5999980590821,2|0,0:0|0:0,0:0:0:0:
400,115,10763,1,0,0:0:0:0:
376,235,10949,2,0,L|374:244,4,7.94999975738526
494,195,11319,2,0,L|455:189,1,31.799999029541
305,301,11689,6,0,P|284:263|280:243,1,53,2|0,0:0|0:0,0:0:0:0:
157,375,12060,6,0,P|165:332|175:314,1,53,2|0,0:0|0:0,0:0:0:0:
55,333,12430,6,0,P|59:328|65:325,4,13.25,2|0|0|0|0,0:0|0:0|0:0|0:0|0:0,0:0:0:0:
1,244,12800,6,0,P|44:244|63:251,1,53,2|0,0:0|0:0,0:0:0:0:
249,361,13171,6,0,L|532:310,1,259.699992074585,10|0,0:0|0:0,0:0:0:0:
238,363,13912,2,0,P|206:341|193:293,2,84.8,10|2|2,0:1|0:0|0:0,0:0:0:0:
335,384,14837,6,0,L|375:157,1,193.979992008271,8|0,0:0|0:0,0:0:0:0:
368,192,15208,1,8,0:0:0:0:
147,60,15393,2,0,L|260:39,1,74.1999977355958,10|0,0:1|0:0,0:0:0:0:
464,79,15578,6,0,B|487:43|525:62|525:62|502:97|464:79,1,137.799993692017
388,108,15763,6,0,L|115:59,1,254.4,10|0,0:0|0:0,0:0:0:0:
1,196,16134,6,0,P|65:178|70:107,1,127.2,10|0,0:0|0:0,0:0:0:0:
69,113,16319,2,0,B|56:96|56:96|56:62,4,42.4,0|0|0|0|2,0:0|0:0|0:0|0:0|0:0,0:0:0:0:
0,210,16689,2,0,L|22:336,1,84.8,8|0,0:0|0:0,0:0:0:0:
249,345,16875,2,0,P|281:323|294:275,1,84.8,10|2,0:1|0:0,0:0:0:0:
189,284,17430,6,0,L|94:267,1,84.8,8|2,0:0|0:0,0:0:0:0:
369,220,17800,6,0,L|113:265,1,254.4,8|0,0:0|0:0,0:0:0:0:
14,293,18171,1,8,0:0:0:0:
9,308,18263,1,8,0:0:0:0:
5,323,18356,1,10,0:1:0:0:
103,175,18541,1,0,0:0:0:0:
213,150,18726,1,2,0:0:0:0:
275,175,18912,1,8,0:0:0:0:
294,280,19097,6,0,P|334:318|422:302,1,127.2,10|0,0:0|0:0,0:0:0:0:
413,307,19282,2,0,B|438:296|438:296|462:298,4,42.4,0|0|0|0|2,0:0|0:0|0:0|0:0|0:0,0:0:0:0:
369,220,19652,2,0,L|352:125,1,58.3000017791749,8|0,0:0|0:0,0:0:0:0:
465,52,19837,6,0,B|485:120|485:120|442:181,1,143.099995632935,8|0,0:1|0:0,0:0:0:0:
297,15,20208,2,0,B|255:73|255:73|276:142,1,143.099995632935,2|0,0:0|0:0,0:0:0:0:
358,162,20578,5,2,0:0:0:0:
363,130,20671,1,0,0:0:0:0:
369,98,20763,1,8,0:0:0:0:
269,227,20949,1,0,0:0:0:0:
413,307,21134,5,8,0:0:0:0:
469,295,21226,1,8,0:0:0:0:
503,250,21319,1,10,0:1:0:0:
230,321,21504,6,0,B|201:352|229:384|229:384|262:353|294:353,1,137.799993692017
302,361,21689,6,0,L|253:88,1,254.4
84,121,22060,6,0,P|10:90|13:33,1,127.2,10|0,0:0|0:0,0:0:0:0:
13,41,22245,2,0,B|22:23|22:23|19:-7,4,42.4
170,148,22615,2,0,L|153:242,1,95.3999970886231,8|0,0:0|0:0,0:0:0:0:
39,378,22800,2,0,P|1:341|-2:311,1,58.3000017791749,8|0,0:1|0:0,0:0:0:0:
136,330,22986,5,2,0:0:0:0:
230,272,23171,1,2,0:0:0:0:
365,276,23356,2,0,L|383:284,1,13.25,10|0,0:0|0:0,0:0:0:0:
512,356,23541,1,2,0:0:0:0:
320,384,23726,6,0,P|296:336|304:294,1,68.8999968460084,8|0,0:0|0:0,0:0:0:0:
356,83,23912,5,0,3:0:0:0:
359,73,24004,1,0,3:0:0:0:
373,64,24097,1,0,3:0:0:0:
393,64,24189,1,0,3:0:0:0:
419,73,24282,1,0,3:0:0:0:
435,107,24375,1,0,3:0:0:0:
421,154,24467,1,0,3:0:0:0:
372,176,24560,1,0,3:0:0:0:
317,172,24652,1,0,3:0:0:0:
275,130,24745,1,0,3:0:0:0:
242,85,24837,1,0,3:0:0:0:
193,65,24930,1,0,3:0:0:0:
129,70,25023,6,0,L|104:162,1,74.1999977355958,14|0,0:0|0:0,0:0:0:0:
0,315,25208,2,0,L|92:290,1,74.1999977355958,2|0,0:0|0:0,0:0:0:0:
277,304,25393,2,0,L|209:236,1,74.1999977355958,10|0,0:1|0:0,0:0:0:0:
135,229,25578,1,2,0:0:0:0:
59,211,25671,1,2,0:0:0:0:
144,230,25763,6,0,L|236:255,1,74.1999977355958,2|0,0:0|0:0,0:0:0:0:
376,108,25949,2,0,L|468:83,1,74.1999977355958,10|0,0:0|0:0,0:0:0:0:
362,357,26134,2,0,L|389:199,1,148.399995471192,10|0,0:1|0:0,0:0:0:0:
220,142,26412,5,2,0:0:0:0:
207,65,26504,1,10,0:0:0:0:
222,153,26597,2,0,L|300:166,1,74.1999977355958,2|0,0:0|0:0,0:0:0:0:
506,284,26782,2,0,L|427:297,1,74.1999977355958,2|10,0:0|0:1,0:0:0:0:
205,384,26967,1,2,0:0:0:0:
207,373,27060,2,0,L|285:359,1,74.1999977355958,2|0,0:0|0:0,0:0:0:0:
404,368,27245,5,2,0:0:0:0:
357,304,27337,1,2,0:0:0:0:
388,232,27430,1,10,0:0:0:0:
232,319,27615,6,0,L|11:280,1,222.599993206787,10|0,0:1|0:0,0:0:0:0:
27,106,27986,5,10,0:0:0:0:
81,86,28079,1,2,0:0:0:0:
137,106,28171,1,2,0:0:0:0:
167,157,28264,1,2,0:0:0:0:
157,214,28356,2,0,L|140:308,1,74.1999977355958,10|0,0:1|0:0,0:0:0:0:
371,378,28541,2,0,L|354:284,1,74.1999977355958,2|0,0:0|0:0,0:0:0:0:
276,144,28726,6,0,L|259:238,1,74.1999977355958,2|0,0:0|0:0,0:0:0:0:
490,308,28911,2,0,L|473:214,1,74.1999977355958,10|0,0:0|0:0,0:0:0:0:
512,69,29097,6,0,L|313:104,1,148.399995471192,10|0,0:1|0:0,0:0:0:0:
84,49,29375,1,2,0:0:0:0:
142,48,29467,1,10,0:0:0:0:
188,85,29560,1,2,0:0:0:0:
198,143,29652,2,0,L|181:237,1,74.1999977355958,2|0,0:0|0:0,0:0:0:0:
348,177,29837,2,0,L|331:271,1,74.1999977355958,10|0,0:1|0:0,0:0:0:0:
498,211,30023,2,0,L|481:305,1,74.1999977355958,2|0,0:0|0:0,0:0:0:0:
233,319,30208,6,0,L|138:335,1,74.1999977355958,2|0,0:0|0:0,0:0:0:0:
340,182,30393,2,0,L|256:133,1,74.1999977355958,10|0,0:0|0:0,0:0:0:0:
510,145,30578,2,0,L|477:54,1,74.1999977355958,10|0,0:1|0:0,0:0:0:0:
484,284,30763,2,0,L|472:347,2,37.0999988677979,8|0|8,0:0|0:0|0:0,0:0:0:0:
314,73,30949,5,14,0:0:0:0:
286,52,31041,1,2,0:0:0:0:
254,49,31134,1,2,0:0:0:0:
225,63,31226,1,2,0:0:0:0:
206,89,31319,1,10,0:1:0:0:
329,136,31504,5,2,0:0:0:0:
311,99,31596,1,2,0:0:0:0:
280,77,31689,1,2,0:0:0:0:
242,73,31781,1,2,0:0:0:0:
206,89,31874,1,10,0:0:0:0:
304,206,32060,5,10,0:1:0:0:
306,161,32152,1,2,0:0:0:0:
287,119,32245,1,2,0:0:0:0:
251,93,32337,1,2,0:0:0:0:
206,89,32430,1,8,0:0:0:0:
234,241,32615,5,2,0:0:0:0:
257,201,32707,1,2,0:0:0:0:
261,156,32800,1,8,0:1:0:0:
243,117,32892,1,2,0:0:0:0:
206,89,32985,1,2,0:0:0:0:
142,273,33171,5,10,0:0:0:0:
191,246,33263,1,2,0:0:0:0:
226,199,33356,1,10,0:0:0:0:
230,142,33448,1,2,0:0:0:0:
206,89,33541,1,10,0:1:0:0:
512,384,33912,6,0,L|291:345,1,222.599993206787,10|0,0:0|0:0,0:0:0:0:
292,345,34282,1,8,0:1:0:0:
37,168,34467,6,0,L|48:104,2,37.0999988677979,2|0|0,0:0|0:0|0:0,0:0:0:0:
20,260,34652,2,0,L|280:214,1,238.500009098053,8|0,0:0|0:0,0:0:0:0:
512,121,35023,6,0,L|252:75,1,254.4,10|0,0:1|0:0,0:0:0:0:
178,23,35393,6,0,P|171:65|162:111,1,90.1000017185211,8|0,0:0|0:0,0:0:0:0:
365,244,35578,2,0,P|355:199|349:155,1,90.1000017185211,8|0,0:0|0:0,0:0:0:0:
71,52,35763,6,0,P|64:94|55:140,1,90.1000017185211,10|0,0:1|0:0,0:0:0:0:
258,273,35948,2,0,P|248:228|242:184,1,90.1000017185211,8|0,0:0|0:0,0:0:0:0:
137,291,36134,5,10,0:0:0:0:
122,288,36227,1,8,0:0:0:0:
107,285,36319,1,8,0:0:0:0:
92,282,36412,1,8,0:0:0:0:
19,315,36504,5,10,0:1:0:0:
78,302,36596,1,8,0:0:0:0:
137,291,36689,1,8,0:0:0:0:
198,281,36781,1,8,0:0:0:0:
258,273,36874,1,10,0:0:0:0:
256,192,36921,12,0,37569,0:0:0:0:
219,168,37615,5,10,0:0:0:0:
208,224,37708,1,8,0:0:0:0:
198,281,37800,1,10,0:0:0:0:
296,239,37986,6,0,P|332:244|369:249,1,53,10|0,0:1|0:0,0:0:0:0:
119,208,38171,2,0,P|83:203|46:198,1,53,2|0,0:0|0:0,0:0:0:0:
364,157,38356,6,0,B|481:72|481:72|324:3|324:3|353:135|353:135|348:155|348:155|396:378,1,649.25000619173,14|0,0:0|0:0,0:0:0:0:
463,369,38912,2,0,B|476:337|476:337|454:244,1,129.850001238346,8|0,0:0|0:0,0:0:0:0:
259,121,39097,6,0,P|188:140|172:217,1,127.199996118164,10|0,0:1|0:0,0:0:0:0:
172,193,39375,1,0,0:0:0:0:
176,201,39467,1,0,0:0:0:0:
63,132,39652,6,0,B|76:114|76:114|73:85,2,42.3999987060547,0|0|0,3:0|3:0|3:0,0:0:0:0:
50,139,39837,6,0,B|70:29|168:-10|286:29|286:29|252:142,1,397.5,12|0,0:0|0:0,0:0:0:0:
285,228,40208,6,0,P|197:245|70:271,1,198.75,2|0,0:0|0:0,0:0:0:0:
76,273,40393,2,0,P|38:311|39:367,1,84.8,8|0,0:0|0:0,0:0:0:0:
443,384,40578,6,0,B|513:119|513:119|363:162,1,429.30000163765,14|0,0:1|0:0,0:0:0:0:
365,181,40949,6,0,B|490:144|490:144|432:359,1,349.800010675049,2|0,0:0|0:0,0:0:0:0:
90,266,41319,6,0,B|93:324|53:378|53:378|134:287|267:274,1,333.899989810181,14|0,0:0|0:0,0:0:0:0:
365,148,41689,5,2,0:0:0:0:
365,181,41781,1,2,0:0:0:0:
344,206,41874,1,10,0:0:0:0:
312,212,41966,1,2,0:0:0:0:
277,288,42060,5,10,0:1:0:0:
231,251,42152,1,2,0:0:0:0:
176,239,42245,1,2,0:0:0:0:
121,257,42337,1,2,0:0:0:0:
34,282,42430,5,2,0:0:0:0:
54,212,42522,1,2,0:0:0:0:
70,143,42615,1,2,0:0:0:0:
84,73,42707,1,2,0:0:0:0:
28,0,42800,6,0,B|-16:126|-16:126|269:69,1,392.199998503876,14|0,0:0|0:0,0:0:0:0:
38,0,43078,2,0,B|0:110|0:110|218:66,1,307.400009381104,2|0,0:0|0:0,0:0:0:0:
370,84,43356,6,0,L|349:161,1,58.3000017791749,10|0,0:0|0:0,0:0:0:0:
484,331,43541,6,0,B|473:224|354:179|275:263|315:354|397:334,1,318.000012130738,14|0,0:1|0:0,0:0:0:0:
471,326,43819,2,0,B|462:236|361:198|295:268|328:346|397:328,1,265,2|0,0:0|0:0,0:0:0:0:
246,223,44097,6,0,L|266:145,1,58.3000017791749,2|0,0:0|0:0,0:0:0:0:
29,115,44282,6,0,B|-50:-7|189:-134|237:73|192:187|66:172|24:198|9:252|9:252|-1:297|32:337|32:337|123:335|122:249,1,755.250007202625,14|0,0:0|0:0,0:0:0:0:
194,214,44837,2,0,B|216:240|216:240|193:334,1,127.199996118164,8|0,0:0|0:0,0:0:0:0:
484,331,45023,6,0,B|477:348|477:348|404:366|344:309|359:239,1,212,10|0,0:1|0:0,0:0:0:0:
369,103,45300,5,2,0:0:0:0:
376,100,45393,2,0,L|474:79,2,63.5999980590821
194,214,45578,6,0,L|258:227,1,63.5999980590821,2|0,0:0|0:0,0:0:0:0:
425,178,45763,6,0,B|100:261|100:261|150:106,1,492.900003760529,14|0,0:0|0:0,0:0:0:0:
248,37,46134,6,0,P|233:98|221:158,1,106,2|0,0:0|0:0,0:0:0:0:
13,256,46319,2,0,P|28:317|40:377,1,68.8999968460084,8|0,0:0|0:0,0:0:0:0:
271,373,46504,6,0,B|339:311|302:216|201:201|218:258|135:254|75:162|141:100,1,397.5,14|0,0:1|0:0,0:0:0:0:
240,105,46875,6,0,P|199:267|169:413,1,265,2|0,0:0|0:0,0:0:0:0:
13,256,47152,5,0,0:0:0:0:
26,283,47245,2,0,P|209:231|395:190,1,381.599988354493,12|0,0:0|0:0,0:0:0:0:
473,95,47615,5,2,0:0:0:0:
444,72,47707,1,2,0:0:0:0:
411,77,47800,1,10,0:0:0:0:
391,106,47892,1,2,0:0:0:0:
395,190,47986,5,10,0:1:0:0:
386,128,48078,1,2,0:0:0:0:
348,79,48171,1,2,0:0:0:0:
291,55,48263,1,2,0:0:0:0:
208,47,48356,5,2,0:0:0:0:
222,113,48448,1,2,0:0:0:0:
233,185,48541,1,2,0:0:0:0:
242,255,48633,1,2,0:0:0:0:
169,297,48726,6,0,P|314:331|455:377,1,296.799990942383,12|0,0:0|0:0,0:0:0:0:
511,221,49004,5,0,0:0:0:0:
511,233,49097,2,0,P|476:275|421:277,1,106,8|0,0:0|0:0,0:0:0:0:
293,384,49282,2,0,P|262:342|168:357,1,132.5
59,382,49467,6,0,P|22:213|-29:49,1,185.500001769066,10|0,0:1|0:0,0:0:0:0:
207,62,49652,5,10,0:0:0:0:
193,112,49745,1,8,0:0:0:0:
180,161,49837,1,10,0:1:0:0:
3,107,50023,6,0,P|47:104|85:126,1,90.1000017185211,10|0,0:0|0:0,0:0:0:0:
112,234,50208,1,10,0:0:0:0:
256,192,50254,12,0,50902,0:0:0:0:
0,376,50949,6,0,B|2:352|2:352|323:271,1,318,10|2,0:1|0:0,0:0:0:0:
371,139,51319,6,0,B|497:176|553:105|537:22|465:-36|359:0|290:96|290:96|193:229|53:207|5:69|102:-27|239:-32|319:94|292:181|276:241,1,1038.79996829834,12|2,0:0|0:0,0:0:0:0:
210,336,52060,6,0,P|78:297|39:292,1,135.150002577782,8|0,0:0|0:0,0:0:0:0:
84,287,52245,2,0,P|149:302|213:325,1,135.150002577782,2|0,0:0|0:0,0:0:0:0:
412,375,52430,6,0,B|480:313|443:218|342:203|359:260|276:256|216:164|282:102,1,397.5,10|2,0:1|0:0,0:0:0:0:
379,141,52800,6,0,P|360:201|356:223,1,58.3000017791749,2|0,0:0|0:0,0:0:0:0:
333,282,52986,2,0,P|325:310|315:337,1,58.3000017791749,2|0,0:0|0:0,0:0:0:0:
60,366,53171,6,0,B|87:308|81:238|11:203|16:228|-50:216|-100:151|-131:10|-37:-179|129:-216|528:70|365:264|120:247|128:229|60:250|41:332|125:446|295:466|317:332|215:240|225:266|187:239|219:148,1,1038.79996829834,10|0,0:0|0:0,0:0:0:0:
469,58,53912,6,0,B|407:27|358:73|392:81|347:131|281:111,1,212,8|0,0:1|0:0,0:0:0:0:
22,88,54189,5,2,0:0:0:0:
22,64,54282,2,0,P|113:42|156:85,1,106,8|0,0:0|0:0,0:0:0:0:
210,182,54467,2,0,P|292:226|344:196,1,132.5,2|0,0:0|0:0,0:0:0:0:
506,248,54652,6,0,P|307:305|114:377,1,413.399981076051,2|0,0:0|0:0,0:0:0:0:
126,357,55023,6,0,P|304:290|487:238,1,381.599988354493,10|0,0:0|0:0,0:0:0:0:
385,141,55393,6,0,P|373:114|366:85,1,53,10|0,0:1|0:0,0:0:0:0:
188,185,55578,6,0,P|203:152|211:117,1,68.8999968460084,2|0,0:0|0:0,0:0:0:0:
385,315,55763,6,0,P|366:274|356:230,1,84.8,2|0,0:0|0:0,0:0:0:0:
92,364,55949,6,0,P|113:318|124:268,1,100.69999731102,2|0,0:0|0:0,0:0:0:0:
105,8,56134,6,0,B|158:26|193:70|193:70|245:215|403:153|350:0|203:-14|128:125|128:125|81:216|-16:229|-90:156|-41:21|87:-9|193:117|151:167|94:126|152:193|254:253|290:208,1,1038.79996829834,8|0,0:0|0:0,0:0:0:0:
356,236,56875,6,0,P|236:225|123:270,1,243.800004650116,10|0,0:1|0:0,0:0:0:0:
25,94,57152,5,2,0:0:0:0:
15,150,57245,2,0,P|129:306|322:324,1,381.599988354493,8|0,0:0|0:0,0:0:0:0:
413,121,57615,6,0,P|272:89|154:56,1,212,2|0,0:0|0:0,0:0:0:0:
485,243,57893,5,2,0:0:0:0:
512,212,57986,2,0,P|456:40|277:7,1,381.599988354493,8|0,0:0|0:0,0:0:0:0:
25,94,58356,6,0,P|185:100|216:280,1,296.799990942383,10|0,0:1|0:0,0:0:0:0:
345,263,58634,1,2,0:0:0:0:
335,249,58726,2,0,P|222:286|216:386,1,212,0|2,0:0|0:0,0:0:0:0:
277,8,59097,5,10,0:0:0:0:
257,11,59282,5,0,3:0:0:0:
215,29,59467,5,0,3:0:0:0:
173,100,59652,5,2,3:2:0:0:
199,195,59837,5,2,3:2:0:0:
308,260,60023,5,0,3:0:0:0:
452,209,60208,5,0,3:0:0:0:
484,27,60393,5,2,3:2:0:0:
275,113,60578,6,0,P|293:128|313:142,3,47.6999985443116,2|0|0|0,3:2|3:0|3:0|3:0,0:0:0:0:
440,219,60949,6,0,P|397:246|348:258,3,100.69999731102,0|0|0|0,3:0|3:0|3:0|3:0,0:0:0:0:
153,309,61319,6,0,P|211:358|285:380,3,153.700004690552,2|0|0|0,3:2|3:0|3:0|3:0,0:0:0:0:
488,312,61689,5,2,0:0:0:0:
413,339,61782,1,2,0:0:0:0:
488,319,61875,5,2,0:0:0:0:
413,346,61968,1,2,0:0:0:0:
498,384,62060,6,0,P|458:138|428:-33,1,365.700006975174,10|0,0:0|0:0,0:0:0:0:
148,126,62430,2,0,B|159:155|159:155|372:180,1,243.800004650116,8|8,0:1|0:0,0:0:0:0:
168,8,62708,5,8,0:0:0:0:
161,23,62800,2,0,P|75:55|16:63,1,121.900002325058,10|8,0:0|0:0,0:0:0:0:
88,221,62986,6,0,P|103:261|139:285,1,87.4500026687623,10|0,0:0|0:0,0:0:0:0:
310,327,63171,2,0,B|342:228|342:228|144:308,1,318.000012130738,8|2,0:1|0:0,0:0:0:0:
59,384,63449,5,0,0:0:0:0:
43,384,63541,2,0,P|71:87|79:-11,1,349.800003335953,8|2,0:0|0:0,0:0:0:0:
241,52,63819,1,0,0:0:0:0:
236,74,63912,1,8,0:1:0:0:
441,253,64097,5,8,0:0:0:0:
433,282,64189,1,8,0:0:0:0:
425,310,64282,2,0,P|360:355|302:308,1,143.100000545883,10|0,0:0|0:0,0:0:0:0:
241,194,64467,6,0,L|333:218,1,68.8999968460084,8|0,0:0|0:0,0:0:0:0:
45,301,64652,6,0,L|567:237,1,397.5,10|0,0:1|0:0,0:0:0:0:
497,53,65023,6,0,B|475:9|475:9|376:8|341:111|414:171,1,265,10|0,0:0|0:0,0:0:0:0:
179,338,65300,5,0,0:0:0:0:
195,336,65393,2,0,P|219:185|239:56,1,265,8|8,0:1|0:0,0:0:0:0:
2,45,65671,5,8,0:0:0:0:
0,77,65763,1,10,0:0:0:0:
17,105,65856,1,8,0:0:0:0:
42,115,65949,2,0,P|159:97|247:70,1,198.75,10|0,0:0|0:0,0:0:0:0:
251,69,66134,6,0,P|329:64|309:210,1,212,8|2,0:1|0:0,0:0:0:0:
494,269,66412,5,0,0:0:0:0:
487,250,66504,2,0,P|339:228|190:211,1,296.799990942383,8|2,0:0|0:0,0:0:0:0:
0,255,66782,1,0,0:0:0:0:
5,267,66875,2,0,P|25:332|30:359,1,58.3000017791749,8|0,0:1|0:0,0:0:0:0:
297,384,67060,5,8,0:0:0:0:
275,330,67152,1,8,0:0:0:0:
232,292,67245,1,10,0:0:0:0:
175,279,67337,1,8,0:0:0:0:
119,294,67430,2,0,P|46:317|-3:326,1,100.69999731102,8|0,0:0|0:0,0:0:0:0:
137,96,67615,5,14,0:1:0:0:
59,118,67708,2,0,B|-2:105|-39:32|62:-95|184:3|197:115|82:167,1,371.000003538132
0,255,67986,6,0,P|206:217|493:172,1,477.000018196107,14|0,0:0|0:0,0:0:0:0:
371,230,68356,2,0,P|377:188|385:146,1,84.8,8|0,0:1|0:0,0:0:0:0:
108,1,68541,5,8,0:0:0:0:
134,52,68634,1,8,0:0:0:0:
180,86,68726,1,10,0:0:0:0:
238,94,68819,1,8,0:0:0:0:
293,75,68912,2,0,P|363:45|443:32,1,143.099995632935,10|0,0:0|0:0,0:0:0:0:
420,19,69097,6,0,P|291:35|298:175,1,296.799990942383,8|2,0:1|0:0,0:0:0:0:
375,375,69375,5,0,0:0:0:0:
361,380,69467,2,0,P|399:145|431:-37,1,365.700006975174,8|0,0:0|0:0,0:0:0:0:
418,229,69837,2,0,P|382:241|347:253,1,74.1999977355958,8|0,0:1|0:0,0:0:0:0:
29,165,70023,6,0,B|131:257|87:341|87:341|19:300|19:300|82:224|206:259,1,477.000018196107,14|0,0:0|0:0,0:0:0:0:
274,314,70393,2,0,P|286:349|298:384,1,74.1999977355958,10|0,0:0|0:0,0:0:0:0:
356,38,70578,6,0,P|327:202|301:367,1,333.899989810181,12|0,0:1|0:0,0:0:0:0:
147,156,70949,6,0,P|258:157|318:246,1,212,14|2,0:0|0:0,0:0:0:0:
198,361,71226,1,0,0:0:0:0:
184,357,71319,1,8,0:1:0:0:
10,76,71504,5,10,0:0:0:0:
14,127,71596,1,8,0:0:0:0:
48,167,71689,1,8,0:0:0:0:
99,177,71781,1,8,0:0:0:0:
147,156,71875,2,0,P|235:127|286:135,1,106,10|0,0:0|0:0,0:0:0:0:
512,1,72060,6,0,B|449:-29|399:16|434:25|388:75|321:55,1,212,8|0,0:1|0:0,0:0:0:0:
48,167,72245,5,8,0:0:0:0:
66,201,72337,1,8,0:0:0:0:
84,235,72430,2,0,B|102:222|102:222|197:238|197:238|204:256,1,137.799993692017,14|0,0:0|0:0,0:0:0:0:
437,102,72615,2,0,B|428:125|428:125|332:172|332:172|314:161,1,153.700004690552,8|0,0:0|0:0,0:0:0:0:
401,371,72800,5,8,0:1:0:0:
411,309,72893,1,8,0:1:0:0:
422,247,72986,1,8,0:0:0:0:
303,259,73171,6,0,L|311:306,2,42.4,10|8|8,0:1|0:1|0:0,0:0:0:0:
232,384,73541,6,0,P|251:192|274:2,1,381.599988354493,10|0,0:1|0:1,0:0:0:0:
166,0,73912,6,0,P|60:42|108:197,1,254.4,10|0,0:0|0:0,0:0:0:0:
0,282,74282,6,0,P|103:258|191:246,1,169.6,8|0,0:1|0:0,0:0:0:0:
211,370,74560,1,8,0:0:0:0:
157,384,74652,1,10,0:0:0:0:
108,359,74745,1,8,0:0:0:0:
89,307,74837,1,8,0:0:0:0:
152,104,75023,6,0,P|216:118|261:124,1,84.8,10|0,0:1|0:0,0:0:0:0:
322,138,75208,2,0,P|363:145|405:154,1,84.8
512,58,75393,6,0,B|522:43|522:43|398:81|398:81|471:271,1,302.09999193306,10|0,0:0|0:0,0:0:0:0:
295,369,75763,6,0,P|370:312|356:243,1,148.399995471192,8|0,0:1|0:0,0:0:0:0:
512,380,76041,1,8,0:0:0:0:
468,367,76133,1,10,0:0:0:0:
425,357,76226,1,8,0:0:0:0:
381,350,76318,1,8,0:0:0:0:
182,163,76504,6,0,P|108:182|69:191,1,74.1999977355958,10|0,0:1|0:0,0:0:0:0:
206,361,76689,5,2,0:0:0:0:
206,361,76782,1,2,0:0:0:0:
206,361,76875,2,0,P|230:230|256:99,1,254.4,10|0,0:0|0:0,0:0:0:0:
176,77,77245,6,0,P|87:101|-15:136,1,169.6,10|8,0:1|0:0,0:0:0:0:
0,229,77523,1,8,0:0:0:0:
55,222,77615,1,10,0:0:0:0:
101,252,77708,1,8,0:0:0:0:
119,305,77800,1,8,0:0:0:0:
298,339,77986,6,0,P|388:311|423:304,1,84.8,10|0,0:1|0:0,0:0:0:0:
479,192,78171,2,0,P|389:220|354:227,1,84.8
458,384,78356,6,0,P|486:231|513:83,1,302.09999193306,10|0,0:0|0:0,0:0:0:0:
431,33,78726,6,0,P|354:83|399:154,1,148.399995471192,8|8,0:1|0:0,0:0:0:0:
215,179,79004,1,8,0:0:0:0:
263,182,79096,1,10,0:0:0:0:
301,213,79189,1,8,0:0:0:0:
313,260,79281,1,8,0:0:0:0:
458,384,79467,6,0,P|327:361|111:345,1,302.09999193306,14|0,0:1|0:0,0:0:0:0:
53,384,79837,6,0,P|28:280|3:194,1,174.900005337525,10|0,0:0|0:0,0:0:0:0:
46,126,80208,2,0,P|142:119|153:227,1,201.39999462204,10|0,0:1|0:0,0:0:0:0:
274,232,80486,5,8,0:0:0:0:
260,228,80578,2,0,P|160:258|91:285,1,169.6,10|8,0:0|0:0,0:0:0:0:
259,32,80949,2,0,P|357:66|429:85,1,169.6,10|0,0:1|0:0,0:0:0:0:
509,45,81226,5,0,0:0:0:0:
512,32,81319,2,0,B|519:16|519:16|404:72|404:72|483:246,1,254.4,10|0,0:0|0:0,0:0:0:0:
391,278,81689,2,0,P|285:243|305:138,1,222.599993206787,10|0,0:1|0:0,0:0:0:0:
495,274,81967,5,8,0:0:0:0:
490,286,82060,2,0,P|352:315|208:362,1,238.500009098053,10|0,0:0|0:0,0:0:0:0:
163,378,82430,6,0,P|176:311|182:269,1,79.5000030326844,8|0,0:1|0:0,0:0:0:0:
308,227,82615,2,0,P|295:160|289:118,1,79.5000030326844
155,1,82800,6,0,P|47:55|100:150,1,212,14|0,0:0|0:0,0:0:0:0:
79,131,83032,2,0,B|100:148|100:148|100:173,3,53,0|0|0|2,0:0|0:0|0:0|0:0,0:0:0:0:
0,384,83356,6,0,P|37:319|80:317,1,103.349995269013,8|0,0:0|0:0,0:0:0:0:
70,317,83541,2,0,P|184:332|340:356,1,254.399992236328,14|8,0:1|0:0,0:0:0:0:
512,202,83912,6,0,B|518:187|518:187|509:172,2,31.799999029541,2|0|0,0:0|0:0|0:0,0:0:0:0:
410,367,84097,2,0,P|402:336|393:306,1,63.5999980590821,8|0,0:0|0:0,0:0:0:0:
479,284,84282,6,0,P|328:258|26:211,1,424,14|8,0:0|0:0,0:0:0:0:
60,216,85023,6,0,L|43:122,1,74.1999977355958,10|0,0:1|0:0,0:0:0:0:
274,52,85208,2,0,L|257:146,1,74.1999977355958,8|0,0:0|0:0,0:0:0:0:
169,280,85393,6,0,L|152:186,1,74.1999977355958,10|0,0:0|0:0,0:0:0:0:
383,116,85578,2,0,L|366:210,1,74.1999977355958,8|0,0:0|0:0,0:0:0:0:
248,376,85763,6,0,B|235:275|129:240|53:351|-72:292|-116:93|66:-17|179:96|179:96|193:-9|326:-32|438:68|369:189|369:189|402:132|452:86|567:132|586:244|537:355|398:336|392:262|322:345|322:345|301:223|231:285|193:187|211:109|316:68|367:138,1,1855,6|0,0:0|0:0,0:0:0:0:
