osu file format v14

[General]
AudioFilename: audio.mp3
AudioLeadIn: 0
PreviewTime: 49467
Countdown: 0
SampleSet: Soft
StackLeniency: 0.3
Mode: 0
LetterboxInBreaks: 0
WidescreenStoryboard: 1

[Editor]
Bookmarks: 24983,50168
DistanceSpacing: 0.7
BeatDivisor: 4
GridSize: 32
TimelineZoom: 2.939999

[Metadata]
Title:Setsuna no Chikai (feat. Yuzaki Tsukasa (CV: Kito Akari)) (TV Size)
TitleUnicode:刹那の誓い(feat. 由崎司 (CV: 鬼頭明里)) (TV Size)
Artist:Neko Hacker
ArtistUnicode:Neko Hacker
Creator:Vararaup
Version:Will You Marry Me?
Source:トニカクカワイイ(シーズン2)
Tags:japanese pop jpop electronic tonikawa tonikaku kawaii op opening season 2 fly me to the moon anime nasa cute couple aurorance iredi lancien neonlights frozz -keqing
BeatmapID:4088465
BeatmapSetID:1970466

[Difficulty]
HPDrainRate:6
CircleSize:4
OverallDifficulty:8.8
ApproachRate:9.4
SliderMultiplier:2.4
SliderTickRate:1

[Events]
//Background and Video events
Video,0,"video.mp4"
0,0,"8oeoqyzxglr51.jpg",0,0
//Break Periods
//Storyboard Layer 0 (Background)
//Storyboard Layer 1 (Fail)
//Storyboard Layer 2 (Pass)
//Storyboard Layer 3 (Foreground)
//Storyboard Layer 4 (Overlay)
//Storyboard Sound Samples

[TimingPoints]
-162,370.37037037037,4,2,2,30,1,0
578,-333.333333333333,4,2,2,30,0,0
13171,-100,4,2,2,50,0,0
15578,-83.3333333333333,4,2,2,50,0,0
15763,-100,4,2,2,50,0,0
18356,-333.333333333333,4,2,2,50,0,0
19097,-100,4,2,2,50,0,0
21504,-83.3333333333333,4,2,2,50,0,0
21689,-100,4,2,2,50,0,0
25023,-83.3333333333333,4,2,2,60,0,0
37800,-62.5,4,2,2,60,0,0
37986,-50,4,2,2,60,0,0
38171,-41.6666666666667,4,2,2,60,0,0
38356,-55.5555555555556,4,2,2,70,0,0
38865,-62.5,4,2,2,70,0,0
38912,-62.5,4,2,2,70,0,0
39097,-333.333333333333,4,2,2,70,0,0
39652,-62.5,4,2,2,70,0,0
39837,-58.8235294117647,4,2,2,70,0,0
40208,-62.5,4,2,2,70,0,0
40578,-55.5555555555556,4,2,2,70,0,0
40949,-62.5,4,2,2,70,0,0
41319,-55.5555555555556,4,2,2,70,0,0
42800,-55.5555555555556,4,2,2,70,0,0
43541,-62.5,4,2,2,70,0,0
44282,-55.5555555555556,4,2,2,70,0,0
44837,-62.5,4,2,2,70,0,0
46828,-62.5,4,2,2,70,0,0
46875,-62.5,4,2,2,70,0,0
49467,-62.5,4,2,2,70,0,0
50208,-100,4,2,2,70,0,0
51319,-55.5555555555556,4,2,2,70,0,0
52800,-40,4,2,2,70,0,0
53171,-55.5555555555556,4,2,2,70,0,0
55393,-83.3333333333333,4,2,2,70,0,0
55578,-62.5,4,2,2,70,0,0
55763,-50,4,2,2,70,0,0
55949,-41.6666666666667,4,2,2,70,0,0
56134,-55.5555555555556,4,2,2,70,0,0
58726,-40,4,2,2,70,0,0
59097,-55.5555555555556,4,2,2,70,0,0
59282,-55.5555555555556,4,2,2,70,0,0
61736,-55.5555555555556,4,2,2,5,0,0
61782,-55.5555555555556,4,2,2,70,0,0
61828,-55.5555555555556,4,2,2,5,0,0
61875,-55.5555555555556,4,2,2,70,0,0
61921,-55.5555555555556,4,2,2,5,0,0
61967,-55.5555555555556,4,2,2,70,0,0
62013,-55.5555555555556,4,2,2,5,0,0
62060,-55.5555555555556,4,2,2,70,0,0
67708,-47.6190476190476,4,2,2,70,0,0
67986,-55.5555555555556,4,2,2,70,0,0
70023,-50,4,2,2,70,0,0
70578,-55.5555555555556,4,2,2,70,0,0
85023,-100,4,2,2,70,0,0
85208,-76.9230769230769,4,2,2,70,0,0
85393,-62.5,4,2,2,70,0,0
85578,-52.6315789473684,4,2,2,70,0,0
85763,-52.6315789473684,4,2,2,60,0,0
85856,-52.6315789473684,4,2,2,30,0,0
88356,-52.6315789473684,4,2,2,5,0,0

[Colours]
Combo1 : 251,208,111
Combo2 : 111,173,251
Combo3 : 255,106,106
Combo4 : 252,109,173

[HitObjects]
469,289,578,5,0,0:0:0:0:
389,285,949,1,0,0:0:0:0:
346,351,1319,1,2,0:0:0:0:
469,289,2060,5,0,0:0:0:0:
389,285,2430,1,0,0:0:0:0:
346,351,2800,1,2,0:0:0:0:
469,289,3541,5,0,0:0:0:0:
389,285,3912,1,0,0:0:0:0:
346,351,4282,1,2,0:0:0:0:
469,289,4652,1,0,0:0:0:0:
479,152,5023,1,0,0:0:0:0:
361,81,5393,1,0,0:0:0:0:
236,138,5763,2,0,P|215:110|183:94,2,71.9999978027344,2|2|2,0:0|0:0|0:0,0:0:0:0:
226,275,6875,1,2,0:0:0:0:
101,332,7245,5,2,0:0:0:0:
101,332,7986,1,0,0:0:0:0:
26,303,8357,1,0,0:0:0:0:
14,225,8727,1,2,0:0:0:0:
101,332,9467,5,0,0:0:0:0:
26,303,9838,1,0,0:0:0:0:
14,225,10208,1,2,0:0:0:0:
114,132,10578,1,0,0:0:0:0:
250,119,10949,1,0,0:0:0:0:
364,194,11319,1,0,0:0:0:0:
390,328,11689,5,2,0:0:0:0:
446,267,12060,5,2,0:0:0:0:
454,151,12430,5,2,0:0:0:0:
347,51,12800,5,2,0:0:0:0:
179,105,13171,6,0,B|178:29|69:74|98:169|187:137|168:244,2,240,10|0|10,0:0|0:0|0:1,0:0:0:0:
1,278,14282,2,0,P|25:225|81:222,1,120,2|0,0:0|0:0,0:0:0:0:
236,335,14652,5,2,0:0:0:0:
236,335,14745,1,0,0:0:0:0:
236,335,14837,2,0,B|222:291|136:291|55:314|101:346|27:373,1,240,8|8,0:0|0:0,0:0:0:0:
1,278,15393,1,10,0:1:0:0:
17,102,15578,2,0,P|19:76|23:101,1,71.9999978027344
12,188,15763,6,0,B|66:196|101:157|80:149|113:112|166:116,1,180,10|0,0:0|0:0,0:0:0:0:
235,158,16134,1,10,0:0:0:0:
378,43,16319,2,0,L|399:-3,3,30
359,63,16504,6,0,P|366:124|370:182,1,120,2|8,0:0|0:0,0:0:0:0:
258,25,16875,2,0,P|271:144|278:266,1,240,10|2,0:1|0:0,0:0:0:0:
277,264,17430,1,8,0:0:0:0:
495,97,17615,5,2,0:0:0:0:
512,186,17800,2,0,B|451:195|407:161|439:101|297:139|347:212,1,240,8|8,0:0|0:0,0:0:0:0:
422,319,18263,5,8,0:0:0:0:
422,319,18356,2,0,L|425:265,1,53.9999983520508,10|0,0:1|0:0,0:0:0:0:
437,266,18726,2,0,L|432:319,1,53.9999983520508,2|0,0:0|0:0,0:0:0:0:
322,384,19097,6,0,P|230:325|276:205,1,240,10|2,0:0|0:0,0:0:0:0:
347,263,19652,1,8,0:0:0:0:
512,160,19837,2,0,B|436:163|378:181|378:181|361:164|343:153,1,180,8|0,0:1|0:0,0:0:0:0:
312,80,20208,2,0,P|360:51|400:90,1,120,2|0,0:0|0:0,0:0:0:0:
347,263,20578,5,2,0:0:0:0:
347,263,20671,1,0,0:0:0:0:
347,263,20763,1,8,0:0:0:0:
260,214,20949,1,0,0:0:0:0:
137,53,21134,5,8,0:0:0:0:
102,61,21226,1,8,0:0:0:0:
80,90,21319,1,10,0:1:0:0:
25,252,21504,2,0,P|14:275|16:249,1,71.9999978027344
0,170,21689,6,0,P|83:194|113:275,1,180
62,359,22060,2,0,B|63:297|128:323|164:291|164:369|241:373|269:347,1,240,10|0,0:0|0:0,0:0:0:0:
267,349,22615,1,8,0:0:0:0:
307,188,22800,2,0,P|251:206|231:260,1,120,8|0,0:1|0:0,0:0:0:0:
373,367,23171,2,0,P|379:309|387:248,1,120,0|8,0:0|0:0,0:0:0:0:
401,146,23541,1,0,0:0:0:0:
501,27,23726,5,8,0:0:0:0:
501,27,23819,1,0,3:0:0:0:
501,27,23912,1,0,3:0:0:0:
480,39,24004,1,0,3:0:0:0:
450,45,24097,1,0,3:0:0:0:
414,40,24189,1,0,3:0:0:0:
375,23,24282,1,0,3:0:0:0:
327,13,24375,1,0,3:0:0:0:
273,20,24467,1,0,3:0:0:0:
221,50,24560,1,0,3:0:0:0:
186,106,24652,1,0,3:0:0:0:
127,147,24745,1,0,3:0:0:0:
57,129,24837,1,0,3:0:0:0:
31,61,24930,1,0,3:0:0:0:
71,0,25023,6,0,P|107:17|111:60,1,71.9999978027344,14|0,0:0|0:0,0:0:0:0:
76,203,25208,6,0,L|9:231,1,71.9999978027344,2|0,0:0|0:0,0:0:0:0:
3,219,25393,2,0,L|75:213,1,71.9999978027344,10|0,0:1|0:0,0:0:0:0:
186,112,25578,2,0,L|155:177,1,71.9999978027344,2|0,0:0|0:0,0:0:0:0:
190,326,25763,6,0,P|163:301|148:268,1,71.9999978027344,2|0,0:0|0:0,0:0:0:0:
250,197,25949,2,0,P|275:220|290:253,1,71.9999978027344,10|0,0:0|0:0,0:0:0:0:
407,342,26134,2,0,P|336:356|266:374,1,143.999995605469,10|0,0:1|0:0,0:0:0:0:
394,233,26412,5,2,0:0:0:0:
403,222,26504,1,10,0:0:0:0:
413,212,26597,2,0,P|418:172|408:140,1,71.9999978027344,2|0,0:0|0:0,0:0:0:0:
276,51,26782,1,2,0:0:0:0:
268,63,26875,2,0,P|300:87|332:94,1,71.9999978027344,10|0,0:1|0:0,0:0:0:0:
466,12,27060,2,0,P|429:27|407:51,1,71.9999978027344,2|0,0:0|0:0,0:0:0:0:
326,185,27245,5,2,0:0:0:0:
279,219,27337,1,2,0:0:0:0:
225,198,27430,1,10,0:0:0:0:
100,37,27615,6,0,B|61:30|61:30|32:44,1,71.9999978027344,10|0,0:1|0:0,0:0:0:0:
39,126,27800,2,0,B|78:133|78:133|106:118,1,71.9999978027344
276,51,27986,5,10,0:0:0:0:
318,55,28078,1,2,0:0:0:0:
360,60,28171,1,2,0:0:0:0:
402,65,28263,1,2,0:0:0:0:
466,12,28356,2,0,P|483:43|486:78,1,71.9999978027344,10|0,0:1|0:0,0:0:0:0:
427,153,28541,2,0,P|422:188|432:222,1,71.9999978027344,2|0,0:0|0:0,0:0:0:0:
486,333,28726,6,0,L|414:326,1,71.9999978027344,2|0,0:0|0:0,0:0:0:0:
278,241,28912,2,0,L|350:248,1,71.9999978027344,10|0,0:0|0:0,0:0:0:0:
485,346,29097,2,0,L|340:332,1,143.999995605469,10|0,0:1|0:0,0:0:0:0:
144,251,29375,5,2,0:0:0:0:
151,293,29467,1,10,0:0:0:0:
158,335,29560,1,2,0:0:0:0:
166,377,29652,2,0,P|198:362|224:332,1,71.9999978027344,2|0,0:0|0:0,0:0:0:0:
338,158,29837,6,0,L|266:150,1,71.9999978027344,10|0,0:1|0:0,0:0:0:0:
135,36,30023,2,0,P|157:67|164:102,1,71.9999978027344,2|0,0:0|0:0,0:0:0:0:
78,298,30208,5,2,0:0:0:0:
11,272,30300,1,2,0:0:0:0:
0,200,30393,1,10,0:0:0:0:
56,154,30486,1,2,0:0:0:0:
124,175,30578,2,0,P|158:186|195:182,1,71.9999978027344,10|0,0:1|0:0,0:0:0:0:
305,58,30763,6,0,L|308:22,3,35.9999989013672,8|0|8|0,0:0|0:0|0:0|0:0,0:0:0:0:
350,124,30949,5,14,0:0:0:0:
376,158,31041,1,2,0:0:0:0:
350,193,31134,1,2,0:0:0:0:
309,180,31226,1,2,0:0:0:0:
309,137,31319,1,10,0:1:0:0:
300,130,31504,5,2,0:0:0:0:
300,186,31597,1,2,0:0:0:0:
353,203,31689,1,2,0:0:0:0:
387,157,31782,1,2,0:0:0:0:
353,113,31875,1,10,0:0:0:0:
150,25,32060,5,10,0:1:0:0:
147,38,32152,1,2,0:0:0:0:
144,51,32245,1,2,0:0:0:0:
141,64,32337,1,2,0:0:0:0:
138,78,32430,1,8,0:0:0:0:
27,216,32615,5,2,0:0:0:0:
48,208,32708,1,2,0:0:0:0:
71,201,32800,1,8,0:1:0:0:
95,194,32893,1,2,0:0:0:0:
118,185,32986,1,2,0:0:0:0:
279,43,33171,5,10,0:0:0:0:
334,27,33263,1,2,0:0:0:0:
413,77,33356,1,10,0:0:0:0:
468,92,33449,1,2,0:0:0:0:
477,0,33541,6,0,B|461:24|447:41|447:41|493:102|499:195,1,215.999993408203,10|0,0:1|0:0,0:0:0:0:
481,297,33912,5,10,0:0:0:0:
382,157,34097,1,0,0:0:0:0:
508,206,34282,5,8,0:1:0:0:
297,227,34467,1,2,0:0:0:0:
468,92,34652,5,8,0:0:0:0:
330,319,34837,1,0,0:0:0:0:
297,68,35023,5,10,0:1:0:0:
432,344,35208,1,0,0:0:0:0:
474,80,35393,6,0,P|441:65|405:65,1,71.9999978027344,8|0,0:0|0:0,0:0:0:0:
343,15,35578,2,0,P|314:36|296:67,1,71.9999978027344,8|0,0:0|0:0,0:0:0:0:
293,237,35763,6,0,P|267:261|233:273,1,71.9999978027344,10|0,0:1|0:0,0:0:0:0:
190,341,35948,2,0,P|155:330|128:307,1,71.9999978027344,8|0,0:0|0:0,0:0:0:0:
58,64,36134,5,10,0:0:0:0:
114,31,36226,1,8,0:0:0:0:
177,42,36319,1,8,0:0:0:0:
219,92,36412,1,8,0:0:0:0:
219,157,36504,1,10,0:1:0:0:
177,206,36597,1,8,0:0:0:0:
114,218,36689,1,8,0:0:0:0:
58,185,36782,1,8,0:0:0:0:
35,124,36875,1,10,0:0:0:0:
35,124,37615,6,0,P|15:105|25:130,1,71.9999978027344,10|8,0:0|0:0,0:0:0:0:
128,58,37800,6,0,P|130:25|122:57,1,96,10|0,0:0|0:0,0:0:0:0:
281,50,37986,6,0,P|303:16|275:45,1,120,10|0,0:1|0:0,0:0:0:0:
434,146,38171,6,0,P|476:122|429:136,1,143.999995605469,2|0,0:0|0:0,0:0:0:0:
447,340,38356,6,0,B|466:352|525:352|518:226|413:212|330:262|266:327|339:351|160:375|67:230|211:87|305:209,1,593.999981872559,14|0,0:0|0:0,0:0:0:0:
305,209,38912,1,8,0:0:0:0:
486,41,39097,6,0,P|429:40|409:73,1,89.9999972534181,10|0,0:1|0:0,0:0:0:0:
483,157,39652,5,0,3:0:0:0:
478,161,39714,5,0,3:0:0:0:
474,166,39776,5,0,3:0:0:0:
470,171,39837,6,0,P|328:185|181:109,1,306.000005836487,12|0,0:0|0:0,0:0:0:0:
288,25,40208,2,0,B|297:46|314:66|314:66|286:121|265:200,1,192,2|8,0:0|0:0,0:0:0:0:
125,384,40578,6,0,B|151:344|151:344|128:245|115:154|115:154|70:148|31:121,1,323.999990112305,14|0,0:1|0:0,0:0:0:0:
22,307,40949,2,0,B|102:329|161:261|123:238|178:178|264:199,1,288,2|0,0:0|0:0,0:0:0:0:
414,313,41319,2,0,B|396:421|248:363|312:249|351:298|383:210|346:145,1,323.999990112305,14|0,0:0|0:0,0:0:0:0:
288,25,41689,5,2,0:0:0:0:
281,90,41782,1,2,0:0:0:0:
239,139,41875,1,10,0:0:0:0:
176,147,41967,1,2,0:0:0:0:
116,120,42060,1,10,0:1:0:0:
113,110,42152,1,2,0:0:0:0:
111,98,42245,1,2,0:0:0:0:
108,87,42337,1,2,0:0:0:0:
172,91,42430,1,2,0:0:0:0:
234,109,42523,1,2,0:0:0:0:
289,142,42615,1,2,0:0:0:0:
334,188,42708,1,2,0:0:0:0:
415,149,42800,6,0,P|334:83|232:108,1,215.999993408203,14|0,0:0|0:0,0:0:0:0:
411,52,43078,2,0,P|309:35|233:107,1,215.999993408203,2|0,0:0|0:0,0:0:0:0:
273,12,43356,2,0,P|242:55|234:107,1,107.999996704102,10|0,0:0|0:0,0:0:0:0:
87,311,43541,6,0,P|178:317|240:247,1,192,14|0,0:1|0:0,0:0:0:0:
139,379,43819,2,0,P|222:338|240:247,1,192,2|0,0:0|0:0,0:0:0:0:
261,337,44097,2,0,P|261:289|240:247,1,96,10|0,0:0|0:0,0:0:0:0:
29,66,44282,6,0,B|3:89|3:89|142:132|240:248,2,323.999990112305,14|0|8,0:0|0:0|0:0,0:0:0:0:
29,66,45023,1,10,0:1:0:0:
107,282,45208,5,0,0:0:0:0:
111,300,45300,1,2,0:0:0:0:
264,139,45486,1,0,0:0:0:0:
269,157,45578,1,2,0:0:0:0:
512,265,45763,6,0,B|432:287|373:219|411:196|356:136|270:157,1,288,14|0,0:0|0:0,0:0:0:0:
353,308,46134,1,2,0:0:0:0:
485,170,46319,1,8,0:0:0:0:
239,16,46504,6,0,L|272:350,1,336,14|0,0:1|0:0,0:0:0:0:
272,350,46875,1,2,0:0:0:0:
133,147,47060,5,0,0:0:0:0:
77,199,47152,1,0,0:0:0:0:
0,186,47245,2,0,B|5:130|75:105|137:176|94:206|146:254|219:254,1,288,12|0,0:0|0:0,0:0:0:0:
334,206,47615,5,2,0:0:0:0:
380,194,47708,1,2,0:0:0:0:
425,209,47800,1,10,0:0:0:0:
453,247,47893,1,2,0:0:0:0:
363,355,47986,5,10,0:1:0:0:
322,314,48078,1,2,0:0:0:0:
311,257,48171,1,2,0:0:0:0:
334,206,48263,1,2,0:0:0:0:
460,143,48356,5,2,0:0:0:0:
506,81,48449,1,2,0:0:0:0:
460,18,48541,1,2,0:0:0:0:
387,42,48634,1,2,0:0:0:0:
387,119,48726,6,0,B|370:90|325:90|325:90|282:135|216:137,1,192,12|0,0:0|0:0,0:0:0:0:
69,91,49004,1,0,0:0:0:0:
28,25,49097,2,0,B|42:63|21:109|0:93|-18:162|18:205,1,192,8|0,0:0|0:0,0:0:0:0:
88,327,49375,5,0,0:0:0:0:
130,263,49467,2,0,P|85:277|38:291,1,96,10|0,0:1|0:0,0:0:0:0:
209,312,49652,5,10,0:0:0:0:
209,312,49745,1,8,0:0:0:0:
167,376,49837,2,0,P|258:345|351:322,1,192,10|10,0:1|0:0,0:0:0:0:
512,176,50208,6,0,B|507:237|507:237|483:183,1,120,10|0,0:0|0:0,0:0:0:0:
408,222,50486,1,10,0:0:0:0:
408,222,50578,2,0,B|433:277|433:277|386:242,1,120,8|10,0:0|0:0,0:0:0:0:
33,29,50949,5,10,0:1:0:0:
33,29,51319,2,0,B|13:4|125:-54|235:45|75:132|346:239|498:305|579:185|550:65|457:39|348:96,1,755.999976928712,12|2,0:0|0:0,0:0:0:0:
227,243,52060,5,10,0:0:0:0:
217,306,52152,1,2,0:0:0:0:
256,358,52245,1,2,0:0:0:0:
319,366,52337,1,2,0:0:0:0:
370,326,52430,2,0,P|258:238|78:235,1,323.999990112305,10|2,0:1|0:0,0:0:0:0:
25,315,52800,6,0,B|7:346|14:380|14:380|-14:349|0:305,1,150,2|0,0:0|0:0,0:0:0:0:
87,150,52986,2,0,B|51:150|24:173|24:173|37:132|82:122,1,150,2|0,0:0|0:0,0:0:0:0:
409,218,53171,6,0,B|511:219|539:137|546:61|461:-6|366:10|332:100|332:100|298:195|248:264|123:221|141:69|256:91,1,755.999976928712,10|0,0:0|0:0,0:0:0:0:
421,124,53912,6,0,B|477:227|412:250|459:349|459:349|422:325|373:323,1,323.999990112305,8|2,0:1|0:0,0:0:0:0:
175,364,54282,6,0,P|134:329|120:277,1,107.999996704102,8|0,0:0|0:0,0:0:0:0:
330,144,54467,1,2,0:0:0:0:
346,207,54560,1,2,0:0:0:0:
313,262,54652,2,0,B|269:148|243:207|178:164|148:82|212:29|275:58|280:109,1,323.999990112305,2|0,0:0|0:0,0:0:0:0:
214,277,55023,5,10,0:0:0:0:
214,277,55208,1,2,0:0:0:0:
71,57,55393,6,0,P|50:89|28:116,1,71.9999978027344,10|0,0:1|0:0,0:0:0:0:
165,59,55578,6,0,P|147:102|123:144,1,96,2|0,0:0|0:0,0:0:0:0:
258,37,55763,6,0,P|245:94|224:151,1,120,2|0,0:0|0:0,0:0:0:0:
345,0,55949,6,0,P|341:67|329:143,1,143.999995605469,2|0,0:0|0:0,0:0:0:0:
419,306,56134,6,0,B|499:293|500:171|381:157|299:241|351:281|263:347|164:310,2,431.999986816407,8|0|10,0:0|0:0|0:1,0:0:0:0:
173,87,57060,5,2,0:0:0:0:
163,150,57152,1,2,0:0:0:0:
211,193,57245,2,0,P|219:52|80:77,1,323.999990112305,8|0,0:0|0:0,0:0:0:0:
23,282,57615,6,0,P|47:329|95:353,1,107.999996704102,2|0,0:0|0:0,0:0:0:0:
164,311,57800,2,0,P|217:313|261:284,1,107.999996704102,2|0,0:0|0:0,0:0:0:0:
379,142,57986,5,10,0:0:0:0:
441,158,58078,1,2,0:0:0:0:
481,209,58171,1,2,0:0:0:0:
481,273,58263,1,2,0:0:0:0:
443,325,58356,2,0,P|345:261|363:64,1,323.999990112305,10|0,0:1|0:0,0:0:0:0:
482,12,58726,6,0,B|500:43|493:77|493:77|521:46|507:2,1,150,2|0,0:0|0:0,0:0:0:0:
441,158,58912,2,0,B|423:189|430:223|430:223|402:192|416:146,1,150,2|0,0:0|0:0,0:0:0:0:
194,61,59097,5,10,0:0:0:0:
194,61,59282,1,0,3:0:0:0:
167,79,59375,1,0,3:0:0:0:
135,83,59467,1,0,3:0:0:0:
322,111,59652,5,2,3:2:0:0:
302,148,59745,1,0,3:0:0:0:
269,173,59837,1,2,3:2:0:0:
458,59,60023,5,0,3:0:0:0:
461,110,60115,1,0,3:0:0:0:
441,158,60208,1,0,3:0:0:0:
477,353,60393,5,2,3:2:0:0:
477,353,60486,1,0,3:0:0:0:
477,353,60578,1,2,3:2:0:0:
441,312,60671,1,0,3:0:0:0:
388,302,60763,1,0,3:0:0:0:
338,324,60856,1,0,3:0:0:0:
242,370,60949,5,0,3:0:0:0:
180,348,61041,1,0,3:0:0:0:
154,288,61134,1,0,3:0:0:0:
177,228,61226,1,0,3:0:0:0:
269,173,61319,5,2,3:2:0:0:
287,100,61412,1,0,3:0:0:0:
249,33,61504,1,0,3:0:0:0:
176,12,61597,1,0,3:0:0:0:
72,48,61689,6,0,L|18:43,1,53.9999983520508,2|0,0:0|0:0,0:0:0:0:
72,56,61782,2,0,L|18:51,1,53.9999983520508,2|0,0:0|0:0,0:0:0:0:
72,64,61875,2,0,L|18:59,1,53.9999983520508,2|0,0:0|0:0,0:0:0:0:
72,72,61967,2,0,L|18:67,1,53.9999983520508,2|0,0:0|0:0,0:0:0:0:
0,174,62060,6,0,P|120:85|289:101,1,323.999990112305,10|0,0:0|0:0,0:0:0:0:
377,174,62430,2,0,P|346:193|373:168,1,107.999996704102,8|0,0:1|0:0,0:0:0:0:
512,0,62615,5,8,0:0:0:0:
464,26,62708,1,8,0:0:0:0:
449,77,62800,1,10,0:0:0:0:
444,240,62986,2,0,P|403:273|350:283,1,107.999996704102,10|0,0:0|0:0,0:0:0:0:
135,306,63171,2,0,P|239:333|338:375,1,215.999993408203,8|2,0:1|0:0,0:0:0:0:
223,221,63449,5,0,0:0:0:0:
156,185,63541,2,0,P|126:99|305:51,1,323.999990112305,8|0,0:0|0:0,0:0:0:0:
357,184,63912,2,0,P|308:163|256:148,1,107.999996704102,8|0,0:1|0:0,0:0:0:0:
8,89,64097,5,8,0:0:0:0:
8,89,64189,1,8,0:0:0:0:
8,89,64282,2,0,B|25:138|25:138|1:191,1,107.999996704102,10|8,0:0|0:0,0:0:0:0:
67,343,64467,2,0,B|49:293|49:293|74:241,1,107.999996704102,8|0,0:0|0:0,0:0:0:0:
185,62,64652,6,0,B|119:22|58:107|118:190|166:145|233:187|237:269,1,323.999990112305,10|0,0:1|0:0,0:0:0:0:
158,363,65023,6,0,P|177:207|306:118,1,323.999990112305,10|0,0:0|0:0,0:0:0:0:
408,83,65393,2,0,P|412:136|392:185,1,107.999996704102,8|0,0:1|0:0,0:0:0:0:
481,313,65578,5,8,0:0:0:0:
427,349,65671,1,8,0:0:0:0:
363,357,65763,1,10,0:0:0:0:
302,332,65856,1,8,0:0:0:0:
264,279,65949,2,0,P|224:244|173:227,1,107.999996704102,10|0,0:0|0:0,0:0:0:0:
18,74,66134,2,0,P|110:127|329:108,1,323.999990112305,8|0,0:1|0:0,0:0:0:0:
475,50,66504,6,0,B|460:-12|366:-22|263:19|292:59|171:51,1,323.999990112305,8|0,0:0|0:0,0:0:0:0:
60,0,66875,2,0,P|94:40|97:93,1,107.999996704102,8|0,0:1|0:0,0:0:0:0:
49,305,67060,5,8,0:0:0:0:
31,299,67152,1,8,0:0:0:0:
84,245,67245,1,10,0:0:0:0:
157,229,67337,1,8,0:0:0:0:
225,260,67430,1,8,0:0:0:0:
475,50,67615,5,14,0:1:0:0:
384,13,67708,2,0,B|470:80|488:180|488:180|475:203|472:231,1,251.999992309571
512,358,67986,6,0,B|429:386|346:324|384:300|312:229|226:260,1,323.999990112305,14|0,0:0|0:0,0:0:0:0:
178,344,68356,2,0,P|221:373|267:351,1,107.999996704102,8|0,0:1|0:0,0:0:0:0:
377,154,68541,5,8,0:0:0:0:
351,93,68634,1,8,0:0:0:0:
302,50,68726,1,10,0:0:0:0:
238,37,68819,1,8,0:0:0:0:
177,58,68912,2,0,P|133:102|116:157,1,107.999996704102,10|0,0:0|0:0,0:0:0:0:
26,358,69097,2,0,B|-4:276|52:272|28:190|28:190|59:235|112:251|162:233,1,323.999990112305,8|0,0:1|0:0,0:0:0:0:
323,178,69467,6,0,P|269:172|217:156,1,107.999996704102,8|0,0:0|0:0,0:0:0:0:
25,82,69652,1,2,0:0:0:0:
89,87,69745,1,0,0:0:0:0:
117,144,69837,1,8,0:1:0:0:
427,384,70023,6,0,B|461:309|440:199|383:242|288:104|400:-11|481:-7|512:2,1,480,14|10,0:0|0:0,0:0:0:0:
480,276,70578,2,0,P|327:250|269:106,1,323.999990112305,12|0,0:1|0:0,0:0:0:0:
412,8,70949,6,0,P|370:41|317:38,1,107.999996704102,14|0,0:0|0:0,0:0:0:0:
428,198,71134,6,0,P|379:179|355:131,1,107.999996704102,2|0,0:0|0:0,0:0:0:0:
262,303,71319,6,0,P|254:251|283:207,1,107.999996704102,8|0,0:1|0:0,0:0:0:0:
88,214,71504,6,0,P|129:181|181:184,1,107.999996704102,10|8,0:0|0:0,0:0:0:0:
75,20,71689,5,8,0:0:0:0:
124,39,71781,1,8,0:0:0:0:
148,86,71874,1,10,0:0:0:0:
4,247,72060,2,0,B|-6:193|-6:193|24:149,1,107.999996704102,8|0,0:1|0:0,0:0:0:0:
256,6,72245,5,8,0:0:0:0:
256,6,72337,1,8,0:0:0:0:
256,6,72430,1,14,0:0:0:0:
437,189,72615,1,8,0:0:0:0:
254,373,72800,1,8,0:1:0:0:
68,189,72986,1,8,0:0:0:0:
237,74,73356,6,0,L|281:172,1,107.999996704102,8|0,0:0|0:0,0:0:0:0:
274,0,73541,6,0,L|233:375,1,377.999988464356,10|0,0:1|0:0,0:0:0:0:
232,375,73912,6,0,P|291:303|407:301,1,215.999993408203,10|0,0:0|0:0,0:0:0:0:
512,96,74282,2,0,P|452:167|336:169,1,215.999993408203,8|0,0:1|0:0,0:0:0:0:
196,33,74560,5,8,0:0:0:0:
133,13,74652,1,10,0:0:0:0:
70,32,74745,1,8,0:0:0:0:
35,86,74837,1,8,0:0:0:0:
197,302,75023,2,0,B|211:243|177:190|153:219|119:167|130:109,1,215.999993408203,10|0,0:1|0:0,0:0:0:0:
367,22,75393,6,0,P|269:32|224:146,1,215.999993408203,10|0,0:0|0:0,0:0:0:0:
330,321,75763,1,8,0:1:0:0:
512,129,75949,5,8,0:0:0:0:
512,129,76041,1,8,0:0:0:0:
512,129,76134,2,0,L|404:140,1,107.999996704102,10|0,0:0|0:0,0:0:0:0:
319,215,76319,2,0,L|211:226,1,107.999996704102,8|0,0:0|0:0,0:0:0:0:
74,355,76504,2,0,B|5:289|15:178|15:178|90:188|123:243,1,323.999990112305,10|0,0:1|0:0,0:0:0:0:
166,329,76875,5,10,0:0:0:0:
195,115,77060,1,0,0:0:0:0:
405,147,77245,1,10,0:1:0:0:
375,359,77430,1,0,0:0:0:0:
166,329,77615,5,10,0:0:0:0:
113,79,77800,1,0,0:0:0:0:
358,29,77985,1,10,0:1:0:0:
410,277,78170,1,0,0:0:0:0:
166,329,78356,6,0,L|195:115,1,215.999993408203,10|0,0:0|0:0,0:0:0:0:
455,26,78726,2,0,P|401:113|298:106,1,215.999993408203,8|0,0:1|0:0,0:0:0:0:
169,27,79004,1,8,0:0:0:0:
113,79,79097,2,0,P|71:45|18:40,2,107.999996704102,10|8|8,0:0|0:0|0:0,0:0:0:0:
398,353,79467,6,0,B|296:402|238:201|391:257|378:122,1,323.999990112305,14|0,0:1|0:0,0:0:0:0:
345,9,79837,5,10,0:0:0:0:
498,149,80023,1,0,0:0:0:0:
270,291,80208,1,10,0:1:0:0:
377,121,80393,1,0,0:0:0:0:
398,353,80578,5,10,0:0:0:0:
234,136,80763,1,0,0:0:0:0:
449,40,80949,1,10,0:1:0:0:
367,274,81134,1,0,0:0:0:0:
367,274,81226,1,0,0:0:0:0:
367,274,81319,5,10,0:0:0:0:
115,135,81504,1,0,0:0:0:0:
322,41,81689,1,10,0:1:0:0:
216,349,81875,1,0,0:0:0:0:
9,107,82060,6,0,L|0:0,2,107.999996704102,10|8|8,0:0|0:0|0:0,0:0:0:0:
93,367,82430,2,0,B|171:296|178:105|-5:171|56:260,1,323.999990112305,8|0,0:1|0:0,0:0:0:0:
216,349,82800,6,0,P|352:264|512:254,1,323.999990112305,14|0,0:0|0:0,0:0:0:0:
465,344,83171,1,2,0:0:0:0:
316,244,83356,1,8,0:0:0:0:
446,31,83541,5,14,0:1:0:0:
446,31,83726,1,8,0:0:0:0:
66,31,84097,5,8,0:0:0:0:
66,31,84282,1,14,0:0:0:0:
446,31,84652,1,8,0:0:0:0:
288,0,85023,6,0,P|292:29|301:57,1,60,10|0,0:1|0:0,0:0:0:0:
217,89,85208,6,0,P|211:127|198:164,1,77.9999964294435,8|0,0:0|0:0,0:0:0:0:
301,151,85393,6,0,P|307:198|323:242,1,96,10|0,0:0|0:0,0:0:0:0:
228,248,85578,6,0,P|220:304|201:357,1,113.999996955872,8|0,0:0|0:0,0:0:0:0:
311,337,85763,5,6,0:0:0:0:
256,192,85856,12,0,88356,0:0:0:0:
