osu file format v14

[General]
AudioFilename: audio.mp3
AudioLeadIn: 0
PreviewTime: 49467
Countdown: 0
SampleSet: Soft
StackLeniency: 0.3
Mode: 0
LetterboxInBreaks: 0
WidescreenStoryboard: 1

[Editor]
DistanceSpacing: 0.7
BeatDivisor: 4
GridSize: 32
TimelineZoom: 2.939999

[Metadata]
Title:Setsuna no Chikai (feat. Yuzaki Tsukasa (CV: Kito Akari)) (TV Size)
TitleUnicode:刹那の誓い(feat. 由崎司 (CV: 鬼頭明里)) (TV Size)
Artist:Neko Hacker
ArtistUnicode:Neko Hacker
Creator:Vararaup
Version:Special Neon Collab Another
Source:トニカクカワイイ(シーズン2)
Tags:japanese pop jpop electronic tonikawa tonikaku kawaii op opening season 2 fly me to the moon anime nasa cute couple aurorance iredi lancien neonlights frozz -keqing
BeatmapID:4106182
BeatmapSetID:1970466

[Difficulty]
HPDrainRate:6
CircleSize:4
OverallDifficulty:8.2
ApproachRate:9.2
SliderMultiplier:2
SliderTickRate:1

[Events]
//Background and Video events
0,0,"tsukasa.jpg",0,0
Video,0,"video.mp4"
//Break Periods
//Storyboard Layer 0 (Background)
//Storyboard Layer 1 (Fail)
//Storyboard Layer 2 (Pass)
//Storyboard Layer 3 (Foreground)
//Storyboard Layer 4 (Overlay)
//Storyboard Sound Samples

[TimingPoints]
-162,370.37037037037,4,2,2,30,1,0
578,-333.333333333333,4,2,2,30,0,0
13171,-100,4,2,2,50,0,0
15578,-83.3333333333333,4,2,2,50,0,0
15763,-100,4,2,2,50,0,0
18356,-250,4,2,2,50,0,0
19097,-100,4,2,2,50,0,0
21504,-83.3333333333333,4,2,2,50,0,0
22060,-100,4,2,2,50,0,0
25023,-83.3333333333333,4,2,2,60,0,0
30208,-66.6666666666667,4,2,2,60,0,0
36875,-333.333333333333,4,2,2,60,0,0
37615,-100,4,2,2,60,0,0
37800,-62.5,4,2,2,60,0,0
37986,-50,4,2,2,60,0,0
38171,-41.6666666666667,4,2,2,60,0,0
38356,-52.6315789473684,4,2,2,70,0,0
39097,-333.333333333333,4,2,2,70,0,0
39652,-62.5,4,2,2,70,0,0
41319,-55.5555555555556,4,2,2,70,0,0
41689,-71.4285714285714,4,2,2,70,0,0
42800,-55.5555555555556,4,2,2,70,0,0
44282,-62.5,4,2,2,70,0,0
50208,-200,4,2,2,70,0,0
50393,-200,4,2,2,70,0,0
50763,-100,4,2,2,70,0,0
50949,-52.6315789473684,4,2,2,70,0,0
52800,-100,4,2,2,70,0,0
53171,-52.6315789473684,4,2,2,70,0,0
55023,-58.8235294117647,4,2,2,70,0,0
55393,-66.6666666666667,4,2,2,70,0,0
55763,-52.6315789473684,4,2,2,70,0,0
58726,-100,4,2,2,70,0,0
59097,-125,4,2,2,70,0,0
59467,-100,4,2,2,70,0,0
59837,-83.3333333333333,4,2,2,70,0,0
60208,-71.4285714285714,4,2,2,70,0,0
62060,-55.5555555555556,4,2,2,70,0,0
70023,-50,4,2,2,70,0,0
70949,-55.5555555555556,4,2,2,70,0,0
82800,-100,4,2,2,70,0,0
85763,-100,4,2,2,60,0,0
85856,-100,4,2,2,30,0,0
88356,-100,4,2,2,5,0,0

[Colours]
Combo1 : 173,106,255
Combo2 : 255,181,106
Combo3 : 255,106,163
Combo4 : 255,106,106

[HitObjects]
75,71,578,6,0,L|100:103,1,29.9999990844727
89,209,949,2,0,L|103:170,1,29.9999990844727
203,125,1319,2,0,L|162:132,3,29.9999990844727,2|0|0|0,0:0|0:0|0:0|0:0,0:0:0:0:
252,266,2060,6,0,P|241:246|227:232,1,29.9999990844727
294,349,2430,2,0,P|305:329|316:316,1,29.9999990844727
459,161,2800,6,0,L|435:191,1,29.9999990844727,2|0,0:0|0:0,0:0:0:0:
445,299,3171,2,0,L|431:265,1,29.9999990844727
331,215,3541,2,0,L|373:219,3,29.9999990844727
205,48,4282,6,0,P|215:67|226:80,1,29.9999990844727,2|0,0:0|0:0,0:0:0:0:
305,78,4652,2,0,P|327:78|347:71,1,29.9999990844727
219,282,5023,6,0,P|207:262|202:244,1,29.9999990844727
243,180,5393,2,0,P|253:159|265:146,1,29.9999990844727
359,241,5763,6,0,P|323:230|353:223,1,89.9999972534181,2|0,0:0|0:0,0:0:0:0:
182,353,6504,6,0,L|157:319,1,29.9999990844727,2|0,0:0|0:0,0:0:0:0:
168,215,6875,2,0,L|154:248,1,29.9999990844727,2|0,0:0|0:0,0:0:0:0:
54,299,7245,2,0,L|94:290,3,29.9999990844727,2|0|0|0,0:0|0:0|0:0|0:0,0:0:0:0:
245,155,7986,6,0,P|234:135|222:122,1,29.9999990844727
287,238,8356,2,0,P|298:218|309:205,1,29.9999990844727
435,55,8726,6,0,L|410:87,1,29.9999990844727,2|0,0:0|0:0,0:0:0:0:
421,193,9097,2,0,L|406:155,1,29.9999990844727
307,109,9467,2,0,L|350:113,3,29.9999990844727
216,174,10208,6,0,P|204:154|197:136,1,29.9999990844727,2|0,0:0|0:0,0:0:0:0:
240,72,10578,2,0,P|250:51|264:40,1,29.9999990844727
77,282,10949,6,0,P|87:262|99:249,1,29.9999990844727
178,252,11319,2,0,P|200:251|215:256,1,29.9999990844727
329,317,11689,6,0,P|293:314|322:299,1,89.9999972534181,2|0,0:0|0:0,0:0:0:0:
162,141,12430,6,0,L|185:172,1,29.9999990844727,2|0,0:0|0:0,0:0:0:0:
176,279,12801,2,0,L|193:241,1,29.9999990844727,2|0,0:0|0:0,0:0:0:0:
290,195,13171,6,0,L|248:203,4,25,10|0|0|0|0,0:0|0:0|0:0|0:0|0:0,0:0:0:0:
440,178,13541,2,0,P|382:146|379:117,1,100
323,314,13912,2,0,B|352:316|352:316|360:225,1,100,10|0,0:1|0:0,0:0:0:0:
182,335,14282,2,0,P|203:282|255:282,1,100,2|0,0:0|0:0,0:0:0:0:
227,144,14652,6,0,L|221:213,1,50,2|0,0:0|0:0,0:0:0:0:
239,43,14837,1,8,0:0:0:0:
349,47,15023,2,0,L|228:57,1,100,0|8,0:0|0:0,0:0:0:0:
480,32,15393,5,10,0:1:0:0:
480,32,15578,6,0,P|489:47|467:37,1,59.9999981689454
447,156,15763,2,0,B|443:115|443:115|448:95|448:95|443:39,1,100,10|0,0:0|0:0,0:0:0:0:
204,206,16134,6,0,P|208:170|218:151,1,50,10|0,0:0|0:0,0:0:0:0:
227,144,16319,2,0,L|193:121,2,25
374,229,16504,2,0,P|347:190|294:198,1,100,2|8,0:0|0:0,0:0:0:0:
185,333,16875,2,0,P|209:287|262:295,1,100,10|0,0:1|0:0,0:0:0:0:
273,152,17245,2,0,B|283:252|283:252|290:259|290:259|301:371,1,200,2|2,0:0|0:0,0:0:0:0:
134,211,17800,6,0,P|158:212|182:205,1,50,8|0,0:0|0:0,0:0:0:0:
229,67,17986,2,0,P|277:57|325:72,1,100,0|8,0:0|0:0,0:0:0:0:
348,214,18263,5,8,0:0:0:0:
348,214,18356,2,0,P|347:184|357:156,1,60,10|0,0:1|0:0,0:0:0:0:
474,66,18726,6,0,P|449:82|420:91,1,60,2|8,0:0|0:0,0:0:0:0:
339,68,19097,1,10,0:0:0:0:
339,68,19282,2,0,L|326:23,2,25
248,34,19467,1,2,0:0:0:0:
352,75,19652,1,8,0:0:0:0:
274,141,19837,2,0,B|294:164|294:164|283:240,1,100,8|0,0:1|0:0,0:0:0:0:
131,257,20208,2,0,P|142:223|210:200,1,100,2|0,0:0|0:0,0:0:0:0:
372,301,20578,6,0,L|367:234,1,50,2|0,0:0|0:0,0:0:0:0:
432,124,20763,1,8,0:0:0:0:
432,124,20949,2,0,L|425:194,1,50
222,113,21134,1,8,0:0:0:0:
265,110,21226,1,8,0:0:0:0:
299,145,21319,1,10,0:1:0:0:
299,145,21504,6,0,L|291:70,1,59.9999981689454
372,301,21689,2,0,L|380:181,1,119.999996337891
162,304,22060,6,0,P|190:285|221:285,1,50,10|0,0:0|0:0,0:0:0:0:
292,240,22245,2,0,P|281:233|269:229,2,25
371,300,22430,2,0,P|420:303|457:271,1,100
431,96,22800,1,8,0:1:0:0:
431,96,22986,6,0,B|372:113|338:139,2,100,0|0|8,0:0|0:0|0:0,0:0:0:0:
229,31,23541,1,0,0:0:0:0:
320,53,23726,1,8,0:0:0:0:
160,145,23912,6,0,P|153:112|155:87,1,50,0|0,3:0|0:0,0:0:0:0:
154,177,24097,2,0,P|141:155|135:131,1,50,0|0,3:0|0:0,0:0:0:0:
283,218,24282,6,0,P|257:195|235:184,1,50,0|0,3:0|0:0,0:0:0:0:
314,229,24467,2,0,P|301:207|283:189,1,50,0|0,3:0|0:0,0:0:0:0:
433,138,24652,6,0,P|407:160|385:171,1,50,0|0,3:0|0:0,0:0:0:0:
464,127,24837,2,0,P|451:148|433:166,1,50,0|0,3:0|0:0,0:0:0:0:
430,318,25023,2,0,P|414:287|413:256,1,59.9999981689454,14|0,0:0|0:0,0:0:0:0:
445,320,25208,1,2,0:0:0:0:
216,306,25393,6,0,L|275:311,1,59.9999981689454,10|0,0:1|0:0,0:0:0:0:
147,244,25578,2,0,L|87:248,1,59.9999981689454,2|0,0:0|0:0,0:0:0:0:
236,77,25763,2,0,B|205:101|205:101|218:187,2,119.999996337891,2|10|10,0:0|0:0|0:1,0:0:0:0:
364,206,26319,1,2,0:0:0:0:
363,182,26411,1,2,0:0:0:0:
351,163,26504,2,0,P|324:140|299:132,1,59.9999981689454,10|2,0:0|0:0,0:0:0:0:
138,184,26689,5,0,0:0:0:0:
91,190,26782,1,2,0:0:0:0:
62,157,26875,2,0,L|69:86,1,59.9999981689454,10|0,0:1|0:0,0:0:0:0:
39,326,27060,2,0,L|47:261,1,59.9999981689454,2|0,0:0|0:0,0:0:0:0:
27,330,27245,5,2,0:0:0:0:
115,315,27338,1,2,0:0:0:0:
194,299,27431,2,0,P|223:321|242:343,1,59.9999981689454,10|0,0:0|0:0,0:0:0:0:
383,339,27615,2,0,L|220:354,1,119.999996337891,10|0,0:1|0:0,0:0:0:0:
203,110,27986,5,10,0:0:0:0:
222,123,28078,1,2,0:0:0:0:
232,144,28171,2,0,L|226:207,1,59.9999981689454,2|2,0:0|0:0,0:0:0:0:
222,295,28356,2,0,P|251:291|277:277,2,59.9999981689454,10|0|2,0:1|0:0|0:0,0:0:0:0:
97,275,28634,5,0,0:0:0:0:
94,258,28726,2,0,P|117:240|146:231,1,59.9999981689454,2|0,0:0|0:0,0:0:0:0:
222,295,28912,2,0,P|251:291|277:277,1,59.9999981689454,10|0,0:0|0:0,0:0:0:0:
375,231,29097,2,0,B|351:203|351:203|364:106,1,119.999996337891,10|0,0:1|0:0,0:0:0:0:
372,112,29375,5,2,0:0:0:0:
327,48,29467,1,10,0:0:0:0:
251,67,29559,1,2,0:0:0:0:
255,79,29652,2,0,L|186:86,1,59.9999981689454,2|0,0:0|0:0,0:0:0:0:
63,14,29837,2,0,L|103:70,1,59.9999981689454,10|0,0:1|0:0,0:0:0:0:
100,204,30023,2,0,L|128:140,1,59.9999981689454,2|0,0:0|0:0,0:0:0:0:
124,294,30208,6,0,P|86:295|44:316,1,74.9999977111817,2|0,0:0|0:0,0:0:0:0:
199,232,30393,2,0,P|217:198|219:151,1,74.9999977111817,2|0,0:0|0:1,0:0:0:0:
214,330,30578,1,10,0:1:0:0:
214,330,30671,1,0,0:0:0:0:
214,330,30763,2,0,P|233:362|263:384,1,74.9999977111817,8|8,0:0|0:0,0:0:0:0:
403,173,30949,5,14,0:0:0:0:
356,189,31041,1,2,0:0:0:0:
356,237,31134,1,2,0:0:0:0:
403,252,31226,1,2,0:0:0:0:
431,213,31319,1,10,0:1:0:0:
238,38,31504,5,2,0:0:0:0:
285,54,31596,1,2,0:0:0:0:
285,102,31689,1,2,0:0:0:0:
238,117,31781,1,2,0:0:0:0:
210,78,31874,1,10,0:0:0:0:
113,158,32060,5,10,0:1:0:0:
66,174,32152,1,2,0:0:0:0:
66,222,32245,1,2,0:0:0:0:
113,237,32337,1,2,0:0:0:0:
141,198,32430,1,10,0:0:0:0:
299,271,32615,5,2,0:0:0:0:
299,271,32708,1,2,0:0:0:0:
299,271,32800,1,8,0:1:0:0:
299,271,32893,1,2,0:0:0:0:
299,271,32986,2,0,L|292:194,1,75.0000028610231,2|0,0:0|0:0,0:0:0:0:
167,66,33171,6,0,P|199:85|238:92,1,75.0000028610231,10|2,0:0|0:0,0:0:0:0:
431,89,33356,1,10,0:0:0:0:
410,65,33448,1,2,0:0:0:0:
383,59,33541,2,0,P|350:76|343:200,1,150.000005722046,10|0,0:1|0:0,0:0:0:0:
204,150,33912,5,10,0:0:0:0:
261,272,34097,1,0,0:0:0:0:
256,81,34282,5,8,0:1:0:0:
198,228,34467,1,2,0:0:0:0:
140,121,34652,5,8,0:0:0:0:
336,232,34837,1,0,0:0:0:0:
384,129,35023,5,10,0:1:0:0:
188,240,35208,1,0,0:0:0:0:
186,60,35393,5,8,0:0:0:0:
261,272,35578,1,8,0:0:0:0:
263,28,35763,5,10,0:1:0:0:
188,240,35948,1,8,0:0:0:0:
142,75,36134,5,10,0:0:0:0:
170,127,36226,1,0,0:0:0:0:
224,144,36319,1,8,0:0:0:0:
270,126,36412,1,0,0:0:0:0:
304,96,36504,1,10,0:1:0:0:
333,76,36597,1,0,0:0:0:0:
361,66,36689,1,8,0:0:0:0:
391,76,36782,1,0,0:0:0:0:
406,93,36875,6,0,L|400:124,3,29.9999990844727,10|0|0|0,0:0|0:0|0:0|0:0,0:0:0:0:
227,156,37615,6,0,L|234:205,2,50,10|8|10,0:0|0:0|0:0,0:0:0:0:
156,118,37893,1,0,0:0:0:0:
260,83,37986,6,0,L|251:185,1,100,10|0,0:1|0:0,0:0:0:0:
450,311,38356,6,0,B|435:452|244:350|325:318|300:169|347:252|592:257|555:152|391:-1|348:71|390:240|271:268,1,664.999982242585,14|0,0:0|0:0,0:0:0:0:
104,251,39097,6,0,P|142:219|167:212,1,74.9999977111817,10|0,0:1|0:0,0:0:0:0:
241,243,39652,1,0,3:0:0:0:
250,251,39745,1,0,3:0:0:0:
260,259,39837,2,0,B|344:245|385:121|114:99|380:82|298:-7|354:59|508:86|401:277|236:38|332:293|331:365,1,560,12|0,0:0|0:0,0:0:0:0:
331,354,40578,2,0,P|327:312|428:276,1,160,14|0,0:1|0:0,0:0:0:0:
69,306,40949,2,0,P|138:334|187:278,1,160,2|0,0:0|0:0,0:0:0:0:
107,81,41319,6,0,B|104:43|44:10|-22:73|-3:170|114:212,1,269.999991760254,14|0,0:0|0:0,0:0:0:0:
216,198,41689,5,2,0:0:0:0:
232,152,41782,1,2,0:0:0:0:
272,125,41875,1,10,0:0:0:0:
319,125,41967,1,2,0:0:0:0:
361,144,42060,2,0,L|436:162,1,69.9999978637696,10|2,0:1|0:0,0:0:0:0:
475,34,42245,2,0,P|440:41|412:61,1,69.9999978637696,2|2,0:0|0:0,0:0:0:0:
302,209,42430,5,2,0:0:0:0:
305,222,42523,1,2,0:0:0:0:
308,235,42615,1,2,0:0:0:0:
311,248,42708,1,2,0:0:0:0:
314,261,42800,2,0,P|386:248|383:331,1,179.999994506836,14|0,0:0|0:0,0:0:0:0:
285,374,43078,2,0,P|199:345|113:321,1,179.999994506836,2|0,0:0|0:0,0:0:0:0:
44,355,43356,1,10,0:0:0:0:
37,115,43541,6,0,B|135:212|89:288|-1:281|0:196,2,269.999991760254,14|2|2,0:1|0:0|0:0,0:0:0:0:
186,10,44282,6,0,B|142:51|142:51|326:76,1,240,14|0,0:0|0:0,0:0:0:0:
415,33,44652,1,0,3:0:0:0:
368,45,44745,1,0,3:0:0:0:
339,82,44837,1,0,3:0:0:0:
334,130,44930,1,0,3:0:0:0:
356,172,45023,2,0,P|378:204|387:243,1,80,10|0,0:1|0:0,0:0:0:0:
413,340,45208,5,0,0:0:0:0:
458,274,45300,2,0,B|397:262|337:298|363:326|309:365|242:349,1,240,2|2,0:0|0:0,0:0:0:0:
17,161,45763,6,0,B|81:173|117:261|41:246|80:345|169:341|198:281|149:213,1,320,14|2,0:0|0:0,0:0:0:0:
129,129,46319,1,8,0:0:0:0:
0,321,46504,6,0,P|153:276|309:239,1,320,14|2,0:1|0:0,0:0:0:0:
509,137,47060,1,0,0:0:0:0:
422,99,47152,1,0,0:0:0:0:
431,115,47245,2,0,P|470:22|368:22,1,240,12|0,0:0|0:0,0:0:0:0:
318,94,47615,5,2,0:0:0:0:
287,105,47708,1,2,0:0:0:0:
255,104,47800,1,10,0:0:0:0:
225,92,47893,1,2,0:0:0:0:
161,39,47986,5,10,0:1:0:0:
143,83,48078,1,2,0:0:0:0:
150,35,48171,5,2,0:0:0:0:
132,79,48263,1,2,0:0:0:0:
59,32,48356,6,0,P|25:51|7:86,3,80,2|2|2|2,0:0|0:0|0:0|0:0,0:0:0:0:
10,208,48726,6,0,B|7:237|-6:274|-6:274|40:209|139:190,1,240,12|0,0:0|0:0,0:0:0:0:
250,127,49097,2,0,P|202:145|250:305,1,240,8|0,0:0|0:0,0:0:0:0:
300,327,49467,5,10,0:1:0:0:
362,134,49652,1,10,0:0:0:0:
367,181,49745,1,8,0:0:0:0:
373,228,49837,1,10,0:1:0:0:
373,228,50023,1,10,0:0:0:0:
475,42,50208,6,0,P|452:57|432:84,1,50,10|0,0:0|0:0,0:0:0:0:
460,208,50486,2,0,P|459:180|446:149,1,50,10|0,0:0|0:0,0:0:0:0:
316,119,50763,2,0,P|341:131|374:135,1,50,10|0,0:0|0:0,0:0:0:0:
160,31,50949,5,10,0:1:0:0:
160,31,51319,2,0,B|214:116|193:183|136:181|139:283|158:355|331:332|370:193|205:133|184:178|126:158|96:64,1,569.999984779358,12|0,0:0|0:0,0:0:0:0:
84,71,52060,2,0,P|104:115|135:151,1,94.9999974632264,8|0,0:0|0:0,0:0:0:0:
286,278,52245,5,2,0:0:0:0:
305,331,52337,1,0,0:0:0:0:
281,383,52430,2,0,P|287:288|312:196,1,189.999994926453,10|0,0:1|0:0,0:0:0:0:
440,48,52800,6,0,P|446:24|446:0,1,50
446,80,52985,2,0,P|458:59|464:35,1,50,2|0,0:0|0:0,0:0:0:0:
512,218,53171,6,0,B|365:192|422:112|268:83,1,284.999992389679,10|2,0:0|0:0,0:0:0:0:
174,129,53541,2,0,P|194:168|239:165,1,94.9999974632264
337,16,53726,5,2,0:0:0:0:
315,38,53819,1,0,0:0:0:0:
243,12,53912,2,0,B|257:153|263:236|263:236|290:256|298:282,1,284.999992389679,8|2,0:1|0:0,0:0:0:0:
280,357,54282,1,8,0:0:0:0:
217,312,54375,2,0,P|175:334|128:334,2,94.9999974632264,0|2|0,0:0|0:0|0:0,0:0:0:0:
353,190,54652,6,0,P|477:160|492:286,1,284.999992389679,2|0,0:0|0:0,0:0:0:0:
485,280,55023,2,0,P|468:168|359:195,1,255.000004863739,10|0,0:0|0:0,0:0:0:0:
348,284,55393,6,0,P|312:273|287:246,1,75.0000028610231,10|0,0:1|0:0,0:0:0:0:
289,318,55578,2,0,P|297:281|287:246,1,75.0000028610231,2|0,0:0|0:0,0:0:0:0:
160,130,55763,6,0,P|206:131|246:156,1,94.9999974632264,2|0,0:0|0:0,0:0:0:0:
267,68,55948,2,0,P|245:109|246:156,1,94.9999974632264,2|0,0:0|0:0,0:0:0:0:
357,195,56134,6,0,P|173:222|42:355,1,379.999989852906,8|0,0:0|0:0,0:0:0:0:
41,355,56689,2,0,P|85:336|119:303,1,94.9999974632264,2|0,0:0|0:0,0:0:0:0:
136,226,56875,1,10,0:1:0:0:
59,127,57060,5,0,0:0:0:0:
27,80,57152,1,2,0:0:0:0:
36,23,57245,2,0,B|112:2|146:108|89:153|29:132|30:235,1,284.999992389679,8|0,0:0|0:0,0:0:0:0:
103,302,57615,2,0,P|144:278|286:252,1,189.999994926453,2|0,0:0|0:0,0:0:0:0:
381,316,57893,5,2,0:0:0:0:
372,325,57986,1,8,0:0:0:0:
363,269,58078,1,0,0:0:0:0:
392,219,58171,1,2,0:0:0:0:
445,199,58263,1,0,0:0:0:0:
499,215,58356,2,0,P|421:329|283:339,1,284.999992389679,10|2,0:1|0:0,0:0:0:0:
183,270,58726,6,0,P|189:294|189:318,1,50
189,238,58911,2,0,P|201:259|207:283,1,50,2|0,0:0|0:0,0:0:0:0:
178,94,59097,6,0,P|145:116|106:119,1,80,10|0,0:0|3:0,0:0:0:0:
211,21,59375,5,0,3:0:0:0:
191,97,59467,2,0,P|151:126|102:130,1,100,0|2,3:0|3:2,0:0:0:0:
224,23,59745,5,0,3:0:0:0:
204,99,59837,2,0,P|156:133|97:138,1,119.999996337891,2|0,3:2|3:0,0:0:0:0:
236,26,60115,5,0,3:0:0:0:
216,102,60208,2,0,P|159:142|90:148,1,139.999995727539,0|2,3:0|3:2,0:0:0:0:
14,119,60486,5,0,3:0:0:0:
18,77,60578,1,2,3:2:0:0:
45,45,60671,1,0,3:0:0:0:
84,32,60763,1,0,3:0:0:0:
125,40,60856,1,0,3:0:0:0:
157,67,60949,2,0,P|183:90|215:101,1,69.9999978637696,0|0,3:0|3:0,0:0:0:0:
278,51,61134,2,0,P|310:39|337:17,1,69.9999978637696,0|0,3:0|3:0,0:0:0:0:
432,128,61319,5,2,3:2:0:0:
438,183,61412,1,0,3:0:0:0:
410,231,61504,1,0,3:0:0:0:
356,246,61597,1,0,3:0:0:0:
303,227,61689,1,2,0:0:0:0:
303,219,61782,1,2,0:0:0:0:
303,212,61875,1,2,0:0:0:0:
303,205,61967,1,2,0:0:0:0:
303,198,62060,6,0,P|424:205|408:325,1,269.999991760254,10|0,0:0|0:0,0:0:0:0:
292,366,62430,2,0,B|194:330|245:293|152:258,1,179.999994506836,8|0,0:1|0:0,0:0:0:0:
77,274,62708,1,8,0:0:0:0:
62,352,62800,2,0,P|102:366|136:339,1,89.9999972534181,10|8,0:0|0:0,0:0:0:0:
218,260,62986,6,0,P|213:213|207:167,1,89.9999972534181,10|0,0:0|0:0,0:0:0:0:
182,84,63171,2,0,P|200:212|212:352,1,269.999991760254,8|0,0:1|0:0,0:0:0:0:
201,364,63541,5,8,0:0:0:0:
29,156,63726,1,2,0:0:0:0:
22,228,63819,1,0,0:0:0:0:
77,274,63912,2,0,B|100:209|64:135|19:163|14:53|88:40,1,269.999991760254,8|8,0:1|0:0,0:0:0:0:
182,84,64282,6,0,P|167:126|156:170,1,89.9999972534181,10|0,0:0|0:0,0:0:0:0:
166,175,64467,2,0,P|176:131|191:88,1,89.9999972534181,8|0,0:0|0:0,0:0:0:0:
289,15,64652,2,0,P|162:61|28:76,1,269.999991760254,10|0,0:1|0:0,0:0:0:0:
28,156,65023,6,0,B|18:176|0:192|0:192|106:188|211:254,1,269.999991760254,10|0,0:0|0:0,0:0:0:0:
257,334,65393,2,0,P|296:313|339:299,1,89.9999972534181,8|0,0:1|0:0,0:0:0:0:
484,212,65578,1,8,0:0:0:0:
488,229,65671,1,8,0:0:0:0:
492,246,65763,2,0,P|447:238|405:223,1,89.9999972534181,10|0,0:0|0:0,0:0:0:0:
277,94,65949,6,0,P|239:104|239:151,1,89.9999972534181,10|0,0:0|0:0,0:0:0:0:
211,254,66134,2,0,B|286:200|390:188|390:188|398:147|428:123,1,269.999991760254,8|0,0:1|0:0,0:0:0:0:
512,18,66504,6,0,P|422:24|333:38,1,179.999994506836,8|2,0:0|0:0,0:0:0:0:
277,94,66782,1,0,0:0:0:0:
277,94,66875,1,8,0:1:0:0:
108,52,67060,5,8,0:0:0:0:
102,68,67152,1,8,0:0:0:0:
70,26,67245,5,10,0:0:0:0:
86,77,67337,1,8,0:0:0:0:
102,128,67430,1,8,0:0:0:0:
36,238,67615,5,14,0:1:0:0:
6,159,67708,2,0,P|95:164|177:199,1,179.999994506836
207,360,67986,6,0,B|122:412|75:320|160:252|172:323|255:250,1,269.999991760254,14|0,0:0|0:0,0:0:0:0:
239,162,68356,2,0,P|196:161|177:199,1,89.9999972534181,8|0,0:1|0:0,0:0:0:0:
296,340,68541,5,8,0:0:0:0:
347,357,68634,1,8,0:0:0:0:
397,339,68726,1,10,0:0:0:0:
428,294,68819,1,8,0:0:0:0:
423,239,68912,1,10,0:0:0:0:
423,239,69097,2,0,P|331:153|386:39,1,269.999991760254,8|0,0:1|0:0,0:0:0:0:
476,85,69467,6,0,B|443:57|443:57|307:70,1,179.999994506836,8|2,0:0|0:0,0:0:0:0:
200,95,69745,1,0,0:0:0:0:
239,162,69837,1,8,0:1:0:0:
423,238,70023,6,0,B|428:226|464:190|464:190|363:282|344:118|145:227|234:321|286:295,1,400,14|10,0:0|0:0,0:0:0:0:
411,343,70578,6,0,P|385:196|306:69,1,300,12|0,0:1|0:0,0:0:0:0:
192,18,70949,6,0,P|141:47|134:84,1,89.9999972534181,14|0,0:0|0:0,0:0:0:0:
169,181,71134,5,2,0:0:0:0:
189,131,71226,1,0,0:0:0:0:
157,86,71319,2,0,P|69:84|12:154,1,179.999994506836,8|10,0:1|0:0,0:0:0:0:
15,242,71597,5,8,0:0:0:0:
32,237,71689,1,8,0:0:0:0:
49,232,71782,1,8,0:0:0:0:
66,227,71875,1,10,0:0:0:0:
202,328,72060,2,0,P|158:321|129:288,1,89.9999972534181,8|0,0:1|0:0,0:0:0:0:
50,102,72245,5,8,0:0:0:0:
121,137,72337,1,8,0:0:0:0:
191,98,72430,2,0,B|202:55|202:55|187:10,1,89.9999972534181,14|0,0:0|0:0,0:0:0:0:
274,230,72615,2,0,B|262:187|262:187|278:145,1,89.9999972534181,8|0,0:0|0:0,0:0:0:0:
308,50,72800,5,8,0:1:0:0:
308,50,72893,1,8,0:1:0:0:
308,50,72986,1,8,0:0:0:0:
455,102,73171,2,0,P|410:115|370:132,2,89.9999972534181,10|8|8,0:1|0:1|0:0,0:0:0:0:
386,17,73541,2,0,B|378:117|437:185|437:185|415:232|377:249,1,269.999991760254,10|0,0:1|0:1,0:0:0:0:
428,349,73912,6,0,P|355:281|189:290,1,269.999991760254,10|0,0:0|0:0,0:0:0:0:
119,339,74282,2,0,P|201:332|205:249,1,179.999994506836,8|8,0:1|0:0,0:0:0:0:
120,161,74560,5,8,0:0:0:0:
68,175,74652,1,10,0:0:0:0:
82,227,74745,1,8,0:0:0:0:
133,212,74837,1,8,0:0:0:0:
32,306,75023,2,0,B|57:168|134:218|158:74,1,269.999991760254,10|0,0:1|0:0,0:0:0:0:
71,13,75393,6,0,B|7:0|7:0|68:98,1,179.999994506836,10|0,0:0|0:0,0:0:0:0:
177,239,75763,2,0,P|250:186|336:162,1,179.999994506836,8|8,0:1|0:0,0:0:0:0:
421,194,76041,1,8,0:0:0:0:
421,194,76134,2,0,P|393:229|343:250,1,89.9999972534181,10|0,0:0|0:0,0:0:0:0:
237,303,76319,2,0,P|281:308|324:342,1,89.9999972534181,8|0,0:0|0:0,0:0:0:0:
470,338,76504,6,0,P|449:204|431:70,1,269.999991760254,10|0,0:1|0:0,0:0:0:0:
465,0,76875,1,10,0:0:0:0:
352,50,77060,1,0,0:0:0:0:
291,130,77245,5,10,0:1:0:0:
144,76,77430,1,8,0:0:0:0:
17,143,77615,5,10,0:0:0:0:
17,143,77708,1,8,0:0:0:0:
17,143,77800,1,8,0:0:0:0:
142,89,77986,1,10,0:1:0:0:
39,16,78171,1,0,0:0:0:0:
107,187,78356,6,0,P|189:221|250:286,2,179.999994506836,10|0|8,0:0|0:0|0:1,0:0:0:0:
27,265,78912,1,8,0:0:0:0:
20,299,79004,2,0,P|58:290|108:285,1,89.9999972534181,8|2,0:0|0:0,0:0:0:0:
112,297,79189,2,0,P|66:302|23:311,1,89.9999972534181,8|0,0:0|0:0,0:0:0:0:
221,374,79467,6,0,B|298:309|314:378|390:310|390:310|346:298|321:265,1,269.999991760254,14|0,0:1|0:0,0:0:0:0:
312,150,79837,6,0,P|233:202|193:285,1,179.999994506836,10|0,0:0|0:0,0:0:0:0:
402,192,80208,2,0,P|423:106|350:55,1,179.999994506836,10|0,0:1|0:0,0:0:0:0:
283,71,80486,1,8,0:0:0:0:
226,19,80578,2,0,P|236:62|237:107,2,89.9999972534181,10|8|8,0:0|0:0|0:0,0:0:0:0:
236,262,80949,5,10,0:1:0:0:
312,150,81134,1,0,0:0:0:0:
421,280,81319,6,0,P|438:238|444:194,1,89.9999972534181,10|0,0:0|0:0,0:0:0:0:
427,292,81504,2,0,P|468:309|512:315,1,89.9999972534181
415,298,81689,2,0,P|397:339|391:383,1,89.9999972534181,10|0,0:1|0:0,0:0:0:0:
410,285,81874,2,0,P|368:267|324:261,1,89.9999972534181
197,335,82060,5,10,0:0:0:0:
160,297,82152,1,8,0:0:0:0:
155,242,82245,1,8,0:0:0:0:
80,364,82430,2,0,P|161:256|157:127,1,269.999991760254,8|0,0:1|0:0,0:0:0:0:
96,38,82800,5,14,0:0:0:0:
41,109,83171,1,2,0:0:0:0:
41,109,83356,1,8,0:0:0:0:
247,246,83541,5,14,0:1:0:0:
156,126,83726,1,8,0:0:0:0:
156,126,84097,1,8,0:0:0:0:
64,324,84282,5,14,0:0:0:0:
64,324,84652,2,0,P|78:278|134:272,1,100,8|0,0:0|0:0,0:0:0:0:
242,355,85023,5,10,0:1:0:0:
334,268,85208,1,8,0:0:0:0:
156,126,85393,1,10,0:0:0:0:
277,7,85578,1,8,0:0:0:0:
286,16,85763,5,6,0:0:0:0:
256,192,85856,12,0,88356,0:0:0:0:
