osu file format v14

[General]
AudioFilename: audio.mp3
AudioLeadIn: 0
PreviewTime: 49467
Countdown: 0
SampleSet: Soft
StackLeniency: 0.3
Mode: 0
LetterboxInBreaks: 0
WidescreenStoryboard: 1

[Editor]
Bookmarks: 24983,50168
DistanceSpacing: 0.7
BeatDivisor: 4
GridSize: 32
TimelineZoom: 2.939999

[Metadata]
Title:Setsuna no Chikai (feat. Yuzaki Tsukasa (CV: Kito Akari)) (TV Size)
TitleUnicode:刹那の誓い(feat. 由崎司 (CV: 鬼頭明里)) (TV Size)
Artist:Neko Hacker
ArtistUnicode:Neko Hacker
Creator:Vararaup
Version:Normal
Source:トニカクカワイイ(シーズン2)
Tags:japanese pop jpop electronic tonikawa tonikaku kawaii op opening season 2 fly me to the moon anime nasa cute couple aurorance iredi lancien neonlights frozz -keqing
BeatmapID:4090415
BeatmapSetID:1970466

[Difficulty]
HPDrainRate:4
CircleSize:3.5
OverallDifficulty:5
ApproachRate:6
SliderMultiplier:1.2
SliderTickRate:1

[Events]
//Background and Video events
0,0,"tsukasa8.jpg",0,0
Video,0,"video.mp4"
//Break Periods
//Storyboard Layer 0 (Background)
//Storyboard Layer 1 (Fail)
//Storyboard Layer 2 (Pass)
//Storyboard Layer 3 (Foreground)
//Storyboard Layer 4 (Overlay)
//Storyboard Sound Samples

[TimingPoints]
-162,370.37037037037,4,2,2,30,1,0
13171,-100,4,2,2,50,0,0
25023,-100,4,2,2,60,0,0
38356,-90.9090909090909,4,2,2,70,0,0
50208,-90.9090909090909,4,2,2,70,0,0
51319,-90.9090909090909,4,2,2,70,0,0
62060,-90.9090909090909,4,2,2,70,0,0
85763,-90.9090909090909,4,2,2,60,0,0
85856,-90.9090909090909,4,2,2,30,0,0
88356,-90.9090909090909,4,2,2,5,0,0

[Colours]
Combo1 : 173,106,255
Combo2 : 113,136,249
Combo3 : 255,106,118
Combo4 : 255,117,221

[HitObjects]
27,266,13171,6,0,P|55:318|111:337,1,120,10|0,0:0|0:0,0:0:0:0:
215,239,13912,1,10,0:1:0:0:
330,324,14282,1,2,0:0:0:0:
436,226,14652,1,2,0:0:0:0:
436,226,14837,2,0,B|431:164|391:177|386:119,1,120,8|8,0:0|0:0,0:0:0:0:
418,42,15393,2,0,P|360:38|313:73,1,120,10|10,0:1|0:0,0:0:0:0:
273,204,16134,6,0,P|234:161|174:156,1,120,10|2,0:0|0:0,0:0:0:0:
99,186,16689,1,8,0:0:0:0:
99,186,16875,2,0,P|95:126|88:66,2,120,10|2|2,0:1|0:0|0:0,0:0:0:0:
83,268,17800,2,0,P|141:268|187:304,1,120,8|8,0:0|0:0,0:0:0:0:
224,381,18356,1,10,0:1:0:0:
325,279,18726,1,2,0:0:0:0:
234,166,19097,6,0,P|226:108|257:59,1,120,10|2,0:0|0:0,0:0:0:0:
340,32,19652,1,8,0:0:0:0:
340,32,19837,2,0,P|397:47|456:62,1,120,8|2,0:1|0:0,0:0:0:0:
511,200,20578,1,2,0:0:0:0:
511,200,20763,2,0,P|453:184|394:169,1,120,8|8,0:0|0:0,0:0:0:0:
319,132,21319,2,0,P|294:184|240:207,1,120,10|0,0:1|0:0,0:0:0:0:
94,208,22060,6,0,B|104:224|119:237|119:237|113:275|113:318,1,120,10|0,0:0|0:0,0:0:0:0:
46,365,22615,1,8,0:0:0:0:
46,365,22800,1,8,0:1:0:0:
0,228,23171,1,0,0:0:0:0:
104,129,23541,1,0,0:0:0:0:
104,129,23726,2,0,B|153:116|165:68|165:68|223:79|272:48|247:30|301:-3|356:8,1,300,8|0,0:0|0:0,0:0:0:0:
483,77,25023,6,0,P|476:109|473:139,1,60,14|2,0:0|0:0,0:0:0:0:
410,192,25393,2,0,P|416:222|419:252,1,60,10|2,0:1|0:0,0:0:0:0:
432,338,25763,1,2,0:0:0:0:
432,338,25949,1,10,0:0:0:0:
353,368,26134,2,0,P|328:314|274:291,1,120,10|10,0:1|0:0,0:0:0:0:
139,340,26875,2,0,P|109:337|81:325,1,60,10|2,0:1|0:0,0:0:0:0:
49,247,27245,2,0,B|63:187|96:206|110:146,1,120,2|10,0:0|0:1,0:0:0:0:
219,52,27986,6,0,P|249:54|276:68,1,60,10|2,0:0|0:0,0:0:0:0:
325,141,28356,1,10,0:1:0:0:
325,141,28541,1,2,0:0:0:0:
258,191,28726,2,0,B|247:209|236:221|236:221|241:258|243:303,1,120,2|10,0:0|0:1,0:0:0:0:
387,307,29467,6,0,P|388:336|391:366,2,60,10|2|10,0:0|0:0|0:1,0:0:0:0:
438,241,30023,1,2,0:0:0:0:
438,241,30208,2,0,P|441:211|445:181,1,60,2|10,0:0|0:0,0:0:0:0:
456,98,30578,1,10,0:1:0:0:
321,46,30949,6,0,P|272:79|214:72,1,120,14|10,0:0|0:1,0:0:0:0:
148,19,31504,2,0,P|89:11|41:45,1,120,2|10,0:0|0:0,0:0:0:0:
32,127,32060,1,10,0:1:0:0:
3,267,32430,2,0,P|6:296|8:326,1,60,8|2,0:0|0:0,0:0:0:0:
79,371,32800,2,0,B|143:361|118:329|184:318,1,120,8|10,0:1|0:0,0:0:0:0:
270,339,33356,1,10,0:0:0:0:
270,339,33541,1,10,0:1:0:0:
412,364,33912,6,0,B|394:304|394:304|447:284,1,120,10|8,0:0|0:1,0:0:0:0:
494,213,34467,2,0,B|512:153|512:153|458:133,1,120,2|0,0:0|0:0,0:0:0:0:
377,158,35023,2,0,P|382:98|385:38,1,120,10|8,0:1|0:0,0:0:0:0:
242,55,35763,6,0,P|241:85|238:114,1,60,10|8,0:1|0:0,0:0:0:0:
167,161,36134,2,0,P|171:192|172:221,1,60,10|8,0:0|0:0,0:0:0:0:
210,300,36504,1,10,0:1:0:0:
210,300,36689,1,8,0:0:0:0:
136,340,36875,1,10,0:0:0:0:
39,171,37615,2,0,P|23:196|0:215,2,60,10|10|10,0:0|0:0|0:1,0:0:0:0:
37,86,38171,1,2,0:0:0:0:
117,55,38356,6,0,B|193:62|193:62|227:98|227:98|307:109,1,198.000006042481,14|8,0:0|0:0,0:0:0:0:
368,56,39097,2,0,P|456:46|455:133,1,198.000006042481,10|0,0:1|0:0,0:0:0:0:
390,188,39837,1,12,0:0:0:0:
272,292,40208,1,2,0:0:0:0:
272,292,40393,1,8,0:0:0:0:
272,292,40578,1,14,0:1:0:0:
421,346,40949,1,2,0:0:0:0:
511,216,41319,6,0,P|446:200|382:186,1,132.00000402832,14|2,0:0|0:0,0:0:0:0:
321,133,41875,1,10,0:0:0:0:
321,133,42060,2,0,P|300:158|272:173,1,66.0000020141602,10|2,0:1|0:0,0:0:0:0:
185,187,42430,2,0,P|155:202|135:227,1,66.0000020141602,2|2,0:0|0:0,0:0:0:0:
64,276,42800,6,0,B|88:305|88:305|96:365,2,99.0000030212403,14|2|10,0:0|0:0|0:0,0:0:0:0:
58,190,43541,2,0,B|34:161|34:161|26:101,2,99.0000030212403,14|2|2,0:1|0:0|0:0,0:0:0:0:
135,227,44282,2,0,P|197:199|183:73,1,198.000006042481,14|8,0:0|0:0,0:0:0:0:
121,37,45023,2,0,P|72:29|23:19,2,99.0000030212403,10|2|2,0:1|0:0|0:0,0:0:0:0:
199,2,45763,5,14,0:0:0:0:
357,60,46134,1,2,0:0:0:0:
357,60,46319,1,8,0:0:0:0:
357,60,46504,1,14,0:1:0:0:
290,204,46875,1,2,0:0:0:0:
434,268,47245,6,0,P|491:238|510:177,1,132.00000402832,12|2,0:0|0:0,0:0:0:0:
495,96,47800,1,10,0:0:0:0:
495,96,47986,2,0,P|462:102|430:108,1,66.0000020141602,10|2,0:1|0:0,0:0:0:0:
365,52,48356,2,0,P|332:58|300:64,1,66.0000020141602,2|2,0:0|0:0,0:0:0:0:
216,82,48726,5,12,0:0:0:0:
262,233,49097,1,8,0:0:0:0:
111,280,49467,2,0,P|107:313|100:345,2,66.0000020141602,10|10|10,0:1|0:0|0:1,0:0:0:0:
84,203,50023,1,10,0:0:0:0:
84,203,50208,2,0,P|38:131|167:145,1,264.000008056641,10|10,0:0|0:1,0:0:0:0:
231,261,51319,6,0,B|287:258|338:297|301:321|399:366|433:328|433:328|429:294,1,264.000008056641,12|10,0:0|0:0,0:0:0:0:
502,153,52430,2,0,P|438:139|373:125,1,132.00000402832,10|2,0:1|0:0,0:0:0:0:
294,92,52986,1,2,0:0:0:0:
211,115,53171,2,0,B|214:77|214:77|187:23,2,99.0000030212403,10|0|0,0:0|0:0|0:0,0:0:0:0:
271,175,53912,2,0,B|267:212|267:212|294:266,2,99.0000030212403,8|2|2,0:1|0:0|0:0,0:0:0:0:
294,92,54652,5,2,0:0:0:0:
155,25,55023,1,10,0:0:0:0:
155,25,55208,1,2,0:0:0:0:
72,48,55393,2,0,P|56:79|53:110,1,66.0000020141602,10|2,0:1|0:0,0:0:0:0:
43,194,55763,2,0,P|75:199|107:205,1,66.0000020141602,2|2,0:0|0:0,0:0:0:0:
174,260,56134,6,0,P|146:300|148:348,2,99.0000030212403,8|0|0,0:0|0:0|0:0,0:0:0:0:
247,214,56875,2,0,P|295:217|336:192,2,99.0000030212403,10|2|0,0:1|0:0|0:0,0:0:0:0:
171,174,57615,2,0,P|150:130|107:107,2,99.0000030212403,2|0|2,0:0|0:0|0:0,0:0:0:0:
174,260,58356,2,0,P|146:300|148:348,2,99.0000030212403,10|0|2,0:1|0:0|0:0,0:0:0:0:
247,214,59097,5,10,0:0:0:0:
256,192,59282,12,2,60578,0:3:0:0:
256,7,61319,5,2,0:0:0:0:
256,165,61689,1,2,0:0:0:0:
256,323,62060,2,0,P|193:284|135:297,1,132.00000402832,10|8,0:0|0:1,0:0:0:0:
0,370,62800,1,10,0:0:0:0:
1,283,62986,2,0,P|4:250|6:217,1,66.0000020141602,10|8,0:0|0:1,0:0:0:0:
7,135,63356,5,2,0:0:0:0:
7,135,63541,2,0,B|76:141|58:178|126:184,1,132.00000402832,8|8,0:0|0:1,0:0:0:0:
267,111,64282,2,0,P|299:111|330:123,1,66.0000020141602,10|8,0:0|0:0,0:0:0:0:
404,165,64652,2,0,B|380:196|380:196|373:288,2,132.00000402832,10|10|8,0:1|0:0|0:1,0:0:0:0:
489,32,65763,5,10,0:0:0:0:
489,32,65949,2,0,P|463:11|431:3,1,66.0000020141602,10|8,0:0|0:1,0:0:0:0:
352,37,66319,1,0,0:0:0:0:
332,120,66504,2,0,P|287:167|223:175,1,132.00000402832,8|8,0:0|0:1,0:0:0:0:
124,58,67245,1,10,0:0:0:0:
124,58,67430,1,8,0:0:0:0:
47,96,67615,2,0,P|51:128|54:161,1,66.0000020141602,14|0,0:1|0:0,0:0:0:0:
33,245,67986,6,0,P|97:253|163:265,1,132.00000402832,14|8,0:0|0:1,0:0:0:0:
305,334,68726,1,10,0:0:0:0:
345,257,68912,2,0,B|335:198|296:209|284:143,1,132.00000402832,10|0,0:0|0:0,0:0:0:0:
313,62,69467,2,0,P|341:45|374:42,1,66.0000020141602,8|2,0:0|0:0,0:0:0:0:
445,89,69837,1,8,0:1:0:0:
481,167,70023,2,0,B|448:183|434:215|434:215|445:243|441:277,1,132.00000402832,14|10,0:0|0:0,0:0:0:0:
389,346,70578,1,12,0:1:0:0:
259,279,70949,5,14,0:0:0:0:
184,322,71134,2,0,P|151:319|122:303,1,66.0000020141602,2|8,0:0|0:1,0:0:0:0:
90,224,71504,2,0,P|100:193|122:168,1,66.0000020141602,10|8,0:0|0:0,0:0:0:0:
179,103,71875,2,0,B|209:131|209:131|299:142,1,132.00000402832,10|8,0:0|0:0,0:0:0:0:
384,130,72430,2,0,P|390:97|406:69,2,66.0000020141602,14|8|8,0:0|0:0|0:1,0:0:0:0:
436,198,72986,2,0,P|479:245|483:310,1,132.00000402832,8|8,0:0|0:0,0:0:0:0:
415,363,73541,1,10,0:1:0:0:
262,280,73912,6,0,B|266:212|306:226|308:159,1,132.00000402832,10|8,0:0|0:1,0:0:0:0:
302,74,74467,1,0,0:0:0:0:
302,74,74652,2,0,P|270:76|237:78,1,66.0000020141602,10|8,0:0|0:0,0:0:0:0:
150,77,75023,1,10,0:1:0:0:
31,181,75393,6,0,P|95:194|131:255,1,132.00000402832,10|8,0:0|0:1,0:0:0:0:
115,334,75949,1,8,0:0:0:0:
115,334,76134,2,0,P|148:337|181:340,1,66.0000020141602,10|8,0:0|0:0,0:0:0:0:
247,286,76504,2,0,P|279:289|312:292,1,66.0000020141602,10|0,0:1|0:0,0:0:0:0:
383,341,76875,5,10,0:0:0:0:
499,233,77245,1,10,0:1:0:0:
466,78,77615,1,10,0:0:0:0:
315,28,77986,1,10,0:1:0:0:
183,116,78356,2,0,P|245:138|277:195,1,132.00000402832,10|8,0:0|0:1,0:0:0:0:
263,281,78912,1,0,0:0:0:0:
263,281,79097,1,10,0:0:0:0:
116,340,79467,1,14,0:1:0:0:
41,200,79837,6,0,P|43:167|43:134,1,66.0000020141602,10|0,0:0|0:0,0:0:0:0:
99,67,80208,2,0,P|131:69|164:69,1,66.0000020141602,10|0,0:1|0:0,0:0:0:0:
226,129,80578,2,0,P|258:130|291:131,1,66.0000020141602,10|0,0:0|0:0,0:0:0:0:
376,116,80949,2,0,P|375:148|373:181,1,66.0000020141602,10|0,0:1|0:0,0:0:0:0:
368,267,81319,6,0,P|304:273|255:330,1,132.00000402832,10|10,0:0|0:1,0:0:0:0:
129,252,82060,1,10,0:0:0:0:
129,252,82245,1,8,0:0:0:0:
186,188,82430,2,0,P|186:155|189:122,1,66.0000020141602,8|0,0:1|0:0,0:0:0:0:
164,40,82800,6,0,B|126:56|126:56|105:104|63:118,1,132.00000402832,14|2,0:0|0:0,0:0:0:0:
6,182,83356,1,8,0:0:0:0:
6,182,83541,1,14,0:1:0:0:
22,266,83726,1,8,0:0:0:0:
156,349,84097,5,8,0:0:0:0:
219,291,84282,2,0,B|290:296|271:336|338:338,1,132.00000402832,14|8,0:0|0:0,0:0:0:0:
484,277,85023,2,0,P|475:245|456:218,1,66.0000020141602,10|8,0:1|0:0,0:0:0:0:
376,186,85393,2,0,P|356:159|348:127,1,66.0000020141602,10|8,0:0|0:0,0:0:0:0:
256,192,85763,12,0,88356,0:0:0:0:
