osu file format v14

[General]
AudioFilename: audio.mp3
AudioLeadIn: 0
PreviewTime: 49467
Countdown: 0
SampleSet: Soft
StackLeniency: 0.3
Mode: 0
LetterboxInBreaks: 0
WidescreenStoryboard: 1

[Editor]
DistanceSpacing: 0.7
BeatDivisor: 4
GridSize: 32
TimelineZoom: 2.14

[Metadata]
Title:Setsuna no Chikai (feat. Yuzaki Tsukasa (CV: Kito Akari)) (TV Size)
TitleUnicode:刹那の誓い(feat. 由崎司 (CV: 鬼頭明里)) (TV Size)
Artist:Neko Hacker
ArtistUnicode:Neko Hacker
Creator:Vararaup
Version:Lancien's Insane
Source:トニカクカワイイ(シーズン2)
Tags:japanese pop jpop electronic tonikawa tonikaku kawaii op opening season 2 fly me to the moon anime nasa cute couple aurorance iredi lancien neonlights frozz -keqing
BeatmapID:4088464
BeatmapSetID:1970466

[Difficulty]
HPDrainRate:6
CircleSize:4
OverallDifficulty:8
ApproachRate:9
SliderMultiplier:1.6
SliderTickRate:1

[Events]
//Background and Video events
0,0,"tsukasa6.jpg",0,0
Video,0,"video.mp4"
//Break Periods
//Storyboard Layer 0 (Background)
//Storyboard Layer 1 (Fail)
//Storyboard Layer 2 (Pass)
//Storyboard Layer 3 (Foreground)
//Storyboard Layer 4 (Overlay)
//Storyboard Sound Samples

[TimingPoints]
-162,370.37037037037,4,2,2,30,1,0
1319,-133.333333333333,4,2,2,30,0,0
4282,-100,4,2,2,30,0,0
6504,-133.333333333333,4,2,2,30,0,0
7986,-100,4,2,2,30,0,0
13171,-100,4,2,2,50,0,0
14837,-83.3333333333333,4,2,2,50,0,0
16134,-66.6666666666667,4,2,2,50,0,0
16689,-83.3333333333333,4,2,2,50,0,0
25023,-90.9090909090909,4,2,2,60,0,0
26504,-71.4285714285714,4,2,2,60,0,0
27986,-83.3333333333333,4,2,2,60,0,0
30578,-66.6666666666667,4,2,2,60,0,0
35393,-100,4,2,2,60,0,0
36875,-83.3333333333333,4,2,2,60,0,0
37615,-100,4,2,2,60,0,0
38356,-76.9230769230769,4,2,2,70,0,0
42800,-71.4285714285714,4,2,2,70,0,0
44282,-90.9090909090909,4,2,2,70,0,0
45023,-76.9230769230769,4,2,2,70,0,0
50208,-100,4,2,2,70,0,0
51226,-76.9230769230769,4,2,2,70,0,0
51319,-76.9230769230769,4,2,2,70,0,0
53912,-66.6666666666667,4,2,2,70,0,0
59097,-83.3333333333333,4,2,2,70,0,0
59837,-100,4,2,2,70,0,0
60393,-133.333333333333,4,2,2,70,0,0
62060,-76.9230769230769,4,2,2,70,0,0
84282,-100,4,2,2,70,0,0
85763,-100,4,2,2,60,0,0
85856,-100,4,2,2,30,0,0
88356,-100,4,2,2,5,0,0

[Colours]
Combo1 : 254,118,175
Combo2 : 250,184,112
Combo3 : 255,106,118

[HitObjects]
512,350,578,5,0,0:0:0:0:
422,303,763,1,0,0:0:0:0:
340,331,949,1,0,0:0:0:0:
303,375,1134,1,0,0:0:0:0:
309,380,1319,6,0,P|303:300|241:182,1,180,2|0,0:0|0:0,0:0:0:0:
242,131,2060,2,0,P|205:155|189:192,1,60.0000022888184
146,240,2430,2,0,P|118:200|97:192,1,60.0000022888184
22,153,2800,2,0,B|112:127|74:84|170:50,1,180.000006866455,2|0,0:0|0:0,0:0:0:0:
236,3,3541,2,0,P|271:23|288:49,1,60.0000022888184
363,22,3912,2,0,P|367:60|360:87,1,60.0000022888184
479,104,4282,6,0,P|430:128|396:229,1,160,2|0,0:0|0:0,0:0:0:0:
395,223,5023,2,0,P|441:235|489:295,1,120
486,288,5393,2,0,P|452:318|435:361,1,80
353,349,5763,6,0,B|199:320|199:320|166:364|106:359,1,240,2|0,0:0|0:0,0:0:0:0:
92,234,6504,2,0,P|125:263|133:289,1,60.0000022888184,2|0,0:0|0:0,0:0:0:0:
192,170,6875,2,0,P|213:216|211:245,1,60.0000022888184,2|0,0:0|0:0,0:0:0:0:
287,261,7245,6,0,B|324:167|354:196|394:114,1,180.000006866455,2|0,0:0|0:0,0:0:0:0:
309,86,7986,2,0,P|312:101|317:107,4,20
469,126,8356,2,0,P|456:69|428:49,1,80
371,19,8726,2,0,P|309:1|217:55,1,160,2|0,0:0|0:0,0:0:0:0:
136,31,9282,1,0,0:0:0:0:
63,72,9467,2,0,L|79:99,4,20
15,143,9837,1,0,0:0:0:0:
21,236,10023,1,0,0:0:0:0:
76,315,10208,6,0,B|164:284|138:254|239:229,1,160,2|0,0:0|0:0,0:0:0:0:
294,227,10763,1,0,0:0:0:0:
294,227,10949,2,0,L|303:193,4,20
291,321,11319,5,0,0:0:0:0:
291,321,11689,2,0,B|326:281|401:319|401:319|351:250|395:209,1,240,2|0,0:0|0:0,0:0:0:0:
394,211,12430,2,0,P|364:173|359:129,1,80,2|0,0:0|0:0,0:0:0:0:
491,38,12800,2,0,P|481:91|454:123,1,80,2|0,0:0|0:0,0:0:0:0:
406,47,13171,6,0,B|303:70|303:70|286:46|256:41,1,160,10|0,0:0|0:0,0:0:0:0:
242,118,13726,1,0,0:0:0:0:
242,118,13912,2,0,B|254:151|223:180|223:180|207:141|236:122,1,120,10|0,0:1|0:0,0:0:0:0:
258,41,14282,1,2,0:0:0:0:
129,119,14467,1,0,0:0:0:0:
292,240,14652,5,2,0:0:0:0:
292,240,14837,2,0,P|213:230|107:280,1,191.999994140625,8|8,0:0|0:0,0:0:0:0:
112,274,15393,2,0,P|113:217|88:188,1,95.9999970703126,10|0,0:1|0:0,0:0:0:0:
32,296,15763,2,0,P|2:255|7:208,1,95.9999970703126,10|0,0:0|0:0,0:0:0:0:
0,37,16134,6,0,B|17:138|91:96|87:81|182:97|172:194,1,239.999992675781,10|2,0:0|0:0,0:0:0:0:
240,195,16689,1,8,0:0:0:0:
240,195,16875,2,0,P|290:172|297:132,1,95.9999970703126,10|0,0:1|0:0,0:0:0:0:
297,135,17245,1,2,0:0:0:0:
446,52,17430,2,0,P|404:96|373:181,1,143.999995605469,8|0,0:0|0:0,0:0:0:0:
441,213,17800,2,0,P|483:169|514:84,1,143.999995605469,8|0,0:0|0:0,0:0:0:0:
512,92,18171,1,8,0:0:0:0:
512,92,18263,1,8,0:0:0:0:
512,92,18356,5,10,0:1:0:0:
446,52,18541,1,0,0:0:0:0:
348,50,18726,1,2,0:0:0:0:
253,97,18912,1,8,0:0:0:0:
206,191,19097,6,0,P|153:149|101:237,1,191.999994140625,10|2,0:0|0:0,0:0:0:0:
4,303,19652,1,8,0:0:0:0:
4,303,19837,2,0,P|62:306|91:338,1,95.9999970703126,8|0,0:1|0:0,0:0:0:0:
87,330,20208,1,2,0:0:0:0:
307,298,20393,1,0,0:0:0:0:
307,298,20578,2,0,P|220:271|181:367,1,191.999994140625,2|0,0:0|0:0,0:0:0:0:
382,367,21134,1,8,0:0:0:0:
391,339,21226,1,8,0:0:0:0:
399,313,21319,5,10,0:1:0:0:
494,343,21504,1,0,0:0:0:0:
372,229,21689,5,0,0:0:0:0:
510,188,21875,1,0,0:0:0:0:
320,143,22060,6,0,B|213:119|267:71|131:43,1,191.999994140625,10|0,0:0|0:0,0:0:0:0:
118,197,22615,1,8,0:0:0:0:
118,197,22800,2,0,P|175:179|203:100,1,143.999995605469,8|0,0:1|0:0,0:0:0:0:
203,105,23171,1,0,0:0:0:0:
252,244,23356,1,8,0:0:0:0:
125,119,23541,1,0,0:0:0:0:
125,119,23726,2,0,P|76:115|46:124,1,47.9999985351563,8|0,0:0|0:0,0:0:0:0:
34,199,23912,1,8,0:0:0:0:
34,199,24097,2,0,P|41:226|54:247,1,47.9999985351563,8|0,0:0|0:0,0:0:0:0:
109,320,24282,5,8,0:0:0:0:
145,287,24375,1,0,3:0:0:0:
191,277,24467,1,0,3:0:0:0:
237,291,24560,1,0,3:0:0:0:
277,315,24652,1,0,3:0:0:0:
323,325,24745,1,0,3:0:0:0:
369,316,24837,1,0,3:0:0:0:
408,288,24930,1,0,3:0:0:0:
417,240,25023,6,0,P|403:191|396:152,1,88.000002685547,14|2,0:0|0:0,0:0:0:0:
267,101,25393,2,0,P|281:150|288:189,1,88.000002685547,10|2,0:1|0:0,0:0:0:0:
356,37,25671,1,0,0:0:0:0:
356,37,25763,2,0,P|311:72|259:67,1,88.000002685547,2|10,0:0|0:0,0:0:0:0:
192,31,26134,2,0,P|135:47|113:140,1,132.00000402832,10|2,0:1|0:0,0:0:0:0:
38,143,26504,5,10,0:0:0:0:
38,143,26597,2,0,P|97:156|146:197,1,111.999996582031,2|2,0:0|0:0,0:0:0:0:
191,240,26875,1,10,0:1:0:0:
348,205,27060,2,0,L|331:270,1,55.9999982910157,2|0,0:0|0:0,0:0:0:0:
309,338,27245,1,2,0:0:0:0:
309,338,27337,1,2,0:0:0:0:
309,338,27430,1,10,0:0:0:0:
439,226,27615,2,0,B|417:157|417:157|381:129|381:129|358:60,1,167.999994873047,10|0,0:1|0:0,0:0:0:0:
407,15,27986,5,10,0:0:0:0:
400,1,28078,1,2,0:0:0:0:
367,8,28171,5,2,0:0:0:0:
360,0,28263,1,2,0:0:0:0:
319,20,28356,5,10,0:1:0:0:
296,144,28541,1,2,0:0:0:0:
453,86,28726,1,2,0:0:0:0:
453,86,28819,1,2,0:0:0:0:
453,86,28912,1,10,0:0:0:0:
296,144,29097,2,0,P|237:117|195:100,1,95.9999970703126,10|0,0:1|0:0,0:0:0:0:
154,44,29375,1,2,0:0:0:0:
154,44,29467,6,0,L|121:93,1,47.9999985351563,10|2,0:0|0:0,0:0:0:0:
18,155,29652,2,0,L|76:158,1,47.9999985351563,2|0,0:0|0:0,0:0:0:0:
173,215,29837,2,0,L|146:162,1,47.9999985351563,10|0,0:1|0:0,0:0:0:0:
115,135,30023,5,2,0:0:0:0:
71,273,30208,1,2,0:0:0:0:
115,135,30393,1,10,0:0:0:0:
71,273,30578,2,0,P|143:256|231:311,1,180.000006866455,10|8,0:1|0:0,0:0:0:0:
275,323,30949,5,14,0:0:0:0:
322,316,31041,1,2,0:0:0:0:
355,281,31134,1,2,0:0:0:0:
363,234,31226,1,2,0:0:0:0:
344,189,31319,1,10,0:1:0:0:
344,189,31504,5,2,0:0:0:0:
365,201,31597,1,2,0:0:0:0:
385,213,31689,1,2,0:0:0:0:
406,224,31782,1,2,0:0:0:0:
427,235,31875,1,10,0:0:0:0:
427,235,32060,5,10,0:1:0:0:
420,187,32152,1,2,0:0:0:0:
414,139,32244,1,2,0:0:0:0:
405,91,32337,1,2,0:0:0:0:
395,43,32430,1,8,0:0:0:0:
395,43,32615,5,2,0:0:0:0:
376,58,32708,1,2,0:0:0:0:
357,73,32801,1,8,0:1:0:0:
339,88,32893,1,2,0:0:0:0:
320,103,32986,1,2,0:0:0:0:
320,103,33171,6,0,P|287:93|264:73,1,60.0000022888184,10|2,0:0|0:0,0:0:0:0:
190,105,33356,2,0,P|185:75|190:41,1,60.0000022888184,10|2,0:0|0:0,0:0:0:0:
53,107,33541,2,0,P|151:135|197:241,1,180.000006866455,10|0,0:1|0:0,0:0:0:0:
191,196,33912,5,10,0:0:0:0:
156,303,34097,1,0,0:0:0:0:
283,177,34282,5,8,0:1:0:0:
266,267,34467,1,2,0:0:0:0:
372,149,34652,5,8,0:0:0:0:
379,228,34837,1,0,0:0:0:0:
457,114,35023,5,10,0:1:0:0:
486,181,35208,1,0,0:0:0:0:
386,65,35393,6,0,L|365:25,1,40,8|0,0:0|0:0,0:0:0:0:
275,104,35578,2,0,L|265:59,1,40,8|0,0:0|0:0,0:0:0:0:
178,123,35763,2,0,L|177:76,1,40,10|0,0:1|0:0,0:0:0:0:
90,106,35949,2,0,L|98:65,1,40,8|0,0:0|0:0,0:0:0:0:
13,138,36134,5,10,0:0:0:0:
46,166,36226,1,8,0:0:0:0:
54,209,36319,1,8,0:0:0:0:
94,227,36412,1,8,0:0:0:0:
106,269,36504,1,10,0:1:0:0:
145,288,36597,1,8,0:0:0:0:
167,325,36689,1,8,0:0:0:0:
210,333,36782,1,8,0:0:0:0:
227,373,36875,6,0,B|346:197|346:197|215:249,1,335.999989746094,10|0,0:0|0:0,0:0:0:0:
231,242,37615,2,0,P|191:215|185:199,1,40,10|8,0:0|0:0,0:0:0:0:
134,182,37800,2,0,P|145:143|161:133,1,40,10|0,0:0|0:0,0:0:0:0:
147,71,37986,2,0,P|189:62|206:72,1,40,10|0,0:1|0:0,0:0:0:0:
261,59,38171,1,2,0:0:0:0:
368,128,38356,6,0,B|236:111|236:-6|305:-51|366:-9|338:55,1,259.999988098145,14|0,0:0|0:0,0:0:0:0:
343,19,38912,1,8,0:0:0:0:
480,130,39097,2,0,P|398:149|278:337,1,311.999985717774,10|0,0:1|0:0,0:0:0:0:
204,362,39745,1,0,0:0:0:0:
204,362,39837,2,0,P|139:351|117:291,1,103.999995239258,12|0,0:0|0:0,0:0:0:0:
81,260,40115,1,0,0:0:0:0:
81,260,40208,2,0,L|97:201,1,51.999997619629,2|0,0:0|0:0,0:0:0:0:
26,160,40393,2,0,L|10:219,1,51.999997619629,8|0,0:0|0:0,0:0:0:0:
174,223,40578,6,0,B|285:190|214:152|364:112,1,207.999990478516,14|2,0:1|0:0,0:0:0:0:
490,123,41134,1,0,0:0:0:0:
490,123,41226,1,0,0:0:0:0:
490,123,41319,2,0,B|349:84|349:84|340:45|298:35,1,207.999990478516,14|2,0:0|0:0,0:0:0:0:
264,30,41782,1,2,0:0:0:0:
222,51,41875,1,10,0:0:0:0:
204,94,41967,1,2,0:0:0:0:
208,140,42060,6,0,L|268:163,1,51.999997619629,10|2,0:1|0:0,0:0:0:0:
130,175,42245,2,0,L|63:183,1,51.999997619629,2|2,0:0|0:0,0:0:0:0:
220,255,42430,2,0,L|274:279,1,51.999997619629,2|2,0:0|0:0,0:0:0:0:
105,302,42615,2,0,L|51:323,1,51.999997619629,2|2,0:0|0:0,0:0:0:0:
261,369,42800,6,0,B|321:345|321:345|351:306|351:306|430:276,2,167.999994873047,14|2|10,0:0|0:0|0:0,0:0:0:0:
503,309,43541,2,0,B|371:262|371:262|421:244,2,167.999994873047,14|2|2,0:1|0:0|0:0,0:0:0:0:
466,204,44282,2,0,P|453:128|313:148,1,220.000006713867,14|0,0:0|0:0,0:0:0:0:
329,121,44837,1,8,0:0:0:0:
225,157,45023,2,0,B|186:65|132:110|102:3,2,155.999992858887,10|2|2,0:1|0:0|0:0,0:0:0:0:
21,236,45763,6,0,B|62:166|147:183|147:183|137:147|156:114,1,207.999990478516,14|2,0:0|0:0,0:0:0:0:
329,121,46319,1,8,0:0:0:0:
329,121,46504,2,0,B|279:157|225:158|225:158|257:166|268:192,1,155.999992858887,14|0,0:1|0:0,0:0:0:0:
261,180,46875,1,2,0:0:0:0:
118,272,47060,5,0,0:0:0:0:
118,272,47152,1,0,0:0:0:0:
118,272,47245,2,0,B|227:290|180:324|283:352,1,155.999992858887,12|0,0:0|0:0,0:0:0:0:
331,342,47615,2,0,P|359:317|365:292,1,51.999997619629,2|2,0:0|0:0,0:0:0:0:
442,299,47800,2,0,P|440:270|423:236,1,51.999997619629,10|2,0:0|0:0,0:0:0:0:
492,200,47986,1,10,0:1:0:0:
475,156,48078,1,2,0:0:0:0:
436,130,48171,1,2,0:0:0:0:
389,129,48263,1,2,0:0:0:0:
346,150,48356,1,2,0:0:0:0:
299,150,48449,1,2,0:0:0:0:
256,131,48541,1,2,0:0:0:0:
227,93,48634,1,2,0:0:0:0:
231,46,48726,5,12,0:0:0:0:
171,283,49004,1,0,0:0:0:0:
404,215,49282,1,0,0:0:0:0:
324,128,49467,5,10,0:1:0:0:
156,175,49745,1,8,0:0:0:0:
281,295,50023,1,10,0:0:0:0:
256,192,50208,5,10,0:0:0:0:
256,192,50486,1,10,0:0:0:0:
256,192,50763,1,10,0:0:0:0:
98,125,50949,5,10,0:1:0:0:
98,125,51226,2,0,P|74:169|72:197,1,51.999997619629,2|12,0:0|0:0,0:0:0:0:
42,305,51504,1,2,0:0:0:0:
42,305,51689,6,0,P|102:339|179:329,1,103.999995239258,2|0,0:0|0:0,0:0:0:0:
211,365,51967,2,0,P|242:332|247:319,1,51.999997619629,2|8,0:0|0:0,0:0:0:0:
357,303,52245,5,2,0:0:0:0:
357,303,52430,2,0,P|327:249|325:193,1,103.999995239258,10|0,0:1|0:0,0:0:0:0:
388,162,52708,2,0,P|402:127|402:106,1,51.999997619629,2|0,0:0|0:0,0:0:0:0:
512,92,52986,5,2,0:0:0:0:
512,92,53171,2,0,P|465:61|438:13,1,103.999995239258,10|0,0:0|0:0,0:0:0:0:
365,47,53449,2,0,P|294:59|254:51,1,103.999995239258,2|0,0:0|0:0,0:0:0:0:
284,137,53726,2,0,P|268:173|250:192,1,51.999997619629,2|0,0:0|0:0,0:0:0:0:
218,277,53912,6,0,B|210:196|146:205|141:219|95:202|90:141,2,180.000006866455,8|2|2,0:1|0:0|0:0,0:0:0:0:
330,292,54652,2,0,P|239:297|84:390,1,240.000009155274,2|10,0:0|0:0,0:0:0:0:
28,366,55208,1,2,0:0:0:0:
28,366,55300,1,0,0:0:0:0:
28,366,55393,2,0,P|7:313|12:299,1,60.0000022888184,10|0,0:1|0:0,0:0:0:0:
39,243,55578,1,2,0:0:0:0:
145,243,55763,6,0,P|161:192|159:140,1,60.0000022888184,2|0,0:0|0:0,0:0:0:0:
70,99,55949,2,0,P|52:142|56:202,1,60.0000022888184,2|0,0:0|0:0,0:0:0:0:
246,196,56134,6,0,B|314:172|314:172|339:138|339:138|434:106,2,180.000006866455,8|2|2,0:0|0:0|0:0,0:0:0:0:
486,274,56875,2,0,B|456:222|456:222|386:202,1,120.000004577637,10|0,0:1|0:0,0:0:0:0:
348,269,57152,2,0,B|378:321|378:321|448:341,1,120.000004577637,2|0,0:0|0:0,0:0:0:0:
435,337,57430,1,2,0:0:0:0:
242,279,57615,6,0,B|143:249|199:199|64:155,2,180.000006866455,2|2|2,0:0|0:0|0:0,0:0:0:0:
0,324,58356,2,0,P|30:272|100:252,1,120.000004577637,10|0,0:1|0:0,0:0:0:0:
137,311,58633,2,0,P|107:363|37:383,1,120.000004577637,2|0,0:0|0:0,0:0:0:0:
53,383,58912,1,2,0:0:0:0:
245,381,59097,6,0,P|254:320|300:183,1,191.999994140625,10|0,0:0|0:0,0:0:0:0:
200,223,59652,1,2,0:0:0:0:
200,223,59837,2,0,P|186:149|141:61,1,160,2|0,0:0|0:0,0:0:0:0:
264,111,60393,1,2,0:0:0:0:
264,111,60578,2,0,P|274:67|308:0,1,120.000004577637,2|0,0:0|0:0,0:0:0:0:
307,0,61134,1,0,0:0:0:0:
422,176,61319,5,2,0:0:0:0:
449,174,61412,1,2,0:0:0:0:
480,161,61504,1,2,0:0:0:0:
507,128,61597,1,2,0:0:0:0:
512,81,61689,1,2,0:0:0:0:
488,34,61782,1,2,0:0:0:0:
439,22,61875,1,2,0:0:0:0:
387,40,61967,1,2,0:0:0:0:
363,87,62060,6,0,P|393:146|412:261,1,155.999992858887,10|0,0:0|0:0,0:0:0:0:
454,297,62430,2,0,P|505:275|502:224,1,103.999995239258,8|8,0:1|0:0,0:0:0:0:
480,161,62708,1,8,0:0:0:0:
480,161,62800,2,0,P|428:181|394:201,1,51.999997619629,10|8,0:0|0:0,0:0:0:0:
321,231,62986,2,0,P|256:205|212:193,1,103.999995239258,10|8,0:0|0:1,0:0:0:0:
19,189,63356,5,2,0:0:0:0:
19,189,63449,1,0,0:0:0:0:
19,189,63541,2,0,P|92:193|132:281,1,155.999992858887,8|0,0:0|0:0,0:0:0:0:
133,258,63912,1,8,0:1:0:0:
158,138,64097,1,8,0:0:0:0:
51,265,64282,2,0,P|72:328|80:372,1,103.999995239258,10|8,0:0|0:0,0:0:0:0:
156,378,64560,1,0,0:0:0:0:
156,378,64652,2,0,P|218:368|257:278,1,155.999992858887,10|0,0:1|0:0,0:0:0:0:
356,287,65023,6,0,B|305:187|268:238|233:150,1,155.999992858887,10|0,0:0|0:0,0:0:0:0:
315,136,65393,2,0,P|342:101|341:35,1,103.999995239258,8|8,0:1|0:0,0:0:0:0:
270,72,65671,1,8,0:0:0:0:
270,72,65763,2,0,L|181:53,1,51.999997619629,10|8,0:0|0:0,0:0:0:0:
413,128,65949,2,0,L|516:96,1,103.999995239258,10|8,0:0|0:1,0:0:0:0:
248,179,66319,6,0,B|168:166|168:166|116:183|116:183|8:167,1,207.999990478516,2|2,0:0|0:0,0:0:0:0:
19,63,66875,2,0,P|86:71|113:134,1,103.999995239258,8|8,0:1|0:0,0:0:0:0:
106,96,67152,1,8,0:0:0:0:
106,96,67245,1,10,0:0:0:0:
270,72,67430,1,8,0:0:0:0:
294,246,67615,1,14,0:1:0:0:
294,246,67708,2,0,P|304:175|323:106,1,103.999995239258
383,112,67986,6,0,P|446:123|483:230,1,155.999992858887,14|0,0:0|0:0,0:0:0:0:
488,198,68356,1,8,0:1:0:0:
294,246,68541,1,8,0:0:0:0:
294,246,68634,1,8,0:0:0:0:
294,246,68726,1,10,0:0:0:0:
416,299,68912,2,0,P|403:230|398:188,1,103.999995239258,10|8,0:0|0:1,0:0:0:0:
294,246,69282,6,0,B|190:218|235:181|95:146,1,207.999990478516,2|2,0:0|0:0,0:0:0:0:
225,65,69837,2,0,P|223:129|200:158,1,103.999995239258,8|14,0:1|0:0,0:0:0:0:
199,158,70115,1,8,0:0:0:0:
199,158,70208,1,8,0:0:0:0:
34,136,70393,1,10,0:0:0:0:
5,222,70578,2,0,P|74:222|138:302,1,155.999992858887,12|0,0:1|0:0,0:0:0:0:
86,360,70949,6,0,P|86:298|111:251,1,103.999995239258,14|2,0:0|0:0,0:0:0:0:
218,381,71319,1,8,0:1:0:0:
218,381,71504,2,0,P|237:333|235:281,1,103.999995239258,10|8,0:0|0:0,0:0:0:0:
182,183,71875,1,10,0:0:0:0:
318,267,72060,1,8,0:1:0:0:
182,183,72245,1,8,0:0:0:0:
318,267,72430,6,0,B|437:235|437:235|470:275|531:278,1,207.999990478516,14|8,0:0|0:1,0:0:0:0:
509,191,72986,1,8,0:0:0:0:
509,191,73171,2,0,B|516:126|516:126|494:117|479:93,1,103.999995239258,2|8,0:1|0:0,0:0:0:0:
474,25,73449,1,0,0:0:0:0:
474,25,73541,2,0,P|402:23|355:118,1,155.999992858887,10|0,0:1|0:1,0:0:0:0:
353,84,73912,5,10,0:0:0:0:
250,67,74097,1,0,0:0:0:0:
362,173,74282,5,8,0:1:0:0:
225,192,74467,1,8,0:0:0:0:
383,262,74652,5,10,0:0:0:0:
383,262,74745,1,8,0:0:0:0:
383,262,74837,1,8,0:0:0:0:
221,309,75023,1,10,0:1:0:0:
221,309,75115,1,0,0:0:0:0:
221,309,75208,1,0,0:0:0:0:
129,236,75393,5,10,0:0:0:0:
291,257,75578,1,0,0:0:0:0:
86,113,75763,5,8,0:1:0:0:
225,192,75949,1,8,0:0:0:0:
141,14,76134,5,10,0:0:0:0:
141,14,76226,1,8,0:0:0:0:
141,14,76319,1,8,0:0:0:0:
182,120,76504,1,10,0:1:0:0:
182,120,76597,1,0,0:0:0:0:
182,120,76689,1,0,0:0:0:0:
277,60,76875,5,10,0:0:0:0:
225,192,77060,1,0,0:0:0:0:
378,141,77245,5,10,0:1:0:0:
282,263,77430,1,8,0:0:0:0:
463,288,77615,5,10,0:0:0:0:
311,351,77800,1,8,0:0:0:0:
435,197,77986,5,10,0:1:0:0:
389,345,78171,1,0,0:0:0:0:
446,107,78356,6,0,B|338:129|377:189|259:219,1,207.999990478516,10|8,0:0|0:1,0:0:0:0:
204,171,78912,1,8,0:0:0:0:
204,171,79004,1,8,0:0:0:0:
204,171,79097,1,10,0:0:0:0:
342,277,79282,1,8,0:0:0:0:
204,171,79467,2,0,P|224:107|238:62,1,103.999995239258,14|0,0:1|0:0,0:0:0:0:
0,38,79837,6,0,P|85:48|132:116,1,155.999992858887,10|0,0:0|0:0,0:0:0:0:
127,99,80208,1,10,0:1:0:0:
44,131,80393,1,8,0:0:0:0:
44,131,80486,1,8,0:0:0:0:
44,131,80578,1,10,0:0:0:0:
48,301,80763,1,8,0:0:0:0:
44,131,80949,6,0,P|27:180|8:228,1,103.999995239258,10|0,0:1|0:0,0:0:0:0:
119,370,81319,2,0,P|135:320|154:272,1,103.999995239258,10|0,0:0|0:0,0:0:0:0:
298,211,81689,2,0,P|281:260|262:308,1,103.999995239258,10|8,0:1|0:0,0:0:0:0:
420,242,82060,2,0,P|337:190|325:106,1,155.999992858887,10|0,0:0|0:0,0:0:0:0:
434,48,82430,2,0,P|433:121|376:174,1,103.999995239258,8|0,0:1|0:0,0:0:0:0:
245,144,82800,6,0,B|137:116|194:76|55:48,1,207.999990478516,14|2,0:0|0:0,0:0:0:0:
52,176,83356,1,8,0:0:0:0:
52,176,83541,2,0,B|39:205|71:227|103:173|95:109,2,103.999995239258,14|8|2,0:1|0:0|0:0,0:0:0:0:
164,222,84097,5,8,0:0:0:0:
164,222,84282,2,0,P|165:284|207:371,1,160,14|8,0:0|0:0,0:0:0:0:
293,350,84837,1,0,0:0:0:0:
293,350,85023,2,0,P|292:288|250:201,2,160,10|10|6,0:1|0:0|0:0,0:0:0:0:
256,192,85856,12,0,88356,0:0:0:0:
