osu file format v14

[General]
AudioFilename: audio.mp3
AudioLeadIn: 0
PreviewTime: 49467
Countdown: 0
SampleSet: Soft
StackLeniency: 0.3
Mode: 0
LetterboxInBreaks: 0
WidescreenStoryboard: 1

[Editor]
Bookmarks: 24983,50168
DistanceSpacing: 0.7
BeatDivisor: 4
GridSize: 32
TimelineZoom: 0.8399997

[Metadata]
Title:Setsuna no Chikai (feat. Yuzaki Tsukasa (CV: Kito Akari)) (TV Size)
TitleUnicode:刹那の誓い(feat. 由崎司 (CV: 鬼頭明里)) (TV Size)
Artist:Neko Hacker
ArtistUnicode:Neko Hacker
Creator:Vararaup
Version:Easy
Source:トニカクカワイイ(シーズン2)
Tags:japanese pop jpop electronic tonikawa tonikaku kawaii op opening season 2 fly me to the moon anime nasa cute couple aurorance iredi lancien neonlights frozz -keqing
BeatmapID:4088463
BeatmapSetID:1970466

[Difficulty]
HPDrainRate:2
CircleSize:3
OverallDifficulty:2
ApproachRate:3
SliderMultiplier:0.999999999999999
SliderTickRate:1

[Events]
//Background and Video events
0,0,"tsukasa5.jpg",0,0
Video,0,"video.mp4"
//Break Periods
//Storyboard Layer 0 (Background)
//Storyboard Layer 1 (Fail)
//Storyboard Layer 2 (Pass)
//Storyboard Layer 3 (Foreground)
//Storyboard Layer 4 (Overlay)
//Storyboard Sound Samples

[TimingPoints]
-162,370.37037037037,4,2,2,30,1,0
13171,-100,4,2,2,50,0,0
25023,-100,4,2,2,60,0,0
38356,-100,4,2,2,70,0,0
50208,-100,4,2,2,70,0,0
51319,-100,4,2,2,70,0,0
85763,-100,4,2,2,30,0,0
85856,-100,4,2,2,30,0,0
88356,-100,4,2,2,5,0,0

[Colours]
Combo1 : 117,180,255
Combo2 : 255,175,117
Combo3 : 255,117,128
Combo4 : 255,128,223

[HitObjects]
31,264,13171,5,10,0:0:0:0:
175,354,13912,1,10,0:1:0:0:
255,295,14282,1,2,0:0:0:0:
334,355,14652,1,2,0:0:0:0:
480,263,15393,2,0,P|478:214|451:172,1,99.9999999999999,10|10,0:1|0:0,0:0:0:0:
366,117,16134,6,0,P|368:67|368:17,2,99.9999999999999,10|2|10,0:0|0:0|0:1,0:0:0:0:
289,181,17245,1,2,0:0:0:0:
212,116,17615,1,2,0:0:0:0:
37,159,18356,2,0,P|80:181|104:225,1,99.9999999999999,10|2,0:1|0:0,0:0:0:0:
111,324,19097,6,0,P|62:329|10:338,2,99.9999999999999,10|2|10,0:0|0:0|0:1,0:0:0:0:
196,271,20208,1,2,0:0:0:0:
200,171,20578,2,0,B|304:194|261:250|365:276,2,200,2|10|10,0:0|0:1|0:0,0:0:0:0:
313,30,22800,1,8,0:1:0:0:
445,151,23541,2,0,B|441:219|481:268|520:235|550:329|490:391|418:360,1,300,2|0,0:0|0:0,0:0:0:0:
364,275,25023,6,0,P|316:267|268:282,1,99.9999999999999,14|10,0:0|0:1,0:0:0:0:
191,346,25763,2,0,P|142:350|95:333,1,99.9999999999999,2|10,0:0|0:1,0:0:0:0:
24,262,26504,2,0,B|53:199|31:132|31:132|66:129|93:111,1,200,10|2,0:0|0:0,0:0:0:0:
157,33,27615,1,10,0:1:0:0:
242,85,27986,6,0,P|251:36|284:0,2,99.9999999999999,10|10|2,0:0|0:1|0:0,0:0:0:0:
266,182,29097,1,10,0:1:0:0:
231,275,29467,2,0,P|286:353|382:352,1,200,10|2,0:0|0:0,0:0:0:0:
449,275,30578,1,10,0:1:0:0:
400,187,30949,6,0,B|423:112|457:149|483:66,2,150,14|2|10,0:0|0:0|0:1,0:0:0:0:
333,261,32430,2,0,P|284:267|239:248,1,99.9999999999999,8|8,0:0|0:1,0:0:0:0:
191,159,33171,1,10,0:0:0:0:
265,92,33541,1,10,0:1:0:0:
197,18,33912,6,0,P|122:28|49:42,1,150,10|2,0:0|0:0,0:0:0:0:
0,184,35023,2,0,P|98:164|196:147,1,200,10|10,0:1|0:1,0:0:0:0:
294,127,36134,1,10,0:0:0:0:
386,164,36504,1,10,0:1:0:0:
418,258,36875,1,10,0:0:0:0:
256,375,37615,6,0,P|215:345|166:338,1,99.9999999999999,10|10,0:0|0:1,0:0:0:0:
72,370,38356,2,0,B|56:328|6:297|6:297|29:200,1,200,14|10,0:0|0:1,0:0:0:0:
106,15,39837,6,0,L|205:25,1,99.9999999999999,12|2,0:0|0:0,0:0:0:0:
256,111,40578,2,0,L|355:121,1,99.9999999999999,14|2,0:1|0:0,0:0:0:0:
436,179,41319,2,0,P|452:132|491:102,2,99.9999999999999,14|2|8,0:2|0:1|0:1,0:0:0:0:
393,269,42430,1,2,0:0:0:0:
293,272,42800,2,0,B|217:282|217:282|183:320|183:320|111:329,2,200,14|14|14,0:0|0:1|0:0,0:0:0:0:
443,139,45023,6,0,P|411:48|319:22,1,200,10|14,0:1|0:0,0:0:0:0:
234,76,46134,1,2,0:0:0:0:
144,32,46504,2,0,P|94:38|54:67,1,99.9999999999999,14|2,0:1|0:0,0:0:0:0:
14,158,47245,2,0,B|69:163|106:201|106:201|110:255|144:286,1,200,12|10,0:0|0:1,0:0:0:0:
240,314,48356,1,2,0:0:0:0:
333,278,48726,6,0,P|335:327|340:377,2,99.9999999999999,12|8|10,0:0|0:0|0:1,0:0:0:0:
374,186,49837,1,10,0:1:0:0:
454,126,50208,2,0,P|475:51|376:49,1,200,10|10,0:0|0:1,0:0:0:0:
311,117,51319,6,0,B|264:105|215:140|238:161|201:202|142:202,1,200,12|8,0:0|0:0,0:0:0:0:
44,178,52430,1,10,0:1:0:0:
29,79,52800,1,0,0:0:0:0:
103,12,53171,2,0,P|150:27|186:60,1,99.9999999999999,10|0,0:0|0:0,0:0:0:0:
207,158,53912,2,0,P|243:191|290:206,1,99.9999999999999,8|8,0:1|0:0,0:0:0:0:
381,159,54652,6,0,B|428:108|517:173|454:263,1,200,2|10,0:0|0:1,0:0:0:0:
390,338,55763,1,2,0:0:0:0:
295,305,56134,2,0,P|267:346|223:369,2,99.9999999999999,8|0|10,0:0|0:0|0:1,0:0:0:0:
289,204,57245,1,8,0:0:0:0:
191,184,57615,2,0,P|141:187|91:192,1,99.9999999999999,2|8,0:0|0:0,0:0:0:0:
3,144,58356,2,0,P|-5:95|8:47,1,99.9999999999999,10|0,0:1|0:0,0:0:0:0:
104,19,59097,6,0,P|203:28|303:36,2,200,10|2|2,0:0|0:0|0:0,0:0:0:0:
6,193,61319,1,2,0:0:0:0:
86,251,61689,1,2,0:0:0:0:
87,351,62060,6,0,P|134:360|186:340,1,99.9999999999999,10|8,0:0|0:1,0:0:0:0:
257,277,62800,2,0,P|198:230|187:159,1,150,10|2,0:0|0:0,0:0:0:0:
195,110,63541,2,0,P|245:118|294:123,1,99.9999999999999,8|8,0:0|0:1,0:0:0:0:
380,72,64282,1,10,0:0:0:0:
474,105,64652,1,10,0:1:0:0:
488,203,65023,6,0,P|481:253|478:303,1,99.9999999999999,10|8,0:0|0:1,0:0:0:0:
397,362,65763,2,0,B|336:317|336:317|262:325,1,150,10|2,0:0|0:0,0:0:0:0:
221,354,66504,2,0,P|168:347|121:342,1,99.9999999999999,8|8,0:0|0:1,0:0:0:0:
27,309,67245,1,10,0:0:0:0:
16,209,67615,1,14,0:1:0:0:
92,145,67986,6,0,P|142:143|186:165,1,99.9999999999999,14|8,0:0|0:1,0:0:0:0:
197,265,68726,2,0,B|273:252|248:212|327:197,1,150,10|2,0:0|0:0,0:0:0:0:
377,192,69467,2,0,P|380:266|385:341,2,150,8|14|12,0:0|0:0|0:1,0:0:0:0:
420,102,70949,6,0,P|397:33|326:2,1,150,14|10,0:0|0:0,0:0:0:0:
238,39,71875,1,10,0:0:0:0:
98,92,72430,2,0,B|109:120|130:143|130:143|86:196|75:269,1,200,14|10,0:0|0:1,0:0:0:0:
139,346,73541,1,10,0:1:0:0:
227,299,73912,6,0,P|276:291|324:301,1,99.9999999999999,10|8,0:0|0:1,0:0:0:0:
410,351,74652,1,10,0:0:0:0:
495,298,75023,1,10,0:1:0:0:
467,200,75393,2,0,P|462:151|461:101,1,99.9999999999999,10|8,0:0|0:1,0:0:0:0:
414,12,76134,1,10,0:0:0:0:
314,21,76504,1,10,0:1:0:0:
252,100,76875,6,0,B|226:57|226:57|180:35,2,99.9999999999999,10|10|10,0:0|0:1|0:0,0:0:0:0:
265,199,77986,1,10,0:1:0:0:
181,254,78356,2,0,P|132:262|93:293,1,99.9999999999999,10|8,0:0|0:1,0:0:0:0:
17,226,79097,2,0,P|18:177|16:127,1,99.9999999999999,10|14,0:0|0:1,0:0:0:0:
83,53,79837,5,10,0:0:0:0:
183,53,80208,1,10,0:1:0:0:
272,97,80578,1,10,0:0:0:0:
325,181,80949,1,10,0:1:0:0:
324,280,81319,2,0,P|280:313|259:350,2,99.9999999999999,10|10|10,0:0|0:1|0:0,0:0:0:0:
425,278,82430,1,8,0:1:0:0:
470,188,82800,6,0,P|436:98|344:72,1,200,14|14,0:0|0:1,0:0:0:0:
254,117,83912,1,2,0:0:0:0:
227,213,84282,2,0,P|194:249|147:268,1,99.9999999999999,14|8,0:0|0:0,0:0:0:0:
48,258,85023,1,10,0:1:0:0:
11,165,85393,1,10,0:0:0:0:
256,192,85763,12,0,88356,0:0:0:0:
