osu file format v14

[General]
AudioFilename: audio.mp3
AudioLeadIn: 0
PreviewTime: 49467
Countdown: 0
SampleSet: Soft
StackLeniency: 0.3
Mode: 0
LetterboxInBreaks: 0
WidescreenStoryboard: 1

[Editor]
Bookmarks: 24983,50168,62020
DistanceSpacing: 1.2
BeatDivisor: 4
GridSize: 32
TimelineZoom: 1.64

[Metadata]
Title:Setsuna no Chikai (feat. Yuzaki Tsukasa (CV: Kito Akari)) (TV Size)
TitleUnicode:刹那の誓い(feat. 由崎司 (CV: 鬼頭明里)) (TV Size)
Artist:Neko Hacker
ArtistUnicode:Neko Hacker
Creator:Vararaup
Version:Aurorance's Hard
Source:トニカクカワイイ(シーズン2)
Tags:japanese pop jpop electronic tonikawa tonikaku kawaii op opening season 2 fly me to the moon anime nasa cute couple aurorance iredi lancien neonlights frozz -keqing
BeatmapID:4088462
BeatmapSetID:1970466

[Difficulty]
HPDrainRate:5
CircleSize:3.7
OverallDifficulty:6
ApproachRate:7.5
SliderMultiplier:1.35
SliderTickRate:1

[Events]
//Background and Video events
0,0,"tsukasa1.jpg",0,0
Video,0,"video.mp4"
//Break Periods
//Storyboard Layer 0 (Background)
//Storyboard Layer 1 (Fail)
//Storyboard Layer 2 (Pass)
//Storyboard Layer 3 (Foreground)
//Storyboard Layer 4 (Overlay)
//Storyboard Sound Samples

[TimingPoints]
-162,370.37037037037,4,2,2,30,1,0
578,-111.111111111111,4,2,2,30,0,0
13171,-100,4,2,2,50,0,0
25023,-95.2380952380952,4,2,2,60,0,0
36875,-105.263157894737,4,2,2,60,0,0
38356,-90.9090909090909,4,2,2,70,0,0
41689,-105.263157894737,4,2,2,70,0,0
42060,-100,4,2,2,70,0,0
42430,-95.2380952380952,4,2,2,70,0,0
42800,-90.9090909090909,4,2,2,70,0,0
47615,-105.263157894737,4,2,2,70,0,0
47986,-100,4,2,2,70,0,0
48356,-95.2380952380952,4,2,2,70,0,0
48726,-90.9090909090909,4,2,2,70,0,0
50208,-90.9090909090909,4,2,2,70,0,0
51319,-90.9090909090909,4,2,2,70,0,0
62060,-83.3333333333333,4,2,2,70,0,0
85763,-90.9090909090909,4,2,2,60,0,0
85856,-90.9090909090909,4,2,2,30,0,0
88356,-90.9090909090909,4,2,2,5,0,0

[Colours]
Combo1 : 173,106,255
Combo2 : 113,136,249
Combo3 : 255,106,118
Combo4 : 255,117,221

[HitObjects]
17,334,578,6,0,P|87:344|158:363,1,121.5
283,299,1319,1,2,0:0:0:0:
283,299,2060,2,0,P|302:240|260:171,1,121.5
170,73,2800,1,2,0:0:0:0:
170,73,3541,6,0,P|230:64|289:51,1,121.5
440,3,4282,1,2,0:0:0:0:
512,144,4652,1,0,0:0:0:0:
396,252,5023,2,0,P|335:260|276:273,1,121.5
146,363,5763,1,2,0:0:0:0:
146,363,6504,6,0,P|208:348|226:286,1,121.5,2|2,0:0|0:0,0:0:0:0:
111,190,7245,1,2,0:0:0:0:
111,190,7986,2,0,P|49:175|31:113,1,121.5
146,18,8726,1,2,0:0:0:0:
146,18,9467,6,0,P|218:32|273:40,1,121.5
402,117,10208,2,0,P|345:126|282:143,1,121.5,2|0,0:0|0:0,0:0:0:0:
158,239,10949,1,0,0:0:0:0:
25,153,11319,1,0,0:0:0:0:
151,58,11689,1,2,0:0:0:0:
151,58,12430,1,2,0:0:0:0:
285,142,12800,1,2,0:0:0:0:
413,22,13171,6,0,P|473:42|482:110,1,135,10|0,0:0|0:0,0:0:0:0:
414,268,13912,1,10,0:1:0:0:
268,170,14282,1,2,0:0:0:0:
148,298,14652,1,2,0:0:0:0:
69,259,14837,2,0,P|43:200|73:131,1,135,8|8,0:0|0:0,0:0:0:0:
99,55,15393,2,0,P|133:77|150:105,1,67.5,10|0,0:1|0:0,0:0:0:0:
139,186,15763,1,10,0:0:0:0:
263,62,16134,6,0,P|331:52|399:37,1,135,10|2,0:0|0:0,0:0:0:0:
472,80,16689,1,8,0:0:0:0:
424,154,16875,1,10,0:1:0:0:
260,217,17245,2,0,P|224:206|191:200,1,67.5,2|8,0:0|0:0,0:0:0:0:
124,148,17615,1,2,0:0:0:0:
49,194,17800,2,0,P|66:271|73:330,1,135,8|8,0:0|0:0,0:0:0:0:
108,352,18263,1,8,0:0:0:0:
108,352,18356,2,0,P|175:366|231:332,1,135,10|2,0:1|0:0,0:0:0:0:
285,265,18912,1,8,0:0:0:0:
364,302,19097,5,10,0:0:0:0:
505,198,19467,2,0,L|493:109,1,67.5,2|8,0:0|0:0,0:0:0:0:
410,111,19837,2,0,L|429:254,1,135,8|2,0:1|0:0,0:0:0:0:
301,366,20578,2,0,L|234:352,1,67.5,2|8,0:0|0:0,0:0:0:0:
166,296,20949,1,0,0:0:0:0:
206,222,21134,1,8,0:0:0:0:
206,222,21226,1,8,0:0:0:0:
206,222,21319,2,0,P|270:231|323:191,1,135,10|0,0:1|0:0,0:0:0:0:
261,31,22060,6,0,P|193:51|124:64,1,135,10|0,0:0|0:0,0:0:0:0:
48,47,22615,1,8,0:0:0:0:
48,47,22800,1,8,0:1:0:0:
5,217,23171,1,0,0:0:0:0:
144,323,23541,1,0,0:0:0:0:
207,262,23726,2,0,P|266:270|296:333,1,135,8|0,0:0|0:0,0:0:0:0:
334,364,24189,1,0,3:0:0:0:
334,364,24282,2,0,P|373:359|392:333,1,67.5,0|0,3:0|0:0,0:0:0:0:
448,275,24652,2,0,P|439:261|427:251,3,33.75,2|0|0|0,3:2|0:0|0:0|0:0,0:0:0:0:
419,213,25023,6,0,L|438:121,1,70.875,14|2,0:0|0:0,0:0:0:0:
487,70,25393,1,10,0:1:0:0:
417,10,25578,1,2,0:0:0:0:
364,85,25763,2,0,P|328:94|291:99,1,70.875,2|10,0:0|0:0,0:0:0:0:
207,68,26134,1,10,0:1:0:0:
50,164,26504,5,10,0:0:0:0:
17,197,26597,2,0,P|28:248|37:301,1,106.3124967556,2|10,0:0|0:1,0:0:0:0:
129,310,27060,1,2,0:0:0:0:
194,246,27245,1,2,0:0:0:0:
194,246,27337,1,2,0:0:0:0:
194,246,27430,2,0,P|185:211|180:176,1,70.8749978370667,10|10,0:0|0:1,0:0:0:0:
258,9,27986,6,0,P|275:11|293:22,3,35.4374989185334,10|2|2|2,0:0|0:0|0:0|0:0,0:0:0:0:
336,14,28356,2,0,P|356:44|366:78,1,70.8749978370667,10|2,0:1|0:0,0:0:0:0:
453,105,28726,2,0,P|430:131|417:164,1,70.8749978370667,2|8,0:0|0:0,0:0:0:0:
341,220,29097,2,0,P|380:254|396:304,1,106.3124967556,10|2,0:1|0:0,0:0:0:0:
390,350,29467,6,0,P|404:359|421:365,2,35.4374989185334,10|2|2,0:0|0:0|0:0,0:0:0:0:
306,310,29837,2,0,P|272:321|237:328,1,70.875,10|2,0:1|0:0,0:0:0:0:
146,341,30208,1,2,0:0:0:0:
73,284,30393,1,10,0:0:0:0:
73,191,30578,1,10,0:1:0:0:
207,64,30949,6,0,L|214:99,4,35.4375,14|2|2|2|10,0:0|0:0|0:0|0:0|0:1,0:0:0:0:
314,133,31504,2,0,L|307:95,4,35.4375,2|2|2|2|8,0:0|0:0|0:0|0:0|0:0,0:0:0:0:
381,221,32060,6,0,L|374:255,4,35.4375,10|2|2|2|8,0:1|0:0|0:0|0:0|0:0,0:0:0:0:
271,285,32615,2,0,L|278:247,4,35.4375,2|2|8|2|2,0:0|0:0|0:1|0:0|0:0,0:0:0:0:
174,330,33171,5,10,0:0:0:0:
160,333,33263,1,2,0:0:0:0:
146,336,33356,1,10,0:0:0:0:
132,339,33449,1,2,0:0:0:0:
118,342,33541,1,10,0:1:0:0:
134,177,33912,6,0,P|128:139|118:95,1,70.875,10|0,0:0|0:0,0:0:0:0:
157,22,34282,1,8,0:1:0:0:
223,86,34467,2,0,P|229:124|239:168,1,70.875,2|8,0:0|0:0,0:0:0:0:
200,241,34837,1,0,0:0:0:0:
276,291,35023,2,0,P|347:282|418:278,1,141.749995674133,10|8,0:1|0:0,0:0:0:0:
506,252,35578,5,8,0:0:0:0:
443,181,35763,2,0,P|450:143|458:109,1,70.875,10|8,0:1|0:0,0:0:0:0:
435,77,36041,1,0,0:0:0:0:
435,77,36134,2,0,L|393:82,3,35.4375,10|0|8|0,0:0|0:0|0:0|0:0,0:0:0:0:
361,107,36504,2,0,L|320:102,3,35.4375,10|0|8|0,0:1|0:0|0:0|0:0,0:0:0:0:
297,71,36875,6,0,B|166:41|202:147|52:108,1,256.499993150711,10|10,0:0|0:0,0:0:0:0:
9,178,37800,1,10,0:0:0:0:
19,261,37986,1,10,0:1:0:0:
75,322,38171,1,2,0:0:0:0:
152,266,38356,6,0,B|176:250|176:250|209:297|209:297|208:308|208:308|242:355|242:355|267:337,1,185.625,14|0,0:0|0:0,0:0:0:0:
306,308,38912,1,8,0:0:0:0:
393,349,39097,2,0,B|401:291|401:291|386:263|386:263|395:206,1,148.5,10|0,0:1|0:0,0:0:0:0:
448,128,39652,1,0,0:0:0:0:
448,128,39745,1,0,0:0:0:0:
448,128,39837,6,0,B|384:104|384:104|374:106|374:106|320:149,1,148.5,12|2,0:0|0:0,0:0:0:0:
246,214,40393,1,8,0:0:0:0:
190,135,40578,2,0,P|204:101|202:64,1,74.25,14|0,0:1|0:0,0:0:0:0:
107,46,40949,2,0,P|92:79|94:116,1,74.25,2|0,0:0|0:0,0:0:0:0:
33,191,41319,6,0,B|21:210|21:210|48:261|66:327,1,148.50000453186,14|2,0:0|0:0,0:0:0:0:
161,288,41875,1,10,0:0:0:0:
161,288,41967,1,2,0:0:0:0:
161,288,42060,2,0,L|207:300,3,33.75,10|2|2|2,0:1|0:0|0:0|0:0,0:0:0:0:
235,326,42430,2,0,L|281:314,3,35.4375,2|2|2|2,0:0|0:0|0:0|0:0,0:0:0:0:
306,285,42800,6,0,B|338:309|338:309|411:301,2,111.375003398895,14|2|10,0:0|0:0|0:0,0:0:0:0:
253,203,43541,2,0,P|260:160|269:128,1,74.25,14|0,0:1|0:0,0:0:0:0:
255,83,43819,2,0,P|212:76|180:67,1,74.25,2|0,0:0|0:0,0:0:0:0:
137,84,44097,1,2,0:0:0:0:
47,47,44282,6,0,B|17:87|17:87|50:189|50:189|16:244,1,222.750006797791,14|8,0:0|0:0,0:0:0:0:
39,338,45023,1,10,0:1:0:0:
178,300,45300,1,2,0:0:0:0:
306,366,45578,1,2,0:0:0:0:
320,271,45763,6,0,B|340:245|340:245|336:180|281:153,1,148.50000453186,14|2,0:0|0:0,0:0:0:0:
195,199,46319,1,8,0:0:0:0:
122,135,46504,2,0,B|103:107|103:107|112:43|169:20,1,148.50000453186,14|2,0:1|0:0,0:0:0:0:
269,52,47060,1,0,0:0:0:0:
269,52,47152,1,0,0:0:0:0:
269,52,47245,1,12,0:0:0:0:
435,39,47615,6,0,P|436:71|439:102,1,64.1249982876778,2|10,0:0|0:0,0:0:0:0:
472,136,47893,1,2,0:0:0:0:
472,136,47986,2,0,L|460:182,3,33.75,10|2|2|2,0:1|0:0|0:0|0:0,0:0:0:0:
429,199,48356,2,0,L|441:245,3,35.4375,2|2|2|2,0:0|0:0|0:0|0:0,0:0:0:0:
416,276,48726,6,0,P|467:294|502:337,2,111.375003398895,12|0|0,0:0|0:0|0:0,0:0:0:0:
319,276,49467,1,10,0:1:0:0:
257,350,49652,1,10,0:0:0:0:
257,350,49745,1,8,0:0:0:0:
257,350,49837,1,10,0:1:0:0:
192,277,50023,1,10,0:0:0:0:
95,276,50208,5,10,0:0:0:0:
95,276,50949,2,0,P|88:227|72:165,1,111.375,10|2,0:1|0:0,0:0:0:0:
59,120,51319,6,0,B|49:86|49:86|103:51|155:81|170:115|170:115|187:152|223:176|270:166,1,297,12|8,0:0|0:0,0:0:0:0:
416,42,52430,2,0,P|427:115|439:188,1,148.50000453186,10|0,0:1|0:0,0:0:0:0:
392,273,52986,1,2,0:0:0:0:
327,201,53171,6,0,B|323:174|318:148|318:148|226:146|161:96,1,222.750006797791,10|2,0:0|0:0,0:0:0:0:
90,27,53912,1,8,0:1:0:0:
92,219,54282,2,0,P|65:149|-1:126,2,148.50000453186,8|2|10,0:0|0:0|0:0,0:0:0:0:
165,368,55393,1,10,0:1:0:0:
165,368,55578,1,2,0:0:0:0:
253,311,55763,1,2,0:0:0:0:
253,311,55949,1,2,0:0:0:0:
349,348,56134,6,0,P|404:355|459:360,2,111.375003398895,8|2|2,0:0|0:0|0:0,0:0:0:0:
323,254,56875,2,0,P|267:261|212:266,2,111.375003398895,10|2|2,0:1|0:0|0:0,0:0:0:0:
368,169,57615,2,0,P|423:176|478:181,2,111.375003398895,2|2|2,0:0|0:0|0:0,0:0:0:0:
271,157,58356,2,0,P|277:113|282:68,1,74.2500022659302,10|0,0:1|0:0,0:0:0:0:
256,41,58634,2,0,P|219:37|182:31,1,74.2500022659302,2|0,0:0|0:0,0:0:0:0:
133,30,58912,1,2,0:0:0:0:
61,95,59097,6,0,P|50:169|33:249,1,148.5,10|0,0:0|0:0,0:0:0:0:
70,333,59652,1,2,0:0:0:0:
138,265,59837,2,0,P|149:191|166:111,1,148.5,2|0,0:0|0:0,0:0:0:0:
133,30,60393,1,2,0:0:0:0:
54,86,60578,6,0,P|33:56|2:37,2,74.2500022659302,2|0|0,0:0|0:0|0:0,0:0:0:0:
61,183,61134,1,0,0:0:0:0:
155,196,61319,2,0,P|184:149|236:132,1,111.375003398895,2|0,0:0|0:0,0:0:0:0:
284,140,61689,1,2,0:0:0:0:
468,186,62060,6,0,P|446:264|434:344,1,161.999995056153,10|8,0:0|0:1,0:0:0:0:
338,370,62615,1,8,0:0:0:0:
338,370,62708,1,8,0:0:0:0:
338,370,62800,1,10,0:0:0:0:
277,282,62986,2,0,P|204:286|141:345,1,161.999995056153,10|2,0:0|0:0,0:0:0:0:
90,252,63541,6,0,B|82:170|33:191|25:106,1,161.999995056153,8|8,0:0|0:1,0:0:0:0:
95,29,64097,1,8,0:0:0:0:
95,29,64190,1,8,0:0:0:0:
95,29,64282,2,0,P|134:31|169:56,1,80.9999975280763,10|8,0:0|0:0,0:0:0:0:
244,125,64652,2,0,P|300:102|357:82,1,121.499996292114,10|0,0:1|0:0,0:0:0:0:
404,67,65023,6,0,P|472:104|481:181,1,161.999995056153,10|8,0:0|0:1,0:0:0:0:
462,293,65578,1,8,0:0:0:0:
462,293,65671,1,8,0:0:0:0:
462,293,65763,1,10,0:0:0:0:
358,318,65949,2,0,P|288:286|227:333,1,161.999995056153,10|2,0:0|0:0,0:0:0:0:
155,257,66504,6,0,P|77:240|73:168,1,161.999995056153,8|8,0:0|0:1,0:0:0:0:
169,120,67060,1,8,0:0:0:0:
169,120,67152,1,8,0:0:0:0:
169,120,67245,2,0,L|209:114,2,40.4999987640381,10|8|8,0:0|0:0|0:0,0:0:0:0:
149,16,67615,1,14,0:1:0:0:
109,28,67708,2,0,P|66:36|27:41,1,80.9999975280763
0,81,67986,6,0,P|21:158|34:238,1,161.999995056153,14|8,0:0|0:1,0:0:0:0:
67,348,68541,1,8,0:0:0:0:
67,348,68634,1,8,0:0:0:0:
67,348,68726,1,10,0:0:0:0:
171,366,68912,2,0,B|170:320|154:286|154:286|173:259|218:241,1,161.999995056153,10|2,0:0|0:0,0:0:0:0:
312,192,69467,6,0,P|316:232|321:272,1,80.9999975280763,8|2,0:0|0:0,0:0:0:0:
329,324,69745,1,0,0:0:0:0:
329,324,69837,1,8,0:1:0:0:
431,350,70023,2,0,P|419:269|409:189,1,161.999995056153,14|10,0:0|0:0,0:0:0:0:
499,136,70578,2,0,P|440:104|422:44,1,121.499996292114,12|0,0:1|0:0,0:0:0:0:
428,6,70949,5,14,0:0:0:0:
339,62,71134,2,0,P|299:73|259:77,1,80.9999975280763,2|8,0:0|0:1,0:0:0:0:
174,16,71504,2,0,P|137:1|87:7,1,80.9999975280763,10|8,0:0|0:0,0:0:0:0:
81,108,71875,2,0,P|118:123|158:119,1,80.9999975280763,10|8,0:0|0:1,0:0:0:0:
259,76,72245,1,8,0:0:0:0:
259,76,72337,1,8,0:0:0:0:
259,76,72430,5,14,0:0:0:0:
361,99,72615,1,8,0:0:0:0:
389,200,72800,1,8,0:1:0:0:
318,278,72986,1,8,0:0:0:0:
109,271,73356,1,8,0:0:0:0:
72,369,73541,2,0,P|23:334|1:278,1,121.499996292114,10|0,0:1|0:1,0:0:0:0:
11,230,73912,6,0,P|9:189|7:149,1,80.9999975280763,10|0,0:0|0:0,0:0:0:0:
71,66,74282,2,0,P|111:63|151:60,1,80.9999975280763,8|0,0:1|0:0,0:0:0:0:
195,91,74560,1,8,0:0:0:0:
195,91,74652,2,0,L|199:155,2,40.4999987640381,10|8|8,0:0|0:0|0:0,0:0:0:0:
269,16,75023,2,0,P|328:28|388:34,1,121.499996292114,10|0,0:1|0:0,0:0:0:0:
437,42,75393,6,0,P|422:80|424:120,1,80.9999975280763,10|0,0:0|0:0,0:0:0:0:
489,201,75763,1,8,0:1:0:0:
465,309,75949,1,8,0:0:0:0:
465,309,76041,1,8,0:0:0:0:
465,309,76134,2,0,P|426:302|385:298,1,80.9999975280763,10|8,0:0|0:0,0:0:0:0:
287,261,76504,2,0,P|289:319|241:350,1,121.499996292114,10|0,0:1|0:0,0:0:0:0:
190,346,76875,6,0,P|152:336|106:329,1,80.9999975280763,10|0,0:0|0:0,0:0:0:0:
44,247,77245,1,10,0:1:0:0:
122,177,77430,1,0,0:0:0:0:
217,222,77615,2,0,P|221:181|224:141,1,80.9999975280763,10|0,0:0|0:0,0:0:0:0:
288,57,77986,1,10,0:1:0:0:
196,5,78171,1,0,0:0:0:0:
113,70,78356,6,0,P|75:58|35:52,2,80.9999975280763,10|0|8,0:0|0:0|0:1,0:0:0:0:
224,141,78912,1,8,0:0:0:0:
224,141,79004,1,8,0:0:0:0:
224,141,79097,2,0,P|234:179|219:216,1,80.9999975280763,10|8,0:0|0:0,0:0:0:0:
123,259,79467,2,0,P|96:311|122:364,1,121.499996292114,14|0,0:1|0:0,0:0:0:0:
168,376,79837,6,0,P|226:359|286:348,1,121.499996292114,10|0,0:0|0:0,0:0:0:0:
334,340,80208,1,10,0:1:0:0:
445,363,80393,1,8,0:0:0:0:
445,363,80486,1,8,0:0:0:0:
445,362,80578,2,0,P|452:302|463:242,1,121.499996292114,10|0,0:0|0:0,0:0:0:0:
446,195,80949,2,0,P|406:189|367:180,1,80.9999975280763,10|0,0:1|0:0,0:0:0:0:
308,91,81319,6,0,P|301:58|298:10,1,80.9999975280763,10|0,0:0|0:0,0:0:0:0:
193,22,81689,2,0,P|201:61|203:102,1,80.9999975280763,10|0,0:1|0:0,0:0:0:0:
265,187,82060,1,10,0:0:0:0:
188,259,82245,1,0,0:0:0:0:
123,175,82430,2,0,P|66:184|24:237,1,121.499996292114,8|0,0:1|0:0,0:0:0:0:
11,277,82800,6,0,P|8:196|3:115,1,161.999995056153,14|2,0:0|0:0,0:0:0:0:
61,27,83356,1,8,0:0:0:0:
158,80,83541,1,14,0:1:0:0:
158,80,83726,1,8,0:0:0:0:
370,61,84097,5,8,0:0:0:0:
277,10,84282,2,0,B|266:34|253:56|253:56|273:104|281:162,1,161.999995056153,14|8,0:0|0:0,0:0:0:0:
281,162,85023,5,10,0:1:0:0:
309,263,85208,1,8,0:0:0:0:
208,292,85393,1,10,0:0:0:0:
182,190,85578,1,8,0:0:0:0:
256,192,85763,12,0,88356,0:0:0:0:
