osu file format v14

[General]
AudioFilename: audio.mp3
AudioLeadIn: 0
PreviewTime: 60955
Countdown: 0
SampleSet: Soft
StackLeniency: 0.3
Mode: 3
LetterboxInBreaks: 0
SpecialStyle: 0
WidescreenStoryboard: 0

[Editor]
Bookmarks: 13171,24983,33912,38356,50168
DistanceSpacing: 2.4
BeatDivisor: 4
GridSize: 32
TimelineZoom: 1.64

[Metadata]
Title:Setsuna no Chikai (feat. Tsukasa Yuzaki (CV: Kito Akari)) (TV Size)
TitleUnicode:刹那の誓い (feat. 由崎司 (CV: 鬼頭明里)) (TV Size)
Artist:Neko Hacker
ArtistUnicode:Neko Hacker
Creator:Amiichii
Version:Hard
Source:トニカクカワイイ(シーズン2 )
Tags:Critical_Star japanese pop jpop electronic oriental future bass tonikawa tonikaku kawaii op opening season 2 s2 Kitou Akari over the moon for you fly me to the moon LN LNs Long Note Notes
BeatmapID:4095318
BeatmapSetID:1972414

[Difficulty]
HPDrainRate:8
CircleSize:4
OverallDifficulty:7.5
ApproachRate:9.3
SliderMultiplier:2.4
SliderTickRate:1

[Events]
//Background and Video events
Video,0,"video.mp4"
0,0,"Tsukasa_yukata.jpg",0,0
//Break Periods
//Storyboard Layer 0 (Background)
//Storyboard Layer 1 (Fail)
//Storyboard Layer 2 (Pass)
//Storyboard Layer 3 (Foreground)
//Storyboard Layer 4 (Overlay)
//Storyboard Sound Samples

[TimingPoints]
1326,370.37037037037,4,2,1,30,1,0
62066,-100,4,2,1,30,0,1
73548,-100,4,2,1,30,0,0
73918,-100,4,2,1,30,0,1
85770,-100,4,2,1,30,0,0

[HitObjects]
448,192,585,5,0,0:0:0:0:
320,192,770,1,0,0:0:0:0:
64,192,955,1,0,0:0:0:0:
448,192,1140,1,0,0:0:0:0:
64,192,1326,128,0,1696:0:0:0:0:
192,192,1326,128,0,1511:0:0:0:0:
320,192,1511,1,0,0:0:0:0:
448,192,1696,1,0,0:0:0:0:
192,192,1881,1,0,0:0:0:0:
64,192,2066,1,0,0:0:0:0:
448,192,2251,1,0,0:0:0:0:
320,192,2437,1,0,0:0:0:0:
64,192,2622,1,0,0:0:0:0:
320,192,2807,128,0,2992:0:0:0:0:
448,192,2807,128,0,3177:0:0:0:0:
192,192,2992,1,0,0:0:0:0:
64,192,3177,1,0,0:0:0:0:
320,192,3363,1,0,0:0:0:0:
64,192,3548,128,0,3918:0:0:0:0:
448,192,3548,1,0,0:0:0:0:
192,192,3733,1,0,0:0:0:0:
320,192,3918,128,0,4288:0:0:0:0:
448,192,3918,1,0,0:0:0:0:
192,192,4103,1,0,0:0:0:0:
64,192,4288,128,0,4474:0:0:0:0:
448,192,4288,128,0,4659:0:0:0:0:
320,192,4474,1,0,0:0:0:0:
64,192,4659,1,0,0:0:0:0:
192,192,4659,128,0,5029:0:0:0:0:
320,192,4844,1,0,0:0:0:0:
64,192,5029,128,0,5400:0:0:0:0:
448,192,5029,1,0,0:0:0:0:
320,192,5214,1,0,0:0:0:0:
192,192,5400,1,0,0:0:0:0:
448,192,5400,128,0,5770:0:0:0:0:
64,192,5585,1,0,0:0:0:0:
192,192,5770,128,0,6140:0:0:0:0:
320,192,5770,128,0,5955:0:0:0:0:
448,192,5955,1,0,0:0:0:0:
64,192,6140,128,0,6325:0:0:0:0:
320,192,6325,1,0,0:0:0:0:
192,192,6511,128,0,6696:0:0:0:0:
448,192,6511,128,0,6696:0:0:0:0:
64,192,6696,1,0,0:0:0:0:
320,192,6881,128,0,7066:0:0:0:0:
448,192,6881,128,0,7066:0:0:0:0:
192,192,7066,1,0,0:0:0:0:
64,192,7251,128,0,7622:0:0:0:0:
192,192,7251,128,0,7437:0:0:0:0:
448,192,7437,1,0,0:0:0:0:
192,192,7622,1,0,0:0:0:0:
320,192,7807,1,0,0:0:0:0:
64,192,7992,1,0,0:0:0:0:
448,192,7992,128,0,8363:0:0:0:0:
192,192,8177,1,0,0:0:0:0:
64,192,8363,128,0,8733:0:0:0:0:
320,192,8363,1,0,0:0:0:0:
192,192,8548,1,0,0:0:0:0:
320,192,8733,128,0,8918:0:0:0:0:
448,192,8733,128,0,9103:0:0:0:0:
64,192,8918,1,0,0:0:0:0:
320,192,9103,1,0,0:0:0:0:
192,192,9288,1,0,0:0:0:0:
64,192,9474,128,0,9844:0:0:0:0:
448,192,9474,1,0,0:0:0:0:
320,192,9659,1,0,0:0:0:0:
192,192,9844,1,0,0:0:0:0:
448,192,9844,128,0,10214:0:0:0:0:
320,192,10029,1,0,0:0:0:0:
64,192,10214,128,0,10400:0:0:0:0:
192,192,10214,128,0,10585:0:0:0:0:
448,192,10400,1,0,0:0:0:0:
64,192,10585,1,0,0:0:0:0:
320,192,10585,128,0,10955:0:0:0:0:
448,192,10770,1,0,0:0:0:0:
64,192,10955,128,0,11325:0:0:0:0:
192,192,10955,1,0,0:0:0:0:
320,192,11140,1,0,0:0:0:0:
192,192,11325,1,0,0:0:0:0:
448,192,11325,128,0,11696:0:0:0:0:
320,192,11511,1,0,0:0:0:0:
64,192,11696,128,0,11881:0:0:0:0:
192,192,11696,128,0,12066:0:0:0:0:
320,192,11881,1,0,0:0:0:0:
64,192,12066,1,0,0:0:0:0:
448,192,12066,128,0,12251:0:0:0:0:
320,192,12251,1,0,0:0:0:0:
64,192,12437,128,0,12807:0:0:0:0:
192,192,12437,128,0,12622:0:0:0:0:
448,192,12622,1,0,0:0:0:0:
320,192,12807,128,0,13177:0:0:0:0:
448,192,12807,128,0,12992:0:0:0:0:
192,192,12992,1,0,0:0:0:0:
64,192,13177,128,2,13548:0:0:0:0:
448,192,13177,128,4,13363:0:0:0:0:
192,192,13363,1,0,0:0:0:0:
320,192,13548,1,0,0:0:0:0:
448,192,13733,1,0,0:0:0:0:
64,192,13918,128,8,14288:0:0:0:0:
192,192,13918,1,0,0:0:0:0:
320,192,14103,1,0,0:0:0:0:
448,192,14288,128,0,14659:0:0:0:0:
64,192,14474,1,0,0:0:0:0:
192,192,14659,128,0,15029:0:0:0:0:
320,192,14844,1,2,0:0:0:0:
448,192,14844,1,0,0:0:0:0:
64,192,15029,1,0,0:0:0:0:
192,192,15214,1,2,0:0:0:0:
320,192,15214,1,0,0:0:0:0:
64,192,15400,1,8,0:0:0:0:
448,192,15400,128,0,15770:0:0:0:0:
320,192,15585,1,0,0:0:0:50:Tom2.wav
64,192,15770,128,0,16140:0:0:0:50:Tom3.wav
192,192,15770,1,0,0:0:0:0:
448,192,15955,1,0,0:0:0:0:
192,192,16140,1,2,0:0:0:0:
320,192,16140,128,0,16511:0:0:0:0:
64,192,16325,1,0,0:0:0:0:
448,192,16511,128,0,16881:0:0:0:0:
64,192,16696,1,2,0:0:0:0:
192,192,16696,1,0,0:0:0:0:
64,192,16881,128,8,17251:0:0:0:0:
320,192,16881,1,0,0:0:0:0:
448,192,17066,1,0,0:0:0:0:
320,192,17251,128,0,17622:0:0:0:0:
64,192,17437,1,0,0:0:0:0:
192,192,17622,128,0,17992:0:0:0:0:
320,192,17807,1,2,0:0:0:0:
448,192,17807,1,0,0:0:0:0:
64,192,17992,1,0,0:0:0:0:
320,192,18177,1,2,0:0:0:0:
448,192,18177,128,0,18270:0:0:0:0:
192,192,18270,1,2,0:0:0:0:
64,192,18363,1,8,0:0:0:0:
320,192,18363,128,0,18733:0:0:0:0:
192,192,18548,128,0,18640:0:0:0:0:
64,192,18733,128,0,19103:0:0:0:0:
448,192,18733,128,0,18825:0:0:0:0:
192,192,18918,1,0,0:0:0:0:
320,192,18918,128,0,19011:0:0:0:0:
192,192,19103,128,2,19196:0:0:0:0:
448,192,19103,128,0,19474:0:0:0:0:
320,192,19288,1,0,0:0:0:0:
64,192,19474,128,0,19844:0:0:0:0:
192,192,19659,1,2,0:0:0:0:
320,192,19659,1,0,0:0:0:0:
320,192,19844,1,8,0:0:0:0:
448,192,19844,128,0,20214:0:0:0:0:
64,192,20029,1,0,0:0:0:0:
192,192,20214,128,0,20585:0:0:0:0:
320,192,20400,1,0,0:0:0:0:
64,192,20585,1,0,0:0:0:0:
448,192,20585,128,0,21140:0:0:0:0:
320,192,20677,1,0,0:0:0:0:
64,192,20770,1,2,0:0:0:0:
192,192,20770,1,0,0:0:0:0:
320,192,20955,1,0,0:0:0:0:
64,192,21140,1,2,0:0:0:0:
192,192,21140,1,0,0:0:0:0:
320,192,21233,1,2,0:0:0:0:
64,192,21325,128,8,21696:0:0:0:0:
448,192,21325,1,0,0:0:0:0:
320,192,21511,1,0,0:0:0:50:Tom2.wav
192,192,21511,1,0,0:0:0:0:
320,192,21696,1,0,0:0:0:50:Tom3.wav
448,192,21696,128,0,22066:0:0:0:0:
64,192,21881,1,0,0:0:0:0:
192,192,22066,128,2,23548:0:0:0:0:
320,192,22066,1,0,0:0:0:0:
448,192,22251,1,0,0:0:0:0:
64,192,22437,1,0,0:0:0:0:
320,192,22622,1,2,0:0:0:0:
448,192,22622,1,0,0:0:0:0:
64,192,22807,1,8,0:0:0:0:
448,192,22807,1,0,0:0:0:0:
320,192,22992,1,0,0:0:0:0:
64,192,23177,1,0,0:0:0:0:
320,192,23363,1,2,0:0:0:0:
448,192,23363,1,0,0:0:0:0:
64,192,23548,1,0,0:0:0:0:
192,192,23733,1,2,0:0:0:0:
320,192,23733,1,0,0:0:0:0:
448,192,23918,1,0,0:0:0:0:
320,192,24011,1,0,0:0:0:0:
64,192,24103,1,2,0:0:0:0:
192,192,24196,1,2,0:0:0:0:
320,192,24288,1,8,0:0:0:0:
448,192,24288,1,0,0:0:0:0:
192,192,24381,1,0,0:0:0:0:
64,192,24474,1,0,0:0:0:0:
320,192,24566,1,0,0:0:0:0:
64,192,24659,1,0,0:0:0:0:
192,192,24659,1,0,0:0:0:0:
448,192,24751,1,0,0:0:0:0:
320,192,24844,1,0,0:0:0:0:
192,192,24937,1,0,0:0:0:0:
64,192,25029,128,4,25122:0:0:0:0:
320,192,25029,1,2,0:0:0:0:
448,192,25029,128,0,25122:0:0:0:0:
192,192,25214,128,0,25307:0:0:0:0:
320,192,25400,1,8,0:0:0:0:
448,192,25400,128,0,25492:0:0:0:0:
64,192,25585,128,0,25677:0:0:0:0:
192,192,25585,128,0,25677:0:0:0:0:
320,192,25770,128,0,25863:0:0:0:0:
192,192,25955,128,2,26048:0:0:0:0:
448,192,25955,128,0,26048:0:0:0:0:
64,192,26140,128,8,26325:0:0:0:0:
448,192,26140,128,0,26325:0:0:0:0:
192,192,26325,1,0,0:0:0:0:
320,192,26418,128,0,26511:0:0:0:0:
192,192,26511,128,2,26603:0:0:0:0:
448,192,26511,128,0,26603:0:0:0:0:
64,192,26603,128,0,26696:0:0:0:0:
320,192,26788,128,0,26881:0:0:0:0:
64,192,26881,128,8,26974:0:0:0:0:
192,192,26881,128,0,26974:0:0:0:0:
448,192,27066,128,0,27159:0:0:0:0:
64,192,27251,128,0,27344:0:0:0:0:
320,192,27344,128,0,27437:0:0:0:0:
192,192,27437,128,2,27529:0:0:0:0:
448,192,27437,128,0,27529:0:0:0:0:
64,192,27622,128,8,27807:0:0:0:0:
320,192,27622,128,0,27807:0:0:0:0:
448,192,27807,1,0,0:0:0:0:
192,192,27900,1,0,0:0:0:0:
64,192,27992,128,2,28085:0:0:0:0:
448,192,27992,128,0,28085:0:0:0:0:
320,192,28085,128,0,28177:0:0:0:0:
192,192,28177,128,0,28270:0:0:0:0:
320,192,28270,128,0,28363:0:0:0:0:
64,192,28363,128,8,28455:0:0:0:0:
448,192,28363,128,0,28455:0:0:0:0:
64,192,28548,128,0,28640:0:0:0:0:
320,192,28548,128,0,28640:0:0:0:0:
192,192,28733,128,0,28825:0:0:0:0:
320,192,28918,128,2,29011:0:0:0:0:
448,192,28918,128,0,29011:0:0:0:0:
64,192,29103,128,8,29288:0:0:0:0:
192,192,29103,128,0,29288:0:0:0:0:
320,192,29288,1,0,0:0:0:0:
192,192,29381,128,0,29474:0:0:0:0:
64,192,29474,128,2,29566:0:0:0:0:
448,192,29474,128,0,29566:0:0:0:0:
320,192,29566,128,0,29659:0:0:0:0:
192,192,29659,128,0,29751:0:0:0:0:
448,192,29751,128,0,29844:0:0:0:0:
64,192,29844,128,8,29937:0:0:0:0:
320,192,29844,128,0,29937:0:0:0:0:
192,192,30029,128,0,30122:0:0:0:0:
320,192,30214,128,0,30307:0:0:0:0:
448,192,30214,128,0,30307:0:0:0:0:
64,192,30400,128,2,30492:0:0:0:0:
192,192,30400,128,0,30492:0:0:0:0:
64,192,30585,128,8,30770:0:0:0:0:
448,192,30585,128,0,30770:0:0:0:0:
320,192,30770,1,0,0:0:0:0:
192,192,30863,1,0,0:0:0:0:
64,192,30955,128,2,31048:0:0:0:0:
448,192,30955,128,4,31048:0:0:0:0:
320,192,31048,128,0,31140:0:0:0:0:
192,192,31140,128,0,31233:0:0:0:0:
320,192,31233,128,0,31325:0:0:0:0:
64,192,31325,128,8,31418:0:0:0:0:
192,192,31325,128,0,31418:0:0:0:0:
320,192,31511,128,0,31603:0:0:0:0:
448,192,31511,128,0,31603:0:0:0:0:
192,192,31603,128,0,31696:0:0:0:0:
320,192,31696,128,0,31788:0:0:0:0:
192,192,31788,128,0,31881:0:0:0:0:
64,192,31881,128,2,31974:0:0:0:0:
448,192,31881,128,0,31974:0:0:0:0:
192,192,32066,128,8,32159:0:0:0:0:
320,192,32066,128,0,32159:0:0:0:0:
448,192,32159,128,0,32251:0:0:0:0:
192,192,32251,128,0,32344:0:0:0:0:
64,192,32344,128,0,32437:0:0:0:0:
320,192,32437,128,2,32529:0:0:0:0:
448,192,32437,128,0,32529:0:0:0:0:
64,192,32622,128,0,32714:0:0:0:0:
192,192,32622,128,0,32714:0:0:0:0:
448,192,32714,128,0,32807:0:0:0:0:
320,192,32807,128,8,32900:0:0:0:0:
64,192,32900,128,0,32992:0:0:0:0:
192,192,32992,128,0,33085:0:0:0:0:
320,192,32992,128,0,33085:0:0:0:0:
64,192,33177,128,2,33270:0:0:0:0:
448,192,33177,128,0,33270:0:0:0:0:
192,192,33270,128,0,33363:0:0:0:0:
320,192,33363,128,2,33455:0:0:0:0:
192,192,33455,128,0,33548:0:0:0:0:
320,192,33548,128,8,33733:0:0:0:0:
448,192,33548,128,0,33733:0:0:0:0:
64,192,33733,1,2,0:0:0:0:
192,192,33918,1,2,0:0:0:0:
448,192,33918,128,4,34474:0:0:0:0:
320,192,34103,1,2,0:0:0:0:
64,192,34288,1,2,0:0:0:0:
192,192,34288,1,0,0:0:0:0:
64,192,34474,128,2,35029:0:0:0:0:
320,192,34474,1,0,0:0:0:0:
192,192,34659,1,2,0:0:0:0:
448,192,34659,1,0,0:0:0:0:
448,192,34844,1,2,0:0:0:0:
192,192,35029,1,2,0:0:0:0:
320,192,35029,128,0,35770:0:0:0:0:
64,192,35214,1,2,0:0:0:0:
448,192,35400,1,2,0:0:0:0:
192,192,35400,1,0,0:0:0:0:
64,192,35585,1,2,0:0:0:0:
192,192,35770,1,2,0:0:0:0:
448,192,35770,128,0,36140:0:0:0:0:
320,192,35955,1,2,0:0:0:0:
64,192,36140,1,2,0:0:0:0:
192,192,36233,1,2,0:0:0:0:
448,192,36325,1,2,0:0:0:0:
320,192,36418,1,2,0:0:0:0:
64,192,36511,1,2,0:0:0:0:
192,192,36603,1,2,0:0:0:0:
448,192,36696,1,2,0:0:0:0:
320,192,36788,1,2,0:0:0:0:
64,192,36881,128,2,38363:0:0:0:0:
192,192,36881,1,0,0:0:0:0:
320,192,37066,1,0,0:0:0:0:
448,192,37251,1,0,0:0:0:0:
192,192,37437,1,0,0:0:0:0:
448,192,37622,1,0,0:0:0:50:Tom1.wav
320,192,37714,1,0,0:0:0:50:Tom2.wav
192,192,37900,1,0,0:0:0:0:
320,192,37992,1,8,0:0:0:0:
448,192,38177,1,0,0:0:0:0:
192,192,38363,1,4,0:0:0:0:
320,192,38363,1,2,0:0:0:0:
448,192,38363,128,0,39103:0:0:0:0:
64,192,38548,1,0,0:0:0:0:
320,192,38733,1,0,0:0:0:0:
64,192,38918,1,2,0:0:0:0:
192,192,38918,1,0,0:0:0:0:
64,192,39103,128,8,39659:0:0:0:0:
320,192,39103,1,0,0:0:0:0:
192,192,39381,1,0,0:0:0:0:
320,192,39474,1,0,0:0:0:0:
192,192,39566,1,0,0:0:0:0:
448,192,39659,1,0,0:0:0:0:
320,192,39721,1,0,0:0:0:0:
192,192,39782,1,0,0:0:0:0:
64,192,39844,1,2,0:0:0:0:
448,192,39844,128,0,40214:0:0:0:0:
320,192,40029,1,0,0:0:0:0:
192,192,40214,128,0,40585:0:0:0:0:
64,192,40400,1,2,0:0:0:0:
320,192,40400,1,0,0:0:0:0:
64,192,40585,1,8,0:0:0:0:
448,192,40585,128,0,40955:0:0:0:0:
320,192,40770,1,0,0:0:0:0:
64,192,40955,128,0,41325:0:0:0:0:
192,192,41140,1,0,0:0:0:0:
320,192,41325,128,2,41696:0:0:0:0:
448,192,41325,1,0,0:0:0:0:
192,192,41511,1,0,0:0:0:0:
64,192,41696,128,0,41788:0:0:0:0:
448,192,41788,128,0,41881:0:0:0:0:
192,192,41881,128,2,41974:0:0:0:0:
320,192,41974,128,0,42066:0:0:0:0:
64,192,42066,1,8,0:0:0:0:
448,192,42066,1,0,0:0:0:0:
192,192,42159,128,0,42251:0:0:0:0:
320,192,42251,128,0,42344:0:0:0:0:
448,192,42344,128,0,42437:0:0:0:0:
64,192,42437,128,0,42529:0:0:0:0:
192,192,42529,128,0,42622:0:0:0:0:
320,192,42622,128,0,42714:0:0:0:0:
448,192,42714,128,0,42807:0:0:0:0:
64,192,42807,128,2,43085:0:0:0:0:
192,192,42807,1,0,0:0:0:0:
448,192,43085,128,0,43363:0:0:0:0:
192,192,43177,1,0,0:0:0:0:
64,192,43363,1,2,0:0:0:0:
320,192,43363,128,0,43548:0:0:0:0:
192,192,43548,128,8,43825:0:0:0:0:
448,192,43548,1,0,0:0:0:0:
64,192,43825,128,0,44103:0:0:0:0:
448,192,43918,1,0,0:0:0:0:
320,192,44103,128,0,44288:0:0:0:0:
192,192,44288,1,2,0:0:0:0:
448,192,44288,128,0,45029:0:0:0:0:
320,192,44474,1,0,0:0:0:0:
64,192,44659,1,0,0:0:0:0:
192,192,44844,1,2,0:0:0:0:
320,192,44844,1,0,0:0:0:0:
64,192,45029,128,8,45122:0:0:0:0:
192,192,45029,1,0,0:0:0:0:
320,192,45122,128,0,45307:0:0:0:0:
448,192,45307,128,0,45585:0:0:0:0:
192,192,45400,1,0,0:0:0:0:
64,192,45585,128,0,45770:0:0:0:0:
320,192,45770,128,2,46140:0:0:0:0:
448,192,45770,1,0,0:0:0:0:
192,192,45955,1,0,0:0:0:0:
448,192,46140,128,0,46511:0:0:0:0:
64,192,46325,1,2,0:0:0:0:
192,192,46325,1,0,0:0:0:0:
64,192,46511,128,8,46881:0:0:0:0:
320,192,46511,1,0,0:0:0:0:
192,192,46696,1,0,0:0:0:0:
320,192,46881,128,0,47251:0:0:0:0:
448,192,47066,128,0,47251:0:0:0:0:
64,192,47251,1,2,0:0:0:0:
192,192,47251,128,0,47622:0:0:0:0:
320,192,47437,1,0,0:0:0:0:
448,192,47622,128,0,47714:0:0:0:0:
64,192,47714,128,0,47807:0:0:0:0:
320,192,47807,128,2,47900:0:0:0:0:
192,192,47900,128,0,47992:0:0:0:0:
64,192,47992,1,8,0:0:0:0:
448,192,47992,1,0,0:0:0:0:
320,192,48085,128,0,48177:0:0:0:0:
192,192,48177,128,0,48270:0:0:0:0:
320,192,48270,128,0,48363:0:0:0:0:
448,192,48363,128,0,48455:0:0:0:0:
64,192,48455,128,0,48548:0:0:0:0:
192,192,48548,128,0,48640:0:0:0:0:
448,192,48640,128,0,48733:0:0:0:0:
64,192,48733,1,2,0:0:0:0:
320,192,48733,128,0,49011:0:0:0:0:
64,192,49011,128,0,49288:0:0:0:0:
320,192,49103,1,2,0:0:0:0:
448,192,49103,1,0,0:0:0:0:
192,192,49288,128,0,49474:0:0:0:0:
320,192,49474,1,8,0:0:0:0:
448,192,49474,128,0,49659:0:0:0:0:
64,192,49659,128,2,49844:0:0:0:0:
192,192,49751,1,2,0:0:0:0:
320,192,49844,1,8,0:0:0:0:
448,192,49844,128,0,50029:0:0:0:0:
64,192,50029,128,2,50214:0:0:0:0:
192,192,50029,1,0,0:0:0:0:
448,192,50214,128,0,50492:0:0:0:0:
320,192,50307,1,0,0:0:0:0:
64,192,50400,1,0,0:0:0:0:
192,192,50492,128,0,50770:0:0:0:0:
320,192,50585,1,0,0:0:0:0:
64,192,50770,128,0,50955:0:0:0:0:
192,192,50955,1,8,0:0:0:0:
448,192,50955,128,0,51233:0:0:0:0:
192,192,51233,128,0,51511:0:0:0:0:
320,192,51325,1,2,0:0:0:0:
448,192,51325,1,0,0:0:0:0:
64,192,51511,128,0,51696:0:0:0:0:
448,192,51696,128,0,51974:0:0:0:0:
192,192,51974,128,0,52251:0:0:0:0:
320,192,52066,1,2,0:0:0:0:
448,192,52066,1,0,0:0:0:0:
64,192,52251,128,0,52437:0:0:0:0:
192,192,52437,1,8,0:0:0:0:
448,192,52437,128,0,52714:0:0:0:0:
192,192,52714,128,0,52992:0:0:0:0:
320,192,52807,1,0,0:0:0:0:
64,192,52992,128,0,53177:0:0:0:0:
320,192,53177,1,2,0:0:0:0:
448,192,53177,128,0,53455:0:0:0:0:
192,192,53455,128,0,53733:0:0:0:0:
64,192,53548,1,0,0:0:0:0:
320,192,53733,128,0,53918:0:0:0:0:
64,192,53918,1,8,0:0:0:0:
448,192,53918,128,0,54196:0:0:0:0:
64,192,54196,128,0,54474:0:0:0:0:
192,192,54288,1,2,0:0:0:0:
448,192,54288,1,0,0:0:0:0:
320,192,54474,128,0,54659:0:0:0:0:
64,192,54659,128,0,55029:0:0:0:0:
320,192,54844,1,0,0:0:0:0:
192,192,55029,1,2,0:0:0:0:
448,192,55029,1,0,0:0:0:0:
320,192,55214,1,0,0:0:0:0:
64,192,55400,128,8,55585:0:0:0:0:
448,192,55400,1,0,0:0:0:0:
320,192,55585,128,0,55770:0:0:0:0:
192,192,55770,128,0,55955:0:0:0:0:
448,192,55955,128,0,56140:0:0:0:0:
64,192,56140,128,2,56418:0:0:0:0:
192,192,56140,1,0,0:0:0:0:
320,192,56418,128,0,56696:0:0:0:0:
192,192,56511,1,0,0:0:0:0:
448,192,56696,128,0,56881:0:0:0:0:
64,192,56881,128,8,57159:0:0:0:0:
320,192,56881,1,0,0:0:0:0:
320,192,57159,128,0,57437:0:0:0:0:
64,192,57251,1,2,0:0:0:0:
192,192,57251,1,0,0:0:0:0:
448,192,57437,128,0,57622:0:0:0:0:
64,192,57622,128,0,57900:0:0:0:0:
320,192,57900,128,0,58177:0:0:0:0:
64,192,57992,1,2,0:0:0:0:
192,192,57992,1,0,0:0:0:0:
448,192,58177,128,0,58363:0:0:0:0:
64,192,58363,1,8,0:0:0:0:
192,192,58363,128,0,58640:0:0:0:0:
320,192,58640,128,0,58918:0:0:0:0:
448,192,58733,1,0,0:0:0:0:
64,192,58918,128,0,59103:0:0:0:0:
192,192,59103,1,2,0:0:0:0:
448,192,59103,128,0,59659:0:0:0:0:
320,192,59288,1,0,0:0:0:0:
192,192,59474,1,0,0:0:0:0:
64,192,59659,128,0,59844:0:0:0:0:
320,192,59844,128,0,60400:0:0:0:0:
448,192,59844,1,0,0:0:0:0:
192,192,60029,1,0,0:0:0:0:
64,192,60214,1,0,0:0:0:0:
448,192,60400,128,0,60585:0:0:0:0:
64,192,60585,128,0,60955:0:0:0:0:
192,192,60585,1,0,0:0:0:0:
320,192,60770,1,0,0:0:0:0:
448,192,60955,1,0,0:0:0:0:
192,192,61140,1,0,0:0:0:0:
320,192,61325,128,0,61696:0:0:0:0:
448,192,61325,128,0,61696:0:0:0:0:
64,192,61511,1,0,0:0:0:0:
64,192,61696,128,0,61974:0:0:0:0:
192,192,61696,128,0,61974:0:0:0:0:
192,192,62066,1,2,0:0:0:0:
320,192,62066,1,4,0:0:0:0:
448,192,62066,128,0,62437:0:0:0:0:
64,192,62437,1,8,0:0:0:0:
192,192,62437,1,0,0:0:0:0:
320,192,62622,1,0,0:0:0:0:
64,192,62807,128,0,62992:0:0:0:0:
320,192,62992,1,2,0:0:0:0:
448,192,62992,128,0,63177:0:0:0:0:
64,192,63177,1,8,0:0:0:0:
192,192,63177,1,0,0:0:0:0:
320,192,63363,128,0,63548:0:0:0:0:
64,192,63548,1,2,0:0:0:0:
448,192,63548,1,0,0:0:0:0:
192,192,63733,128,0,63918:0:0:0:0:
320,192,63918,1,8,0:0:0:0:
448,192,63918,1,0,0:0:0:0:
64,192,64103,1,0,0:0:0:0:
448,192,64288,128,0,64659:0:0:0:0:
64,192,64474,1,2,0:0:0:0:
192,192,64474,1,0,0:0:0:0:
64,192,64659,128,8,65029:0:0:0:0:
320,192,64659,1,0,0:0:0:0:
192,192,64844,1,0,0:0:0:0:
320,192,65029,128,2,65400:0:0:0:0:
448,192,65029,1,0,0:0:0:0:
64,192,65400,1,8,0:0:0:0:
192,192,65400,1,0,0:0:0:0:
448,192,65585,1,0,0:0:0:0:
64,192,65770,128,0,65955:0:0:0:0:
320,192,65955,1,2,0:0:0:0:
448,192,65955,128,0,66140:0:0:0:0:
64,192,66140,1,8,0:0:0:0:
192,192,66140,1,0,0:0:0:0:
320,192,66325,128,0,66511:0:0:0:0:
192,192,66511,1,2,0:0:0:0:
448,192,66511,1,0,0:0:0:0:
64,192,66696,128,0,66881:0:0:0:0:
320,192,66881,1,8,0:0:0:0:
448,192,66881,1,0,0:0:0:0:
192,192,67066,1,0,0:0:0:0:
320,192,67251,128,0,67622:0:0:0:0:
64,192,67437,1,2,0:0:0:0:
448,192,67437,1,0,0:0:0:0:
64,192,67622,128,8,67992:0:0:0:0:
192,192,67622,1,4,0:0:0:0:
320,192,67714,1,2,0:0:0:0:
448,192,67714,1,0,0:0:0:0:
192,192,67900,1,0,0:0:0:0:
320,192,67992,1,2,0:0:0:0:
448,192,67992,128,4,68363:0:0:0:0:
64,192,68363,1,8,0:0:0:0:
192,192,68363,1,0,0:0:0:0:
320,192,68548,1,0,0:0:0:0:
192,192,68733,128,0,68918:0:0:0:0:
320,192,68918,1,2,0:0:0:0:
448,192,68918,128,0,69103:0:0:0:0:
64,192,69103,1,8,0:0:0:0:
192,192,69103,1,0,0:0:0:0:
320,192,69288,128,0,69474:0:0:0:0:
64,192,69474,1,2,0:0:0:0:
448,192,69474,1,0,0:0:0:0:
192,192,69659,128,0,69844:0:0:0:0:
320,192,69844,1,8,0:0:0:0:
448,192,69844,1,0,0:0:0:0:
64,192,70029,128,4,70214:0:0:0:0:
192,192,70029,1,0,0:0:0:0:
320,192,70214,1,0,0:0:0:0:
192,192,70400,1,2,0:0:0:0:
448,192,70400,128,0,70585:0:0:0:0:
64,192,70585,1,8,0:0:0:0:
320,192,70585,1,4,0:0:0:0:
448,192,70770,1,0,0:0:0:0:
64,192,70955,128,4,71140:0:0:0:0:
192,192,70955,1,2,0:0:0:0:
320,192,71140,128,0,71325:0:0:0:0:
192,192,71325,1,8,0:0:0:0:
448,192,71325,1,0,0:0:0:0:
64,192,71511,128,0,71696:0:0:0:0:
320,192,71696,1,0,0:0:0:0:
192,192,71881,1,2,0:0:0:0:
448,192,71881,128,0,72066:0:0:0:0:
64,192,72066,1,8,0:0:0:0:
320,192,72066,1,0,0:0:0:0:
192,192,72251,1,2,0:0:0:0:
320,192,72344,1,2,0:0:0:0:
64,192,72437,128,2,72807:0:0:0:0:
192,192,72437,1,4,0:0:0:0:
448,192,72437,1,0,0:0:0:0:
320,192,72622,1,2,0:0:0:0:
448,192,72622,1,0,0:0:0:0:
192,192,72807,1,0,0:0:0:0:
64,192,72992,1,2,0:0:0:0:
320,192,72992,1,0,0:0:0:0:
448,192,73177,128,0,73548:0:0:0:0:
192,192,73363,1,2,0:0:0:0:
320,192,73363,1,0,0:0:0:0:
64,192,73548,128,8,73918:0:0:0:0:
192,192,73548,1,0,0:0:0:0:
320,192,73733,1,0,0:0:0:0:
192,192,73918,128,2,74288:0:0:0:0:
320,192,73918,1,4,0:0:0:0:
448,192,73918,1,0,0:0:0:0:
448,192,74103,1,0,0:0:0:0:
64,192,74288,1,8,0:0:0:0:
320,192,74288,1,0,0:0:0:0:
448,192,74474,1,0,0:0:0:0:
64,192,74659,128,2,75029:0:0:0:0:
192,192,74659,1,0,0:0:0:0:
320,192,74844,1,0,0:0:0:0:
192,192,75029,1,8,0:0:0:0:
448,192,75029,128,0,75400:0:0:0:0:
320,192,75214,1,0,0:0:0:0:
64,192,75400,1,2,0:0:0:0:
192,192,75400,128,0,75770:0:0:0:0:
320,192,75585,1,0,0:0:0:0:
64,192,75770,1,8,0:0:0:0:
448,192,75770,1,0,0:0:0:0:
192,192,75955,1,0,0:0:0:0:
320,192,76140,128,2,76511:0:0:0:0:
448,192,76140,1,0,0:0:0:0:
192,192,76325,1,0,0:0:0:0:
64,192,76511,128,8,76881:0:0:0:0:
448,192,76511,1,0,0:0:0:0:
192,192,76696,1,0,0:0:0:0:
320,192,76881,128,2,77251:0:0:0:0:
448,192,76881,1,0,0:0:0:0:
64,192,77066,1,0,0:0:0:0:
192,192,77251,128,8,77622:0:0:0:0:
448,192,77251,1,0,0:0:0:0:
320,192,77437,1,0,0:0:0:0:
64,192,77622,1,2,0:0:0:0:
448,192,77622,128,0,77992:0:0:0:0:
192,192,77807,1,0,0:0:0:0:
64,192,77992,1,8,0:0:0:0:
320,192,77992,128,0,78363:0:0:0:0:
448,192,78177,1,0,0:0:0:0:
64,192,78363,128,2,78733:0:0:0:0:
192,192,78363,1,0,0:0:0:0:
320,192,78548,1,0,0:0:0:0:
192,192,78733,1,8,0:0:0:0:
448,192,78733,1,0,0:0:0:0:
320,192,78918,1,0,0:0:0:0:
64,192,79103,1,2,0:0:0:0:
448,192,79103,128,0,79474:0:0:0:0:
192,192,79288,1,0,0:0:0:0:
64,192,79474,128,8,79844:0:0:0:0:
320,192,79474,1,0,0:0:0:0:
448,192,79659,1,2,0:0:0:0:
192,192,79844,1,2,0:0:0:0:
320,192,79844,128,0,80214:0:0:0:0:
64,192,80029,1,0,0:0:0:0:
192,192,80214,1,8,0:0:0:0:
448,192,80214,128,0,80585:0:0:0:0:
320,192,80400,1,0,0:0:0:0:
64,192,80585,128,2,80955:0:0:0:0:
192,192,80585,1,0,0:0:0:0:
320,192,80770,1,0,0:0:0:0:
320,192,80955,128,8,81325:0:0:0:0:
448,192,80955,1,0,0:0:0:0:
192,192,81140,1,0,0:0:0:0:
64,192,81325,128,2,81696:0:0:0:0:
448,192,81325,1,0,0:0:0:0:
192,192,81511,1,0,0:0:0:0:
320,192,81696,1,8,0:0:0:0:
448,192,81696,128,0,82066:0:0:0:0:
192,192,81881,1,0,0:0:0:0:
64,192,82066,1,2,0:0:0:0:
192,192,82066,128,0,82437:0:0:0:0:
320,192,82251,1,0,0:0:0:0:
64,192,82437,1,8,0:0:0:0:
448,192,82437,1,0,0:0:0:0:
320,192,82622,1,0,0:0:0:0:
64,192,82807,1,2,0:0:0:0:
192,192,82807,1,4,0:0:0:0:
448,192,82807,128,0,83177:0:0:0:0:
320,192,82992,1,0,0:0:0:0:
64,192,83177,128,0,83548:0:0:0:0:
192,192,83363,1,2,0:0:0:0:
448,192,83363,1,0,0:0:0:0:
320,192,83548,128,8,83918:0:0:0:0:
448,192,83548,1,0,0:0:0:0:
64,192,83733,1,2,0:0:0:0:
192,192,83733,1,0,0:0:0:0:
192,192,83918,128,0,84288:0:0:0:0:
320,192,84103,1,2,0:0:0:0:
448,192,84103,1,0,0:0:0:0:
64,192,84288,1,4,0:0:0:0:
320,192,84288,1,8,0:0:0:0:
448,192,84288,128,0,84659:0:0:0:0:
64,192,84659,1,2,0:0:0:0:
192,192,84659,1,0,0:0:0:0:
320,192,84844,1,0,0:0:0:0:
64,192,85029,128,8,85400:0:0:0:0:
448,192,85029,1,0,0:0:0:0:
192,192,85214,1,0,0:0:0:0:
448,192,85400,128,0,85770:0:0:0:0:
320,192,85585,1,0,0:0:0:0:
64,192,85770,128,0,88363:0:0:0:0:
192,192,85770,128,0,88177:0:0:0:0:
