osu file format v14

[General]
AudioFilename: audio.mp3
AudioLeadIn: 0
PreviewTime: 50652
Countdown: 0
SampleSet: Normal
StackLeniency: 0.7
Mode: 1
LetterboxInBreaks: 0
WidescreenStoryboard: 0

[Editor]
DistanceSpacing: 0.3
BeatDivisor: 4
GridSize: 4
TimelineZoom: 1.7

[Metadata]
Title:People People feat. Nanahira
TitleUnicode:ピポピポ -People People- feat. ななひら
Artist:Neko Hacker
ArtistUnicode:Neko Hacker
Creator:Seren58
Version:People People
Source:
Tags:nnzn kawaii future rock j-pop jpop pop featured artist fa ピポピポチャレンジ pipopipo challenge ネコハッカー sera kassan かっさん confetto neko hacker Ⅱ: stray jrock j-rock electronic japanese
BeatmapID:3129317
BeatmapSetID:1529875

[Difficulty]
HPDrainRate:5
CircleSize:5
OverallDifficulty:6.5
ApproachRate:5
SliderMultiplier:1.4
SliderTickRate:1

[Events]
//Background and Video events
0,0,"bg.jpg",0,0
//Break Periods
//Storyboard Layer 0 (Background)
//Storyboard Layer 1 (Fail)
//Storyboard Layer 2 (Pass)
//Storyboard Layer 3 (Foreground)
//Storyboard Layer 4 (Overlay)
//Storyboard Sound Samples

[TimingPoints]
-425,260.869565217391,4,1,0,80,1,0
357,-100,4,1,0,80,0,0
422,-97.5609756097561,4,1,0,83,0,0
488,-95.2380952380952,4,1,0,85,0,0
553,-93.0232558139535,4,1,0,88,0,0
618,-90.9090909090909,4,1,0,90,0,0
7270,-88.8888888888889,4,1,0,93,0,0
7661,-86.9565217391304,4,1,0,95,0,0
8053,-85.1063829787234,4,1,0,98,0,0
8444,-83.3333333333333,4,1,0,100,0,0
8966,-90.9090909090909,4,1,0,90,0,0
12879,-80,4,1,0,100,0,0
13140,-86.9565217391304,4,1,0,90,0,0
17314,-100,4,1,0,80,0,0
25922,-100,4,1,0,80,0,0
26053,-99.6978851963746,4,1,0,80,0,0
26118,-99.3975903614458,4,1,0,80,0,0
26183,-99.0990990990991,4,1,0,80,0,0
26314,-98.8023952095808,4,1,0,80,0,0
26444,-98.5074626865672,4,1,0,80,0,0
26574,-98.2142857142857,4,1,0,80,0,0
26640,-97.9228486646884,4,1,0,80,0,0
26705,-97.6331360946746,4,1,0,80,0,0
26835,-97.3451327433628,4,1,0,80,0,0
26966,-97.0588235294118,4,1,0,80,0,0
27031,-96.7741935483871,4,1,0,80,0,0
27096,-96.4912280701754,4,1,0,80,0,0
27227,-96.2099125364432,4,1,0,80,0,0
27357,-95.9302325581395,4,1,0,80,0,0
27422,-95.6521739130435,4,1,0,80,0,0
27488,-95.3757225433526,4,1,0,80,0,0
27553,-95.1008645533141,4,1,0,80,0,0
27618,-94.8275862068966,4,1,0,80,0,0
27748,-94.5558739255014,4,1,0,80,0,0
27879,-94.2857142857143,4,1,0,80,0,0
27944,-94.017094017094,4,1,0,80,0,0
28009,-93.75,4,1,0,80,0,0
28140,-93.4844192634561,4,1,0,80,0,0
28205,-93.2203389830509,4,1,0,80,0,0
28270,-92.9577464788732,4,1,0,80,0,0
28401,-92.6966292134831,4,1,0,80,0,0
28531,-92.436974789916,4,1,0,80,0,0
28596,-92.1787709497207,4,1,0,80,0,0
28661,-91.9220055710306,4,1,0,80,0,0
28792,-91.6666666666667,4,1,0,80,0,0
28922,-91.4127423822715,4,1,0,80,0,0
28966,-91.1602209944751,4,1,0,80,0,0
29009,-90.9090909090909,4,1,0,80,0,0
29053,-90.6593406593407,4,1,0,80,0,0
29183,-90.4109589041096,4,1,0,80,0,0
29314,-90.1639344262295,4,1,0,80,0,0
29379,-89.9182561307902,4,1,0,80,0,0
29444,-89.6739130434783,4,1,0,80,0,0
29509,-89.4308943089431,4,1,0,80,0,0
29574,-89.1891891891892,4,1,0,80,0,0
29705,-88.9487870619946,4,1,0,80,0,0
29835,-88.7096774193548,4,1,0,80,0,0
29901,-88.4718498659517,4,1,0,80,0,0
29966,-88.2352941176471,4,1,0,80,0,0
30096,-88,4,1,0,80,0,0
30227,-87.7659574468085,4,1,0,80,0,0
30292,-87.5331564986737,4,1,0,80,0,0
30357,-87.3015873015873,4,1,0,80,0,0
30422,-87.0712401055409,4,1,0,80,0,0
30488,-86.8421052631579,4,1,0,80,0,0
30618,-86.6141732283465,4,1,0,80,0,0
30748,-86.3874345549738,4,1,0,80,0,0
30814,-86.1618798955614,4,1,0,80,0,0
30879,-85.9375,4,1,0,80,0,0
30944,-85.7142857142857,4,1,0,80,0,0
31009,-85.4922279792746,4,1,0,80,0,0
31140,-85.2713178294574,4,1,0,80,0,0
31270,-85.0515463917526,4,1,0,80,0,0
31335,-84.8329048843188,4,1,0,80,0,0
31401,-84.6153846153846,4,1,0,80,0,0
31466,-84.3989769820972,4,1,0,80,0,0
31531,-84.1836734693878,4,1,0,80,0,0
31661,-83.969465648855,4,1,0,80,0,0
31792,-83.756345177665,4,1,0,80,0,0
31857,-83.5443037974684,4,1,0,80,0,0
31922,-83.3333333333333,4,1,0,80,0,0
33357,-86.2068965517241,4,1,0,80,0,0
33422,-87.719298245614,4,1,0,80,0,0
33488,-89.2857142857143,4,1,0,80,0,0
33618,-92.5925925925926,4,1,0,80,0,0
33748,-96.1538461538461,4,1,0,80,0,0
34009,-111.111111111111,4,1,0,70,0,0
41835,-105.263157894737,4,1,0,75,0,0
42357,-100,4,1,0,80,0,0
46661,-100,4,1,0,80,0,0
46792,-99.1735537190083,4,1,0,80,0,0
46922,-98.3606557377049,4,1,0,80,0,0
47053,-97.5609756097561,4,1,0,80,0,0
47118,-96.7741935483871,4,1,0,80,0,0
47183,-96,4,1,0,80,0,0
47314,-95.2380952380952,4,1,0,80,0,0
47444,-94.488188976378,4,1,0,80,0,0
47574,-93.75,4,1,0,80,0,0
47640,-93.0232558139535,4,1,0,80,0,0
47705,-92.3076923076923,4,1,0,80,0,0
47770,-91.6030534351145,4,1,0,80,0,0
47835,-90.9090909090909,4,1,0,80,0,0
47901,-90.2255639097744,4,1,0,80,0,0
47966,-89.5522388059701,4,1,0,80,0,0
48031,-88.8888888888889,4,1,0,80,0,0
48096,-88.2352941176471,4,1,0,80,0,0
48161,-87.5912408759124,4,1,0,80,0,0
48227,-86.9565217391304,4,1,0,80,0,0
48292,-86.3309352517986,4,1,0,80,0,0
48357,-85.7142857142857,4,1,0,80,0,0
48422,-85.1063829787234,4,1,0,80,0,0
48488,-84.5070422535211,4,1,0,80,0,0
48553,-83.9160839160839,4,1,0,80,0,0
48618,-83.3333333333333,4,1,0,80,0,0
48683,-25,4,1,0,80,0,0
49661,-125,4,1,0,80,0,0
50444,-71.4285714285714,4,1,0,100,0,0
50705,-86.9565217391304,4,1,0,100,0,1
56966,-86.9565217391304,4,1,0,90,0,0
57357,-88.8888888888889,4,1,0,90,0,0
57748,-90.9090909090909,4,1,0,90,0,0
58140,-93.0232558139535,4,1,0,90,0,0
58531,-95.2380952380952,4,1,0,90,0,0
59053,-80,4,1,0,100,0,0
59314,-83.3333333333333,4,1,0,100,0,0
59574,-86.9565217391304,4,1,0,100,0,1
65314,-71.4285714285714,4,1,0,100,0,1
65705,-74.0740740740741,4,1,0,100,0,1
66096,-76.9230769230769,4,1,0,100,0,1
66357,-78.7401574803149,4,1,0,100,0,1
66488,-80,4,1,0,100,0,1
66618,-81.3008130081301,4,1,0,100,0,1
66879,-83.3333333333333,4,1,0,100,0,1
67140,-71.4285714285714,4,1,0,100,0,1
67401,-90.9090909090909,4,1,0,90,0,0
69488,-86.9565217391304,4,1,0,90,0,0
71574,-90.9090909090909,4,1,0,90,0,0
75748,-111.111111111111,4,1,0,70,0,0
90227,-107.146683810136,4,1,0,73,0,0
90292,-103.455410717981,4,1,0,77,0,0
90357,-100,4,1,0,80,0,0
92444,-95.2380952380952,4,1,0,85,0,0
104966,-95.2380952380952,4,1,0,85,0,0
105096,-94.7368421052632,4,1,0,85,0,0
105161,-94.2408376963351,4,1,0,85,0,0
105227,-93.75,4,1,0,85,0,0
105357,-93.2642487046632,4,1,0,85,0,0
105488,-92.7835051546392,4,1,0,85,0,0
105553,-92.3076923076923,4,1,0,85,0,0
105618,-91.8367346938775,4,1,0,85,0,0
105683,-91.3705583756345,4,1,0,85,0,0
105748,-90.9090909090909,4,1,0,85,0,0
105879,-90.4522613065327,4,1,0,85,0,0
106009,-90,4,1,0,85,0,0
106074,-89.5522388059701,4,1,0,85,0,0
106140,-89.1089108910891,4,1,0,85,0,0
106205,-88.6699507389163,4,1,0,85,0,0
106270,-88.2352941176471,4,1,0,85,0,0
106335,-87.8048780487805,4,1,0,85,0,0
106401,-87.378640776699,4,1,0,85,0,0
106466,-86.9565217391304,4,1,0,85,0,0
106531,-86.5384615384615,4,1,0,85,0,0
106596,-86.1244019138756,4,1,0,85,0,0
106661,-85.7142857142857,4,1,0,85,0,0
106727,-85.3080568720379,4,1,0,85,0,0
106792,-84.9056603773585,4,1,0,85,0,0
106857,-84.5070422535211,4,1,0,85,0,0
106922,-84.1121495327103,4,1,0,85,0,0
106988,-83.7209302325581,4,1,0,85,0,0
107053,-83.3333333333333,4,1,0,85,0,0
107118,-25,4,1,0,85,0,0
108096,-125,4,1,0,80,0,0
108879,-71.4285714285714,4,1,0,100,0,0
109140,-86.9565217391304,4,1,0,100,0,1
115401,-86.9565217391304,4,1,0,90,0,0
115792,-88.8888888888889,4,1,0,90,0,0
116183,-90.9090909090909,4,1,0,90,0,0
116574,-93.0232558139535,4,1,0,90,0,0
116966,-95.2380952380952,4,1,0,90,0,0
117488,-80,4,1,0,100,0,0
117748,-83.3333333333333,4,1,0,100,0,0
118009,-86.9565217391304,4,1,0,100,0,1
125835,-100,4,1,0,70,0,0
126227,-103.092783505155,4,1,0,67,0,0
126618,-106.382978723404,4,1,0,64,0,0
126879,-108.695652173913,4,1,0,62,0,0
127922,-117.647058823529,4,1,0,60,0,0
128314,-121.212121212121,4,1,0,60,0,0
128705,-125,4,1,0,60,0,0
128966,-128.205128205128,4,1,0,60,0,0
130009,-116.814159292035,4,1,0,80,0,0
130139,-115.992970123023,4,1,0,80,0,0
130269,-115.183246073298,4,1,0,80,0,0
130400,-114.384748700173,4,1,0,80,0,0
130530,-113.597246127367,4,1,0,80,0,0
130661,-112.820512820513,4,1,0,80,0,0
130791,-112.054329371817,4,1,0,80,0,0
130922,-111.298482293423,4,1,0,80,0,0
131052,-110.552763819095,4,1,0,80,0,0
131182,-109.81697171381,4,1,0,80,0,0
131313,-109.090909090909,4,1,0,80,0,0
131443,-108.374384236453,4,1,0,80,0,0
131574,-107.667210440457,4,1,0,80,0,0
131704,-106.969205834684,4,1,0,80,0,0
131835,-106.280193236715,4,1,0,80,0,0
131965,-105.6,4,1,0,80,0,0
132095,-104.928457869634,4,1,0,80,0,0
132226,-104.265402843602,4,1,0,80,0,0
132356,-103.610675039246,4,1,0,80,0,0
132487,-102.964118564743,4,1,0,80,0,0
132617,-102.325581395349,4,1,0,80,0,0
132748,-101.694915254237,4,1,0,80,0,0
132878,-101.071975497703,4,1,0,80,0,0
133009,-100.456621004566,4,1,0,80,0,0
133139,-99.8487140695915,4,1,0,80,0,0
133269,-99.2481203007519,4,1,0,80,0,0
133400,-98.6547085201794,4,1,0,80,0,0
133530,-98.0683506686478,4,1,0,80,0,0
133661,-97.4889217134416,4,1,0,80,0,0
133791,-96.9162995594714,4,1,0,80,0,0
133922,-96.3503649635037,4,1,0,80,0,0
134052,-95.7910014513788,4,1,0,80,0,0
134182,-95.2380952380952,4,1,0,100,0,0
142270,-71.4285714285714,4,1,0,100,0,0
142531,-90.9090909090909,4,1,0,90,0,0
149835,-76.9230769230769,4,1,0,90,0,0
150096,-80,4,1,0,90,0,0
150357,-83.3333333333333,4,1,0,90,0,0
150422,-84.5094228006423,4,1,0,90,0,0
150488,-85.7191839533688,4,1,0,90,0,0
150618,-86.9565217391304,4,1,0,90,0,0
150879,-90.9090909090909,4,1,0,90,0,0
158314,-92.5925925925926,4,1,0,90,0,0
158574,-96.1538461538461,4,1,0,90,0,0
158705,-98.0392156862745,4,1,0,90,0,0
158835,-100,4,1,0,90,0,0
159096,-108.108108108108,4,1,0,90,0,0
159227,-111.111111111111,4,1,0,80,0,0
167053,-90.9090909090908,4,1,0,90,0,0
167314,-95.2380952380952,4,1,0,85,0,0
167444,-97.5609756097561,4,1,0,83,0,0
167574,-100,4,1,0,80,0,0
175922,-142.857142857143,4,1,0,70,0,1
182053,-133.333333333333,4,1,0,70,0,1
182118,-129.032258064516,4,1,0,70,0,1
182183,-125,4,1,0,80,0,1
182248,-121.212121212121,4,1,0,80,0,1
182314,-117.647058823529,4,1,0,90,0,0
182574,-111.111111111111,4,1,0,90,0,0
182966,-105.263157894737,4,1,0,90,0,0
183357,-100,4,1,0,90,0,0
183748,-95.2380952380952,4,1,0,90,0,0
184270,-80,4,1,0,100,0,0
184531,-83.3333333333333,4,1,0,100,0,0
184792,-86.9565217391304,4,1,0,100,0,1
190531,-71.4285714285714,4,1,0,100,0,1
190922,-74.0740740740741,4,1,0,100,0,1
191313,-76.9230769230769,4,1,0,100,0,1
191574,-78.7401574803149,4,1,0,100,0,1
191705,-80,4,1,0,100,0,1
191835,-81.3008130081301,4,1,0,100,0,1
192096,-83.3333333333333,4,1,0,100,0,1
192357,-71.4285714285714,4,1,0,100,0,1
192618,-90.9090909090909,4,1,0,90,0,0
199270,-88.8888888888889,4,1,0,93,0,0
199661,-86.9565217391304,4,1,0,95,0,0
200053,-85.1063829787234,4,1,0,98,0,0
200444,-83.3333333333333,4,1,0,100,0,0
200966,-90.9090909090909,4,1,0,90,0,0
204879,-80,4,1,0,100,0,0
205140,-86.9565217391304,4,1,0,90,0,0

[HitObjects]
256,192,357,5,0,0:0:0:0:
256,192,422,1,0,0:0:0:0:
256,192,488,1,8,0:0:0:0:
256,192,553,1,8,0:0:0:0:
256,192,618,1,4,0:0:0:0:
256,192,748,1,8,0:0:0:0:
256,192,814,1,8,0:0:0:0:
256,192,879,1,0,0:0:0:0:
256,192,1009,1,8,0:0:0:0:
256,192,1140,1,0,0:0:0:0:
256,192,1205,1,0,0:0:0:0:
256,192,1270,1,8,0:0:0:0:
256,192,1335,1,0,0:0:0:0:
256,192,1401,1,8,0:0:0:0:
256,192,1531,1,0,0:0:0:0:
256,192,1661,1,8,0:0:0:0:
256,192,1727,1,0,0:0:0:0:
256,192,1792,1,0,0:0:0:0:
256,192,1922,1,8,0:0:0:0:
256,192,2053,1,8,0:0:0:0:
256,192,2183,1,0,0:0:0:0:
256,192,2248,1,0,0:0:0:0:
256,192,2314,1,8,0:0:0:0:
256,192,2379,1,0,0:0:0:0:
256,192,2444,1,8,0:0:0:0:
256,192,2509,1,8,0:0:0:0:
256,192,2574,1,0,0:0:0:0:
256,192,2705,1,8,0:0:0:0:
256,192,2835,1,8,0:0:0:0:
256,192,2901,1,8,0:0:0:0:
256,192,2966,1,0,0:0:0:0:
256,192,3096,1,8,0:0:0:0:
256,192,3227,1,0,0:0:0:0:
256,192,3292,1,0,0:0:0:0:
256,192,3357,1,8,0:0:0:0:
256,192,3422,1,0,0:0:0:0:
256,192,3488,1,8,0:0:0:0:
256,192,3618,1,8,0:0:0:0:
256,192,3748,1,0,0:0:0:0:
256,192,3814,1,0,0:0:0:0:
256,192,3879,1,8,0:0:0:0:
256,192,4009,1,0,0:0:0:0:
256,192,4140,1,8,0:0:0:0:
256,192,4205,1,0,0:0:0:0:
256,192,4270,1,0,0:0:0:0:
256,192,4335,1,0,0:0:0:0:
256,192,4401,1,8,0:0:0:0:
256,192,4466,1,0,0:0:0:0:
256,192,4531,1,8,0:0:0:0:
256,192,4661,1,0,0:0:0:0:
256,192,4792,1,8,0:0:0:0:
256,192,4922,1,0,0:0:0:0:
256,192,4988,1,0,0:0:0:0:
256,192,5053,1,0,0:0:0:0:
256,192,5183,1,8,0:0:0:0:
256,192,5314,1,0,0:0:0:0:
256,192,5379,1,8,0:0:0:0:
256,192,5444,1,8,0:0:0:0:
256,192,5509,1,0,0:0:0:0:
256,192,5574,1,8,0:0:0:0:
256,192,5705,1,0,0:0:0:0:
256,192,5835,1,8,0:0:0:0:
256,192,5966,1,0,0:0:0:0:
256,192,6031,1,0,0:0:0:0:
256,192,6096,1,8,0:0:0:0:
256,192,6161,1,8,0:0:0:0:
256,192,6227,1,0,0:0:0:0:
256,192,6357,1,8,0:0:0:0:
256,192,6488,1,0,0:0:0:0:
256,192,6553,1,0,0:0:0:0:
256,192,6618,1,8,0:0:0:0:
256,192,6748,1,8,0:0:0:0:
256,192,6792,1,8,0:0:0:0:
256,192,6835,1,8,0:0:0:0:
256,192,6879,1,0,0:0:0:0:
256,192,6944,1,0,0:0:0:0:
256,192,7009,1,8,0:0:0:0:
256,192,7074,1,8,0:0:0:0:
256,192,7140,1,0,0:0:0:0:
256,192,7270,1,0,0:0:0:0:
256,192,7335,1,0,0:0:0:0:
256,192,7401,1,8,0:0:0:0:
256,192,7466,1,8,0:0:0:0:
256,192,7531,1,0,0:0:0:0:
256,192,7661,1,0,0:0:0:0:
256,192,7727,1,0,0:0:0:0:
256,192,7792,1,8,0:0:0:0:
256,192,7857,1,8,0:0:0:0:
256,192,7922,1,0,0:0:0:0:
256,192,8053,1,0,0:0:0:0:
256,192,8096,1,8,0:0:0:0:
256,192,8140,1,8,0:0:0:0:
256,192,8183,1,0,0:0:0:0:
256,192,8248,1,8,0:0:0:0:
256,192,8314,1,0,0:0:0:0:
256,192,8444,1,8,0:0:0:0:
256,192,8509,1,8,0:0:0:0:
256,192,8574,1,0,0:0:0:0:
256,192,8640,1,0,0:0:0:0:
256,192,8705,1,12,0:0:0:0:
256,192,8966,1,4,0:0:0:0:
256,192,9096,1,0,0:0:0:0:
256,192,9161,1,0,0:0:0:0:
256,192,9227,1,8,0:0:0:0:
256,192,9357,1,0,0:0:0:0:
256,192,9488,1,8,0:0:0:0:
256,192,9553,1,8,0:0:0:0:
256,192,9618,1,0,0:0:0:0:
256,192,9683,1,0,0:0:0:0:
256,192,9748,1,8,0:0:0:0:
256,192,9814,1,0,0:0:0:0:
256,192,9879,1,0,0:0:0:0:
256,192,10009,1,8,0:0:0:0:
256,192,10140,1,0,0:0:0:0:
256,192,10205,1,0,0:0:0:0:
256,192,10270,1,8,0:0:0:0:
256,192,10335,1,8,0:0:0:0:
256,192,10401,1,0,0:0:0:0:
256,192,10466,1,8,0:0:0:0:
256,192,10531,1,0,0:0:0:0:
256,192,10661,1,8,0:0:0:0:
256,192,10727,1,0,0:0:0:0:
256,192,10792,1,8,0:0:0:0:
256,192,10857,1,8,0:0:0:0:
256,192,10922,1,0,0:0:0:0:
256,192,10988,1,8,0:0:0:0:
256,192,11053,1,0,0:0:0:0:
256,192,11118,1,0,0:0:0:0:
256,192,11183,1,8,0:0:0:0:
256,192,11314,1,0,0:0:0:0:
256,192,11379,1,8,0:0:0:0:
256,192,11444,1,0,0:0:0:0:
256,192,11509,1,0,0:0:0:0:
256,192,11574,1,8,0:0:0:0:
256,192,11705,1,0,0:0:0:0:
256,192,11770,1,0,0:0:0:0:
256,192,11835,1,8,0:0:0:0:
256,192,11966,1,0,0:0:0:0:
256,192,12096,1,8,0:0:0:0:
256,192,12161,1,8,0:0:0:0:
256,192,12227,1,8,0:0:0:0:
256,192,12292,1,8,0:0:0:0:
256,192,12357,1,0,0:0:0:0:
256,192,12422,1,0,0:0:0:0:
256,192,12488,1,0,0:0:0:0:
256,192,12553,1,0,0:0:0:0:
256,192,12618,1,8,0:0:0:0:
256,192,12661,1,8,0:0:0:0:
256,192,12705,1,8,0:0:0:0:
256,192,12748,1,0,0:0:0:0:
256,192,12879,1,12,0:0:0:0:
256,192,13140,1,4,0:0:0:0:
256,192,13270,1,0,0:0:0:0:
256,192,13335,1,0,0:0:0:0:
256,192,13401,1,8,0:0:0:0:
256,192,13531,1,8,0:0:0:0:
256,192,13661,1,0,0:0:0:0:
256,192,13792,1,0,0:0:0:0:
256,192,13857,1,0,0:0:0:0:
256,192,13922,1,8,0:0:0:0:
256,192,13988,1,8,0:0:0:0:
256,192,14053,1,0,0:0:0:0:
256,192,14183,1,0,0:0:0:0:
256,192,14314,1,0,0:0:0:0:
256,192,14379,1,0,0:0:0:0:
256,192,14444,1,8,0:0:0:0:
256,192,14574,1,8,0:0:0:0:
256,192,14705,1,0,0:0:0:0:
256,192,14770,1,0,0:0:0:0:
256,192,14835,1,0,0:0:0:0:
256,192,14966,1,8,0:0:0:0:
256,192,15096,1,8,0:0:0:0:
256,192,15140,1,8,0:0:0:0:
256,192,15183,1,8,0:0:0:0:
256,192,15227,1,0,0:0:0:0:
256,192,15422,1,4,0:0:0:0:
256,192,15618,1,4,0:0:0:0:
256,192,15748,1,8,0:0:0:0:
256,192,15879,1,8,0:0:0:0:
256,192,15922,1,8,0:0:0:0:
256,192,15966,1,8,0:0:0:0:
256,192,16009,1,0,0:0:0:0:
256,192,16205,1,4,0:0:0:0:
256,192,16401,1,4,0:0:0:0:
256,192,16531,1,8,0:0:0:0:
256,192,16661,1,8,0:0:0:0:
256,192,16705,1,8,0:0:0:0:
256,192,16748,1,8,0:0:0:0:
256,192,16792,1,0,0:0:0:0:
256,192,16922,1,4,0:0:0:0:
256,192,17314,1,4,0:0:0:0:
256,192,17444,1,0,0:0:0:0:
256,192,17509,1,0,0:0:0:0:
256,192,17574,1,8,0:0:0:0:
256,192,17705,1,8,0:0:0:0:
256,192,17835,1,0,0:0:0:0:
256,192,17966,1,8,0:0:0:0:
256,192,18031,1,0,0:0:0:0:
256,192,18096,1,8,0:0:0:0:
256,192,18227,1,8,0:0:0:0:
256,192,18357,1,0,0:0:0:0:
256,192,18488,1,8,0:0:0:0:
256,192,18553,1,8,0:0:0:0:
256,192,18618,1,0,0:0:0:0:
256,192,18748,1,8,0:0:0:0:
256,192,18814,1,0,0:0:0:0:
256,192,18879,1,0,0:0:0:0:
256,192,19009,1,8,0:0:0:0:
256,192,19140,1,0,0:0:0:0:
256,192,19205,1,0,0:0:0:0:
256,192,19270,1,8,0:0:0:0:
256,192,19335,1,8,0:0:0:0:
256,192,19401,1,0,0:0:0:0:
256,192,19531,1,0,0:0:0:0:
256,192,19596,1,0,0:0:0:0:
256,192,19661,1,8,0:0:0:0:
256,192,19792,1,8,0:0:0:0:
256,192,19922,1,0,0:0:0:0:
256,192,20053,1,8,0:0:0:0:
256,192,20118,1,8,0:0:0:0:
256,192,20183,1,0,0:0:0:0:
256,192,20248,1,0,0:0:0:0:
256,192,20314,1,8,0:0:0:0:
256,192,20444,1,0,0:0:0:0:
256,192,20574,1,8,0:0:0:0:
256,192,20618,1,8,0:0:0:0:
256,192,20661,1,8,0:0:0:0:
256,192,20705,1,0,0:0:0:0:
256,192,20835,1,8,0:0:0:0:
256,192,20966,1,0,0:0:0:0:
256,192,21031,1,0,0:0:0:0:
256,192,21096,1,8,0:0:0:0:
256,192,21161,1,8,0:0:0:0:
256,192,21227,1,0,0:0:0:0:
256,192,21357,1,8,0:0:0:0:
256,192,21488,1,0,0:0:0:0:
256,192,21618,1,0,0:0:0:0:
256,192,21683,1,0,0:0:0:0:
256,192,21748,1,8,0:0:0:0:
256,192,21879,1,0,0:0:0:0:
256,192,21944,1,8,0:0:0:0:
256,192,22009,1,0,0:0:0:0:
256,192,22074,1,0,0:0:0:0:
256,192,22140,1,8,0:0:0:0:
256,192,22270,1,0,0:0:0:0:
256,192,22401,1,8,0:0:0:0:
256,192,22466,1,8,0:0:0:0:
256,192,22531,1,0,0:0:0:0:
256,192,22596,1,0,0:0:0:0:
256,192,22661,1,0,0:0:0:0:
256,192,22792,1,8,0:0:0:0:
256,192,22922,1,0,0:0:0:0:
256,192,22988,1,8,0:0:0:0:
256,192,23053,1,8,0:0:0:0:
256,192,23118,1,8,0:0:0:0:
256,192,23183,1,0,0:0:0:0:
256,192,23314,1,8,0:0:0:0:
256,192,23444,1,0,0:0:0:0:
256,192,23509,1,0,0:0:0:0:
256,192,23574,1,8,0:0:0:0:
256,192,23705,1,0,0:0:0:0:
256,192,23835,1,8,0:0:0:0:
256,192,23901,1,0,0:0:0:0:
256,192,23966,1,8,0:0:0:0:
256,192,24096,1,0,0:0:0:0:
256,192,24227,1,8,0:0:0:0:
256,192,24292,1,8,0:0:0:0:
256,192,24357,1,0,0:0:0:0:
256,192,24422,1,0,0:0:0:0:
256,192,24488,1,8,0:0:0:0:
256,192,24553,1,8,0:0:0:0:
256,192,24618,1,0,0:0:0:0:
256,192,24748,1,8,0:0:0:0:
256,192,24814,1,0,0:0:0:0:
256,192,24879,1,0,0:0:0:0:
256,192,25009,1,8,0:0:0:0:
256,192,25140,1,0,0:0:0:0:
256,192,25205,1,0,0:0:0:0:
256,192,25270,1,8,0:0:0:0:
256,192,25335,1,0,0:0:0:0:
256,192,25401,1,0,0:0:0:0:
256,192,25531,1,8,0:0:0:0:
256,192,25596,1,8,0:0:0:0:
256,192,25661,1,0,0:0:0:0:
256,192,25922,1,8,0:0:0:0:
256,192,26053,1,8,0:0:0:0:
256,192,26118,1,8,0:0:0:0:
256,192,26183,1,0,0:0:0:0:
256,192,26314,1,0,0:0:0:0:
256,192,26444,1,8,0:0:0:0:
256,192,26574,1,0,0:0:0:0:
256,192,26640,1,0,0:0:0:0:
256,192,26705,1,0,0:0:0:0:
256,192,26835,1,8,0:0:0:0:
256,192,26966,1,0,0:0:0:0:
256,192,27031,1,0,0:0:0:0:
256,192,27096,1,8,0:0:0:0:
256,192,27227,1,0,0:0:0:0:
256,192,27357,1,8,0:0:0:0:
256,192,27422,1,8,0:0:0:0:
256,192,27488,1,0,0:0:0:0:
256,192,27553,1,0,0:0:0:0:
256,192,27618,1,8,0:0:0:0:
256,192,27748,1,0,0:0:0:0:
256,192,27879,1,8,0:0:0:0:
256,192,27944,1,0,0:0:0:0:
256,192,28009,1,8,0:0:0:0:
256,192,28140,1,8,0:0:0:0:
256,192,28205,1,8,0:0:0:0:
256,192,28270,1,0,0:0:0:0:
256,192,28401,1,8,0:0:0:0:
256,192,28531,1,0,0:0:0:0:
256,192,28596,1,0,0:0:0:0:
256,192,28661,1,8,0:0:0:0:
256,192,28792,1,0,0:0:0:0:
256,192,28922,1,8,0:0:0:0:
256,192,28966,1,8,0:0:0:0:
256,192,29009,1,8,0:0:0:0:
256,192,29053,1,0,0:0:0:0:
256,192,29183,1,8,0:0:0:0:
256,192,29314,1,0,0:0:0:0:
256,192,29379,1,0,0:0:0:0:
256,192,29444,1,0,0:0:0:0:
256,192,29509,1,0,0:0:0:0:
256,192,29574,1,8,0:0:0:0:
256,192,29705,1,8,0:0:0:0:
256,192,29835,1,0,0:0:0:0:
256,192,29901,1,8,0:0:0:0:
256,192,29966,1,0,0:0:0:0:
256,192,30096,1,8,0:0:0:0:
256,192,30227,1,0,0:0:0:0:
256,192,30292,1,0,0:0:0:0:
256,192,30357,1,8,0:0:0:0:
256,192,30422,1,0,0:0:0:0:
256,192,30488,1,8,0:0:0:0:
256,192,30618,1,0,0:0:0:0:
256,192,30748,1,8,0:0:0:0:
256,192,30814,1,8,0:0:0:0:
256,192,30879,1,0,0:0:0:0:
256,192,30944,1,0,0:0:0:0:
256,192,31009,1,8,0:0:0:0:
256,192,31140,1,0,0:0:0:0:
256,192,31270,1,8,0:0:0:0:
256,192,31335,1,0,0:0:0:0:
256,192,31401,1,0,0:0:0:0:
256,192,31466,1,0,0:0:0:0:
256,192,31531,1,8,0:0:0:0:
256,192,31661,1,0,0:0:0:0:
256,192,31792,1,8,0:0:0:0:
256,192,31857,1,8,0:0:0:0:
256,192,31922,1,0,0:0:0:0:
256,192,32053,1,4,0:0:0:0:
256,192,32314,1,12,0:0:0:0:
256,192,32444,1,12,0:0:0:0:
256,192,32705,1,4,0:0:0:0:
256,192,32835,1,4,0:0:0:0:
256,192,33096,1,12,0:0:0:0:
256,192,33227,1,12,0:0:0:0:
256,192,33357,1,0,0:0:0:0:
256,192,33422,1,0,0:0:0:0:
256,192,33488,1,8,0:0:0:0:
256,192,33618,1,8,0:0:0:0:
256,192,33748,1,0,0:0:0:0:
256,192,34009,1,4,0:0:0:0:
256,192,34270,1,0,0:0:0:0:
256,192,34401,1,0,0:0:0:0:
256,192,34531,1,8,0:0:0:0:
256,192,34792,1,0,0:0:0:0:
256,192,34922,1,8,0:0:0:0:
256,192,34988,1,8,0:0:0:0:
256,192,35053,1,0,0:0:0:0:
256,192,35183,1,8,0:0:0:0:
256,192,35314,1,0,0:0:0:0:
256,192,35444,1,0,0:0:0:0:
256,192,35574,1,8,0:0:0:0:
256,192,35705,1,0,0:0:0:0:
256,192,35835,1,8,0:0:0:0:
256,192,35901,1,8,0:0:0:0:
256,192,35966,1,8,0:0:0:0:
256,192,36031,1,8,0:0:0:0:
256,192,36096,1,0,0:0:0:0:
256,192,36357,1,0,0:0:0:0:
256,192,36488,1,0,0:0:0:0:
256,192,36618,1,8,0:0:0:0:
256,192,36879,1,0,0:0:0:0:
256,192,37009,1,0,0:0:0:0:
256,192,37270,1,8,0:0:0:0:
256,192,37401,1,0,0:0:0:0:
256,192,37531,1,0,0:0:0:0:
256,192,37661,1,8,0:0:0:0:
256,192,37792,1,8,0:0:0:0:
256,192,37922,1,0,0:0:0:0:
256,192,38053,1,8,0:0:0:0:
256,192,38183,1,4,0:0:0:0:
256,192,38444,1,0,0:0:0:0:
256,192,38574,1,0,0:0:0:0:
256,192,38705,1,8,0:0:0:0:
256,192,38966,1,0,0:0:0:0:
256,192,39096,1,8,0:0:0:0:
256,192,39161,1,8,0:0:0:0:
256,192,39227,1,0,0:0:0:0:
256,192,39357,1,8,0:0:0:0:
256,192,39618,1,0,0:0:0:0:
256,192,39748,1,8,0:0:0:0:
256,192,39879,1,0,0:0:0:0:
256,192,40009,1,8,0:0:0:0:
256,192,40074,1,8,0:0:0:0:
256,192,40140,1,8,0:0:0:0:
256,192,40205,1,8,0:0:0:0:
256,192,40270,1,0,0:0:0:0:
256,192,40531,1,0,0:0:0:0:
256,192,40661,1,0,0:0:0:0:
256,192,40792,1,8,0:0:0:0:
256,192,41053,1,0,0:0:0:0:
256,192,41183,1,8,0:0:0:0:
256,192,41248,1,0,0:0:0:0:
256,192,41314,1,0,0:0:0:0:
256,192,41444,1,8,0:0:0:0:
256,192,41574,1,8,0:0:0:0:
256,192,41705,1,0,0:0:0:0:
256,192,41835,1,8,0:0:0:0:
256,192,41901,1,8,0:0:0:0:
256,192,41966,1,8,0:0:0:0:
256,192,42227,1,8,0:0:0:0:
256,192,42357,1,4,0:0:0:0:
256,192,42488,1,0,0:0:0:0:
256,192,42618,1,8,0:0:0:0:
256,192,42748,1,4,0:0:0:0:
256,192,42879,1,0,0:0:0:0:
256,192,43009,1,8,0:0:0:0:
256,192,43140,1,4,0:0:0:0:
256,192,43270,1,0,0:0:0:0:
256,192,43401,1,12,0:0:0:0:
256,192,43531,1,0,0:0:0:0:
256,192,43661,1,0,0:0:0:0:
256,192,43792,1,12,0:0:0:0:
256,192,43922,1,0,0:0:0:0:
256,192,44053,1,0,0:0:0:0:
256,192,44183,1,12,0:0:0:0:
256,192,44444,1,4,0:0:0:0:
256,192,44574,1,8,0:0:0:0:
256,192,44705,1,8,0:0:0:0:
256,192,44835,1,4,0:0:0:0:
256,192,44966,1,8,0:0:0:0:
256,192,45096,1,8,0:0:0:0:
256,192,45227,1,4,0:0:0:0:
256,192,45357,1,0,0:0:0:0:
256,192,45488,1,12,0:0:0:0:
256,192,45618,1,0,0:0:0:0:
256,192,45748,1,12,0:0:0:0:
256,192,45879,1,0,0:0:0:0:
256,192,46009,1,12,0:0:0:0:
256,192,46140,1,0,0:0:0:0:
256,192,46270,1,12,0:0:0:0:
256,192,46401,1,8,0:0:0:0:
256,192,46466,1,8,0:0:0:0:
256,192,46531,1,0,0:0:0:0:
256,192,46661,1,0,0:0:0:0:
256,192,46792,1,8,0:0:0:0:
256,192,46922,1,8,0:0:0:0:
256,192,47053,1,0,0:0:0:0:
256,192,47118,1,0,0:0:0:0:
256,192,47183,1,0,0:0:0:0:
256,192,47314,1,8,0:0:0:0:
256,192,47444,1,8,0:0:0:0:
256,192,47574,1,0,0:0:0:0:
256,192,47640,1,0,0:0:0:0:
256,192,47705,1,0,0:0:0:0:
256,192,47770,1,0,0:0:0:0:
256,192,47835,1,8,0:0:0:0:
256,192,47901,1,8,0:0:0:0:
256,192,47966,1,8,0:0:0:0:
256,192,48031,1,8,0:0:0:0:
256,192,48096,1,0,0:0:0:0:
256,192,48161,1,8,0:0:0:0:
256,192,48227,1,0,0:0:0:0:
256,192,48292,1,0,0:0:0:0:
256,192,48357,1,8,0:0:0:0:
256,192,48422,1,0,0:0:0:0:
256,192,48488,1,8,0:0:0:0:
256,192,48553,1,8,0:0:0:0:
256,192,48618,1,0,0:0:0:0:
256,192,48683,12,0,49531,0:0:0:0:
256,192,49661,5,8,0:0:0:0:
256,192,49922,1,0,0:0:0:0:
256,192,50183,1,8,0:0:0:0:
256,192,50444,1,12,0:0:0:0:
256,192,50705,1,4,0:0:0:0:
256,192,50835,1,8,0:0:0:0:
256,192,50966,1,4,0:0:0:0:
256,192,51096,1,8,0:0:0:0:
256,192,51227,1,4,0:0:0:0:
256,192,51357,1,0,0:0:0:0:
256,192,51488,1,12,0:0:0:0:
256,192,51618,1,0,0:0:0:0:
256,192,51748,1,12,0:0:0:0:
256,192,51879,1,8,0:0:0:0:
256,192,52009,1,12,0:0:0:0:
256,192,52140,1,0,0:0:0:0:
256,192,52270,1,12,0:0:0:0:
256,192,52401,1,8,0:0:0:0:
256,192,52531,1,4,0:0:0:0:
256,192,52792,1,4,0:0:0:0:
256,192,52922,1,8,0:0:0:0:
256,192,53053,1,4,0:0:0:0:
256,192,53183,1,8,0:0:0:0:
256,192,53314,1,4,0:0:0:0:
256,192,53444,1,0,0:0:0:0:
256,192,53574,1,12,0:0:0:0:
256,192,53705,1,0,0:0:0:0:
256,192,53835,1,12,0:0:0:0:
256,192,53966,1,0,0:0:0:0:
256,192,54031,1,0,0:0:0:0:
256,192,54096,1,8,0:0:0:0:
256,192,54227,1,0,0:0:0:0:
256,192,54357,1,8,0:0:0:0:
256,192,54422,1,0,0:0:0:0:
256,192,54488,1,0,0:0:0:0:
256,192,54553,1,0,0:0:0:0:
256,192,54618,1,8,0:0:0:0:
256,192,54748,1,8,0:0:0:0:
256,192,54879,1,4,0:0:0:0:
256,192,55009,1,8,0:0:0:0:
256,192,55140,1,4,0:0:0:0:
256,192,55270,1,8,0:0:0:0:
256,192,55401,1,12,0:0:0:0:
256,192,55531,1,0,0:0:0:0:
256,192,55661,1,12,0:0:0:0:
256,192,55792,1,0,0:0:0:0:
256,192,55922,1,12,0:0:0:0:
256,192,56053,1,0,0:0:0:0:
256,192,56183,1,4,0:0:0:0:
256,192,56314,1,0,0:0:0:0:
256,192,56444,1,12,0:0:0:0:
256,192,56574,1,8,0:0:0:0:
256,192,56705,1,4,0:0:0:0:
256,192,56835,1,0,0:0:0:0:
256,192,56901,1,0,0:0:0:0:
256,192,56966,1,8,0:0:0:0:
256,192,57031,1,8,0:0:0:0:
256,192,57096,1,8,0:0:0:0:
256,192,57161,1,8,0:0:0:0:
256,192,57227,1,0,0:0:0:0:
256,192,57357,1,8,0:0:0:0:
256,192,57422,1,8,0:0:0:0:
256,192,57488,1,8,0:0:0:0:
256,192,57553,1,0,0:0:0:0:
256,192,57618,1,0,0:0:0:0:
256,192,57748,1,8,0:0:0:0:
256,192,57814,1,8,0:0:0:0:
256,192,57879,1,0,0:0:0:0:
256,192,57944,1,0,0:0:0:0:
256,192,58009,1,0,0:0:0:0:
256,192,58140,1,8,0:0:0:0:
256,192,58183,1,8,0:0:0:0:
256,192,58227,1,8,0:0:0:0:
256,192,58270,1,0,0:0:0:0:
256,192,58335,1,8,0:0:0:0:
256,192,58401,1,0,0:0:0:0:
256,192,58531,1,8,0:0:0:0:
256,192,58596,1,8,0:0:0:0:
256,192,58661,1,0,0:0:0:0:
256,192,58727,1,0,0:0:0:0:
256,192,58792,1,8,0:0:0:0:
256,192,59053,1,8,0:0:0:0:
256,192,59096,1,8,0:0:0:0:
256,192,59140,1,8,0:0:0:0:
256,192,59183,1,0,0:0:0:0:
256,192,59314,1,8,0:0:0:0:
256,192,59357,1,8,0:0:0:0:
256,192,59401,1,8,0:0:0:0:
256,192,59444,1,0,0:0:0:0:
256,192,59574,1,12,0:0:0:0:
256,192,59705,1,0,0:0:0:0:
256,192,59770,1,0,0:0:0:0:
256,192,59835,1,8,0:0:0:0:
256,192,59966,1,8,0:0:0:0:
256,192,60031,1,0,0:0:0:0:
256,192,60161,1,0,0:0:0:0:
256,192,60227,1,8,0:0:0:0:
256,192,60357,1,8,0:0:0:0:
256,192,60488,1,0,0:0:0:0:
256,192,60618,1,8,0:0:0:0:
256,192,60683,1,0,0:0:0:0:
256,192,60748,1,0,0:0:0:0:
256,192,60814,1,0,0:0:0:0:
256,192,60879,1,8,0:0:0:0:
256,192,61009,1,0,0:0:0:0:
256,192,61140,1,8,0:0:0:0:
256,192,61205,1,8,0:0:0:0:
256,192,61270,1,0,0:0:0:0:
256,192,61335,1,0,0:0:0:0:
256,192,61401,1,8,0:0:0:0:
256,192,61466,1,0,0:0:0:0:
256,192,61531,1,0,0:0:0:0:
256,192,61596,1,0,0:0:0:0:
256,192,61661,1,8,0:0:0:0:
256,192,61792,1,0,0:0:0:0:
256,192,61922,1,8,0:0:0:0:
256,192,61988,1,0,0:0:0:0:
256,192,62053,1,8,0:0:0:0:
256,192,62183,1,0,0:0:0:0:
256,192,62314,1,0,0:0:0:0:
256,192,62444,1,8,0:0:0:0:
256,192,62509,1,8,0:0:0:0:
256,192,62574,1,8,0:0:0:0:
256,192,62640,1,8,0:0:0:0:
256,192,62705,1,0,0:0:0:0:
256,192,62835,1,0,0:0:0:0:
256,192,62901,1,0,0:0:0:0:
256,192,62966,1,8,0:0:0:0:
256,192,63096,1,0,0:0:0:0:
256,192,63227,1,8,0:0:0:0:
256,192,63292,1,0,0:0:0:0:
256,192,63357,1,8,0:0:0:0:
256,192,63422,1,0,0:0:0:0:
256,192,63488,1,8,0:0:0:0:
256,192,63553,1,8,0:0:0:0:
256,192,63618,1,0,0:0:0:0:
256,192,63683,1,0,0:0:0:0:
256,192,63748,1,8,0:0:0:0:
256,192,63879,1,0,0:0:0:0:
256,192,64009,1,8,0:0:0:0:
256,192,64140,1,8,0:0:0:0:
256,192,64205,1,0,0:0:0:0:
256,192,64335,1,0,0:0:0:0:
256,192,64401,1,8,0:0:0:0:
256,192,64466,1,0,0:0:0:0:
256,192,64531,1,8,0:0:0:0:
256,192,64596,1,8,0:0:0:0:
256,192,64661,1,0,0:0:0:0:
256,192,64727,1,0,0:0:0:0:
256,192,64792,1,8,0:0:0:0:
256,192,64922,1,0,0:0:0:0:
256,192,65053,1,8,0:0:0:0:
256,192,65118,1,8,0:0:0:0:
256,192,65183,1,8,0:0:0:0:
256,192,65248,1,8,0:0:0:0:
256,192,65314,1,4,0:0:0:0:
256,192,65705,1,4,0:0:0:0:
256,192,66096,1,12,0:0:0:0:
256,192,66488,1,12,0:0:0:0:
256,192,66618,1,4,0:0:0:0:
256,192,66879,1,4,0:0:0:0:
256,192,67140,1,12,0:0:0:0:
256,192,67401,1,4,0:0:0:0:
256,192,67531,1,0,0:0:0:0:
256,192,67661,1,8,0:0:0:0:
256,192,67727,1,8,0:0:0:0:
256,192,67792,1,0,0:0:0:0:
256,192,67922,1,8,0:0:0:0:
256,192,68053,1,0,0:0:0:0:
256,192,68118,1,0,0:0:0:0:
256,192,68183,1,8,0:0:0:0:
256,192,68248,1,0,0:0:0:0:
256,192,68314,1,8,0:0:0:0:
256,192,68379,1,8,0:0:0:0:
256,192,68444,1,0,0:0:0:0:
256,192,68574,1,0,0:0:0:0:
256,192,68705,1,8,0:0:0:0:
256,192,68770,1,8,0:0:0:0:
256,192,68835,1,0,0:0:0:0:
256,192,68966,1,8,0:0:0:0:
256,192,69096,1,0,0:0:0:0:
256,192,69161,1,0,0:0:0:0:
256,192,69227,1,8,0:0:0:0:
256,192,69357,1,8,0:0:0:0:
256,192,69488,1,0,0:0:0:0:
256,192,69531,1,0,0:0:0:0:
256,192,69574,1,0,0:0:0:0:
256,192,69618,1,0,0:0:0:0:
256,192,69748,1,0,0:0:0:0:
256,192,69792,1,0,0:0:0:0:
256,192,69835,1,0,0:0:0:0:
256,192,69879,1,0,0:0:0:0:
256,192,70009,1,8,0:0:0:0:
256,192,70053,1,8,0:0:0:0:
256,192,70096,1,8,0:0:0:0:
256,192,70140,1,8,0:0:0:0:
256,192,70270,1,8,0:0:0:0:
256,192,70314,1,8,0:0:0:0:
256,192,70357,1,8,0:0:0:0:
256,192,70401,1,8,0:0:0:0:
256,192,70531,1,0,0:0:0:0:
256,192,70574,1,0,0:0:0:0:
256,192,70617,1,0,0:0:0:0:
256,192,70661,1,0,0:0:0:0:
256,192,70791,1,0,0:0:0:0:
256,192,70835,1,0,0:0:0:0:
256,192,70878,1,0,0:0:0:0:
256,192,70922,1,0,0:0:0:0:
256,192,71052,1,8,0:0:0:0:
256,192,71096,1,8,0:0:0:0:
256,192,71139,1,8,0:0:0:0:
256,192,71183,1,8,0:0:0:0:
256,192,71313,1,8,0:0:0:0:
256,192,71357,1,8,0:0:0:0:
256,192,71400,1,8,0:0:0:0:
256,192,71444,1,8,0:0:0:0:
256,192,71574,1,4,0:0:0:0:
256,192,71705,1,0,0:0:0:0:
256,192,71835,1,8,0:0:0:0:
256,192,71901,1,8,0:0:0:0:
256,192,71966,1,0,0:0:0:0:
256,192,72096,1,8,0:0:0:0:
256,192,72227,1,0,0:0:0:0:
256,192,72292,1,0,0:0:0:0:
256,192,72357,1,8,0:0:0:0:
256,192,72422,1,0,0:0:0:0:
256,192,72488,1,8,0:0:0:0:
256,192,72553,1,8,0:0:0:0:
256,192,72618,1,0,0:0:0:0:
256,192,72748,1,0,0:0:0:0:
256,192,72879,1,8,0:0:0:0:
256,192,72944,1,8,0:0:0:0:
256,192,73009,1,0,0:0:0:0:
256,192,73140,1,8,0:0:0:0:
256,192,73270,1,0,0:0:0:0:
256,192,73335,1,0,0:0:0:0:
256,192,73401,1,8,0:0:0:0:
256,192,73531,1,8,0:0:0:0:
256,192,73574,1,8,0:0:0:0:
256,192,73618,1,8,0:0:0:0:
256,192,73661,1,0,0:0:0:0:
256,192,73857,1,4,0:0:0:0:
256,192,74053,1,4,0:0:0:0:
256,192,74183,1,8,0:0:0:0:
256,192,74314,1,8,0:0:0:0:
256,192,74357,1,8,0:0:0:0:
256,192,74401,1,8,0:0:0:0:
256,192,74444,1,0,0:0:0:0:
256,192,74640,1,4,0:0:0:0:
256,192,74835,1,4,0:0:0:0:
256,192,74966,1,8,0:0:0:0:
256,192,75096,1,8,0:0:0:0:
256,192,75140,1,8,0:0:0:0:
256,192,75183,1,8,0:0:0:0:
256,192,75227,1,0,0:0:0:0:
256,192,75357,1,4,0:0:0:0:
256,192,75748,1,4,0:0:0:0:
256,192,76009,1,0,0:0:0:0:
256,192,76140,1,0,0:0:0:0:
256,192,76270,1,8,0:0:0:0:
256,192,76401,1,0,0:0:0:0:
256,192,76661,1,0,0:0:0:0:
256,192,76922,1,8,0:0:0:0:
256,192,77053,1,0,0:0:0:0:
256,192,77183,1,0,0:0:0:0:
256,192,77314,1,8,0:0:0:0:
256,192,77444,1,0,0:0:0:0:
256,192,77705,1,8,0:0:0:0:
256,192,77835,1,0,0:0:0:0:
256,192,78096,1,0,0:0:0:0:
256,192,78227,1,8,0:0:0:0:
256,192,78357,1,8,0:0:0:0:
256,192,78488,1,0,0:0:0:0:
256,192,78748,1,0,0:0:0:0:
256,192,79009,1,8,0:0:0:0:
256,192,79053,1,8,0:0:0:0:
256,192,79096,1,8,0:0:0:0:
256,192,79140,1,0,0:0:0:0:
256,192,79270,1,8,0:0:0:0:
256,192,79401,1,0,0:0:0:0:
256,192,79531,1,0,0:0:0:0:
256,192,79661,1,8,0:0:0:0:
256,192,79792,1,8,0:0:0:0:
256,192,79922,1,0,0:0:0:0:
256,192,80183,1,0,0:0:0:0:
256,192,80314,1,0,0:0:0:0:
256,192,80444,1,8,0:0:0:0:
256,192,80574,1,0,0:0:0:0:
256,192,80835,1,0,0:0:0:0:
256,192,81096,1,8,0:0:0:0:
256,192,81227,1,8,0:0:0:0:
256,192,81357,1,0,0:0:0:0:
256,192,81488,1,8,0:0:0:0:
256,192,81618,1,0,0:0:0:0:
256,192,81879,1,0,0:0:0:0:
256,192,82009,1,0,0:0:0:0:
256,192,82270,1,0,0:0:0:0:
256,192,82401,1,0,0:0:0:0:
256,192,82531,1,8,0:0:0:0:
256,192,82661,1,0,0:0:0:0:
256,192,82922,1,0,0:0:0:0:
256,192,83183,1,8,0:0:0:0:
256,192,83314,1,0,0:0:0:0:
256,192,83444,1,8,0:0:0:0:
256,192,83574,1,0,0:0:0:0:
256,192,83640,1,0,0:0:0:0:
256,192,83705,1,8,0:0:0:0:
256,192,83835,1,0,0:0:0:0:
256,192,83966,1,8,0:0:0:0:
256,192,84096,1,4,0:0:0:0:
256,192,84357,1,0,0:0:0:0:
256,192,84488,1,0,0:0:0:0:
256,192,84553,1,0,0:0:0:0:
256,192,84618,1,8,0:0:0:0:
256,192,84748,1,0,0:0:0:0:
256,192,85009,1,0,0:0:0:0:
256,192,85270,1,8,0:0:0:0:
256,192,85401,1,0,0:0:0:0:
256,192,85531,1,0,0:0:0:0:
256,192,85661,1,8,0:0:0:0:
256,192,85792,1,0,0:0:0:0:
256,192,85922,1,8,0:0:0:0:
256,192,86053,1,8,0:0:0:0:
256,192,86118,1,8,0:0:0:0:
256,192,86183,1,0,0:0:0:0:
256,192,86444,1,0,0:0:0:0:
256,192,86574,1,0,0:0:0:0:
256,192,86640,1,0,0:0:0:0:
256,192,86705,1,8,0:0:0:0:
256,192,86835,1,0,0:0:0:0:
256,192,87096,1,0,0:0:0:0:
256,192,87357,1,8,0:0:0:0:
256,192,87401,1,8,0:0:0:0:
256,192,87444,1,8,0:0:0:0:
256,192,87488,1,0,0:0:0:0:
256,192,87618,1,8,0:0:0:0:
256,192,87748,1,0,0:0:0:0:
256,192,87814,1,0,0:0:0:0:
256,192,87879,1,0,0:0:0:0:
256,192,88009,1,8,0:0:0:0:
256,192,88140,1,8,0:0:0:0:
256,192,88270,1,0,0:0:0:0:
256,192,88531,1,0,0:0:0:0:
256,192,88661,1,0,0:0:0:0:
256,192,88727,1,0,0:0:0:0:
256,192,88792,1,8,0:0:0:0:
256,192,88922,1,0,0:0:0:0:
256,192,89183,1,0,0:0:0:0:
256,192,89444,1,8,0:0:0:0:
256,192,89574,1,0,0:0:0:0:
256,192,89705,1,0,0:0:0:0:
256,192,89835,1,8,0:0:0:0:
256,192,89966,1,0,0:0:0:0:
256,192,90096,1,0,0:0:0:0:
256,192,90227,1,8,0:0:0:0:
256,192,90292,1,8,0:0:0:0:
256,192,90357,1,0,0:0:0:0:
256,192,90488,1,0,0:0:0:0:
256,192,90618,1,8,0:0:0:0:
256,192,90748,1,0,0:0:0:0:
256,192,90879,1,0,0:0:0:0:
256,192,91009,1,8,0:0:0:0:
256,192,91140,1,0,0:0:0:0:
256,192,91270,1,0,0:0:0:0:
256,192,91401,1,8,0:0:0:0:
256,192,91531,1,8,0:0:0:0:
256,192,91596,1,8,0:0:0:0:
256,192,91661,1,0,0:0:0:0:
256,192,91791,1,8,0:0:0:0:
256,192,91857,1,0,0:0:0:0:
256,192,91922,1,8,0:0:0:0:
256,192,92052,1,0,0:0:0:0:
256,192,92183,1,8,0:0:0:0:
256,192,92444,1,4,0:0:0:0:
256,192,92705,1,8,0:0:0:0:
256,192,92835,1,8,0:0:0:0:
256,192,92901,1,8,0:0:0:0:
256,192,92966,1,0,0:0:0:0:
256,192,93096,1,0,0:0:0:0:
256,192,93227,1,8,0:0:0:0:
256,192,93357,1,0,0:0:0:0:
256,192,93422,1,8,0:0:0:0:
256,192,93488,1,0,0:0:0:0:
256,192,93553,1,0,0:0:0:0:
256,192,93618,1,8,0:0:0:0:
256,192,93748,1,8,0:0:0:0:
256,192,93879,1,8,0:0:0:0:
256,192,93944,1,8,0:0:0:0:
256,192,94009,1,0,0:0:0:0:
256,192,94140,1,0,0:0:0:0:
256,192,94205,1,8,0:0:0:0:
256,192,94270,1,8,0:0:0:0:
256,192,94401,1,0,0:0:0:0:
256,192,94531,1,8,0:0:0:0:
256,192,94596,1,0,0:0:0:0:
256,192,94661,1,0,0:0:0:0:
256,192,94727,1,0,0:0:0:0:
256,192,94792,1,8,0:0:0:0:
256,192,94922,1,0,0:0:0:0:
256,192,95053,1,8,0:0:0:0:
256,192,95118,1,8,0:0:0:0:
256,192,95183,1,0,0:0:0:0:
256,192,95248,1,0,0:0:0:0:
256,192,95314,1,8,0:0:0:0:
256,192,95379,1,0,0:0:0:0:
256,192,95444,1,8,0:0:0:0:
256,192,95509,1,8,0:0:0:0:
256,192,95574,1,0,0:0:0:0:
256,192,95705,1,0,0:0:0:0:
256,192,95835,1,8,0:0:0:0:
256,192,95966,1,8,0:0:0:0:
256,192,96096,1,0,0:0:0:0:
256,192,96161,1,0,0:0:0:0:
256,192,96227,1,0,0:0:0:0:
256,192,96357,1,8,0:0:0:0:
256,192,96488,1,8,0:0:0:0:
256,192,96618,1,4,0:0:0:0:
256,192,96748,1,0,0:0:0:0:
256,192,96879,1,8,0:0:0:0:
256,192,97009,1,8,0:0:0:0:
256,192,97074,1,8,0:0:0:0:
256,192,97140,1,0,0:0:0:0:
256,192,97270,1,0,0:0:0:0:
256,192,97401,1,8,0:0:0:0:
256,192,97531,1,8,0:0:0:0:
256,192,97596,1,8,0:0:0:0:
256,192,97661,1,0,0:0:0:0:
256,192,97727,1,0,0:0:0:0:
256,192,97792,1,8,0:0:0:0:
256,192,97922,1,0,0:0:0:0:
256,192,98053,1,8,0:0:0:0:
256,192,98118,1,8,0:0:0:0:
256,192,98183,1,0,0:0:0:0:
256,192,98248,1,8,0:0:0:0:
256,192,98314,1,0,0:0:0:0:
256,192,98379,1,0,0:0:0:0:
256,192,98444,1,8,0:0:0:0:
256,192,98574,1,0,0:0:0:0:
256,192,98705,1,8,0:0:0:0:
256,192,98835,1,0,0:0:0:0:
256,192,98901,1,8,0:0:0:0:
256,192,98966,1,0,0:0:0:0:
256,192,99031,1,0,0:0:0:0:
256,192,99096,1,8,0:0:0:0:
256,192,99161,1,0,0:0:0:0:
256,192,99227,1,8,0:0:0:0:
256,192,99357,1,0,0:0:0:0:
256,192,99488,1,8,0:0:0:0:
256,192,99553,1,8,0:0:0:0:
256,192,99618,1,8,0:0:0:0:
256,192,99683,1,8,0:0:0:0:
256,192,99748,1,0,0:0:0:0:
256,192,99879,1,8,0:0:0:0:
256,192,99944,1,0,0:0:0:0:
256,192,100009,1,0,0:0:0:0:
256,192,100140,1,8,0:0:0:0:
256,192,100270,1,8,0:0:0:0:
256,192,100335,1,8,0:0:0:0:
256,192,100401,1,0,0:0:0:0:
256,192,100466,1,8,0:0:0:0:
256,192,100531,1,0,0:0:0:0:
256,192,100596,1,0,0:0:0:0:
256,192,100661,1,8,0:0:0:0:
256,192,100727,1,8,0:0:0:0:
256,192,100792,1,0,0:0:0:0:
256,192,100922,1,0,0:0:0:0:
256,192,100988,1,0,0:0:0:0:
256,192,101053,1,0,0:0:0:0:
256,192,101183,1,8,0:0:0:0:
256,192,101314,1,0,0:0:0:0:
256,192,101379,1,0,0:0:0:0:
256,192,101444,1,0,0:0:0:0:
256,192,101574,1,8,0:0:0:0:
256,192,101640,1,8,0:0:0:0:
256,192,101705,1,0,0:0:0:0:
256,192,101770,1,0,0:0:0:0:
256,192,101835,1,8,0:0:0:0:
256,192,101966,1,0,0:0:0:0:
256,192,102031,1,0,0:0:0:0:
256,192,102096,1,0,0:0:0:0:
256,192,102227,1,8,0:0:0:0:
256,192,102357,1,0,0:0:0:0:
256,192,102422,1,0,0:0:0:0:
256,192,102488,1,0,0:0:0:0:
256,192,102553,1,0,0:0:0:0:
256,192,102618,1,8,0:0:0:0:
256,192,102748,1,0,0:0:0:0:
256,192,102879,1,8,0:0:0:0:
256,192,102944,1,8,0:0:0:0:
256,192,103009,1,0,0:0:0:0:
256,192,103074,1,0,0:0:0:0:
256,192,103140,1,8,0:0:0:0:
256,192,103270,1,0,0:0:0:0:
256,192,103335,1,0,0:0:0:0:
256,192,103401,1,8,0:0:0:0:
256,192,103466,1,8,0:0:0:0:
256,192,103531,1,0,0:0:0:0:
256,192,103661,1,8,0:0:0:0:
256,192,103792,1,0,0:0:0:0:
256,192,103922,1,8,0:0:0:0:
256,192,103988,1,0,0:0:0:0:
256,192,104053,1,0,0:0:0:0:
256,192,104118,1,0,0:0:0:0:
256,192,104183,1,8,0:0:0:0:
256,192,104248,1,0,0:0:0:0:
256,192,104314,1,0,0:0:0:0:
256,192,104379,1,0,0:0:0:0:
256,192,104444,1,8,0:0:0:0:
256,192,104509,1,8,0:0:0:0:
256,192,104574,1,0,0:0:0:0:
256,192,104640,1,0,0:0:0:0:
256,192,104705,1,8,0:0:0:0:
256,192,104835,1,0,0:0:0:0:
256,192,104966,1,8,0:0:0:0:
256,192,105096,1,0,0:0:0:0:
256,192,105161,1,0,0:0:0:0:
256,192,105227,1,8,0:0:0:0:
256,192,105357,1,0,0:0:0:0:
256,192,105488,1,8,0:0:0:0:
256,192,105553,1,8,0:0:0:0:
256,192,105618,1,0,0:0:0:0:
256,192,105683,1,0,0:0:0:0:
256,192,105748,1,8,0:0:0:0:
256,192,105879,1,8,0:0:0:0:
256,192,106009,1,0,0:0:0:0:
256,192,106074,1,0,0:0:0:0:
256,192,106140,1,0,0:0:0:0:
256,192,106205,1,0,0:0:0:0:
256,192,106270,1,8,0:0:0:0:
256,192,106335,1,8,0:0:0:0:
256,192,106401,1,8,0:0:0:0:
256,192,106466,1,8,0:0:0:0:
256,192,106531,1,0,0:0:0:0:
256,192,106596,1,8,0:0:0:0:
256,192,106661,1,0,0:0:0:0:
256,192,106727,1,0,0:0:0:0:
256,192,106792,1,8,0:0:0:0:
256,192,106857,1,0,0:0:0:0:
256,192,106922,1,8,0:0:0:0:
256,192,106988,1,8,0:0:0:0:
256,192,107053,1,0,0:0:0:0:
256,192,107118,12,0,107966,0:0:0:0:
256,192,108096,5,8,0:0:0:0:
256,192,108357,1,0,0:0:0:0:
256,192,108618,1,8,0:0:0:0:
256,192,108879,1,12,0:0:0:0:
256,192,109140,1,4,0:0:0:0:
256,192,109270,1,8,0:0:0:0:
256,192,109401,1,4,0:0:0:0:
256,192,109531,1,0,0:0:0:0:
256,192,109661,1,12,0:0:0:0:
256,192,109792,1,0,0:0:0:0:
256,192,109922,1,4,0:0:0:0:
256,192,110053,1,8,0:0:0:0:
256,192,110183,1,4,0:0:0:0:
256,192,110314,1,8,0:0:0:0:
256,192,110444,1,4,0:0:0:0:
256,192,110574,1,8,0:0:0:0:
256,192,110705,1,12,0:0:0:0:
256,192,110835,1,0,0:0:0:0:
256,192,110966,1,4,0:0:0:0:
256,192,111227,1,12,0:0:0:0:
256,192,111357,1,0,0:0:0:0:
256,192,111488,1,12,0:0:0:0:
256,192,111618,1,0,0:0:0:0:
256,192,111748,1,12,0:0:0:0:
256,192,111879,1,8,0:0:0:0:
256,192,112009,1,12,0:0:0:0:
256,192,112140,1,0,0:0:0:0:
256,192,112270,1,12,0:0:0:0:
256,192,112401,1,0,0:0:0:0:
256,192,112466,1,0,0:0:0:0:
256,192,112531,1,8,0:0:0:0:
256,192,112661,1,0,0:0:0:0:
256,192,112792,1,8,0:0:0:0:
256,192,112857,1,0,0:0:0:0:
256,192,112922,1,0,0:0:0:0:
256,192,112988,1,0,0:0:0:0:
256,192,113053,1,8,0:0:0:0:
256,192,113183,1,8,0:0:0:0:
256,192,113314,1,4,0:0:0:0:
256,192,113444,1,8,0:0:0:0:
256,192,113574,1,4,0:0:0:0:
256,192,113705,1,8,0:0:0:0:
256,192,113835,1,12,0:0:0:0:
256,192,113966,1,0,0:0:0:0:
256,192,114096,1,12,0:0:0:0:
256,192,114227,1,0,0:0:0:0:
256,192,114357,1,12,0:0:0:0:
256,192,114488,1,0,0:0:0:0:
256,192,114618,1,4,0:0:0:0:
256,192,114748,1,8,0:0:0:0:
256,192,114879,1,12,0:0:0:0:
256,192,115009,1,0,0:0:0:0:
256,192,115140,1,4,0:0:0:0:
256,192,115270,1,0,0:0:0:0:
256,192,115335,1,0,0:0:0:0:
256,192,115401,1,8,0:0:0:0:
256,192,115466,1,8,0:0:0:0:
256,192,115531,1,0,0:0:0:0:
256,192,115596,1,8,0:0:0:0:
256,192,115661,1,0,0:0:0:0:
256,192,115792,1,8,0:0:0:0:
256,192,115857,1,0,0:0:0:0:
256,192,115922,1,8,0:0:0:0:
256,192,115988,1,0,0:0:0:0:
256,192,116053,1,0,0:0:0:0:
256,192,116183,1,8,0:0:0:0:
256,192,116248,1,0,0:0:0:0:
256,192,116314,1,0,0:0:0:0:
256,192,116379,1,8,0:0:0:0:
256,192,116444,1,0,0:0:0:0:
256,192,116574,1,8,0:0:0:0:
256,192,116618,1,8,0:0:0:0:
256,192,116661,1,8,0:0:0:0:
256,192,116705,1,0,0:0:0:0:
256,192,116770,1,8,0:0:0:0:
256,192,116835,1,0,0:0:0:0:
256,192,116966,1,12,0:0:0:0:
256,192,117096,1,0,0:0:0:0:
256,192,117227,1,12,0:0:0:0:
256,192,117488,1,0,0:0:0:0:
256,192,117531,1,0,0:0:0:0:
256,192,117574,1,0,0:0:0:0:
256,192,117618,1,0,0:0:0:0:
256,192,117748,1,8,0:0:0:0:
256,192,117792,1,8,0:0:0:0:
256,192,117835,1,8,0:0:0:0:
256,192,117879,1,8,0:0:0:0:
256,192,118009,1,4,0:0:0:0:
256,192,118140,1,0,0:0:0:0:
256,192,118270,1,8,0:0:0:0:
256,192,118335,1,0,0:0:0:0:
256,192,118401,1,8,0:0:0:0:
256,192,118466,1,8,0:0:0:0:
256,192,118531,1,0,0:0:0:0:
256,192,118661,1,0,0:0:0:0:
256,192,118727,1,0,0:0:0:0:
256,192,118792,1,8,0:0:0:0:
256,192,118857,1,8,0:0:0:0:
256,192,118922,1,0,0:0:0:0:
256,192,118988,1,8,0:0:0:0:
256,192,119053,1,0,0:0:0:0:
256,192,119183,1,0,0:0:0:0:
256,192,119248,1,0,0:0:0:0:
256,192,119314,1,8,0:0:0:0:
256,192,119444,1,0,0:0:0:0:
256,192,119574,1,8,0:0:0:0:
256,192,119640,1,0,0:0:0:0:
256,192,119705,1,0,0:0:0:0:
256,192,119770,1,0,0:0:0:0:
256,192,119835,1,8,0:0:0:0:
256,192,119901,1,8,0:0:0:0:
256,192,119966,1,0,0:0:0:0:
256,192,120031,1,0,0:0:0:0:
256,192,120096,1,8,0:0:0:0:
256,192,120227,1,0,0:0:0:0:
256,192,120357,1,8,0:0:0:0:
256,192,120422,1,0,0:0:0:0:
256,192,120488,1,8,0:0:0:0:
256,192,120553,1,8,0:0:0:0:
256,192,120618,1,0,0:0:0:0:
256,192,120748,1,0,0:0:0:0:
256,192,120879,1,8,0:0:0:0:
256,192,121009,1,0,0:0:0:0:
256,192,121074,1,0,0:0:0:0:
256,192,121140,1,8,0:0:0:0:
256,192,121205,1,8,0:0:0:0:
256,192,121270,1,0,0:0:0:0:
256,192,121335,1,0,0:0:0:0:
256,192,121401,1,8,0:0:0:0:
256,192,121531,1,0,0:0:0:0:
256,192,121661,1,8,0:0:0:0:
256,192,121727,1,0,0:0:0:0:
256,192,121792,1,8,0:0:0:0:
256,192,121857,1,8,0:0:0:0:
256,192,121922,1,0,0:0:0:0:
256,192,121988,1,0,0:0:0:0:
256,192,122053,1,8,0:0:0:0:
256,192,122118,1,0,0:0:0:0:
256,192,122183,1,8,0:0:0:0:
256,192,122314,1,0,0:0:0:0:
256,192,122379,1,0,0:0:0:0:
256,192,122444,1,8,0:0:0:0:
256,192,122574,1,8,0:0:0:0:
256,192,122640,1,8,0:0:0:0:
256,192,122705,1,0,0:0:0:0:
256,192,122770,1,8,0:0:0:0:
256,192,122835,1,0,0:0:0:0:
256,192,122901,1,0,0:0:0:0:
256,192,122966,1,8,0:0:0:0:
256,192,123031,1,8,0:0:0:0:
256,192,123096,1,8,0:0:0:0:
256,192,123161,1,0,0:0:0:0:
256,192,123227,1,0,0:0:0:0:
256,192,123357,1,8,0:0:0:0:
256,192,123422,1,0,0:0:0:0:
256,192,123488,1,8,0:0:0:0:
256,192,123553,1,8,0:0:0:0:
256,192,123618,1,0,0:0:0:0:
256,192,123683,1,0,0:0:0:0:
256,192,123748,1,8,0:0:0:0:
256,192,123814,1,8,0:0:0:0:
256,192,123879,1,8,0:0:0:0:
256,192,123944,1,8,0:0:0:0:
256,192,124009,1,0,0:0:0:0:
256,192,124140,1,8,0:0:0:0:
256,192,124205,1,8,0:0:0:0:
256,192,124270,1,8,0:0:0:0:
256,192,124335,1,8,0:0:0:0:
256,192,124401,1,0,0:0:0:0:
256,192,124531,1,8,0:0:0:0:
256,192,124596,1,8,0:0:0:0:
256,192,124661,1,8,0:0:0:0:
256,192,124727,1,8,0:0:0:0:
256,192,124792,1,0,0:0:0:0:
256,192,124922,1,12,0:0:0:0:
256,192,125053,1,12,0:0:0:0:
256,192,125183,1,0,0:0:0:0:
256,192,125248,1,0,0:0:0:0:
256,192,125314,1,8,0:0:0:0:
256,192,125444,1,0,0:0:0:0:
256,192,125574,1,12,0:0:0:0:
256,192,125835,1,4,0:0:0:0:
256,192,126227,1,8,0:0:0:0:
256,192,126618,1,8,0:0:0:0:
256,192,127922,1,8,0:0:0:0:
256,192,128314,1,8,0:0:0:0:
256,192,128705,1,8,0:0:0:0:
256,192,130009,1,4,0:0:0:0:
256,192,130401,1,0,0:0:0:0:
256,192,130792,1,0,0:0:0:0:
256,192,131183,1,0,0:0:0:0:
256,192,131444,1,0,0:0:0:0:
256,192,131705,1,0,0:0:0:0:
256,192,131835,1,0,0:0:0:0:
256,192,132096,1,8,0:0:0:0:
256,192,132488,1,8,0:0:0:0:
256,192,132879,1,8,0:0:0:0:
256,192,133270,1,8,0:0:0:0:
256,192,133401,1,8,0:0:0:0:
256,192,133531,1,8,0:0:0:0:
256,192,133792,1,8,0:0:0:0:
256,192,133922,1,0,0:0:0:0:
256,192,133988,1,0,0:0:0:0:
256,192,134053,1,0,0:0:0:0:
256,192,134183,1,12,0:0:0:0:
256,192,134314,1,0,0:0:0:0:
256,192,134379,1,0,0:0:0:0:
256,192,134444,1,8,0:0:0:0:
256,192,134574,1,0,0:0:0:0:
256,192,134705,1,8,0:0:0:0:
256,192,134770,1,8,0:0:0:0:
256,192,134835,1,0,0:0:0:0:
256,192,134966,1,8,0:0:0:0:
256,192,135096,1,0,0:0:0:0:
256,192,135227,1,8,0:0:0:0:
256,192,135292,1,0,0:0:0:0:
256,192,135357,1,0,0:0:0:0:
256,192,135422,1,0,0:0:0:0:
256,192,135488,1,8,0:0:0:0:
256,192,135618,1,0,0:0:0:0:
256,192,135748,1,8,0:0:0:0:
256,192,135814,1,8,0:0:0:0:
256,192,135879,1,0,0:0:0:0:
256,192,135944,1,0,0:0:0:0:
256,192,136009,1,8,0:0:0:0:
256,192,136074,1,8,0:0:0:0:
256,192,136140,1,0,0:0:0:0:
256,192,136270,1,8,0:0:0:0:
256,192,136401,1,0,0:0:0:0:
256,192,136466,1,0,0:0:0:0:
256,192,136531,1,8,0:0:0:0:
256,192,136661,1,0,0:0:0:0:
256,192,136792,1,8,0:0:0:0:
256,192,136857,1,0,0:0:0:0:
256,192,136922,1,8,0:0:0:0:
256,192,136988,1,0,0:0:0:0:
256,192,137053,1,8,0:0:0:0:
256,192,137118,1,8,0:0:0:0:
256,192,137183,1,0,0:0:0:0:
256,192,137314,1,8,0:0:0:0:
256,192,137444,1,0,0:0:0:0:
256,192,137509,1,0,0:0:0:0:
256,192,137574,1,8,0:0:0:0:
256,192,137640,1,8,0:0:0:0:
256,192,137705,1,0,0:0:0:0:
256,192,137835,1,8,0:0:0:0:
256,192,137901,1,8,0:0:0:0:
256,192,137966,1,8,0:0:0:0:
256,192,138031,1,0,0:0:0:0:
256,192,138096,1,0,0:0:0:0:
256,192,138227,1,8,0:0:0:0:
256,192,138357,1,0,0:0:0:0:
256,192,138488,1,0,0:0:0:0:
256,192,138618,1,8,0:0:0:0:
256,192,138748,1,8,0:0:0:0:
256,192,138879,1,0,0:0:0:0:
256,192,138944,1,0,0:0:0:0:
256,192,139009,1,0,0:0:0:0:
256,192,139140,1,8,0:0:0:0:
256,192,139270,1,8,0:0:0:0:
256,192,139401,1,0,0:0:0:0:
256,192,139531,1,0,0:0:0:0:
256,192,139596,1,0,0:0:0:0:
256,192,139661,1,8,0:0:0:0:
256,192,139792,1,8,0:0:0:0:
256,192,139922,1,0,0:0:0:0:
256,192,139988,1,0,0:0:0:0:
256,192,140053,1,0,0:0:0:0:
256,192,140118,1,0,0:0:0:0:
256,192,140183,1,8,0:0:0:0:
256,192,140314,1,8,0:0:0:0:
256,192,140444,1,0,0:0:0:0:
256,192,140509,1,0,0:0:0:0:
256,192,140574,1,8,0:0:0:0:
256,192,140640,1,8,0:0:0:0:
256,192,140705,1,0,0:0:0:0:
256,192,140770,1,0,0:0:0:0:
256,192,140835,1,8,0:0:0:0:
256,192,140901,1,8,0:0:0:0:
256,192,140966,1,0,0:0:0:0:
256,192,141031,1,8,0:0:0:0:
256,192,141096,1,8,0:0:0:0:
256,192,141161,1,8,0:0:0:0:
256,192,141227,1,0,0:0:0:0:
256,192,141292,1,8,0:0:0:0:
256,192,141357,1,8,0:0:0:0:
256,192,141422,1,8,0:0:0:0:
256,192,142270,1,12,0:0:0:0:
256,192,142531,1,4,0:0:0:0:
256,192,142661,1,0,0:0:0:0:
256,192,142727,1,0,0:0:0:0:
256,192,142792,1,8,0:0:0:0:
256,192,142922,1,8,0:0:0:0:
256,192,143053,1,0,0:0:0:0:
256,192,143118,1,0,0:0:0:0:
256,192,143183,1,0,0:0:0:0:
256,192,143314,1,8,0:0:0:0:
256,192,143444,1,8,0:0:0:0:
256,192,143574,1,0,0:0:0:0:
256,192,143640,1,8,0:0:0:0:
256,192,143705,1,0,0:0:0:0:
256,192,143770,1,0,0:0:0:0:
256,192,143835,1,8,0:0:0:0:
256,192,143966,1,0,0:0:0:0:
256,192,144096,1,8,0:0:0:0:
256,192,144161,1,8,0:0:0:0:
256,192,144227,1,0,0:0:0:0:
256,192,144292,1,0,0:0:0:0:
256,192,144357,1,8,0:0:0:0:
256,192,144488,1,8,0:0:0:0:
256,192,144618,1,0,0:0:0:0:
256,192,144683,1,0,0:0:0:0:
256,192,144748,1,0,0:0:0:0:
256,192,144879,1,8,0:0:0:0:
256,192,145009,1,0,0:0:0:0:
256,192,145074,1,0,0:0:0:0:
256,192,145140,1,8,0:0:0:0:
256,192,145270,1,0,0:0:0:0:
256,192,145401,1,8,0:0:0:0:
256,192,145466,1,0,0:0:0:0:
256,192,145531,1,8,0:0:0:0:
256,192,145596,1,8,0:0:0:0:
256,192,145661,1,0,0:0:0:0:
256,192,145727,1,8,0:0:0:0:
256,192,145792,1,0,0:0:0:0:
256,192,145857,1,0,0:0:0:0:
256,192,145922,1,8,0:0:0:0:
256,192,146053,1,0,0:0:0:0:
256,192,146183,1,8,0:0:0:0:
256,192,146248,1,8,0:0:0:0:
256,192,146314,1,0,0:0:0:0:
256,192,146379,1,0,0:0:0:0:
256,192,146444,1,8,0:0:0:0:
256,192,146509,1,0,0:0:0:0:
256,192,146574,1,0,0:0:0:0:
256,192,146705,1,8,0:0:0:0:
256,192,146835,1,0,0:0:0:0:
256,192,146901,1,0,0:0:0:0:
256,192,146966,1,8,0:0:0:0:
256,192,147096,1,0,0:0:0:0:
256,192,147161,1,8,0:0:0:0:
256,192,147227,1,0,0:0:0:0:
256,192,147357,1,8,0:0:0:0:
256,192,147488,1,0,0:0:0:0:
256,192,147553,1,0,0:0:0:0:
256,192,147618,1,8,0:0:0:0:
256,192,147748,1,0,0:0:0:0:
256,192,147879,1,8,0:0:0:0:
256,192,147944,1,0,0:0:0:0:
256,192,148009,1,0,0:0:0:0:
256,192,148140,1,8,0:0:0:0:
256,192,148270,1,0,0:0:0:0:
256,192,148401,1,8,0:0:0:0:
256,192,148444,1,8,0:0:0:0:
256,192,148488,1,8,0:0:0:0:
256,192,148531,1,8,0:0:0:0:
256,192,148661,1,0,0:0:0:0:
256,192,148792,1,8,0:0:0:0:
256,192,148857,1,0,0:0:0:0:
256,192,148922,1,0,0:0:0:0:
256,192,148988,1,0,0:0:0:0:
256,192,149053,1,8,0:0:0:0:
256,192,149118,1,8,0:0:0:0:
256,192,149183,1,0,0:0:0:0:
256,192,149314,1,8,0:0:0:0:
256,192,149444,1,0,0:0:0:0:
256,192,149509,1,8,0:0:0:0:
256,192,149574,1,8,0:0:0:0:
256,192,149640,1,0,0:0:0:0:
256,192,149705,1,0,0:0:0:0:
256,192,149835,1,12,0:0:0:0:
256,192,150096,1,12,0:0:0:0:
256,192,150357,1,0,0:0:0:0:
256,192,150422,1,0,0:0:0:0:
256,192,150488,1,0,0:0:0:0:
256,192,150618,1,12,0:0:0:0:
256,192,150879,1,12,0:0:0:0:
256,192,151009,1,0,0:0:0:0:
256,192,151074,1,0,0:0:0:0:
256,192,151140,1,8,0:0:0:0:
256,192,151270,1,0,0:0:0:0:
256,192,151401,1,8,0:0:0:0:
256,192,151466,1,0,0:0:0:0:
256,192,151531,1,0,0:0:0:0:
256,192,151596,1,0,0:0:0:0:
256,192,151661,1,8,0:0:0:0:
256,192,151727,1,8,0:0:0:0:
256,192,151792,1,0,0:0:0:0:
256,192,151922,1,8,0:0:0:0:
256,192,151988,1,8,0:0:0:0:
256,192,152053,1,0,0:0:0:0:
256,192,152118,1,8,0:0:0:0:
256,192,152183,1,0,0:0:0:0:
256,192,152248,1,0,0:0:0:0:
256,192,152314,1,8,0:0:0:0:
256,192,152379,1,0,0:0:0:0:
256,192,152444,1,8,0:0:0:0:
256,192,152509,1,8,0:0:0:0:
256,192,152574,1,0,0:0:0:0:
256,192,152640,1,8,0:0:0:0:
256,192,152705,1,0,0:0:0:0:
256,192,152835,5,0,0:0:0:0:
256,192,152901,1,0,0:0:0:0:
256,192,152966,1,8,0:0:0:0:
256,192,153096,1,0,0:0:0:0:
256,192,153161,1,0,0:0:0:0:
256,192,153227,1,0,0:0:0:0:
256,192,153357,1,12,0:0:0:0:
256,192,153488,1,0,0:0:0:0:
256,192,153553,1,0,0:0:0:0:
256,192,153618,1,0,0:0:0:0:
256,192,153748,1,12,0:0:0:0:
256,192,153879,1,0,0:0:0:0:
256,192,153944,1,8,0:0:0:0:
256,192,154009,1,0,0:0:0:0:
256,192,154140,5,8,0:0:0:0:
256,192,154205,1,0,0:0:0:0:
256,192,154270,1,8,0:0:0:0:
256,192,154335,1,8,0:0:0:0:
256,192,154401,1,0,0:0:0:0:
256,192,154466,1,0,0:0:0:0:
256,192,154531,1,8,0:0:0:0:
256,192,154596,1,0,0:0:0:0:
256,192,154661,1,0,0:0:0:0:
256,192,154727,1,0,0:0:0:0:
256,192,154792,1,8,0:0:0:0:
256,192,154857,1,8,0:0:0:0:
256,192,154922,1,8,0:0:0:0:
256,192,155053,1,4,0:0:0:0:
256,192,155183,1,0,0:0:0:0:
256,192,155248,1,0,0:0:0:0:
256,192,155314,1,8,0:0:0:0:
256,192,155444,1,8,0:0:0:0:
256,192,155574,1,0,0:0:0:0:
256,192,155640,1,8,0:0:0:0:
256,192,155705,1,0,0:0:0:0:
256,192,155835,1,8,0:0:0:0:
256,192,155966,1,0,0:0:0:0:
256,192,156031,1,0,0:0:0:0:
256,192,156096,1,8,0:0:0:0:
256,192,156227,1,0,0:0:0:0:
256,192,156357,1,8,0:0:0:0:
256,192,156422,1,8,0:0:0:0:
256,192,156488,1,8,0:0:0:0:
256,192,156553,1,8,0:0:0:0:
256,192,156618,1,0,0:0:0:0:
256,192,156748,1,0,0:0:0:0:
256,192,156814,1,0,0:0:0:0:
256,192,156879,1,8,0:0:0:0:
256,192,157009,1,8,0:0:0:0:
256,192,157140,1,0,0:0:0:0:
256,192,157205,1,0,0:0:0:0:
256,192,157270,1,0,0:0:0:0:
256,192,157401,1,8,0:0:0:0:
256,192,157531,1,0,0:0:0:0:
256,192,157661,1,8,0:0:0:0:
256,192,157727,1,0,0:0:0:0:
256,192,157792,1,0,0:0:0:0:
256,192,157857,1,0,0:0:0:0:
256,192,157922,1,8,0:0:0:0:
256,192,158053,1,0,0:0:0:0:
256,192,158183,1,12,0:0:0:0:
256,192,158314,1,12,0:0:0:0:
256,192,158574,1,0,0:0:0:0:
256,192,158705,1,12,0:0:0:0:
256,192,158835,1,12,0:0:0:0:
256,192,159096,1,8,0:0:0:0:
256,192,159227,1,4,0:0:0:0:
256,192,159488,1,8,0:0:0:0:
256,192,159618,1,0,0:0:0:0:
256,192,159879,1,0,0:0:0:0:
256,192,160009,1,8,0:0:0:0:
256,192,160140,1,8,0:0:0:0:
256,192,160270,1,0,0:0:0:0:
256,192,160401,1,0,0:0:0:0:
256,192,160531,1,8,0:0:0:0:
256,192,160661,1,8,0:0:0:0:
256,192,160792,1,0,0:0:0:0:
256,192,160922,1,0,0:0:0:0:
256,192,160988,1,0,0:0:0:0:
256,192,161053,1,8,0:0:0:0:
256,192,161183,1,8,0:0:0:0:
256,192,161314,1,0,0:0:0:0:
256,192,161574,1,8,0:0:0:0:
256,192,161705,1,0,0:0:0:0:
256,192,161966,1,0,0:0:0:0:
256,192,162096,1,8,0:0:0:0:
256,192,162227,1,8,0:0:0:0:
256,192,162292,1,8,0:0:0:0:
256,192,162357,1,0,0:0:0:0:
256,192,162488,1,8,0:0:0:0:
256,192,162618,1,0,0:0:0:0:
256,192,162683,1,0,0:0:0:0:
256,192,162748,1,8,0:0:0:0:
256,192,162814,1,8,0:0:0:0:
256,192,162879,1,0,0:0:0:0:
256,192,163009,1,8,0:0:0:0:
256,192,163053,1,8,0:0:0:0:
256,192,163096,1,8,0:0:0:0:
256,192,163140,1,0,0:0:0:0:
256,192,163270,1,8,0:0:0:0:
256,192,163401,1,0,0:0:0:0:
256,192,163661,1,8,0:0:0:0:
256,192,163792,1,0,0:0:0:0:
256,192,164053,1,0,0:0:0:0:
256,192,164183,1,8,0:0:0:0:
256,192,164314,1,8,0:0:0:0:
256,192,164444,1,0,0:0:0:0:
256,192,164574,1,0,0:0:0:0:
256,192,164705,1,8,0:0:0:0:
256,192,164770,1,0,0:0:0:0:
256,192,164835,1,8,0:0:0:0:
256,192,164966,1,0,0:0:0:0:
256,192,165096,1,8,0:0:0:0:
256,192,165161,1,8,0:0:0:0:
256,192,165227,1,0,0:0:0:0:
256,192,165357,1,8,0:0:0:0:
256,192,165488,1,0,0:0:0:0:
256,192,165748,1,8,0:0:0:0:
256,192,165879,1,0,0:0:0:0:
256,192,166140,1,0,0:0:0:0:
256,192,166270,1,8,0:0:0:0:
256,192,166401,1,0,0:0:0:0:
256,192,166531,1,8,0:0:0:0:
256,192,166661,1,0,0:0:0:0:
256,192,166727,1,0,0:0:0:0:
256,192,166792,1,8,0:0:0:0:
256,192,166857,1,8,0:0:0:0:
256,192,166922,1,0,0:0:0:0:
256,192,167053,1,12,0:0:0:0:
256,192,167314,1,8,0:0:0:0:
256,192,167444,1,8,0:0:0:0:
256,192,167574,1,4,0:0:0:0:
256,192,167705,1,0,0:0:0:0:
256,192,167835,1,8,0:0:0:0:
256,192,167966,1,8,0:0:0:0:
256,192,168096,1,0,0:0:0:0:
256,192,168161,1,0,0:0:0:0:
256,192,168227,1,0,0:0:0:0:
256,192,168357,1,8,0:0:0:0:
256,192,168488,1,8,0:0:0:0:
256,192,168618,1,0,0:0:0:0:
256,192,168748,1,8,0:0:0:0:
256,192,168814,1,8,0:0:0:0:
256,192,168879,1,0,0:0:0:0:
256,192,169009,1,8,0:0:0:0:
256,192,169140,1,0,0:0:0:0:
256,192,169205,1,0,0:0:0:0:
256,192,169269,1,8,0:0:0:0:
256,192,169335,1,8,0:0:0:0:
256,192,169400,1,0,0:0:0:0:
256,192,169530,1,8,0:0:0:0:
256,192,169661,1,0,0:0:0:0:
256,192,169792,1,0,0:0:0:0:
256,192,169857,1,0,0:0:0:0:
256,192,169922,1,8,0:0:0:0:
256,192,170053,1,8,0:0:0:0:
256,192,170183,1,0,0:0:0:0:
256,192,170248,1,0,0:0:0:0:
256,192,170314,1,0,0:0:0:0:
256,192,170444,1,8,0:0:0:0:
256,192,170574,1,8,0:0:0:0:
256,192,170705,1,0,0:0:0:0:
256,192,170835,1,8,0:0:0:0:
256,192,170901,1,0,0:0:0:0:
256,192,170966,1,8,0:0:0:0:
256,192,171096,1,0,0:0:0:0:
256,192,171227,1,8,0:0:0:0:
256,192,171292,1,8,0:0:0:0:
256,192,171357,1,0,0:0:0:0:
256,192,171422,1,0,0:0:0:0:
256,192,171488,1,8,0:0:0:0:
256,192,171618,1,8,0:0:0:0:
256,192,171683,1,8,0:0:0:0:
256,192,171748,1,0,0:0:0:0:
256,192,171879,1,0,0:0:0:0:
256,192,172009,1,8,0:0:0:0:
256,192,172140,1,8,0:0:0:0:
256,192,172270,1,0,0:0:0:0:
256,192,172335,1,8,0:0:0:0:
256,192,172401,1,0,0:0:0:0:
256,192,172466,1,0,0:0:0:0:
256,192,172531,1,8,0:0:0:0:
256,192,172661,1,8,0:0:0:0:
256,192,172792,1,0,0:0:0:0:
256,192,172922,1,0,0:0:0:0:
256,192,172988,1,0,0:0:0:0:
256,192,173053,1,8,0:0:0:0:
256,192,173183,1,0,0:0:0:0:
256,192,173314,1,8,0:0:0:0:
256,192,173379,1,8,0:0:0:0:
256,192,173444,1,8,0:0:0:0:
256,192,173509,1,0,0:0:0:0:
256,192,173574,1,8,0:0:0:0:
256,192,173705,1,0,0:0:0:0:
256,192,173835,1,8,0:0:0:0:
256,192,173901,1,8,0:0:0:0:
256,192,173966,1,0,0:0:0:0:
256,192,174096,1,0,0:0:0:0:
256,192,174227,1,8,0:0:0:0:
256,192,174292,1,0,0:0:0:0:
256,192,174357,1,8,0:0:0:0:
256,192,174422,1,0,0:0:0:0:
256,192,174488,1,0,0:0:0:0:
256,192,174618,1,8,0:0:0:0:
256,192,174748,1,0,0:0:0:0:
256,192,174879,1,8,0:0:0:0:
256,192,175140,1,8,0:0:0:0:
256,192,175401,1,8,0:0:0:0:
256,192,175922,1,4,0:0:0:0:
256,192,176183,1,8,0:0:0:0:
256,192,176314,1,8,0:0:0:0:
256,192,176444,1,4,0:0:0:0:
256,192,176705,1,8,0:0:0:0:
256,192,176966,1,4,0:0:0:0:
256,192,177096,1,8,0:0:0:0:
256,192,177227,1,8,0:0:0:0:
256,192,177357,1,8,0:0:0:0:
256,192,177488,1,4,0:0:0:0:
256,192,177618,1,8,0:0:0:0:
256,192,177748,1,0,0:0:0:0:
256,192,178009,1,4,0:0:0:0:
256,192,178270,1,8,0:0:0:0:
256,192,178401,1,8,0:0:0:0:
256,192,178531,1,4,0:0:0:0:
256,192,178792,1,8,0:0:0:0:
256,192,179053,1,4,0:0:0:0:
256,192,179314,1,8,0:0:0:0:
256,192,179444,1,8,0:0:0:0:
256,192,179574,1,0,0:0:0:0:
256,192,179705,1,0,0:0:0:0:
256,192,179748,1,0,0:0:0:0:
256,192,179792,1,0,0:0:0:0:
256,192,179835,1,8,0:0:0:0:
256,192,179966,1,8,0:0:0:0:
256,192,180096,1,4,0:0:0:0:
256,192,180357,1,8,0:0:0:0:
256,192,180488,1,8,0:0:0:0:
256,192,180618,1,4,0:0:0:0:
256,192,180879,1,8,0:0:0:0:
256,192,181140,1,4,0:0:0:0:
256,192,181270,1,8,0:0:0:0:
256,192,181401,1,8,0:0:0:0:
256,192,181531,1,8,0:0:0:0:
256,192,181661,1,4,0:0:0:0:
256,192,181792,1,8,0:0:0:0:
256,192,181922,1,0,0:0:0:0:
256,192,182053,1,0,0:0:0:0:
256,192,182118,1,0,0:0:0:0:
256,192,182183,1,8,0:0:0:0:
256,192,182248,1,8,0:0:0:0:
256,192,182314,1,8,0:0:0:0:
256,192,182444,1,0,0:0:0:0:
256,192,182574,1,8,0:0:0:0:
256,192,182640,1,8,0:0:0:0:
256,192,182705,1,8,0:0:0:0:
256,192,182835,1,0,0:0:0:0:
256,192,182966,1,8,0:0:0:0:
256,192,183031,1,8,0:0:0:0:
256,192,183096,1,8,0:0:0:0:
256,192,183227,1,0,0:0:0:0:
256,192,183357,1,8,0:0:0:0:
256,192,183401,1,8,0:0:0:0:
256,192,183444,1,8,0:0:0:0:
256,192,183488,1,8,0:0:0:0:
256,192,183618,1,0,0:0:0:0:
256,192,183748,1,12,0:0:0:0:
256,192,183879,1,0,0:0:0:0:
256,192,184009,1,12,0:0:0:0:
256,192,184270,5,0,0:0:0:0:
256,192,184314,1,0,0:0:0:0:
256,192,184357,1,0,0:0:0:0:
256,192,184401,1,8,0:0:0:0:
256,192,184531,1,8,0:0:0:0:
256,192,184574,1,8,0:0:0:0:
256,192,184618,1,8,0:0:0:0:
256,192,184661,1,0,0:0:0:0:
256,192,184792,1,12,0:0:0:0:
256,192,184922,1,0,0:0:0:0:
256,192,184988,1,0,0:0:0:0:
256,192,185053,1,8,0:0:0:0:
256,192,185183,1,8,0:0:0:0:
256,192,185248,1,0,0:0:0:0:
256,192,185379,1,0,0:0:0:0:
256,192,185444,1,8,0:0:0:0:
256,192,185509,1,0,0:0:0:0:
256,192,185574,1,8,0:0:0:0:
256,192,185640,1,8,0:0:0:0:
256,192,185705,1,0,0:0:0:0:
256,192,185770,1,8,0:0:0:0:
256,192,185835,1,0,0:0:0:0:
256,192,185966,1,0,0:0:0:0:
256,192,186031,1,0,0:0:0:0:
256,192,186096,1,8,0:0:0:0:
256,192,186227,1,0,0:0:0:0:
256,192,186357,1,8,0:0:0:0:
256,192,186422,1,8,0:0:0:0:
256,192,186488,1,0,0:0:0:0:
256,192,186553,1,0,0:0:0:0:
256,192,186618,1,8,0:0:0:0:
256,192,186683,1,8,0:0:0:0:
256,192,186748,1,0,0:0:0:0:
256,192,186814,1,8,0:0:0:0:
256,192,186879,1,0,0:0:0:0:
256,192,187009,1,0,0:0:0:0:
256,192,187140,1,8,0:0:0:0:
256,192,187205,1,0,0:0:0:0:
256,192,187270,1,8,0:0:0:0:
256,192,187335,1,8,0:0:0:0:
256,192,187401,1,0,0:0:0:0:
256,192,187531,1,0,0:0:0:0:
256,192,187596,1,0,0:0:0:0:
256,192,187661,1,8,0:0:0:0:
256,192,187792,1,0,0:0:0:0:
256,192,187922,1,8,0:0:0:0:
256,192,187988,1,8,0:0:0:0:
256,192,188053,1,0,0:0:0:0:
256,192,188118,1,0,0:0:0:0:
256,192,188183,1,8,0:0:0:0:
256,192,188314,1,0,0:0:0:0:
256,192,188444,1,8,0:0:0:0:
256,192,188509,1,0,0:0:0:0:
256,192,188574,1,8,0:0:0:0:
256,192,188640,1,0,0:0:0:0:
256,192,188705,1,8,0:0:0:0:
256,192,188770,1,8,0:0:0:0:
256,192,188835,1,0,0:0:0:0:
256,192,188901,1,0,0:0:0:0:
256,192,188966,1,8,0:0:0:0:
256,192,189096,1,0,0:0:0:0:
256,192,189161,1,0,0:0:0:0:
256,192,189227,1,8,0:0:0:0:
256,192,189357,1,8,0:0:0:0:
256,192,189422,1,0,0:0:0:0:
256,192,189553,1,0,0:0:0:0:
256,192,189618,1,8,0:0:0:0:
256,192,189683,1,0,0:0:0:0:
256,192,189748,1,8,0:0:0:0:
256,192,189814,1,8,0:0:0:0:
256,192,189879,1,0,0:0:0:0:
256,192,189944,1,0,0:0:0:0:
256,192,190009,1,8,0:0:0:0:
256,192,190074,1,0,0:0:0:0:
256,192,190140,1,0,0:0:0:0:
256,192,190270,1,8,0:0:0:0:
256,192,190335,1,8,0:0:0:0:
256,192,190401,1,8,0:0:0:0:
256,192,190466,1,8,0:0:0:0:
256,192,190531,1,4,0:0:0:0:
256,192,190922,1,4,0:0:0:0:
256,192,191314,1,12,0:0:0:0:
256,192,191705,1,12,0:0:0:0:
256,192,191835,1,4,0:0:0:0:
256,192,192096,1,4,0:0:0:0:
256,192,192357,1,12,0:0:0:0:
256,192,192618,5,4,0:0:0:0:
256,192,192748,1,8,0:0:0:0:
256,192,192814,1,8,0:0:0:0:
256,192,192879,1,0,0:0:0:0:
256,192,193009,1,8,0:0:0:0:
256,192,193140,1,0,0:0:0:0:
256,192,193205,1,0,0:0:0:0:
256,192,193270,1,8,0:0:0:0:
256,192,193335,1,0,0:0:0:0:
256,192,193401,1,8,0:0:0:0:
256,192,193531,1,0,0:0:0:0:
256,192,193661,1,8,0:0:0:0:
256,192,193727,1,0,0:0:0:0:
256,192,193792,1,0,0:0:0:0:
256,192,193922,1,8,0:0:0:0:
256,192,194053,1,8,0:0:0:0:
256,192,194183,1,0,0:0:0:0:
256,192,194248,1,0,0:0:0:0:
256,192,194314,1,8,0:0:0:0:
256,192,194379,1,0,0:0:0:0:
256,192,194444,1,8,0:0:0:0:
256,192,194509,1,8,0:0:0:0:
256,192,194574,1,0,0:0:0:0:
256,192,194705,1,8,0:0:0:0:
256,192,194835,1,8,0:0:0:0:
256,192,194901,1,8,0:0:0:0:
256,192,194966,1,0,0:0:0:0:
256,192,195096,1,8,0:0:0:0:
256,192,195227,1,0,0:0:0:0:
256,192,195292,1,0,0:0:0:0:
256,192,195357,1,8,0:0:0:0:
256,192,195422,1,0,0:0:0:0:
256,192,195488,1,8,0:0:0:0:
256,192,195618,1,8,0:0:0:0:
256,192,195748,1,0,0:0:0:0:
256,192,195814,1,0,0:0:0:0:
256,192,195879,1,8,0:0:0:0:
256,192,196009,1,0,0:0:0:0:
256,192,196140,1,8,0:0:0:0:
256,192,196205,1,0,0:0:0:0:
256,192,196270,1,0,0:0:0:0:
256,192,196335,1,0,0:0:0:0:
256,192,196401,1,8,0:0:0:0:
256,192,196466,1,0,0:0:0:0:
256,192,196531,1,8,0:0:0:0:
256,192,196661,1,0,0:0:0:0:
256,192,196792,1,8,0:0:0:0:
256,192,196922,1,0,0:0:0:0:
256,192,196988,1,0,0:0:0:0:
256,192,197053,1,0,0:0:0:0:
256,192,197183,1,8,0:0:0:0:
256,192,197314,1,0,0:0:0:0:
256,192,197379,1,8,0:0:0:0:
256,192,197444,1,8,0:0:0:0:
256,192,197509,1,0,0:0:0:0:
256,192,197574,1,8,0:0:0:0:
256,192,197705,1,0,0:0:0:0:
256,192,197835,1,8,0:0:0:0:
256,192,197966,1,0,0:0:0:0:
256,192,198031,1,0,0:0:0:0:
256,192,198096,1,8,0:0:0:0:
256,192,198161,1,8,0:0:0:0:
256,192,198227,1,0,0:0:0:0:
256,192,198357,1,8,0:0:0:0:
256,192,198488,1,0,0:0:0:0:
256,192,198553,1,0,0:0:0:0:
256,192,198618,1,8,0:0:0:0:
256,192,198748,1,8,0:0:0:0:
256,192,198792,1,8,0:0:0:0:
256,192,198835,1,8,0:0:0:0:
256,192,198879,1,0,0:0:0:0:
256,192,198944,1,0,0:0:0:0:
256,192,199009,1,8,0:0:0:0:
256,192,199074,1,8,0:0:0:0:
256,192,199140,1,0,0:0:0:0:
256,192,199270,1,0,0:0:0:0:
256,192,199335,1,0,0:0:0:0:
256,192,199401,1,8,0:0:0:0:
256,192,199466,1,8,0:0:0:0:
256,192,199531,1,0,0:0:0:0:
256,192,199661,1,0,0:0:0:0:
256,192,199727,1,0,0:0:0:0:
256,192,199792,1,8,0:0:0:0:
256,192,199857,1,8,0:0:0:0:
256,192,199922,1,0,0:0:0:0:
256,192,200053,1,0,0:0:0:0:
256,192,200096,1,8,0:0:0:0:
256,192,200140,1,8,0:0:0:0:
256,192,200183,1,0,0:0:0:0:
256,192,200248,1,8,0:0:0:0:
256,192,200314,1,0,0:0:0:0:
256,192,200444,1,8,0:0:0:0:
256,192,200509,1,8,0:0:0:0:
256,192,200574,1,0,0:0:0:0:
256,192,200640,1,0,0:0:0:0:
256,192,200705,1,12,0:0:0:0:
256,192,200966,1,4,0:0:0:0:
256,192,201096,1,0,0:0:0:0:
256,192,201161,1,0,0:0:0:0:
256,192,201227,1,8,0:0:0:0:
256,192,201357,1,0,0:0:0:0:
256,192,201488,1,8,0:0:0:0:
256,192,201553,1,8,0:0:0:0:
256,192,201618,1,0,0:0:0:0:
256,192,201683,1,0,0:0:0:0:
256,192,201748,1,8,0:0:0:0:
256,192,201814,1,0,0:0:0:0:
256,192,201879,1,0,0:0:0:0:
256,192,202009,1,8,0:0:0:0:
256,192,202140,1,0,0:0:0:0:
256,192,202205,1,0,0:0:0:0:
256,192,202270,1,8,0:0:0:0:
256,192,202335,1,8,0:0:0:0:
256,192,202401,1,0,0:0:0:0:
256,192,202466,1,8,0:0:0:0:
256,192,202531,1,0,0:0:0:0:
256,192,202661,1,8,0:0:0:0:
256,192,202727,1,0,0:0:0:0:
256,192,202792,1,8,0:0:0:0:
256,192,202857,1,8,0:0:0:0:
256,192,202922,1,0,0:0:0:0:
256,192,202988,1,8,0:0:0:0:
256,192,203053,1,0,0:0:0:0:
256,192,203118,1,0,0:0:0:0:
256,192,203183,1,8,0:0:0:0:
256,192,203314,1,0,0:0:0:0:
256,192,203379,1,8,0:0:0:0:
256,192,203444,1,0,0:0:0:0:
256,192,203509,1,0,0:0:0:0:
256,192,203574,1,8,0:0:0:0:
256,192,203705,1,0,0:0:0:0:
256,192,203770,1,0,0:0:0:0:
256,192,203835,1,8,0:0:0:0:
256,192,203966,1,0,0:0:0:0:
256,192,204096,1,8,0:0:0:0:
256,192,204161,1,8,0:0:0:0:
256,192,204227,1,8,0:0:0:0:
256,192,204292,1,8,0:0:0:0:
256,192,204357,1,0,0:0:0:0:
256,192,204422,1,0,0:0:0:0:
256,192,204488,1,0,0:0:0:0:
256,192,204553,1,0,0:0:0:0:
256,192,204618,1,8,0:0:0:0:
256,192,204661,1,8,0:0:0:0:
256,192,204705,1,8,0:0:0:0:
256,192,204748,1,0,0:0:0:0:
256,192,204879,1,12,0:0:0:0:
256,192,205140,1,4,0:0:0:0:
256,192,205270,1,0,0:0:0:0:
256,192,205335,1,0,0:0:0:0:
256,192,205401,1,8,0:0:0:0:
256,192,205531,1,8,0:0:0:0:
256,192,205661,1,0,0:0:0:0:
256,192,205792,1,0,0:0:0:0:
256,192,205857,1,0,0:0:0:0:
256,192,205922,1,8,0:0:0:0:
256,192,205988,1,8,0:0:0:0:
256,192,206053,1,0,0:0:0:0:
256,192,206183,1,0,0:0:0:0:
256,192,206314,1,0,0:0:0:0:
256,192,206379,1,0,0:0:0:0:
256,192,206444,1,8,0:0:0:0:
256,192,206574,1,8,0:0:0:0:
256,192,206705,1,0,0:0:0:0:
256,192,206770,1,0,0:0:0:0:
256,192,206835,1,0,0:0:0:0:
256,192,206966,1,8,0:0:0:0:
256,192,207096,1,8,0:0:0:0:
256,192,207140,1,8,0:0:0:0:
256,192,207183,1,8,0:0:0:0:
256,192,207227,1,0,0:0:0:0:
256,192,207422,1,4,0:0:0:0:
256,192,207618,1,4,0:0:0:0:
256,192,207748,1,8,0:0:0:0:
256,192,207879,1,8,0:0:0:0:
256,192,207922,1,8,0:0:0:0:
256,192,207966,1,8,0:0:0:0:
256,192,208009,1,0,0:0:0:0:
256,192,208205,1,4,0:0:0:0:
256,192,208401,1,4,0:0:0:0:
256,192,208531,1,8,0:0:0:0:
256,192,208661,1,8,0:0:0:0:
256,192,208705,1,8,0:0:0:0:
256,192,208748,1,8,0:0:0:0:
256,192,208792,1,0,0:0:0:0:
256,192,208922,1,4,0:0:0:0:
