osu file format v14

[General]
AudioFilename: audio.mp3
AudioLeadIn: 0
PreviewTime: 107778
Countdown: 0
SampleSet: Soft
StackLeniency: 0.7
Mode: 2
LetterboxInBreaks: 0
WidescreenStoryboard: 1

[Editor]
DistanceSpacing: 0.4
BeatDivisor: 4
GridSize: 4
TimelineZoom: 2.699999

[Metadata]
Title:People People feat. Nanahira
TitleUnicode:ピポピポ -People People- feat. ななひら
Artist:Neko Hacker
ArtistUnicode:Neko Hacker
Creator:My Angel RangE
Version:-Rain Rain-
Source:
Tags:nnzn kawaii future rock j-pop jpop pop featured artist fa ピポピポチャレンジ pipopipo challenge ネコハッカー sera kassan かっさん confetto neko hacker Ⅱ: stray jrock j-rock electronic japanese mpg mappers guild Muse Dash
BeatmapID:4125040
BeatmapSetID:1828947

[Difficulty]
HPDrainRate:4.5
CircleSize:4
OverallDifficulty:9.1
ApproachRate:9.1
SliderMultiplier:1.5
SliderTickRate:2

[Events]
//Background and Video events
0,0,"noname.jpg",0,0
//Break Periods
//Storyboard Layer 0 (Background)
//Storyboard Layer 1 (Fail)
//Storyboard Layer 2 (Pass)
//Storyboard Layer 3 (Foreground)
//Storyboard Layer 4 (Overlay)
//Storyboard Sound Samples

[TimingPoints]
365,260.869565217391,4,2,2,60,1,0
8712,-100,4,2,2,70,0,1
14973,-100,4,2,2,60,0,0
50451,-100,4,2,2,70,0,1
67147,-100,4,2,2,70,0,0
75495,-100,4,2,2,60,0,0
108886,-100,4,2,2,60,0,1
125582,-100,4,2,2,40,0,0
133930,-100,4,2,2,60,0,0
175669,-100,4,2,2,50,0,0
181930,-100,4,2,2,70,0,0
184538,-100,4,2,2,70,0,1
192364,-100,4,2,2,70,0,0
200712,-100,4,2,2,70,0,1
206973,-100,4,2,2,70,0,0
209060,-100,4,2,2,20,0,0

[Colours]
Combo1 : 175,96,255
Combo2 : 176,176,255

[HitObjects]
216,168,104,6,0,L|152:168,1,37.5,2|2,0:0|0:0,0:0:0:0:
178,168,234,2,0,L|216:168,1,37.5,2|2,0:0|0:0,0:0:0:0:
368,172,365,6,0,P|416:160|360:116,1,150,4|8,0:0|0:0,0:0:0:0:
276,112,756,1,2,0:0:0:0:
400,112,886,2,0,L|480:112,1,75,2|2,0:0|0:0,0:0:0:0:
475,112,1147,2,0,L|400:112,1,75,8|2,0:0|0:0,0:0:0:0:
196,108,1408,6,0,L|88:108,1,75,2|2,0:0|0:0,0:0:0:0:
120,84,1669,2,0,L|228:84,1,75,8|2,0:0|0:0,0:0:0:0:
300,56,1930,2,0,L|196:56,1,75,2|2,0:0|0:0,0:0:0:0:
300,96,2191,2,0,L|404:96,1,75,8|2,0:0|0:0,0:0:0:0:
160,60,2451,6,0,L|64:60,2,75,2|2|8,0:0|0:0|0:0,0:0:0:0:
256,112,2843,2,0,L|84:112,1,150,2|2,0:0|0:0,0:0:0:0:
224,168,3234,2,0,L|304:168,1,75,8|2,0:0|0:0,0:0:0:0:
96,172,3495,6,0,L|16:172,2,75,2|2|8,0:0|0:0|0:0,0:0:0:0:
172,96,3886,2,0,L|0:96,1,150,2|2,0:0|0:0,0:0:0:0:
96,136,4278,2,0,L|180:136,1,75,8|2,0:0|0:0,0:0:0:0:
380,140,4538,6,0,L|464:140,2,75,2|2|8,0:0|0:0|0:0,0:0:0:0:
268,140,4930,2,0,P|284:68|368:48,1,150,2|2,0:0|0:0,0:0:0:0:
440,48,5321,2,0,L|365:47,1,75,8|2,0:0|0:0,0:0:0:0:
120,64,5582,6,0,L|288:64,1,150,2|8,0:0|0:0,0:0:0:0:
192,112,5973,2,0,L|24:112,1,150,2|2,0:0|0:0,0:0:0:0:
120,156,6364,2,0,L|204:156,1,75,8|2,0:0|0:0,0:0:0:0:
424,128,6625,6,0,L|468:128,1,37.5,2|2,0:0|0:0,0:0:0:0:
461,128,6756,2,0,L|424:128,1,37.5,2|2,0:0|0:0,0:0:0:0:
160,60,7016,2,0,L|116:60,1,37.5,2|2,0:0|0:0,0:0:0:0:
123,60,7147,2,0,L|160:60,1,37.5,2|2,0:0|0:0,0:0:0:0:
420,72,7408,2,0,L|464:72,1,37.5,2|2,0:0|0:0,0:0:0:0:
457,72,7539,2,0,L|420:72,1,37.5,2|2,0:0|0:0,0:0:0:0:
160,160,7799,6,0,L|116:160,1,37.5,2|2,0:0|0:0,0:0:0:0:
123,160,7930,2,0,L|160:160,1,37.5,2|2,0:0|0:0,0:0:0:0:
424,232,8191,2,0,P|448:188|408:144,1,112.5,2|2,0:0|0:0,0:0:0:0:
356,144,8451,2,0,L|431:144,1,75,8|0,0:0|0:0,0:0:0:0:
224,112,8712,6,0,L|164:112,1,37.5,4|0,0:0|0:0,0:0:0:0:
186,112,8843,2,0,L|224:112,1,37.5,2|0,0:0|0:0,0:0:0:0:
264,112,8973,2,0,L|324:112,1,37.5,2|0,0:0|0:0,0:0:0:0:
302,112,9104,2,0,L|264:112,1,37.5,2|0,0:0|0:0,0:0:0:0:
116,48,9234,2,0,L|28:48,1,75,8|2,0:0|0:0,0:0:0:0:
41,48,9495,2,0,L|129:48,1,75,2|2,0:0|0:0,0:0:0:0:
312,160,9756,5,8,1:0:0:0:
348,167,9821,1,0,0:0:0:0:
382,153,9886,1,2,0:0:0:0:
402,121,9951,1,0,0:0:0:0:
400,85,10016,1,2,0:0:0:0:
378,55,10082,1,0,0:0:0:0:
343,43,10147,1,2,0:0:0:0:
308,53,10212,1,0,0:0:0:0:
492,44,10278,6,0,L|492:144,1,75,8|2,0:0|0:0,0:0:0:0:
417,119,10538,2,0,L|492:119,1,75,2|2,0:0|0:0,0:0:0:0:
280,184,10799,5,8,1:0:0:0:
270,147,10864,1,0,0:0:0:0:
273,110,10929,1,2,0:0:0:0:
288,76,10994,1,0,0:0:0:0:
313,48,11059,1,2,0:0:0:0:
346,30,11125,1,0,0:0:0:0:
383,24,11190,1,2,0:0:0:0:
420,30,11255,1,0,0:0:0:0:
252,32,11321,6,0,L|172:32,1,75,8|2,0:0|0:0,0:0:0:0:
252,32,11582,2,0,L|332:32,1,75,2|2,0:0|0:0,0:0:0:0:
96,96,11843,6,0,L|100:28,1,37.5,8|0,1:0|0:0,0:0:0:0:
136,56,11973,2,0,L|184:56,1,37.5,2|0,0:0|0:0,0:0:0:0:
200,76,12104,2,0,L|104:76,1,75,2|2,0:0|0:0,0:0:0:0:
220,76,12364,6,0,L|257:76,1,37.5,8|0,0:0|0:0,0:0:0:0:
257,76,12495,2,0,L|220:76,1,37.5,0|0,0:0|0:0,0:0:0:0:
64,72,12625,2,0,L|64:176,1,75,8|0,1:0|0:0,0:0:0:0:
264,144,12886,6,0,L|301:144,1,37.5,4|0,0:0|0:0,0:0:0:0:
300,128,13017,2,0,L|262:128,1,37.5,2|0,0:0|0:0,0:0:0:0:
236,124,13147,2,0,L|199:124,1,37.5,2|0,0:0|0:0,0:0:0:0:
200,108,13278,2,0,L|238:108,1,37.5,2|0,0:0|0:0,0:0:0:0:
400,80,13408,6,0,L|504:80,1,75,8|2,0:0|0:0,0:0:0:0:
475,80,13669,2,0,L|400:80,1,75,2|2,0:0|0:0,0:0:0:0:
208,44,13930,6,0,L|164:44,1,37.5,8|0,1:0|0:0,0:0:0:0:
170,44,14060,2,0,L|214:44,1,37.5,2|0,0:0|0:0,0:0:0:0:
236,44,14191,2,0,L|280:44,1,37.5,2|0,0:0|0:0,0:0:0:0:
274,44,14321,2,0,L|230:44,1,37.5,2|0,0:0|0:0,0:0:0:0:
64,44,14451,6,0,L|64:152,1,75,8|2,0:0|0:0,0:0:0:0:
160,120,14712,2,0,L|240:120,1,75,2|2,0:0|0:0,0:0:0:0:
40,176,14973,6,0,P|48:116|96:96,1,112.5,2|2,0:0|0:0,0:0:0:0:
160,96,15267,1,0,0:0:0:0:
90,95,15364,2,0,P|44:80|100:36,1,150,8|0,0:0|0:0,0:0:0:0:
372,164,15756,6,0,P|364:104|316:84,1,112.5,2|2,0:0|0:0,0:0:0:0:
252,84,16050,1,0,0:0:0:0:
321,83,16147,2,0,P|367:67|311:23,1,150,8|0,0:0|0:0,0:0:0:0:
71,18,16538,2,0,L|71:122,1,75,2|2,0:0|0:0,0:0:0:0:
276,216,17060,6,0,P|328:168|272:144,1,150,4|8,0:0|0:0,0:0:0:0:
196,140,17451,1,2,0:0:0:0:
278,141,17582,2,0,L|374:141,1,75,0|2,0:0|0:0,0:0:0:0:
278,141,17843,1,8,0:0:0:0:
132,140,17973,6,0,P|80:104|140:72,1,150,2|2,0:0|0:0,0:0:0:0:
216,48,18364,1,8,0:0:0:0:
134,48,18495,1,0,0:0:0:0:
332,48,18625,2,0,L|412:48,1,75,2|2,0:0|0:0,0:0:0:0:
332,48,18886,2,0,L|252:48,1,75,8|0,0:0|0:0,0:0:0:0:
460,180,19147,6,0,P|448:132|348:108,1,150,2|8,0:0|0:0,0:0:0:0:
160,104,19538,2,0,L|320:104,1,150,2|2,0:0|0:0,0:0:0:0:
232,56,19930,2,0,L|140:56,2,75,8|2|0,0:0|0:0|0:0,0:0:0:0:
43,116,20321,6,0,L|147:116,1,75,2|8,0:0|0:0,0:0:0:0:
118,116,20582,2,0,L|43:116,2,75,2|2|2,0:0|0:0|0:0,0:0:0:0:
307,56,20973,2,0,L|219:56,1,75,8|0,0:0|0:0,0:0:0:0:
432,116,21234,6,0,L|432:28,1,75,2|0,0:0|0:0,0:0:0:0:
340,44,21495,1,8,0:0:0:0:
144,116,21625,2,0,L|304:116,1,150,2|2,0:0|0:0,0:0:0:0:
224,116,22017,1,8,0:0:0:0:
76,168,22147,6,0,P|28:160|84:120,1,150,2|2,0:0|0:0,0:0:0:0:
156,112,22538,1,8,0:0:0:0:
352,116,22669,2,0,L|460:116,2,75,2|2|2,0:0|0:0|0:0,0:0:0:0:
156,112,23060,2,0,L|72:112,1,75,8|2,0:0|0:0,0:0:0:0:
280,112,23321,6,0,L|384:112,2,75,2|0|8,0:0|0:0|0:0,0:0:0:0:
62,104,23712,2,0,P|78:56|174:24,1,150,2|2,0:0|0:0,0:0:0:0:
88,24,24104,1,8,0:0:0:0:
236,68,24234,6,0,P|280:132|224:140,1,150,2|2,0:0|0:0,0:0:0:0:
162,146,24625,2,0,L|250:146,1,75,8|2,0:0|0:0,0:0:0:0:
160,196,24886,2,0,L|72:196,1,75,2|2,0:0|0:0,0:0:0:0:
344,192,25147,2,0,L|344:104,1,75,8|2,0:0|0:0,0:0:0:0:
284,116,25343,1,2,0:0:0:0:
160,112,25408,6,0,P|116:100|168:44,1,150,4|8,0:0|0:0,0:0:0:0:
244,44,25799,1,2,0:0:0:0:
319,44,25930,2,0,L|231:44,1,75,0|2,0:0|0:0,0:0:0:0:
160,40,26191,1,8,0:0:0:0:
360,120,26321,6,0,L|176:120,1,150,2|2,0:0|0:0,0:0:0:0:
288,176,26712,2,0,L|376:176,1,75,8|0,0:0|0:0,0:0:0:0:
164,200,26973,2,0,L|80:200,1,75,2|2,0:0|0:0,0:0:0:0:
164,200,27234,2,0,L|248:200,1,75,8|0,0:0|0:0,0:0:0:0:
36,200,27495,6,0,P|44:128|140:92,1,150,2|8,0:0|0:0,0:0:0:0:
308,64,27886,2,0,L|156:64,1,150,2|2,0:0|0:0,0:0:0:0:
232,124,28278,1,8,0:0:0:0:
376,144,28408,6,0,P|416:132|364:68,1,150,2|2,0:0|0:0,0:0:0:0:
284,64,28799,1,8,0:0:0:0:
376,63,28930,2,0,L|472:63,2,75,2|2|2,0:0|0:0|0:0,0:0:0:0:
284,64,29321,2,0,L|359:64,1,75,8|0,0:0|0:0,0:0:0:0:
160,64,29582,6,0,L|60:64,2,75,2|0|8,0:0|0:0|0:0,0:0:0:0:
360,120,29973,2,0,L|200:120,1,150,2|2,0:0|0:0,0:0:0:0:
284,180,30364,1,8,0:0:0:0:
140,176,30495,6,0,P|91:132|144:93,1,150,2|2,0:0|0:0,0:0:0:0:
224,96,30886,1,8,0:0:0:0:
424,96,31017,2,0,L|508:96,1,75,2|0,0:0|0:0,0:0:0:0:
499,96,31278,2,0,L|424:96,2,75,2|8|2,0:0|0:0|0:0,0:0:0:0:
460,96,31604,1,2,0:0:0:0:
299,96,31669,6,0,L|211:96,1,75,4|2,0:0|0:0,0:0:0:0:
384,136,32060,2,0,L|472:136,1,75,8|2,0:0|0:0,0:0:0:0:
299,96,32451,6,0,L|211:96,1,75,8|2,0:0|0:0,0:0:0:0:
416,156,32842,2,0,L|504:156,2,75,8|2|0,0:0|0:0|0:0,0:0:0:0:
264,112,33234,2,0,L|176:112,1,75,8|0,0:0|0:0,0:0:0:0:
264,112,33495,2,0,L|352:112,1,75,8|0,0:0|0:0,0:0:0:0:
128,156,33756,6,0,P|88:148|140:92,1,150,4|0,0:0|0:0,0:0:0:0:
208,88,34147,1,0,0:0:0:0:
480,96,34278,2,0,L|304:96,1,150,8|2,0:0|0:0,0:0:0:0:
404,80,34669,1,2,0:0:0:0:
284,44,34799,6,0,L|192:44,2,75,2|2|0,0:0|0:0|0:0,0:0:0:0:
368,40,35191,1,2,0:0:0:0:
172,96,35321,2,0,L|84:96,1,75,8|2,0:0|0:0,0:0:0:0:
97,96,35582,2,0,L|185:96,1,75,0|2,0:0|0:0,0:0:0:0:
308,96,35843,6,0,L|404:96,1,75,2|0,0:0|0:0,0:0:0:0:
383,96,36104,2,0,L|287:96,1,75,2|0,0:0|0:0,0:0:0:0:
80,120,36364,2,0,P|96:56|180:36,1,150,8|2,0:0|0:0,0:0:0:0:
92,32,36756,1,0,0:0:0:0:
168,80,36886,6,0,L|264:80,1,75,2|2,0:0|0:0,0:0:0:0:
243,80,37147,2,0,L|147:80,1,75,2|2,0:0|0:0,0:0:0:0:
376,80,37408,2,0,L|456:80,1,75,8|2,0:0|0:0,0:0:0:0:
451,80,37669,2,0,L|376:80,1,75,2|2,0:0|0:0,0:0:0:0:
168,160,37930,6,0,P|120:152|176:112,1,150,2|2,0:0|0:0,0:0:0:0:
244,108,38321,1,0,0:0:0:0:
440,104,38451,2,0,L|440:28,1,75,8|0,0:0|0:0,0:0:0:0:
365,29,38712,2,0,L|453:29,1,75,2|2,0:0|0:0,0:0:0:0:
304,68,38973,6,0,L|216:68,2,75,2|2|0,0:0|0:0|0:0,0:0:0:0:
384,68,39364,1,2,0:0:0:0:
180,120,39495,2,0,L|96:120,1,75,8|0,0:0|0:0,0:0:0:0:
180,120,39756,2,0,L|264:120,1,75,2|2,0:0|0:0,0:0:0:0:
32,156,40017,6,0,P|32:100|128:68,1,150,0|2,0:0|0:0,0:0:0:0:
32,64,40408,1,2,0:0:0:0:
252,156,40538,2,0,P|252:100|156:68,1,150,8|2,0:0|0:0,0:0:0:0:
252,64,40929,1,2,0:0:0:0:
396,64,41060,6,0,L|484:64,2,75,2|2|2,0:0|0:0|0:0,0:0:0:0:
312,64,41451,1,0,0:0:0:0:
100,56,41582,2,0,L|28:56,1,37.5,8|0,0:0|0:0,0:0:0:0:
62,56,41712,2,0,L|100:56,1,37.5,0|0,0:0|0:0,0:0:0:0:
136,56,41843,2,0,L|52:56,1,75,2|2,0:0|0:0,0:0:0:0:
280,116,42104,6,0,L|372:116,2,75,4|0|2,0:0|0:0|0:0,0:0:0:0:
136,112,42495,2,0,L|44:112,2,75,8|0|2,0:0|0:0|0:0,0:0:0:0:
280,64,42886,2,0,L|344:64,1,37.5,8|0,0:0|0:0,0:0:0:0:
317,64,43017,2,0,L|271:64,1,37.5,2|0,0:0|0:0,0:0:0:0:
96,132,43147,6,0,L|96:28,1,75,8|0,0:0|0:0,0:0:0:0:
184,56,43408,1,2,0:0:0:0:
328,188,43538,2,0,L|328:84,1,75,8|0,0:0|0:0,0:0:0:0:
240,112,43799,1,2,0:0:0:0:
380,72,43930,2,0,L|424:72,1,37.5,8|0,0:0|0:0,0:0:0:0:
417,72,44060,2,0,L|380:72,1,37.5,2|0,0:0|0:0,0:0:0:0:
184,36,44191,6,0,L|96:36,2,75,8|0|2,0:0|0:0|0:0,0:0:0:0:
320,36,44582,2,0,L|408:36,2,75,8|0|2,0:0|0:0|0:0,0:0:0:0:
184,36,44973,2,0,L|124:36,1,37.5,8|0,0:0|0:0,0:0:0:0:
146,36,45104,2,0,L|183:36,1,37.5,2|0,0:0|0:0,0:0:0:0:
324,96,45234,6,0,L|388:96,1,37.5,8|0,0:0|0:0,0:0:0:0:
361,96,45364,2,0,L|324:96,1,37.5,0|0,0:0|0:0,0:0:0:0:
292,96,45495,2,0,L|228:96,1,37.5,2|0,0:0|0:0,0:0:0:0:
254,96,45625,2,0,L|291:96,1,37.5,0|0,0:0|0:0,0:0:0:0:
416,176,45756,5,2,0:0:0:0:
449,191,45821,1,0,0:0:0:0:
484,183,45886,1,0,0:0:0:0:
507,155,45951,1,0,0:0:0:0:
507,118,46016,1,2,0:0:0:0:
484,89,46082,1,0,0:0:0:0:
448,81,46147,1,0,0:0:0:0:
415,98,46212,1,0,0:0:0:0:
248,140,46278,6,0,L|152:140,1,75,4|2,0:0|0:0,0:0:0:0:
248,140,46538,2,0,L|344:140,1,75,8|2,0:0|0:0,0:0:0:0:
184,76,46799,2,0,L|128:76,1,37.5,8|0,0:0|0:0,0:0:0:0:
146,76,46930,2,0,L|183:76,1,37.5,2|0,0:0|0:0,0:0:0:0:
208,76,47060,2,0,L|264:76,1,37.5,8|0,0:0|0:0,0:0:0:0:
246,76,47191,2,0,L|208:76,1,37.5,2|0,0:0|0:0,0:0:0:0:
32,112,47321,6,0,L|32:192,1,75,8|2,0:0|0:0,0:0:0:0:
107,187,47582,2,0,L|7:187,1,75,8|2,0:0|0:0,0:0:0:0:
180,184,47843,2,0,L|244:184,1,37.5,8|2,0:0|0:0,0:0:0:0:
217,184,47973,2,0,L|179:184,1,37.5,2|2,0:0|0:0,0:0:0:0:
152,144,48104,2,0,L|88:144,1,37.5,8|2,0:0|0:0,0:0:0:0:
115,144,48234,2,0,L|153:144,1,37.5,2|2,0:0|0:0,0:0:0:0:
184,144,48364,6,0,L|124:145,1,37.5,0|0,0:0|0:0,0:0:0:0:
136,106,48495,2,0,L|136:34,1,37.5,0|0,0:0|0:0,0:0:0:0:
184,144,48625,2,0,L|184:72,1,37.5,0|0,0:0|0:0,0:0:0:0:
136,106,48756,2,0,L|136:34,1,37.5,0|0,0:0|0:0,0:0:0:0:
184,144,48886,6,0,L|244:144,1,37.5,0|0,0:0|0:0,0:0:0:0:
184,180,49017,2,0,L|124:180,1,37.5,0|0,0:0|0:0,0:0:0:0:
184,144,49147,2,0,L|244:144,1,37.5,0|0,0:0|0:0,0:0:0:0:
184,180,49278,2,0,L|124:180,1,37.5,0|0,0:0|0:0,0:0:0:0:
188,216,49408,5,2,0:0:0:0:
332,216,49669,1,2,0:0:0:0:
188,176,49930,2,0,L|276:176,1,75,2|2,0:0|0:0,0:0:0:0:
476,176,50191,1,8,0:0:0:0:
476,112,50451,6,0,L|380:112,1,75,4|2,0:0|0:0,0:0:0:0:
326,112,50712,2,0,L|422:112,1,75,2|2,0:0|0:0,0:0:0:0:
186,112,50973,2,0,L|90:112,1,75,8|2,0:0|0:0,0:0:0:0:
111,112,51234,2,0,L|207:112,1,75,2|2,0:0|0:0,0:0:0:0:
404,80,51495,6,0,L|492:80,1,75,0|2,1:0|0:0,0:0:0:0:
404,80,51756,2,0,L|316:80,1,75,2|2,0:0|0:0,0:0:0:0:
132,48,52017,2,0,L|240:48,1,75,8|2,0:0|0:0,0:0:0:0:
132,48,52278,2,0,L|28:48,1,75,2|0,0:0|0:0,0:0:0:0:
256,112,52538,6,0,L|352:112,1,75,0|2,1:0|0:0,0:0:0:0:
331,112,52799,2,0,L|256:112,1,75,2|2,0:0|0:0,0:0:0:0:
48,112,53060,2,0,L|48:24,1,75,8|2,0:0|0:0,0:0:0:0:
123,37,53321,2,0,L|35:37,1,75,2|2,0:0|0:0,0:0:0:0:
252,80,53582,6,0,L|360:80,1,75,4|0,0:0|0:0,0:0:0:0:
252,80,53843,2,0,L|252:-16,1,75,2|0,0:0|0:0,0:0:0:0:
448,84,54104,2,0,L|448:168,1,75,2|0,0:0|0:0,0:0:0:0:
252,80,54364,2,0,L|177:80,1,75,8|0,0:0|0:0,0:0:0:0:
372,128,54625,6,0,L|468:128,1,75,4|2,0:0|0:0,0:0:0:0:
447,128,54886,2,0,L|372:128,1,75,2|2,0:0|0:0,0:0:0:0:
176,136,55147,2,0,L|176:48,1,75,8|2,0:0|0:0,0:0:0:0:
264,28,55408,2,0,L|360:28,1,75,2|2,0:0|0:0,0:0:0:0:
128,72,55669,6,0,L|203:72,1,75,0|2,1:0|0:0,0:0:0:0:
203,72,55930,2,0,L|128:72,1,75,2|2,0:0|0:0,0:0:0:0:
328,124,56191,2,0,L|432:124,1,75,8|2,0:0|0:0,0:0:0:0:
328,124,56451,2,0,L|253:124,1,75,2|0,0:0|0:0,0:0:0:0:
332,172,56712,6,0,L|388:172,1,37.5,4|0,0:0|0:0,0:0:0:0:
369,172,56843,2,0,L|332:172,1,37.5,0|0,0:0|0:0,0:0:0:0:
72,128,57104,2,0,L|16:128,1,37.5,4|0,0:0|0:0,0:0:0:0:
34,128,57235,2,0,L|71:128,1,37.5,0|0,0:0|0:0,0:0:0:0:
332,172,57495,6,0,L|388:172,1,37.5,4|0,0:0|0:0,0:0:0:0:
369,172,57626,2,0,L|332:172,1,37.5,0|0,0:0|0:0,0:0:0:0:
72,128,57887,2,0,L|16:128,1,37.5,4|0,0:0|0:0,0:0:0:0:
34,128,58018,2,0,L|71:128,1,37.5,0|0,0:0|0:0,0:0:0:0:
328,152,58278,6,0,L|232:152,1,75,8|0,0:0|0:0,0:0:0:0:
328,152,58538,2,0,L|424:152,1,75,8|0,0:0|0:0,0:0:0:0:
172,88,58799,6,0,L|112:88,1,37.5,2|0,0:0|0:0,0:0:0:0:
134,88,58930,2,0,L|172:88,1,37.5,2|0,0:0|0:0,0:0:0:0:
196,88,59060,2,0,L|256:88,1,37.5,2|0,0:0|0:0,0:0:0:0:
234,88,59191,2,0,L|196:88,1,37.5,2|0,0:0|0:0,0:0:0:0:
24,152,59321,2,0,L|24:60,1,75,8|0,0:0|0:0,0:0:0:0:
100,72,59582,1,2,0:0:0:0:
173,151,59712,6,0,L|23:151,1,150,2|2,0:0|0:0,0:0:0:0:
92,208,60104,2,0,L|180:208,1,75,2|2,0:0|0:0,0:0:0:0:
372,208,60364,2,0,L|447:208,1,75,8|0,0:0|0:0,0:0:0:0:
447,208,60625,2,0,L|372:208,1,75,2|0,0:0|0:0,0:0:0:0:
168,104,60886,6,0,L|80:104,1,75,2|2,0:0|0:0,0:0:0:0:
93,104,61147,2,0,L|181:104,1,75,2|2,0:0|0:0,0:0:0:0:
388,104,61408,2,0,L|388:20,1,75,8|0,0:0|0:0,0:0:0:0:
304,28,61669,1,2,0:0:0:0:
84,24,61799,6,0,P|28:44|88:96,1,150,2|2,0:0|0:0,0:0:0:0:
141,102,62191,2,0,L|45:102,1,75,2|2,0:0|0:0,0:0:0:0:
141,102,62451,2,0,L|237:102,1,75,8|0,0:0|0:0,0:0:0:0:
140,144,62712,2,0,L|52:144,1,75,2|0,0:0|0:0,0:0:0:0:
268,148,62973,6,0,L|356:148,1,75,2|2,0:0|0:0,0:0:0:0:
264,180,63234,2,0,L|176:180,1,75,2|2,0:0|0:0,0:0:0:0:
392,184,63495,2,0,L|476:184,1,75,8|0,0:0|0:0,0:0:0:0:
395,214,63756,1,2,0:0:0:0:
264,248,63886,6,0,P|216:240|268:192,1,150,2|2,0:0|0:0,0:0:0:0:
468,164,64278,2,0,L|380:164,1,75,2|2,0:0|0:0,0:0:0:0:
312,112,64538,2,0,L|400:112,1,75,8|2,0:0|0:0,0:0:0:0:
172,112,64799,2,0,L|84:112,1,75,2|0,0:0|0:0,0:0:0:0:
312,228,65060,6,0,P|364:208|304:176,1,150,4|0,0:0|0:0,0:0:0:0:
96,232,65451,2,0,P|44:212|104:180,1,150,4|0,0:0|0:0,0:0:0:0:
312,228,65843,6,0,P|364:208|304:176,1,150,4|0,0:0|0:0,0:0:0:0:
96,232,66234,2,0,L|8:232,2,75,2|2|0,0:0|0:0|0:0,0:0:0:0:
176,172,66625,2,0,L|72:172,1,75,2|0,0:0|0:0,0:0:0:0:
310,170,66886,2,0,L|414:170,1,75,8|0,0:0|0:0,0:0:0:0:
176,128,67147,6,0,L|72:128,1,75,4|2,0:0|0:0,0:0:0:0:
104,96,67408,2,0,L|208:96,1,75,2|2,0:0|0:0,0:0:0:0:
388,84,67669,2,0,L|488:84,1,75,8|2,0:0|0:0,0:0:0:0:
463,84,67930,2,0,L|388:84,1,75,2|2,0:0|0:0,0:0:0:0:
180,112,68191,6,0,L|180:28,1,75,0|2,1:0|0:0,0:0:0:0:
268,36,68451,2,0,L|360:36,1,75,2|2,0:0|0:0,0:0:0:0:
140,108,68712,2,0,L|48:108,1,75,8|2,0:0|0:0,0:0:0:0:
65,108,68973,2,0,L|140:108,1,75,2|2,0:0|0:0,0:0:0:0:
344,144,69234,6,0,L|448:144,1,75,2|0,0:0|0:0,0:0:0:0:
419,144,69495,2,0,L|315:144,1,75,2|0,0:0|0:0,0:0:0:0:
136,216,69756,2,0,L|136:124,1,75,8|0,0:0|0:0,0:0:0:0:
344,184,70017,2,0,L|344:259,1,75,8|0,0:0|0:0,0:0:0:0:
132,264,70278,6,0,L|28:264,1,75,2|0,0:0|0:0,0:0:0:0:
57,264,70539,2,0,L|161:264,1,75,2|0,0:0|0:0,0:0:0:0:
344,336,70799,2,0,L|344:261,1,75,8|0,0:0|0:0,0:0:0:0:
136,218,71060,2,0,L|136:293,1,75,8|0,0:0|0:0,0:0:0:0:
344,256,71321,6,0,L|436:256,1,75,4|2,0:0|0:0,0:0:0:0:
419,256,71582,2,0,L|344:256,1,75,2|2,0:0|0:0,0:0:0:0:
132,216,71843,2,0,L|40:216,1,75,8|2,0:0|0:0,0:0:0:0:
57,216,72104,2,0,L|132:216,1,75,2|2,0:0|0:0,0:0:0:0:
332,160,72364,6,0,L|332:76,1,75,0|2,1:0|0:0,0:0:0:0:
256,72,72625,2,0,L|160:72,1,75,2|2,0:0|0:0,0:0:0:0:
408,76,72886,2,0,L|512:76,1,75,8|2,0:0|0:0,0:0:0:0:
483,76,73147,2,0,L|408:76,1,75,2|2,0:0|0:0,0:0:0:0:
192,72,73408,6,0,L|316:72,1,112.5,2|0,0:0|0:0,0:0:0:0:
248,72,73734,1,0,0:0:0:0:
192,72,73799,2,0,P|136:112|192:144,1,150,8|0,0:0|0:0,0:0:0:0:
376,144,74191,6,0,L|500:144,1,112.5,2|0,0:0|0:0,0:0:0:0:
432,144,74517,1,0,0:0:0:0:
488,144,74582,2,0,P|476:80|392:52,1,150,8|0,0:0|0:0,0:0:0:0:
192,56,74973,2,0,L|92:56,1,75,2|2,0:0|0:0,0:0:0:0:
232,92,75495,6,0,P|180:140|236:164,1,150,4|8,0:0|0:0,0:0:0:0:
312,168,75886,1,2,0:0:0:0:
116,168,76017,2,0,L|20:168,1,75,0|2,0:0|0:0,0:0:0:0:
116,168,76278,1,8,0:0:0:0:
200,168,76408,6,0,P|252:204|192:236,1,150,2|2,0:0|0:0,0:0:0:0:
116,260,76799,1,8,0:0:0:0:
198,260,76930,1,0,0:0:0:0:
400,260,77060,2,0,L|475:260,1,75,2|2,0:0|0:0,0:0:0:0:
475,260,77321,2,0,L|400:260,1,75,8|0,0:0|0:0,0:0:0:0:
172,136,77582,6,0,P|184:184|284:208,1,150,2|8,0:0|0:0,0:0:0:0:
196,216,77973,1,2,0:0:0:0:
396,184,78104,2,0,L|476:184,2,75,0|2|8,0:0|0:0|0:0,0:0:0:0:
200,88,78495,6,0,L|48:88,1,150,2|2,0:0|0:0,0:0:0:0:
124,48,78886,2,0,L|224:48,1,75,8|2,0:0|0:0,0:0:0:0:
396,44,79147,2,0,L|484:44,1,75,2|2,0:0|0:0,0:0:0:0:
472,84,79408,2,0,L|397:84,1,75,8|0,0:0|0:0,0:0:0:0:
304,88,79669,6,0,L|304:176,1,75,2|0,0:0|0:0,0:0:0:0:
392,168,79930,2,0,L|476:168,1,75,8|2,0:0|0:0,0:0:0:0:
264,168,80191,2,0,L|176:168,1,75,0|2,0:0|0:0,0:0:0:0:
189,168,80451,1,8,0:0:0:0:
396,176,80582,6,0,P|444:184|388:224,1,150,2|2,0:0|0:0,0:0:0:0:
321,232,80973,2,0,L|409:232,1,75,8|2,0:0|0:0,0:0:0:0:
192,228,81234,2,0,L|108:228,1,75,2|2,0:0|0:0,0:0:0:0:
192,228,81495,2,0,L|276:228,1,75,8|2,0:0|0:0,0:0:0:0:
40,228,81756,6,0,L|40:140,1,75,2|0,0:0|0:0,0:0:0:0:
115,153,82017,2,0,L|27:153,1,75,8|2,0:0|0:0,0:0:0:0:
244,120,82278,2,0,L|332:120,2,75,0|2|8,0:0|0:0|0:0,0:0:0:0:
152,136,82669,6,0,P|108:72|164:64,1,150,2|2,0:0|0:0,0:0:0:0:
226,58,83060,2,0,L|138:58,1,75,8|2,0:0|0:0,0:0:0:0:
348,112,83321,2,0,L|436:112,1,75,2|2,0:0|0:0,0:0:0:0:
423,112,83582,2,0,L|348:112,1,75,8|2,0:0|0:0,0:0:0:0:
140,108,83843,6,0,P|96:120|148:176,1,150,4|8,0:0|0:0,0:0:0:0:
220,180,84234,1,2,0:0:0:0:
424,180,84365,2,0,L|512:180,2,75,0|2|8,0:0|0:0|0:0,0:0:0:0:
344,140,84756,6,0,L|528:140,1,150,2|2,0:0|0:0,0:0:0:0:
494,140,85147,2,0,L|406:140,1,75,8|0,0:0|0:0,0:0:0:0:
216,112,85408,2,0,L|141:112,1,75,2|2,0:0|0:0,0:0:0:0:
216,112,85669,2,0,L|291:112,1,75,8|0,0:0|0:0,0:0:0:0:
80,108,85930,6,0,P|28:84|92:52,1,150,2|8,0:0|0:0,0:0:0:0:
160,44,86321,1,2,0:0:0:0:
360,48,86451,2,0,L|448:48,2,75,0|2|8,0:0|0:0|0:0,0:0:0:0:
160,52,86843,6,0,P|120:64|172:128,1,150,2|2,0:0|0:0,0:0:0:0:
244,132,87234,2,0,L|332:132,1,75,8|2,0:0|0:0,0:0:0:0:
116,172,87495,2,0,L|28:172,1,75,2|2,0:0|0:0,0:0:0:0:
41,172,87756,2,0,L|116:172,1,75,8|0,0:0|0:0,0:0:0:0:
316,180,88017,6,0,L|416:180,2,75,2|0|8,0:0|0:0|0:0,0:0:0:0:
216,180,88408,1,2,0:0:0:0:
444,184,88538,2,0,L|444:96,1,75,0|2,0:0|0:0,0:0:0:0:
352,108,88799,1,8,0:0:0:0:
156,152,88930,6,0,P|103:112|152:68,1,150,2|2,0:0|0:0,0:0:0:0:
244,72,89321,1,8,0:0:0:0:
319,72,89452,2,0,L|235:72,1,75,2|0,0:0|0:0,0:0:0:0:
168,96,89713,2,0,L|243:96,2,75,2|8|2,0:0|0:0|0:0,0:0:0:0:
209,212,90104,6,0,L|297:212,1,75,4|2,0:0|0:0,0:0:0:0:
180,160,90495,2,0,L|92:160,1,75,8|2,0:0|0:0,0:0:0:0:
209,212,90886,6,0,L|297:212,1,75,8|2,0:0|0:0,0:0:0:0:
180,160,91277,2,0,L|92:160,2,75,8|2|0,0:0|0:0|0:0,0:0:0:0:
244,196,91669,2,0,L|332:196,1,75,8|0,0:0|0:0,0:0:0:0:
244,196,91930,2,0,L|156:196,1,75,8|0,0:0|0:0,0:0:0:0:
380,152,92191,6,0,P|420:160|368:216,1,150,4|0,0:0|0:0,0:0:0:0:
300,220,92582,1,0,0:0:0:0:
28,212,92713,2,0,L|204:212,1,150,8|2,0:0|0:0,0:0:0:0:
104,228,93104,1,2,0:0:0:0:
224,264,93234,6,0,L|316:264,2,75,2|2|0,0:0|0:0|0:0,0:0:0:0:
140,268,93626,1,2,0:0:0:0:
336,212,93756,2,0,L|424:212,1,75,8|2,0:0|0:0,0:0:0:0:
411,212,94017,2,0,L|323:212,1,75,0|2,0:0|0:0,0:0:0:0:
200,212,94278,6,0,L|104:212,1,75,2|0,0:0|0:0,0:0:0:0:
125,212,94539,2,0,L|221:212,1,75,2|0,0:0|0:0,0:0:0:0:
428,188,94799,2,0,P|412:252|328:272,1,150,8|2,0:0|0:0,0:0:0:0:
416,276,95191,1,0,0:0:0:0:
340,228,95321,6,0,L|244:228,1,75,2|2,0:0|0:0,0:0:0:0:
265,228,95582,2,0,L|361:228,1,75,2|2,0:0|0:0,0:0:0:0:
132,228,95843,2,0,L|52:228,1,75,8|2,0:0|0:0,0:0:0:0:
57,228,96104,2,0,L|132:228,1,75,2|2,0:0|0:0,0:0:0:0:
340,148,96365,6,0,P|388:156|332:196,1,150,2|2,0:0|0:0,0:0:0:0:
264,200,96756,1,0,0:0:0:0:
68,204,96886,2,0,L|68:280,1,75,8|0,0:0|0:0,0:0:0:0:
143,279,97147,2,0,L|55:279,1,75,2|2,0:0|0:0,0:0:0:0:
204,240,97408,6,0,L|292:240,2,75,2|2|0,0:0|0:0|0:0,0:0:0:0:
124,240,97799,1,2,0:0:0:0:
328,188,97930,2,0,L|412:188,1,75,8|0,0:0|0:0,0:0:0:0:
328,188,98191,2,0,L|244:188,1,75,2|2,0:0|0:0,0:0:0:0:
476,152,98452,6,0,P|476:208|380:240,1,150,0|2,0:0|0:0,0:0:0:0:
476,244,98843,1,2,0:0:0:0:
256,152,98973,2,0,P|256:208|352:240,1,150,8|2,0:0|0:0,0:0:0:0:
256,244,99364,1,2,0:0:0:0:
112,244,99495,6,0,L|24:244,2,75,2|2|2,0:0|0:0|0:0,0:0:0:0:
196,244,99886,1,0,0:0:0:0:
408,252,100017,2,0,L|480:252,1,37.5,8|0,0:0|0:0,0:0:0:0:
446,252,100147,2,0,L|408:252,1,37.5,0|0,0:0|0:0,0:0:0:0:
372,252,100278,2,0,L|456:252,1,75,2|2,0:0|0:0,0:0:0:0:
228,192,100539,6,0,L|136:192,2,75,4|0|2,0:0|0:0|0:0,0:0:0:0:
372,196,100930,2,0,L|464:196,2,75,8|0|2,0:0|0:0|0:0,0:0:0:0:
228,244,101321,2,0,L|164:244,1,37.5,8|0,0:0|0:0,0:0:0:0:
191,244,101452,2,0,L|237:244,1,37.5,2|0,0:0|0:0,0:0:0:0:
412,176,101582,6,0,L|412:280,1,75,8|0,0:0|0:0,0:0:0:0:
324,252,101843,1,2,0:0:0:0:
180,120,101973,2,0,L|180:224,1,75,8|0,0:0|0:0,0:0:0:0:
268,196,102234,1,2,0:0:0:0:
128,236,102365,2,0,L|84:236,1,37.5,8|0,0:0|0:0,0:0:0:0:
91,236,102495,2,0,L|128:236,1,37.5,2|0,0:0|0:0,0:0:0:0:
324,272,102626,6,0,L|412:272,2,75,8|0|2,0:0|0:0|0:0,0:0:0:0:
188,272,103017,2,0,L|100:272,2,75,8|0|2,0:0|0:0|0:0,0:0:0:0:
324,272,103408,2,0,L|384:272,1,37.5,8|0,0:0|0:0,0:0:0:0:
362,272,103539,2,0,L|325:272,1,37.5,2|0,0:0|0:0,0:0:0:0:
184,212,103669,6,0,L|120:212,1,37.5,8|0,0:0|0:0,0:0:0:0:
147,212,103799,2,0,L|184:212,1,37.5,0|0,0:0|0:0,0:0:0:0:
216,212,103930,2,0,L|280:212,1,37.5,2|0,0:0|0:0,0:0:0:0:
254,212,104060,2,0,L|217:212,1,37.5,0|0,0:0|0:0,0:0:0:0:
92,132,104191,5,2,0:0:0:0:
59,117,104256,1,0,0:0:0:0:
24,125,104321,1,0,0:0:0:0:
1,153,104386,1,0,0:0:0:0:
1,190,104451,1,2,0:0:0:0:
24,219,104517,1,0,0:0:0:0:
60,227,104582,1,0,0:0:0:0:
93,210,104647,1,0,0:0:0:0:
260,168,104713,6,0,L|356:168,1,75,4|2,0:0|0:0,0:0:0:0:
260,168,104973,2,0,L|164:168,1,75,8|2,0:0|0:0,0:0:0:0:
324,232,105234,2,0,L|380:232,1,37.5,8|0,0:0|0:0,0:0:0:0:
362,232,105365,2,0,L|325:232,1,37.5,2|0,0:0|0:0,0:0:0:0:
300,232,105495,2,0,L|244:232,1,37.5,8|0,0:0|0:0,0:0:0:0:
262,232,105626,2,0,L|300:232,1,37.5,2|0,0:0|0:0,0:0:0:0:
476,196,105756,6,0,L|476:116,1,75,8|2,0:0|0:0,0:0:0:0:
401,121,106017,2,0,L|501:121,1,75,8|2,0:0|0:0,0:0:0:0:
328,124,106278,2,0,L|264:124,1,37.5,8|2,0:0|0:0,0:0:0:0:
291,124,106408,2,0,L|329:124,1,37.5,2|2,0:0|0:0,0:0:0:0:
356,164,106539,2,0,L|420:164,1,37.5,8|2,0:0|0:0,0:0:0:0:
393,164,106669,2,0,L|355:164,1,37.5,2|2,0:0|0:0,0:0:0:0:
297,167,106799,6,0,L|297:239,1,37.5,0|0,0:0|0:0,0:0:0:0:
350,206,106930,2,0,L|350:278,1,37.5,0|0,0:0|0:0,0:0:0:0:
297,204,107060,2,0,L|297:276,1,37.5,0|0,0:0|0:0,0:0:0:0:
350,206,107191,2,0,L|350:278,1,37.5,0|0,0:0|0:0,0:0:0:0:
324,164,107321,6,0,L|264:164,1,37.5,0|0,0:0|0:0,0:0:0:0:
324,128,107452,2,0,L|384:128,1,37.5,0|0,0:0|0:0,0:0:0:0:
324,164,107582,2,0,L|264:164,1,37.5,0|0,0:0|0:0,0:0:0:0:
324,128,107713,2,0,L|384:128,1,37.5,0|0,0:0|0:0,0:0:0:0:
320,92,107843,5,2,0:0:0:0:
176,92,108104,1,2,0:0:0:0:
320,132,108365,2,0,L|232:132,1,75,2|2,0:0|0:0,0:0:0:0:
32,132,108626,1,8,0:0:0:0:
32,196,108886,6,0,L|128:196,1,75,4|2,0:0|0:0,0:0:0:0:
182,196,109147,2,0,L|86:196,1,75,2|2,0:0|0:0,0:0:0:0:
322,196,109408,2,0,L|418:196,1,75,8|2,0:0|0:0,0:0:0:0:
397,196,109669,2,0,L|301:196,1,75,2|2,0:0|0:0,0:0:0:0:
104,228,109930,6,0,L|16:228,1,75,0|2,1:0|0:0,0:0:0:0:
104,228,110191,2,0,L|192:228,1,75,2|2,0:0|0:0,0:0:0:0:
376,260,110452,2,0,L|268:260,1,75,8|2,0:0|0:0,0:0:0:0:
376,260,110713,2,0,L|480:260,1,75,2|0,0:0|0:0,0:0:0:0:
252,196,110973,6,0,L|156:196,1,75,0|2,1:0|0:0,0:0:0:0:
177,196,111234,2,0,L|252:196,1,75,2|2,0:0|0:0,0:0:0:0:
460,196,111495,2,0,L|460:284,1,75,8|2,0:0|0:0,0:0:0:0:
385,271,111756,2,0,L|473:271,1,75,2|2,0:0|0:0,0:0:0:0:
256,228,112017,6,0,L|148:228,1,75,4|0,0:0|0:0,0:0:0:0:
256,228,112278,2,0,L|256:324,1,75,2|0,0:0|0:0,0:0:0:0:
60,224,112539,2,0,L|60:140,1,75,2|0,0:0|0:0,0:0:0:0:
256,228,112799,2,0,L|331:228,1,75,8|0,0:0|0:0,0:0:0:0:
136,180,113060,6,0,L|40:180,1,75,4|2,0:0|0:0,0:0:0:0:
61,180,113321,2,0,L|136:180,1,75,2|2,0:0|0:0,0:0:0:0:
332,172,113582,2,0,L|332:260,1,75,8|2,0:0|0:0,0:0:0:0:
244,280,113843,2,0,L|148:280,1,75,2|2,0:0|0:0,0:0:0:0:
380,236,114104,6,0,L|305:236,1,75,0|2,1:0|0:0,0:0:0:0:
305,236,114365,2,0,L|380:236,1,75,2|2,0:0|0:0,0:0:0:0:
180,184,114626,2,0,L|76:184,1,75,8|2,0:0|0:0,0:0:0:0:
180,184,114886,2,0,L|255:184,1,75,2|0,0:0|0:0,0:0:0:0:
176,136,115147,6,0,L|120:136,1,37.5,4|0,0:0|0:0,0:0:0:0:
139,136,115278,2,0,L|176:136,1,37.5,0|0,0:0|0:0,0:0:0:0:
436,180,115539,2,0,L|492:180,1,37.5,4|0,0:0|0:0,0:0:0:0:
474,180,115670,2,0,L|437:180,1,37.5,0|0,0:0|0:0,0:0:0:0:
176,136,115930,6,0,L|120:136,1,37.5,4|0,0:0|0:0,0:0:0:0:
139,136,116061,2,0,L|176:136,1,37.5,0|0,0:0|0:0,0:0:0:0:
436,180,116321,2,0,L|492:180,1,37.5,4|0,0:0|0:0,0:0:0:0:
474,180,116451,2,0,L|437:180,1,37.5,0|0,0:0|0:0,0:0:0:0:
180,156,116713,6,0,L|276:156,1,75,8|0,0:0|0:0,0:0:0:0:
180,156,116973,2,0,L|84:156,1,75,8|0,0:0|0:0,0:0:0:0:
336,220,117234,6,0,L|396:220,1,37.5,2|0,0:0|0:0,0:0:0:0:
374,220,117365,2,0,L|336:220,1,37.5,2|0,0:0|0:0,0:0:0:0:
312,220,117495,2,0,L|252:220,1,37.5,2|0,0:0|0:0,0:0:0:0:
274,220,117626,2,0,L|312:220,1,37.5,2|0,0:0|0:0,0:0:0:0:
484,156,117756,2,0,L|484:248,1,75,8|0,0:0|0:0,0:0:0:0:
408,236,118017,1,2,0:0:0:0:
335,157,118147,6,0,L|485:157,1,150,2|2,0:0|0:0,0:0:0:0:
416,100,118539,2,0,L|328:100,1,75,2|2,0:0|0:0,0:0:0:0:
136,100,118799,2,0,L|61:100,1,75,8|0,0:0|0:0,0:0:0:0:
61,100,119060,2,0,L|136:100,1,75,2|0,0:0|0:0,0:0:0:0:
340,204,119321,6,0,L|428:204,1,75,2|2,0:0|0:0,0:0:0:0:
415,204,119582,2,0,L|327:204,1,75,2|2,0:0|0:0,0:0:0:0:
120,204,119843,2,0,L|120:288,1,75,8|0,0:0|0:0,0:0:0:0:
204,280,120104,1,2,0:0:0:0:
424,284,120234,6,0,P|480:264|420:212,1,150,2|2,0:0|0:0,0:0:0:0:
367,206,120626,2,0,L|463:206,1,75,2|2,0:0|0:0,0:0:0:0:
367,206,120886,2,0,L|271:206,1,75,8|0,0:0|0:0,0:0:0:0:
368,164,121147,2,0,L|456:164,1,75,2|0,0:0|0:0,0:0:0:0:
240,160,121408,6,0,L|152:160,1,75,2|2,0:0|0:0,0:0:0:0:
244,128,121669,2,0,L|332:128,1,75,2|2,0:0|0:0,0:0:0:0:
116,124,121930,2,0,L|32:124,1,75,8|0,0:0|0:0,0:0:0:0:
41,124,122191,1,2,0:0:0:0:
244,60,122321,6,0,P|292:68|240:116,1,150,2|2,0:0|0:0,0:0:0:0:
40,144,122713,2,0,L|128:144,1,75,2|2,0:0|0:0,0:0:0:0:
196,196,122973,2,0,L|108:196,1,75,8|2,0:0|0:0,0:0:0:0:
336,196,123234,2,0,L|424:196,1,75,2|0,0:0|0:0,0:0:0:0:
196,80,123495,6,0,P|144:100|204:132,1,150,4|0,0:0|0:0,0:0:0:0:
412,76,123886,2,0,P|464:96|404:128,1,150,4|0,0:0|0:0,0:0:0:0:
196,80,124278,2,0,P|144:100|204:132,1,150,4|0,0:0|0:0,0:0:0:0:
412,76,124669,6,0,L|500:76,2,75,2|2|0,0:0|0:0|0:0,0:0:0:0:
332,136,125060,2,0,L|436:136,1,75,2|0,0:0|0:0,0:0:0:0:
156,136,125321,2,0,P|104:112|168:80,1,150,8|4,0:0|0:0,0:0:0:0:
256,192,125712,12,0,133669,0:0:0:0:
160,140,133930,6,0,L|68:140,1,75,4|0,0:0|0:0,0:0:0:0:
85,140,134191,2,0,L|160:140,1,75,2|0,0:0|0:0,0:0:0:0:
368,140,134451,2,0,L|460:140,1,75,2|0,0:0|0:0,0:0:0:0:
443,140,134712,2,0,L|368:140,1,75,2|0,0:0|0:0,0:0:0:0:
160,112,134973,6,0,L|160:12,1,75,2|0,0:0|0:0,0:0:0:0:
240,36,135234,2,0,L|324:36,1,75,2|0,0:0|0:0,0:0:0:0:
72,36,135495,2,0,L|172:36,3,75,2|0|2|0,0:0|0:0|0:0|0:0,0:0:0:0:
352,176,136017,6,0,L|352:80,1,75,2|0,0:0|0:0,0:0:0:0:
272,96,136278,2,0,L|164:96,1,75,2|0,0:0|0:0,0:0:0:0:
396,60,136538,2,0,L|480:60,1,75,2|0,0:0|0:0,0:0:0:0:
471,60,136799,2,0,L|396:60,1,75,2|0,0:0|0:0,0:0:0:0:
200,56,137060,6,0,L|116:56,1,75,2|0,0:0|0:0,0:0:0:0:
125,56,137321,2,0,L|200:56,1,75,2|0,0:0|0:0,0:0:0:0:
400,72,137582,2,0,L|484:72,3,75,2|0|2|0,0:0|0:0|0:0|0:0,0:0:0:0:
276,112,138104,6,0,L|180:112,1,75,4|2,0:0|0:0,0:0:0:0:
400,136,138364,2,0,L|496:136,1,75,2|2,0:0|0:0,0:0:0:0:
276,148,138625,2,0,L|276:52,1,75,2|2,0:0|0:0,0:0:0:0:
472,80,138886,2,0,L|396:80,1,75,2|2,0:0|0:0,0:0:0:0:
192,80,139147,6,0,L|117:80,1,75,4|2,0:0|0:0,0:0:0:0:
320,80,139408,2,0,L|395:80,1,75,2|2,0:0|0:0,0:0:0:0:
192,80,139669,2,0,L|192:176,1,75,2|2,0:0|0:0,0:0:0:0:
396,156,139930,2,0,L|321:156,1,75,2|2,0:0|0:0,0:0:0:0:
117,155,140191,6,0,L|192:155,1,75,4|2,0:0|0:0,0:0:0:0:
156,156,140386,1,0,0:0:0:0:
117,155,140451,2,0,L|8:152,1,75,2|2,0:0|0:0,0:0:0:0:
256,80,140712,2,0,L|364:80,1,75,2|2,0:0|0:0,0:0:0:0:
296,80,140908,1,0,0:0:0:0:
256,80,140973,2,0,L|364:80,1,75,2|2,0:0|0:0,0:0:0:0:
228,40,141234,6,0,L|148:40,3,75,0|0|0|0,0:0|0:0|0:0|0:0,0:0:0:0:
240,40,141756,2,0,L|240:148,1,75,2|0,0:0|0:0,0:0:0:0:
144,136,142017,2,0,L|144:61,1,75,2|0,0:0|0:0,0:0:0:0:
368,176,142278,6,0,P|412:172|352:144,1,150,4|2,0:0|0:0,0:0:0:0:
292,116,142669,1,2,0:0:0:0:
96,112,142799,2,0,L|8:112,1,75,8|2,1:0|0:0,0:0:0:0:
21,112,143060,2,0,L|96:112,1,75,8|2,0:0|0:0,0:0:0:0:
292,216,143321,6,0,L|292:124,1,75,8|2,1:0|0:0,0:0:0:0:
216,124,143582,2,0,L|141:124,1,75,8|2,0:0|0:0,0:0:0:0:
344,116,143843,2,0,L|424:116,1,75,8|2,1:0|0:0,0:0:0:0:
419,116,144104,2,0,L|344:116,1,75,8|2,0:0|0:0,0:0:0:0:
140,112,144364,6,0,P|148:48|232:20,1,150,8|8,1:0|0:0,0:0:0:0:
144,20,144756,1,2,0:0:0:0:
344,56,144886,2,0,L|420:56,1,75,8|2,1:0|0:0,0:0:0:0:
220,148,145147,2,0,L|220:64,1,75,8|2,0:0|0:0,0:0:0:0:
420,152,145408,6,0,L|500:152,1,75,8|2,1:0|0:0,0:0:0:0:
495,152,145669,2,0,L|420:152,1,75,8|2,0:0|0:0,0:0:0:0:
220,124,145930,2,0,L|140:124,1,75,8|2,1:0|0:0,0:0:0:0:
145,124,146191,2,0,L|220:124,1,75,8|2,0:0|0:0,0:0:0:0:
420,120,146451,6,0,P|380:56|296:48,1,150,8|8,1:0|0:0,0:0:0:0:
376,48,146843,1,2,0:0:0:0:
180,40,146973,2,0,L|96:40,1,75,8|2,1:0|0:0,0:0:0:0:
180,40,147234,2,0,L|264:40,1,75,8|2,0:0|0:0,0:0:0:0:
56,112,147495,6,0,L|56:200,1,75,8|2,1:0|0:0,0:0:0:0:
136,188,147756,1,8,0:0:0:0:
332,188,147886,2,0,P|384:152|316:120,1,150,2|2,0:0|0:0,0:0:0:0:
136,112,148278,2,0,L|224:112,1,75,8|2,0:0|0:0,0:0:0:0:
432,116,148538,6,0,L|432:32,1,75,8|2,1:0|0:0,0:0:0:0:
344,32,148799,2,0,L|256:32,1,75,8|2,0:0|0:0,0:0:0:0:
48,48,149060,2,0,L|128:48,3,75,8|2|8|2,1:0|0:0|0:0|0:0,0:0:0:0:
328,120,149582,6,0,L|424:120,1,75,2|0,0:0|0:0,0:0:0:0:
180,120,149843,2,0,L|84:120,1,75,2|0,0:0|0:0,0:0:0:0:
192,160,150104,2,0,L|240:160,1,37.5,2|2,0:0|0:0,0:0:0:0:
229,160,150234,2,0,L|192:160,1,37.5,2|2,0:0|0:0,0:0:0:0:
32,168,150364,2,0,L|32:68,1,75,8|2,0:0|0:0,0:0:0:0:
288,92,150625,6,0,L|344:92,1,37.5,4|0,0:0|0:0,0:0:0:0:
325,92,150756,2,0,L|288:92,1,37.5,0|0,0:0|0:0,0:0:0:0:
140,92,150886,2,0,L|65:92,1,75,8|0,0:0|0:0,0:0:0:0:
140,56,151147,6,0,L|196:56,1,37.5,2|0,0:0|0:0,0:0:0:0:
140,56,151278,2,0,L|103:56,1,37.5,2|0,0:0|0:0,0:0:0:0:
288,96,151408,2,0,L|363:96,1,75,8|0,0:0|0:0,0:0:0:0:
284,144,151669,6,0,L|247:144,1,37.5,2|0,0:0|0:0,0:0:0:0:
247,144,151799,2,0,L|284:144,1,37.5,0|0,0:0|0:0,0:0:0:0:
416,72,151930,2,0,L|491:72,1,75,8|0,0:0|0:0,0:0:0:0:
284,64,152191,6,0,L|247:64,1,37.5,2|0,0:0|0:0,0:0:0:0:
246,64,152321,2,0,L|283:64,1,37.5,2|0,0:0|0:0,0:0:0:0:
472,104,152451,2,0,L|397:104,1,75,8|2,0:0|0:0,0:0:0:0:
196,208,152712,6,0,P|144:180|212:140,1,150,4|0,0:0|0:0,0:0:0:0:
400,208,153104,2,0,P|452:180|384:140,1,150,4|0,0:0|0:0,0:0:0:0:
200,88,153495,6,0,L|28:88,1,150,4|0,0:0|0:0,0:0:0:0:
120,88,153886,1,2,0:0:0:0:
392,80,154017,2,0,L|476:80,1,75,8|0,0:0|0:0,0:0:0:0:
268,40,154278,2,0,L|220:40,1,37.5,2|2,0:0|0:0,0:0:0:0:
230,40,154408,2,0,L|268:40,1,37.5,2|2,0:0|0:0,0:0:0:0:
292,40,154538,2,0,L|340:40,1,37.5,2|2,0:0|0:0,0:0:0:0:
329,40,154668,2,0,L|291:40,1,37.5,2|2,0:0|0:0,0:0:0:0:
112,64,154799,6,0,L|24:64,1,75,4|2,0:0|0:0,0:0:0:0:
112,64,155060,2,0,L|200:64,1,75,8|2,0:0|0:0,0:0:0:0:
384,112,155321,2,0,L|480:112,1,75,2|2,0:0|0:0,0:0:0:0:
459,112,155582,2,0,L|384:112,1,75,8|0,0:0|0:0,0:0:0:0:
459,112,155843,6,0,L|463:24,1,75,2|2,0:0|0:0,0:0:0:0:
256,36,156104,2,0,L|181:38,1,75,8|0,0:0|0:0,0:0:0:0:
188,84,156364,2,0,L|263:84,1,75,2|2,0:0|0:0,0:0:0:0:
61,84,156625,2,0,L|60:160,1,75,8|0,0:0|0:0,0:0:0:0:
256,240,156886,6,0,P|300:224|248:172,1,150,2|8,0:0|0:0,0:0:0:0:
176,172,157278,1,0,0:0:0:0:
376,176,157408,2,0,L|464:176,1,75,2|2,0:0|0:0,0:0:0:0:
451,176,157669,2,0,L|376:176,1,75,8|0,0:0|0:0,0:0:0:0:
451,176,157930,5,4,0:0:0:0:
180,172,158060,2,0,P|132:152|196:104,1,150,8|2,0:0|0:0,0:0:0:0:
252,96,158451,1,8,0:0:0:0:
456,112,158582,2,0,P|504:92|440:44,1,150,2|2,0:0|0:0,0:0:0:0:
208,56,158973,6,0,L|124:56,1,75,8|0,0:0|0:0,0:0:0:0:
133,56,159234,2,0,L|208:56,1,75,2|0,0:0|0:0,0:0:0:0:
352,72,159495,2,0,L|436:72,1,75,2|0,0:0|0:0,0:0:0:0:
427,72,159756,2,0,L|352:72,1,75,2|0,0:0|0:0,0:0:0:0:
156,120,160017,6,0,L|156:24,1,75,2|0,0:0|0:0,0:0:0:0:
240,32,160278,2,0,L|332:32,1,75,2|0,0:0|0:0,0:0:0:0:
172,40,160538,2,0,L|88:40,1,75,2|0,0:0|0:0,0:0:0:0:
97,40,160799,2,0,L|172:40,1,75,2|0,0:0|0:0,0:0:0:0:
380,96,161060,6,0,L|480:96,1,75,2|0,0:0|0:0,0:0:0:0:
455,96,161321,1,2,0:0:0:0:
380,72,161451,2,0,L|280:72,1,75,0|2,0:0|0:0,0:0:0:0:
305,72,161712,1,0,0:0:0:0:
448,96,161843,2,0,L|448:12,1,75,2|0,0:0|0:0,0:0:0:0:
244,24,162104,6,0,L|136:24,2,75,2|0|2,0:0|0:0|0:0,0:0:0:0:
332,68,162495,2,0,L|440:68,2,75,0|2|0,0:0|0:0|0:0,0:0:0:0:
244,68,162886,2,0,L|244:156,1,75,2|0,0:0|0:0,0:0:0:0:
464,148,163147,6,0,L|464:68,1,75,2|0,0:0|0:0,0:0:0:0:
384,48,163408,2,0,L|296:48,1,75,2|0,0:0|0:0,0:0:0:0:
176,48,163669,2,0,L|260:48,3,75,2|0|2|0,0:0|0:0|0:0|0:0,0:0:0:0:
36,124,164191,6,0,L|36:32,1,75,2|0,0:0|0:0,0:0:0:0:
116,48,164451,2,0,L|212:48,1,75,2|0,0:0|0:0,0:0:0:0:
336,140,164712,2,0,L|336:48,1,75,2|0,0:0|0:0,0:0:0:0:
256,64,164972,2,0,L|160:64,1,75,2|0,0:0|0:0,0:0:0:0:
392,160,165234,6,0,L|500:160,1,75,2|0,0:0|0:0,0:0:0:0:
467,160,165495,1,2,0:0:0:0:
392,132,165625,2,0,L|284:132,2,75,0|2|0,0:0|0:0|0:0,0:0:0:0:
248,88,166017,2,0,L|164:88,1,75,2|0,0:0|0:0,0:0:0:0:
372,88,166278,6,0,L|456:88,2,75,2|2|2,0:0|0:0|0:0,0:0:0:0:
296,88,166669,1,2,0:0:0:0:
96,96,166799,2,0,L|96:16,1,75,2|0,0:0|0:0,0:0:0:0:
180,20,167060,2,0,L|264:20,1,75,2|0,0:0|0:0,0:0:0:0:
44,96,167321,6,0,L|44:176,1,75,6|0,0:0|0:0,0:0:0:0:
119,171,167582,2,0,L|35:171,1,75,2|0,0:0|0:0,0:0:0:0:
240,172,167843,2,0,L|328:172,1,75,2|0,0:0|0:0,0:0:0:0:
315,172,168104,2,0,L|240:172,1,75,2|0,0:0|0:0,0:0:0:0:
444,172,168364,6,0,L|444:88,1,75,2|0,0:0|0:0,0:0:0:0:
360,88,168625,2,0,L|272:88,1,75,2|0,0:0|0:0,0:0:0:0:
80,48,168886,2,0,L|176:44,3,75,2|0|2|0,0:0|0:0|0:0|0:0,0:0:0:0:
356,48,169408,6,0,L|456:48,1,75,2|0,0:0|0:0,0:0:0:0:
431,48,169669,2,0,L|356:48,1,75,2|0,0:0|0:0,0:0:0:0:
160,76,169930,2,0,L|60:76,1,75,2|0,0:0|0:0,0:0:0:0:
85,76,170191,2,0,L|160:76,1,75,2|0,0:0|0:0,0:0:0:0:
356,148,170451,6,0,L|356:72,1,75,2|0,0:0|0:0,0:0:0:0:
272,56,170712,2,0,L|184:56,1,75,2|0,0:0|0:0,0:0:0:0:
396,96,170973,2,0,L|492:100,3,75,2|0|2|0,0:0|0:0|0:0|0:0,0:0:0:0:
272,76,171495,6,0,L|188:76,1,75,2|0,0:0|0:0,0:0:0:0:
272,76,171756,2,0,L|356:76,1,75,2|0,0:0|0:0,0:0:0:0:
148,48,172017,2,0,L|60:48,1,75,2|0,0:0|0:0,0:0:0:0:
73,48,172278,2,0,L|148:48,1,75,2|0,0:0|0:0,0:0:0:0:
348,48,172538,6,0,L|423:48,1,75,2|0,0:0|0:0,0:0:0:0:
348,48,172799,2,0,L|273:48,1,75,2|0,0:0|0:0,0:0:0:0:
484,148,173060,2,0,L|484:64,1,75,2|0,0:0|0:0,0:0:0:0:
396,72,173321,2,0,L|304:72,1,75,2|0,0:0|0:0,0:0:0:0:
108,72,173582,6,0,L|8:72,1,75,2|2,0:0|0:0,0:0:0:0:
33,72,173843,2,0,L|108:72,1,75,2|2,0:0|0:0,0:0:0:0:
308,124,174104,2,0,L|408:124,1,75,2|2,0:0|0:0,0:0:0:0:
383,124,174365,2,0,L|308:124,1,75,2|2,0:0|0:0,0:0:0:0:
108,128,174625,6,0,L|240:28,2,150,2|8|8,0:0|0:0|0:0,0:0:0:0:
480,192,175669,6,0,L|384:192,1,75,4|0,0:0|0:0,0:0:0:0:
330,192,175930,2,0,L|426:192,1,75,2|0,0:0|0:0,0:0:0:0:
190,192,176191,2,0,L|94:192,1,75,8|0,0:0|0:0,0:0:0:0:
115,192,176452,2,0,L|211:192,1,75,2|0,0:0|0:0,0:0:0:0:
408,224,176713,6,0,L|496:224,1,75,0|0,1:0|0:0,0:0:0:0:
408,224,176974,2,0,L|320:224,1,75,2|0,0:0|0:0,0:0:0:0:
136,256,177235,2,0,L|244:256,1,75,8|2,0:0|0:0,0:0:0:0:
136,256,177496,2,0,L|32:256,1,75,2|0,0:0|0:0,0:0:0:0:
260,192,177756,6,0,L|356:192,1,75,0|0,1:0|0:0,0:0:0:0:
335,192,178017,2,0,L|260:192,1,75,2|0,0:0|0:0,0:0:0:0:
52,192,178278,2,0,L|52:280,1,75,8|0,0:0|0:0,0:0:0:0:
127,267,178539,2,0,L|39:267,1,75,2|0,0:0|0:0,0:0:0:0:
256,224,178800,6,0,L|364:224,1,75,2|0,0:0|0:0,0:0:0:0:
127,230,179061,1,2,0:0:0:0:
127,267,179126,1,0,0:0:0:0:
127,305,179191,1,0,0:0:0:0:
331,224,179322,2,0,L|331:140,1,75,2|0,0:0|0:0,0:0:0:0:
127,230,179582,1,8,0:0:0:0:
89,230,179647,1,0,0:0:0:0:
52,230,179712,1,0,0:0:0:0:
376,176,179843,6,0,L|472:176,1,75,4|0,0:0|0:0,0:0:0:0:
451,176,180104,2,0,L|376:176,1,75,2|0,0:0|0:0,0:0:0:0:
180,168,180365,2,0,L|180:256,1,75,8|0,0:0|0:0,0:0:0:0:
268,276,180626,2,0,L|364:276,1,75,2|0,0:0|0:0,0:0:0:0:
132,232,180887,6,0,L|207:232,1,75,0|0,1:0|0:0,0:0:0:0:
207,232,181148,2,0,L|132:232,1,75,2|0,0:0|0:0,0:0:0:0:
332,180,181409,2,0,L|436:180,1,75,8|0,0:0|0:0,0:0:0:0:
332,180,181669,2,0,L|257:180,1,75,2|0,0:0|0:0,0:0:0:0:
336,132,181930,6,0,L|392:132,1,37.5,4|0,0:0|0:0,0:0:0:0:
373,132,182061,2,0,L|336:132,1,37.5,0|0,0:0|0:0,0:0:0:0:
80,176,182321,2,0,L|24:176,1,37.5,4|0,0:0|0:0,0:0:0:0:
42,176,182451,2,0,L|79:176,1,37.5,0|0,0:0|0:0,0:0:0:0:
336,132,182713,6,0,L|392:132,1,37.5,4|0,0:0|0:0,0:0:0:0:
373,132,182844,2,0,L|336:132,1,37.5,0|0,0:0|0:0,0:0:0:0:
79,176,183104,2,0,L|23:176,1,37.5,4|0,0:0|0:0,0:0:0:0:
41,176,183234,2,0,L|78:176,1,37.5,0|0,0:0|0:0,0:0:0:0:
356,172,183496,6,0,L|260:172,1,75,8|0,0:0|0:0,0:0:0:0:
360,152,183756,2,0,L|456:152,1,75,8|0,0:0|0:0,0:0:0:0:
176,216,184017,6,0,L|116:216,1,37.5,2|0,0:0|0:0,0:0:0:0:
138,216,184148,2,0,L|176:216,1,37.5,2|0,0:0|0:0,0:0:0:0:
200,216,184278,2,0,L|260:216,1,37.5,2|0,0:0|0:0,0:0:0:0:
238,216,184409,2,0,L|200:216,1,37.5,2|0,0:0|0:0,0:0:0:0:
28,152,184539,2,0,L|28:244,1,75,8|0,0:0|0:0,0:0:0:0:
104,232,184800,1,2,0:0:0:0:
177,153,184930,6,0,L|27:153,1,150,2|2,0:0|0:0,0:0:0:0:
96,96,185322,2,0,L|184:96,1,75,2|2,0:0|0:0,0:0:0:0:
376,96,185582,2,0,L|451:96,1,75,8|0,0:0|0:0,0:0:0:0:
451,96,185843,2,0,L|376:96,1,75,2|0,0:0|0:0,0:0:0:0:
172,200,186104,6,0,L|84:200,1,75,2|2,0:0|0:0,0:0:0:0:
97,200,186365,2,0,L|185:200,1,75,2|2,0:0|0:0,0:0:0:0:
392,200,186626,2,0,L|392:284,1,75,8|0,0:0|0:0,0:0:0:0:
308,276,186887,1,2,0:0:0:0:
88,280,187017,6,0,P|32:260|92:208,1,150,2|2,0:0|0:0,0:0:0:0:
145,202,187409,2,0,L|49:202,1,75,2|2,0:0|0:0,0:0:0:0:
145,202,187669,2,0,L|241:202,1,75,8|0,0:0|0:0,0:0:0:0:
144,160,187930,2,0,L|56:160,1,75,2|0,0:0|0:0,0:0:0:0:
272,156,188191,6,0,L|360:156,1,75,2|2,0:0|0:0,0:0:0:0:
268,124,188452,2,0,L|180:124,1,75,2|2,0:0|0:0,0:0:0:0:
396,120,188713,2,0,L|480:120,1,75,8|0,0:0|0:0,0:0:0:0:
471,120,188974,1,2,0:0:0:0:
268,56,189104,6,0,P|220:64|272:112,1,150,2|2,0:0|0:0,0:0:0:0:
472,140,189496,2,0,L|384:140,1,75,2|2,0:0|0:0,0:0:0:0:
316,192,189756,2,0,L|404:192,1,75,8|0,0:0|0:0,0:0:0:0:
176,192,190017,2,0,L|88:192,1,75,0|0,0:0|0:0,0:0:0:0:
316,76,190278,6,0,P|368:96|308:128,1,150,4|0,0:0|0:0,0:0:0:0:
100,72,190669,2,0,P|48:92|108:124,1,150,4|0,0:0|0:0,0:0:0:0:
316,76,191061,6,0,P|368:96|308:128,1,150,4|0,0:0|0:0,0:0:0:0:
100,72,191452,2,0,L|12:72,2,75,2|2|0,0:0|0:0|0:0,0:0:0:0:
180,132,191843,2,0,L|76:132,1,75,2|0,0:0|0:0,0:0:0:0:
304,168,192104,2,0,L|368:168,1,37.5,2|2,0:0|0:0,0:0:0:0:
342,168,192234,2,0,L|304:168,1,37.5,2|2,0:0|0:0,0:0:0:0:
152,164,192365,6,0,P|104:176|160:220,1,150,4|8,0:0|0:0,0:0:0:0:
244,224,192756,1,2,0:0:0:0:
120,224,192886,2,0,L|40:224,1,75,2|2,0:0|0:0,0:0:0:0:
45,224,193147,2,0,L|120:224,1,75,8|2,0:0|0:0,0:0:0:0:
324,228,193408,6,0,L|432:228,1,75,2|2,0:0|0:0,0:0:0:0:
400,252,193669,2,0,L|292:252,1,75,8|2,0:0|0:0,0:0:0:0:
220,280,193930,2,0,L|324:280,1,75,2|2,0:0|0:0,0:0:0:0:
220,240,194191,2,0,L|116:240,1,75,8|2,0:0|0:0,0:0:0:0:
360,276,194451,6,0,L|456:276,2,75,2|2|8,0:0|0:0|0:0,0:0:0:0:
264,224,194843,2,0,L|436:224,1,150,2|2,0:0|0:0,0:0:0:0:
296,168,195234,2,0,L|216:168,1,75,8|2,0:0|0:0,0:0:0:0:
424,164,195495,6,0,L|504:164,2,75,2|2|8,0:0|0:0|0:0,0:0:0:0:
348,240,195886,2,0,L|520:240,1,150,2|2,0:0|0:0,0:0:0:0:
424,200,196278,2,0,L|340:200,1,75,8|2,0:0|0:0,0:0:0:0:
140,196,196538,6,0,L|56:196,2,75,2|2|8,0:0|0:0|0:0,0:0:0:0:
252,196,196930,2,0,P|236:268|152:288,1,150,2|2,0:0|0:0,0:0:0:0:
80,288,197321,2,0,L|155:289,1,75,8|2,0:0|0:0,0:0:0:0:
400,272,197582,6,0,L|232:272,1,150,2|8,0:0|0:0,0:0:0:0:
328,224,197973,2,0,L|496:224,1,150,2|2,0:0|0:0,0:0:0:0:
400,180,198364,2,0,L|316:180,1,75,8|2,0:0|0:0,0:0:0:0:
96,208,198625,6,0,L|52:208,1,37.5,2|2,0:0|0:0,0:0:0:0:
59,208,198756,2,0,L|96:208,1,37.5,2|2,0:0|0:0,0:0:0:0:
360,276,199016,2,0,L|404:276,1,37.5,2|2,0:0|0:0,0:0:0:0:
397,276,199147,2,0,L|360:276,1,37.5,2|2,0:0|0:0,0:0:0:0:
100,264,199408,2,0,L|56:264,1,37.5,2|2,0:0|0:0,0:0:0:0:
63,264,199539,2,0,L|100:264,1,37.5,2|2,0:0|0:0,0:0:0:0:
360,176,199799,6,0,L|404:176,1,37.5,2|2,0:0|0:0,0:0:0:0:
397,176,199930,2,0,L|360:176,1,37.5,2|2,0:0|0:0,0:0:0:0:
96,104,200191,2,0,P|72:148|112:192,1,112.5,2|2,0:0|0:0,0:0:0:0:
164,192,200451,2,0,L|89:192,1,75,8|0,0:0|0:0,0:0:0:0:
296,224,200712,6,0,L|356:224,1,37.5,4|0,0:0|0:0,0:0:0:0:
334,224,200843,2,0,L|296:224,1,37.5,2|0,0:0|0:0,0:0:0:0:
256,224,200973,2,0,L|196:224,1,37.5,2|0,0:0|0:0,0:0:0:0:
218,224,201104,2,0,L|256:224,1,37.5,2|0,0:0|0:0,0:0:0:0:
404,288,201234,2,0,L|492:288,1,75,8|2,0:0|0:0,0:0:0:0:
479,288,201495,2,0,L|391:288,1,75,2|2,0:0|0:0,0:0:0:0:
208,176,201756,5,8,1:0:0:0:
172,169,201821,1,0,0:0:0:0:
138,183,201886,1,2,0:0:0:0:
118,215,201951,1,0,0:0:0:0:
120,251,202016,1,2,0:0:0:0:
142,281,202082,1,0,0:0:0:0:
177,293,202147,1,2,0:0:0:0:
212,283,202212,1,0,0:0:0:0:
28,292,202278,6,0,L|28:192,1,75,8|2,0:0|0:0,0:0:0:0:
103,217,202538,2,0,L|28:217,1,75,2|2,0:0|0:0,0:0:0:0:
240,152,202799,5,8,1:0:0:0:
250,189,202864,1,0,0:0:0:0:
247,226,202929,1,2,0:0:0:0:
232,260,202994,1,0,0:0:0:0:
207,288,203059,1,2,0:0:0:0:
174,306,203125,1,0,0:0:0:0:
137,312,203190,1,2,0:0:0:0:
100,306,203255,1,0,0:0:0:0:
268,304,203321,6,0,L|348:304,1,75,8|2,0:0|0:0,0:0:0:0:
268,304,203582,2,0,L|188:304,1,75,2|2,0:0|0:0,0:0:0:0:
424,240,203843,6,0,L|420:308,1,37.5,8|0,1:0|0:0,0:0:0:0:
384,280,203973,2,0,L|336:280,1,37.5,2|0,0:0|0:0,0:0:0:0:
320,260,204104,2,0,L|416:260,1,75,2|2,0:0|0:0,0:0:0:0:
300,260,204364,6,0,L|263:260,1,37.5,8|0,0:0|0:0,0:0:0:0:
263,260,204495,2,0,L|300:260,1,37.5,0|0,0:0|0:0,0:0:0:0:
456,264,204625,2,0,L|456:160,1,75,8|0,1:0|0:0,0:0:0:0:
256,192,204886,6,0,L|219:192,1,37.5,4|0,0:0|0:0,0:0:0:0:
220,208,205017,2,0,L|258:208,1,37.5,2|0,0:0|0:0,0:0:0:0:
284,212,205147,2,0,L|321:212,1,37.5,2|0,0:0|0:0,0:0:0:0:
320,228,205278,2,0,L|282:228,1,37.5,2|0,0:0|0:0,0:0:0:0:
120,256,205408,6,0,L|16:256,1,75,8|2,0:0|0:0,0:0:0:0:
45,256,205669,2,0,L|120:256,1,75,2|2,0:0|0:0,0:0:0:0:
312,292,205930,6,0,L|356:292,1,37.5,8|0,1:0|0:0,0:0:0:0:
350,292,206060,2,0,L|306:292,1,37.5,2|0,0:0|0:0,0:0:0:0:
284,292,206191,2,0,L|240:292,1,37.5,2|0,0:0|0:0,0:0:0:0:
246,292,206321,2,0,L|290:292,1,37.5,2|0,0:0|0:0,0:0:0:0:
456,292,206451,6,0,L|456:184,1,75,8|2,0:0|0:0,0:0:0:0:
360,216,206712,2,0,L|280:216,1,75,2|2,0:0|0:0,0:0:0:0:
480,160,206973,6,0,P|472:220|424:240,1,112.5,2|0,0:0|0:0,0:0:0:0:
376,240,207299,1,0,0:0:0:0:
430,241,207364,2,0,P|476:256|420:300,1,150,8|0,0:0|0:0,0:0:0:0:
148,172,207756,6,0,P|156:232|204:252,1,112.5,2|0,0:0|0:0,0:0:0:0:
268,252,208082,1,0,0:0:0:0:
199,253,208147,2,0,P|153:269|209:313,1,150,8|0,0:0|0:0,0:0:0:0:
432,316,208538,1,2,0:0:0:0:
316,316,208669,2,0,P|284:256|404:232,1,225,2|0,0:0|0:0,0:0:0:0:
