osu file format v14

[General]
AudioFilename: audio.mp3
AudioLeadIn: 0
PreviewTime: 107778
Countdown: 0
SampleSet: Soft
StackLeniency: 0.7
Mode: 2
LetterboxInBreaks: 0
WidescreenStoryboard: 1

[Editor]
DistanceSpacing: 0.4
BeatDivisor: 4
GridSize: 4
TimelineZoom: 2.699999

[Metadata]
Title:People People feat. Nanahira
TitleUnicode:ピポピポ -People People- feat. ななひら
Artist:Neko Hacker
ArtistUnicode:Neko Hacker
Creator:My Angel RangE
Version:-Overdose Overdose-
Source:
Tags:nnzn kawaii future rock j-pop jpop pop featured artist fa ピポピポチャレンジ pipopipo challenge ネコハッカー sera kassan かっさん confetto neko hacker Ⅱ: stray jrock j-rock electronic japanese mpg mappers guild Muse Dash
BeatmapID:4047708
BeatmapSetID:1828947

[Difficulty]
HPDrainRate:5
CircleSize:4.1
OverallDifficulty:9.4
ApproachRate:9.4
SliderMultiplier:1.8
SliderTickRate:2

[Events]
//Background and Video events
0,0,"noname.jpg",0,0
//Break Periods
//Storyboard Layer 0 (Background)
//Storyboard Layer 1 (Fail)
//Storyboard Layer 2 (Pass)
//Storyboard Layer 3 (Foreground)
//Storyboard Layer 4 (Overlay)
//Storyboard Sound Samples

[TimingPoints]
365,260.869565217391,4,2,2,60,1,0
8712,-100,4,2,2,70,0,1
14973,-100,4,2,2,60,0,0
50451,-100,4,2,2,70,0,1
67147,-100,4,2,2,70,0,0
75495,-100,4,2,2,60,0,0
108886,-100,4,2,2,60,0,1
125321,-45.4545454545455,4,2,2,60,0,1
125582,-100,4,2,2,40,0,0
133930,-100,4,2,2,60,0,0
175669,-100,4,2,2,50,0,0
181930,-100,4,2,2,70,0,0
184538,-100,4,2,2,70,0,1
192364,-100,4,2,2,70,0,0
200712,-100,4,2,2,70,0,1
206973,-100,4,2,2,70,0,0
209060,-100,4,2,2,20,0,0

[Colours]
Combo1 : 175,96,255
Combo2 : 176,176,255

[HitObjects]
123,179,103,6,0,L|55:179,1,45,2|2,0:0|0:0,0:0:0:0:
222,135,234,2,0,L|290:135,1,45,2|2,0:0|0:0,0:0:0:0:
46,132,365,6,0,L|46:36,1,90,4|2,0:0|0:0,0:0:0:0:
272,64,625,2,0,L|361:63,2,90,8|2|2,0:0|0:0|0:0,0:0:0:0:
176,64,1017,1,2,0:0:0:0:
400,156,1147,2,0,L|400:44,1,90,8|2,0:0|0:0,0:0:0:0:
176,64,1408,6,0,L|176:184,1,90,2|2,0:0|0:0,0:0:0:0:
368,152,1669,2,0,L|492:148,2,90,8|2|2,0:0|0:0|0:0,0:0:0:0:
280,152,2060,1,2,0:0:0:0:
496,156,2191,2,0,L|492:60,1,90,8|2,0:0|0:0,0:0:0:0:
276,88,2451,6,0,L|376:88,2,90,2|2|8,0:0|0:0|0:0,0:0:0:0:
84,164,2843,2,0,P|20:116|92:88,1,180,2|2,0:0|0:0,0:0:0:0:
276,88,3234,2,0,L|172:88,1,90,8|2,0:0|0:0,0:0:0:0:
388,84,3495,6,0,L|488:84,2,90,2|2|8,0:0|0:0|0:0,0:0:0:0:
184,144,3886,2,0,P|108:120|108:12,1,180,2|2,0:0|0:0,0:0:0:0:
324,28,4278,2,0,L|324:140,1,90,8|2,0:0|0:0,0:0:0:0:
120,108,4538,6,0,L|8:108,2,90,2|2|8,0:0|0:0|0:0,0:0:0:0:
324,180,4930,2,0,P|388:144|308:108,1,180,2|2,0:0|0:0,0:0:0:0:
120,56,5321,2,0,L|120:168,1,90,8|2,0:0|0:0,0:0:0:0:
325,95,5582,6,0,L|425:95,2,90,2|2|8,0:0|0:0|0:0,0:0:0:0:
120,40,5973,2,0,L|328:40,1,180,2|2,0:0|0:0,0:0:0:0:
88,160,6364,2,0,L|88:56,1,90,8|2,0:0|0:0,0:0:0:0:
313,189,6625,6,0,L|381:189,1,45,2|2,0:0|0:0,0:0:0:0:
181,189,6756,2,0,L|121:189,1,45,2|2,0:0|0:0,0:0:0:0:
273,154,7017,6,0,L|341:154,1,45,2|2,0:0|0:0,0:0:0:0:
150,155,7147,2,0,L|82:155,1,45,2|2,0:0|0:0,0:0:0:0:
249,106,7408,6,0,L|317:106,1,45,2|2,0:0|0:0,0:0:0:0:
126,108,7538,2,0,L|58:108,1,45,2|2,0:0|0:0,0:0:0:0:
227,71,7799,6,0,L|295:71,1,45,2|2,0:0|0:0,0:0:0:0:
78,147,7930,2,0,L|10:147,1,45,2|2,0:0|0:0,0:0:0:0:
33,147,8060,2,0,L|78:147,1,45,2|0,0:0|0:0,0:0:0:0:
244,148,8191,6,0,P|288:112|224:56,1,135,2|2,0:0|0:0,0:0:0:0:
78,147,8451,2,0,P|58:95|86:63,1,90,8|0,0:0|0:0,0:0:0:0:
328,96,8712,6,0,L|392:96,1,45,4|0,0:0|0:0,0:0:0:0:
373,96,8843,2,0,L|328:96,1,45,2|0,0:0|0:0,0:0:0:0:
276,40,8973,2,0,L|212:40,1,45,2|0,0:0|0:0,0:0:0:0:
231,40,9104,2,0,L|276:40,1,45,2|0,0:0|0:0,0:0:0:0:
436,40,9234,6,0,L|488:40,1,45,8|0,0:0|0:0,0:0:0:0:
481,40,9364,2,0,L|436:40,1,45,2|0,0:0|0:0,0:0:0:0:
248,67,9495,2,0,L|196:67,1,45,2|0,0:0|0:0,0:0:0:0:
203,67,9625,2,0,L|248:67,1,45,2|0,0:0|0:0,0:0:0:0:
432,96,9756,6,0,L|496:96,1,45,8|0,1:0|0:0,0:0:0:0:
477,96,9887,2,0,L|432:96,1,45,2|0,0:0|0:0,0:0:0:0:
392,152,10017,2,0,L|456:152,1,45,2|0,0:0|0:0,0:0:0:0:
440,200,10148,2,0,L|395:200,1,45,2|0,0:0|0:0,0:0:0:0:
252,196,10278,6,0,L|184:196,1,45,8|0,0:0|0:0,0:0:0:0:
207,196,10408,2,0,L|252:196,1,45,2|0,0:0|0:0,0:0:0:0:
425,238,10538,2,0,L|493:238,1,45,2|0,0:0|0:0,0:0:0:0:
470,238,10668,2,0,L|425:238,1,45,2|0,0:0|0:0,0:0:0:0:
209,134,10799,6,0,L|155:134,1,45,8|0,1:0|0:0,0:0:0:0:
164,134,10930,2,0,L|209:134,1,45,2|0,0:0|0:0,0:0:0:0:
164,76,11060,2,0,L|110:76,1,45,2|0,0:0|0:0,0:0:0:0:
119,76,11191,2,0,L|173:76,1,45,2|0,0:0|0:0,0:0:0:0:
335,70,11321,6,0,L|395:70,1,45,8|0,0:0|0:0,0:0:0:0:
380,70,11451,2,0,L|335:70,1,45,2|0,0:0|0:0,0:0:0:0:
161,30,11582,2,0,L|101:30,1,45,2|0,0:0|0:0,0:0:0:0:
116,30,11712,2,0,L|161:30,1,45,2|0,0:0|0:0,0:0:0:0:
308,114,11843,6,0,L|368:114,1,45,8|0,1:0|0:0,0:0:0:0:
119,114,11973,2,0,L|59:114,1,45,2|0,0:0|0:0,0:0:0:0:
306,155,12104,2,0,P|342:139|298:70,1,135,2|0,0:0|0:0,0:0:0:0:
90,164,12364,6,0,L|88:82,1,45,8|0,0:0|0:0,0:0:0:0:
256,44,12495,2,0,L|333:41,1,45,0|0,0:0|0:0,0:0:0:0:
104,40,12625,2,0,P|47:48|19:120,1,135,8|0,1:0|0:0,0:0:0:0:
193,113,12886,6,0,L|260:114,1,45,4|0,0:0|0:0,0:0:0:0:
241,159,13017,2,0,L|196:158,1,45,2|0,0:0|0:0,0:0:0:0:
241,159,13147,2,0,L|285:159,1,45,2|0,0:0|0:0,0:0:0:0:
288,226,13278,2,0,L|221:227,1,45,2|0,0:0|0:0,0:0:0:0:
77,62,13408,6,0,L|10:63,1,45,8|0,0:0|0:0,0:0:0:0:
29,108,13539,2,0,L|74:107,1,45,2|0,0:0|0:0,0:0:0:0:
242,57,13669,2,0,L|309:58,1,45,2|0,0:0|0:0,0:0:0:0:
290,103,13800,2,0,L|245:102,1,45,2|0,0:0|0:0,0:0:0:0:
87,138,13930,6,0,L|11:138,1,45,8|0,1:0|0:0,0:0:0:0:
86,171,14060,2,0,L|162:171,1,45,2|0,0:0|0:0,0:0:0:0:
81,215,14191,2,0,L|36:215,1,45,2|0,0:0|0:0,0:0:0:0:
36,264,14321,2,0,L|112:264,1,45,2|0,0:0|0:0,0:0:0:0:
237,260,14451,6,0,L|306:259,1,45,8|0,0:0|0:0,0:0:0:0:
281,259,14582,2,0,L|236:259,1,45,2|0,0:0|0:0,0:0:0:0:
86,171,14712,2,0,L|17:170,1,45,2|0,0:0|0:0,0:0:0:0:
41,171,14843,2,0,L|85:171,1,45,2|0,0:0|0:0,0:0:0:0:
313,161,14973,6,0,P|372:117|316:72,1,135,2|2,0:0|0:0,0:0:0:0:
173,26,15234,2,0,L|124:24,1,45,0|2,0:0|0:0,0:0:0:0:
347,76,15364,2,0,P|409:57|332:27,1,180,8|0,0:0|0:0,0:0:0:0:
310,9,15691,1,0,0:0:0:0:
116,58,15756,6,0,P|67:90|123:115,1,135,2|2,0:0|0:0,0:0:0:0:
292,141,16017,2,0,L|348:140,1,45,0|2,0:0|0:0,0:0:0:0:
113,120,16147,2,0,P|67:201|125:203,1,180,8|0,0:0|0:0,0:0:0:0:
338,197,16538,1,2,0:0:0:0:
112,209,16669,1,2,0:0:0:0:
344,208,17060,6,0,P|335:151|212:100,1,180,4|8,0:0|0:0,0:0:0:0:
148,100,17451,1,2,0:0:0:0:
236,88,17582,2,0,L|332:88,2,90,0|2|8,0:0|0:0|0:0,0:0:0:0:
24,148,17973,6,0,P|28:64|128:36,1,180,2|2,0:0|0:0,0:0:0:0:
308,32,18364,2,0,L|218:32,1,90,8|0,0:0|0:0,0:0:0:0:
420,160,18625,2,0,L|420:48,1,90,2|2,0:0|0:0,0:0:0:0:
308,72,18886,2,0,L|308:162,1,90,8|0,0:0|0:0,0:0:0:0:
496,144,19147,6,0,L|304:144,1,180,2|8,0:0|0:0,0:0:0:0:
60,144,19538,2,0,L|188:144,1,90,2|0,0:0|0:0,0:0:0:0:
235,72,19799,2,0,L|107:72,1,90,2|8,0:0|0:0,0:0:0:0:
360,160,20060,6,0,P|420:112|352:68,1,180,2|2,0:0|0:0,0:0:0:0:
152,100,20451,2,0,L|256:100,1,90,8|2,0:0|0:0,0:0:0:0:
152,100,20712,2,0,L|152:0,1,90,2|2,0:0|0:0,0:0:0:0:
360,10,20973,2,0,L|360:100,1,90,8|0,0:0|0:0,0:0:0:0:
152,100,21234,6,0,L|256:100,2,90,2|0|8,0:0|0:0|0:0,0:0:0:0:
385,160,21625,2,0,P|453:148|461:44,1,180,2|2,0:0|0:0,0:0:0:0:
378,51,22017,1,8,0:0:0:0:
160,48,22147,6,0,P|100:80|176:132,1,180,2|2,0:0|0:0,0:0:0:0:
248,143,22538,1,8,0:0:0:0:
48,160,22669,2,0,P|56:92|160:36,1,180,2|2,0:0|0:0,0:0:0:0:
219,41,23060,2,0,L|129:41,1,90,8|2,0:0|0:0,0:0:0:0:
363,97,23321,6,0,L|475:97,2,90,2|0|8,0:0|0:0|0:0,0:0:0:0:
155,111,23712,2,0,L|155:16,1,90,2|0,0:0|0:0,0:0:0:0:
245,20,23973,2,0,L|377:20,1,90,2|8,0:0|0:0,0:0:0:0:
140,224,24234,6,0,P|76:200|156:172,1,180,2|2,0:0|0:0,0:0:0:0:
344,216,24625,2,0,L|240:216,1,90,8|2,0:0|0:0,0:0:0:0:
344,172,24886,2,0,L|448:172,1,90,2|2,0:0|0:0,0:0:0:0:
217,131,25147,2,0,L|217:39,1,90,8|2,0:0|0:0,0:0:0:0:
281,39,25343,1,2,0:0:0:0:
431,41,25408,6,0,L|428:158,1,90,4|0,0:0|0:0,0:0:0:0:
217,131,25669,2,0,L|325:130,1,90,8|2,0:0|0:0,0:0:0:0:
96,202,25930,2,0,P|44:187|111:133,1,180,0|8,0:0|0:0,0:0:0:0:
331,145,26321,6,0,L|141:148,1,180,2|2,0:0|0:0,0:0:0:0:
243,147,26712,2,0,L|245:20,1,90,8|0,0:0|0:0,0:0:0:0:
35,57,26973,2,0,L|35:166,1,90,2|2,0:0|0:0,0:0:0:0:
124,146,27234,2,0,L|34:146,1,90,8|0,0:0|0:0,0:0:0:0:
275,245,27495,6,0,P|329:217|250:152,1,180,2|8,0:0|0:0,0:0:0:0:
63,106,27886,2,0,L|265:98,1,180,2|2,0:0|0:0,0:0:0:0:
160,124,28278,1,8,0:0:0:0:
352,144,28408,2,0,P|408:116|340:56,1,180,2|2,0:0|0:0,0:0:0:0:
156,96,28799,6,0,L|272:96,1,90,8|2,0:0|0:0,0:0:0:0:
140,72,29060,2,0,L|140:176,1,90,2|2,0:0|0:0,0:0:0:0:
268,160,29321,2,0,L|388:160,1,90,8|0,0:0|0:0,0:0:0:0:
136,200,29582,6,0,L|32:200,2,90,2|0|8,0:0|0:0|0:0,0:0:0:0:
432,144,29973,2,0,L|312:144,1,90,2|0,0:0|0:0,0:0:0:0:
252,80,30234,2,0,L|356:80,1,90,2|8,0:0|0:0,0:0:0:0:
128,172,30495,6,0,P|68:120|144:104,1,180,2|2,0:0|0:0,0:0:0:0:
44,96,30886,1,8,0:0:0:0:
256,84,31017,2,0,L|368:84,2,90,2|0|2,0:0|0:0|0:0,0:0:0:0:
160,84,31408,1,8,0:0:0:0:
348,144,31538,2,0,L|432:144,1,45,2|2,0:0|0:0,0:0:0:0:
172,236,31669,5,4,0:0:0:0:
172,236,31799,1,2,0:0:0:0:
172,236,32060,1,8,0:0:0:0:
396,240,32191,1,2,0:0:0:0:
396,240,32451,1,8,0:0:0:0:
172,236,32582,1,2,0:0:0:0:
172,236,32843,5,8,0:0:0:0:
396,240,32973,2,0,L|396:112,1,90,2|0,0:0|0:0,0:0:0:0:
82,236,33234,2,0,L|198:236,1,90,8|0,0:0|0:0,0:0:0:0:
52,236,33495,2,0,L|52:116,1,90,8|0,0:0|0:0,0:0:0:0:
288,236,33756,6,0,P|348:180|276:148,1,180,4|0,0:0|0:0,0:0:0:0:
196,140,34147,1,0,0:0:0:0:
436,144,34278,2,0,P|408:68|300:48,1,180,8|2,0:0|0:0,0:0:0:0:
392,40,34669,1,2,0:0:0:0:
184,56,34799,6,0,L|52:56,2,90,2|2|0,0:0|0:0|0:0,0:0:0:0:
184,56,35191,1,2,0:0:0:0:
400,136,35321,2,0,L|400:36,1,90,8|2,0:0|0:0,0:0:0:0:
310,136,35582,2,0,L|426:136,1,90,0|2,0:0|0:0,0:0:0:0:
180,132,35843,6,0,L|60:132,1,90,2|0,0:0|0:0,0:0:0:0:
180,132,36104,2,0,L|270:132,1,90,2|0,0:0|0:0,0:0:0:0:
80,48,36364,2,0,L|284:48,1,180,8|2,0:0|0:0,0:0:0:0:
164,48,36756,1,0,0:0:0:0:
460,144,36886,6,0,L|460:24,1,90,2|2,0:0|0:0,0:0:0:0:
360,56,37147,2,0,L|360:146,1,90,2|2,0:0|0:0,0:0:0:0:
124,96,37408,2,0,L|256:96,1,90,8|2,0:0|0:0,0:0:0:0:
124,96,37669,2,0,L|-8:96,1,90,2|2,0:0|0:0,0:0:0:0:
312,184,37930,6,0,P|364:112|296:104,1,180,2|2,0:0|0:0,0:0:0:0:
220,96,38321,1,0,0:0:0:0:
448,52,38451,2,0,L|232:52,1,180,8|2,0:0|0:0,0:0:0:0:
360,52,38843,1,2,0:0:0:0:
92,60,38973,6,0,L|92:168,1,90,2|2,0:0|0:0,0:0:0:0:
184,152,39234,1,0,0:0:0:0:
92,152,39364,1,2,0:0:0:0:
396,272,39495,2,0,L|396:164,1,90,8|0,0:0|0:0,0:0:0:0:
305,200,39756,2,0,L|417:200,1,90,2|2,0:0|0:0,0:0:0:0:
128,172,40017,6,0,L|16:172,1,90,0|0,0:0|0:0,0:0:0:0:
112,152,40278,2,0,L|220:152,1,90,2|2,0:0|0:0,0:0:0:0:
416,168,40538,2,0,P|472:132|388:80,1,180,8|2,0:0|0:0,0:0:0:0:
488,72,40930,1,2,0:0:0:0:
244,156,41060,6,0,L|244:60,1,90,2|2,0:0|0:0,0:0:0:0:
336,68,41321,1,2,0:0:0:0:
336,68,41451,1,0,0:0:0:0:
72,72,41582,2,0,L|8:72,1,45,8|0,0:0|0:0,0:0:0:0:
27,72,41712,2,0,L|72:72,1,45,0|0,0:0|0:0,0:0:0:0:
116,64,41843,2,0,L|-12:64,1,90,2|2,0:0|0:0,0:0:0:0:
308,132,42104,6,0,L|420:132,2,90,4|0|2,0:0|0:0|0:0,0:0:0:0:
116,144,42495,2,0,L|4:144,2,90,8|0|2,0:0|0:0|0:0,0:0:0:0:
308,156,42886,2,0,L|368:156,1,45,8|0,0:0|0:0,0:0:0:0:
208,196,43017,2,0,L|148:196,1,45,2|0,0:0|0:0,0:0:0:0:
356,208,43147,6,0,L|468:208,2,90,8|0|2,0:0|0:0|0:0,0:0:0:0:
164,220,43538,2,0,L|52:220,2,90,8|0|2,0:0|0:0|0:0,0:0:0:0:
360,240,43930,2,0,L|420:240,1,45,8|0,0:0|0:0,0:0:0:0:
260,280,44061,2,0,L|200:280,1,45,2|0,0:0|0:0,0:0:0:0:
408,280,44191,6,0,L|520:280,2,90,8|0|2,0:0|0:0|0:0,0:0:0:0:
208,200,44582,2,0,L|96:200,2,90,8|0|2,0:0|0:0|0:0,0:0:0:0:
400,172,44973,2,0,L|400:104,1,45,8|0,0:0|0:0,0:0:0:0:
248,92,45104,2,0,L|192:92,1,45,2|0,0:0|0:0,0:0:0:0:
360,92,45234,6,0,L|416:92,1,45,8|0,0:0|0:0,0:0:0:0:
405,92,45364,2,0,L|360:92,1,45,0|0,0:0|0:0,0:0:0:0:
200,40,45495,2,0,L|144:40,1,45,2|0,0:0|0:0,0:0:0:0:
155,40,45625,2,0,L|200:40,1,45,0|0,0:0|0:0,0:0:0:0:
360,32,45756,6,0,L|416:32,1,45,2|0,0:0|0:0,0:0:0:0:
405,32,45886,2,0,L|360:32,1,45,0|0,0:0|0:0,0:0:0:0:
200,84,46017,2,0,L|144:84,1,45,2|0,0:0|0:0,0:0:0:0:
155,84,46147,2,0,L|200:84,1,45,0|0,0:0|0:0,0:0:0:0:
408,152,46278,6,0,L|464:152,1,45,4|0,0:0|0:0,0:0:0:0:
453,152,46408,2,0,L|408:152,1,45,2|0,0:0|0:0,0:0:0:0:
453,152,46538,2,0,L|509:152,1,45,8|0,0:0|0:0,0:0:0:0:
498,152,46668,2,0,L|453:152,1,45,2|0,0:0|0:0,0:0:0:0:
248,148,46799,6,0,L|192:148,1,45,8|0,0:0|0:0,0:0:0:0:
360,104,46930,2,0,L|416:104,1,45,2|0,0:0|0:0,0:0:0:0:
204,104,47060,2,0,L|148:104,1,45,8|0,0:0|0:0,0:0:0:0:
316,60,47191,2,0,L|372:60,1,45,2|0,0:0|0:0,0:0:0:0:
152,52,47321,6,0,L|96:52,1,45,8|2,0:0|0:0,0:0:0:0:
107,52,47451,2,0,L|152:52,1,45,2|2,0:0|0:0,0:0:0:0:
107,52,47581,2,0,L|51:52,1,45,8|2,0:0|0:0,0:0:0:0:
62,52,47711,2,0,L|107:52,1,45,2|2,0:0|0:0,0:0:0:0:
268,104,47843,6,0,L|328:104,1,45,8|2,0:0|0:0,0:0:0:0:
152,112,47973,2,0,L|92:112,1,45,2|2,0:0|0:0,0:0:0:0:
316,140,48104,2,0,L|376:140,1,45,8|2,0:0|0:0,0:0:0:0:
151,147,48234,2,0,L|91:147,1,45,2|2,0:0|0:0,0:0:0:0:
364,176,48364,6,0,L|416:176,1,45,0|0,0:0|0:0,0:0:0:0:
409,176,48495,2,0,L|364:176,1,45,0|0,0:0|0:0,0:0:0:0:
312,136,48625,2,0,L|260:136,1,45,0|0,0:0|0:0,0:0:0:0:
267,136,48756,2,0,L|312:136,1,45,0|0,0:0|0:0,0:0:0:0:
368,120,48886,6,0,L|420:120,1,45,0|0,0:0|0:0,0:0:0:0:
413,120,49017,2,0,L|368:120,1,45,0|0,0:0|0:0,0:0:0:0:
316,80,49147,2,0,L|264:80,1,45,0|0,0:0|0:0,0:0:0:0:
271,80,49278,2,0,L|316:80,1,45,0|0,0:0|0:0,0:0:0:0:
456,80,49408,5,2,0:0:0:0:
316,80,49669,1,2,0:0:0:0:
456,80,49930,1,2,0:0:0:0:
456,80,50060,1,2,0:0:0:0:
164,80,50191,1,8,0:0:0:0:
72,136,50451,6,0,L|162:136,1,90,4|2,0:0|0:0,0:0:0:0:
72,180,50712,2,0,L|72:72,1,90,2|2,0:0|0:0,0:0:0:0:
312,136,50973,2,0,L|416:136,1,90,8|2,0:0|0:0,0:0:0:0:
160,76,51234,2,0,L|52:76,1,90,2|2,0:0|0:0,0:0:0:0:
312,168,51495,6,0,L|312:64,1,90,0|2,1:0|0:0,0:0:0:0:
200,80,51756,2,0,L|200:170,1,90,2|2,0:0|0:0,0:0:0:0:
408,168,52017,2,0,L|504:168,1,90,8|2,0:0|0:0,0:0:0:0:
308,224,52278,2,0,L|218:224,1,90,2|0,0:0|0:0,0:0:0:0:
472,224,52538,6,0,L|472:108,1,90,0|2,1:0|0:0,0:0:0:0:
368,132,52799,2,0,L|368:20,1,90,2|2,0:0|0:0,0:0:0:0:
152,44,53060,2,0,L|32:44,1,90,8|2,0:0|0:0,0:0:0:0:
280,80,53321,2,0,L|400:80,1,90,2|2,0:0|0:0,0:0:0:0:
40,128,53582,6,0,L|40:24,1,90,4|0,0:0|0:0,0:0:0:0:
144,44,53843,2,0,L|32:44,1,90,2|0,0:0|0:0,0:0:0:0:
304,108,54104,2,0,L|412:108,1,90,2|0,0:0|0:0,0:0:0:0:
144,76,54365,2,0,L|54:76,1,90,8|0,0:0|0:0,0:0:0:0:
392,184,54625,6,0,L|392:64,1,90,4|2,0:0|0:0,0:0:0:0:
280,96,54886,2,0,L|280:186,1,90,2|2,0:0|0:0,0:0:0:0:
484,188,55147,2,0,L|384:188,1,90,8|2,0:0|0:0,0:0:0:0:
190,96,55408,2,0,L|290:96,1,90,2|2,0:0|0:0,0:0:0:0:
48,184,55669,6,0,L|48:56,1,90,0|2,1:0|0:0,0:0:0:0:
160,68,55930,2,0,L|260:68,1,90,2|2,0:0|0:0,0:0:0:0:
32,184,56191,2,0,L|32:52,1,90,8|2,0:0|0:0,0:0:0:0:
248,96,56451,2,0,L|248:186,1,90,2|0,0:0|0:0,0:0:0:0:
32,184,56712,6,0,L|88:184,1,45,4|0,0:0|0:0,0:0:0:0:
248,186,56842,2,0,L|192:186,1,45,0|0,0:0|0:0,0:0:0:0:
32,184,56973,1,2,0:0:0:0:
32,144,57103,6,0,L|88:144,1,45,4|0,0:0|0:0,0:0:0:0:
264,146,57233,2,0,L|208:146,1,45,0|0,0:0|0:0,0:0:0:0:
32,144,57364,1,2,0:0:0:0:
32,96,57495,6,0,L|88:96,1,45,4|0,0:0|0:0,0:0:0:0:
281,101,57625,2,0,L|225:101,1,45,0|0,0:0|0:0,0:0:0:0:
32,96,57756,1,2,0:0:0:0:
32,48,57886,6,0,L|88:48,1,45,4|0,0:0|0:0,0:0:0:0:
308,47,58017,2,0,L|252:47,1,45,0|0,0:0|0:0,0:0:0:0:
32,48,58147,1,2,0:0:0:0:
122,48,58278,2,0,L|18:48,1,90,8|0,0:0|0:0,0:0:0:0:
252,136,58538,2,0,L|342:136,1,90,8|0,0:0|0:0,0:0:0:0:
128,136,58799,5,2,0:0:0:0:
80,132,58864,1,0,0:0:0:0:
28,128,58930,1,2,0:0:0:0:
80,132,58995,1,0,0:0:0:0:
128,136,59060,1,2,0:0:0:0:
80,132,59125,1,0,0:0:0:0:
28,128,59191,1,2,0:0:0:0:
296,80,59321,2,0,L|412:80,2,90,8|0|2,0:0|0:0|0:0,0:0:0:0:
45,88,59712,6,0,P|36:160|144:214,1,180,2|2,0:0|0:0,0:0:0:0:
330,155,60104,2,0,L|226:155,1,90,2|2,0:0|0:0,0:0:0:0:
353,155,60364,2,0,L|366:46,1,90,8|0,0:0|0:0,0:0:0:0:
148,92,60625,2,0,L|40:92,1,90,2|0,0:0|0:0,0:0:0:0:
344,60,60886,6,0,L|434:60,3,90,2|2|2|2,0:0|0:0|0:0|0:0,0:0:0:0:
148,40,61408,2,0,L|264:40,1,90,8|0,0:0|0:0,0:0:0:0:
148,40,61669,1,2,0:0:0:0:
416,112,61799,6,0,L|236:111,1,180,2|2,0:0|0:0,0:0:0:0:
496,72,62191,2,0,L|496:161,1,90,2|2,0:0|0:0,0:0:0:0:
406,72,62451,2,0,L|526:72,1,90,8|0,0:0|0:0,0:0:0:0:
256,132,62712,2,0,L|136:132,1,90,2|0,0:0|0:0,0:0:0:0:
364,176,62973,6,0,L|464:176,3,90,2|2|2|2,0:0|0:0|0:0|0:0,0:0:0:0:
168,84,63495,2,0,L|276:84,2,90,8|0|2,0:0|0:0|0:0,0:0:0:0:
368,136,63886,6,0,P|348:56|236:28,1,180,2|2,0:0|0:0,0:0:0:0:
40,84,64278,2,0,L|164:84,1,90,2|2,0:0|0:0,0:0:0:0:
224,160,64538,2,0,L|100:160,1,90,8|2,0:0|0:0,0:0:0:0:
364,248,64799,2,0,L|364:120,1,90,2|0,0:0|0:0,0:0:0:0:
164,232,65060,6,0,P|100:236|156:168,1,180,4|0,0:0|0:0,0:0:0:0:
164,160,65386,1,0,0:0:0:0:
348,232,65451,6,0,P|412:236|356:168,1,180,4|0,0:0|0:0,0:0:0:0:
348,160,65777,1,0,0:0:0:0:
164,88,65843,6,0,L|368:88,1,180,4|0,0:0|0:0,0:0:0:0:
296,88,66169,1,0,0:0:0:0:
120,144,66234,1,2,0:0:0:0:
336,240,66364,2,0,L|336:132,1,90,2|0,0:0|0:0,0:0:0:0:
246,150,66625,2,0,L|336:150,1,90,2|0,0:0|0:0,0:0:0:0:
120,192,66886,2,0,L|64:192,1,45,8|0,0:0|0:0,0:0:0:0:
75,192,67017,2,0,L|120:192,1,45,0|0,0:0|0:0,0:0:0:0:
352,196,67147,6,0,L|468:196,1,90,4|2,0:0|0:0,0:0:0:0:
228,128,67408,2,0,L|112:128,1,90,2|2,0:0|0:0,0:0:0:0:
228,128,67669,2,0,L|344:128,1,90,8|2,0:0|0:0,0:0:0:0:
104,40,67930,2,0,L|104:130,1,90,2|2,0:0|0:0,0:0:0:0:
328,88,68191,6,0,L|216:88,1,90,0|2,1:0|0:0,0:0:0:0:
460,48,68451,2,0,L|459:169,1,90,2|2,0:0|0:0,0:0:0:0:
369,137,68712,2,0,L|481:137,1,90,8|2,0:0|0:0,0:0:0:0:
236,136,68973,2,0,L|128:136,1,90,2|2,0:0|0:0,0:0:0:0:
369,47,69234,6,0,L|369:175,1,90,2|0,0:0|0:0,0:0:0:0:
146,136,69495,2,0,L|146:46,1,90,2|0,0:0|0:0,0:0:0:0:
400,48,69756,2,0,L|520:48,1,90,8|0,0:0|0:0,0:0:0:0:
240,136,70017,2,0,L|340:136,1,90,8|0,0:0|0:0,0:0:0:0:
80,48,70278,6,0,L|80:176,1,90,2|0,0:0|0:0,0:0:0:0:
303,137,70539,2,0,L|303:47,1,90,2|0,0:0|0:0,0:0:0:0:
48,48,70799,2,0,L|48:176,1,90,8|0,0:0|0:0,0:0:0:0:
303,137,71060,2,0,L|199:137,1,90,8|0,0:0|0:0,0:0:0:0:
464,132,71321,6,0,L|464:32,1,90,4|2,0:0|0:0,0:0:0:0:
264,40,71582,2,0,L|354:41,1,90,2|2,0:0|0:0,0:0:0:0:
264,40,71843,2,0,L|174:41,1,90,8|2,0:0|0:0,0:0:0:0:
388,92,72104,2,0,L|500:92,1,90,2|2,0:0|0:0,0:0:0:0:
232,148,72364,6,0,L|232:48,1,90,0|2,1:0|0:0,0:0:0:0:
440,144,72625,2,0,L|440:40,1,90,2|2,0:0|0:0,0:0:0:0:
352,56,72886,2,0,L|240:56,1,90,8|2,0:0|0:0,0:0:0:0:
488,144,73147,2,0,L|488:40,1,90,2|2,0:0|0:0,0:0:0:0:
168,84,73408,6,0,P|109:128|165:173,1,135,2|0,0:0|0:0,0:0:0:0:
308,219,73669,2,0,L|364:216,1,45,0|0,0:0|0:0,0:0:0:0:
134,169,73799,2,0,P|72:188|149:218,1,180,8|0,0:0|0:0,0:0:0:0:
171,236,74126,1,0,0:0:0:0:
365,187,74191,6,0,P|414:155|358:130,1,135,2|0,0:0|0:0,0:0:0:0:
189,104,74452,2,0,L|140:104,1,45,0|0,0:0|0:0,0:0:0:0:
368,125,74582,2,0,P|414:44|356:42,1,180,8|0,0:0|0:0,0:0:0:0:
143,48,74973,1,2,0:0:0:0:
369,36,75104,1,2,0:0:0:0:
174,165,75495,6,0,P|191:247|275:260,1,180,4|8,0:0|0:0,0:0:0:0:
372,260,75886,1,2,0:0:0:0:
180,264,76017,2,0,L|84:264,2,90,0|2|8,0:0|0:0|0:0,0:0:0:0:
485,216,76408,6,0,P|481:300|381:328,1,180,2|2,0:0|0:0,0:0:0:0:
311,334,76799,2,0,L|401:334,1,90,8|0,0:0|0:0,0:0:0:0:
89,204,77060,2,0,L|89:316,1,90,2|2,0:0|0:0,0:0:0:0:
201,292,77321,2,0,L|201:202,1,90,8|0,0:0|0:0,0:0:0:0:
13,220,77582,6,0,L|205:220,1,180,2|8,0:0|0:0,0:0:0:0:
100,220,77973,1,2,0:0:0:0:
324,220,78104,2,0,L|452:220,2,90,0|2|8,0:0|0:0|0:0,0:0:0:0:
100,220,78495,6,0,P|40:268|108:312,1,180,2|2,0:0|0:0,0:0:0:0:
194,313,78886,2,0,L|90:313,1,90,8|2,0:0|0:0,0:0:0:0:
336,264,79147,2,0,L|336:364,1,90,2|2,0:0|0:0,0:0:0:0:
208,352,79408,2,0,L|208:262,1,90,8|0,0:0|0:0,0:0:0:0:
426,264,79669,6,0,L|322:264,2,90,2|0|8,0:0|0:0|0:0,0:0:0:0:
426,264,80060,1,2,0:0:0:0:
184,264,80191,2,0,L|72:264,1,90,0|2,0:0|0:0,0:0:0:0:
94,264,80452,1,8,0:0:0:0:
349,316,80582,6,0,P|409:284|333:232,1,180,2|2,0:0|0:0,0:0:0:0:
256,224,80973,1,8,0:0:0:0:
352,224,81104,1,2,0:0:0:0:
148,224,81234,2,0,L|148:116,1,90,2|2,0:0|0:0,0:0:0:0:
248,136,81495,2,0,L|338:136,1,90,8|2,0:0|0:0,0:0:0:0:
144,244,81756,6,0,L|32:244,2,90,2|0|8,0:0|0:0|0:0,0:0:0:0:
248,244,82147,1,2,0:0:0:0:
472,252,82278,2,0,L|472:148,1,90,0|2,0:0|0:0,0:0:0:0:
376,160,82538,1,8,0:0:0:0:
164,156,82669,6,0,P|100:180|180:208,1,180,2|2,0:0|0:0,0:0:0:0:
255,148,83060,2,0,L|165:148,1,90,8|2,0:0|0:0,0:0:0:0:
368,148,83321,2,0,L|472:148,1,90,2|2,0:0|0:0,0:0:0:0:
368,148,83582,2,0,L|272:148,1,90,8|2,0:0|0:0,0:0:0:0:
64,240,83843,6,0,L|67:123,1,90,4|0,0:0|0:0,0:0:0:0:
156,149,84104,2,0,L|48:150,1,90,8|2,0:0|0:0,0:0:0:0:
300,140,84365,2,0,P|352:155|285:209,1,180,0|8,0:0|0:0,0:0:0:0:
178,219,84756,6,0,L|368:216,1,180,2|2,0:0|0:0,0:0:0:0:
266,217,85147,2,0,L|264:344,1,90,8|0,0:0|0:0,0:0:0:0:
474,307,85408,2,0,L|474:198,1,90,2|2,0:0|0:0,0:0:0:0:
385,218,85669,2,0,L|475:218,1,90,8|0,0:0|0:0,0:0:0:0:
234,119,85930,6,0,P|180:147|259:212,1,180,2|8,0:0|0:0,0:0:0:0:
320,220,86321,1,2,0:0:0:0:
116,224,86451,2,0,L|116:108,1,90,0|2,0:0|0:0,0:0:0:0:
208,136,86713,1,8,0:0:0:0:
444,132,86843,2,0,P|500:160|432:220,1,180,2|2,0:0|0:0,0:0:0:0:
348,222,87234,6,0,L|438:222,1,90,8|2,0:0|0:0,0:0:0:0:
216,264,87495,2,0,L|216:160,1,90,2|2,0:0|0:0,0:0:0:0:
306,174,87756,2,0,L|186:174,1,90,8|0,0:0|0:0,0:0:0:0:
404,112,88017,6,0,L|508:112,2,90,2|0|8,0:0|0:0|0:0,0:0:0:0:
308,112,88408,1,2,0:0:0:0:
56,136,88538,2,0,L|56:32,1,90,0|2,0:0|0:0,0:0:0:0:
148,48,88799,1,8,0:0:0:0:
360,52,88930,6,0,P|420:104|344:120,1,180,2|2,0:0|0:0,0:0:0:0:
436,128,89321,1,8,0:0:0:0:
240,140,89452,2,0,L|128:140,2,90,2|0|2,0:0|0:0|0:0,0:0:0:0:
336,140,89843,1,8,0:0:0:0:
240,140,89973,1,2,0:0:0:0:
337,128,90104,5,4,0:0:0:0:
238,123,90234,1,2,0:0:0:0:
238,123,90495,1,8,0:0:0:0:
374,62,90625,1,2,0:0:0:0:
375,113,90886,1,8,0:0:0:0:
234,73,91017,1,2,0:0:0:0:
373,131,91278,5,8,0:0:0:0:
230,128,91408,2,0,L|230:256,1,90,2|0,0:0|0:0,0:0:0:0:
338,131,91669,2,0,L|222:131,1,90,8|0,0:0|0:0,0:0:0:0:
351,128,91930,2,0,L|351:248,1,90,8|0,0:0|0:0,0:0:0:0:
132,128,92191,6,0,P|160:224|252:228,1,180,4|0,0:0|0:0,0:0:0:0:
332,236,92582,1,0,0:0:0:0:
73,220,92713,2,0,P|101:296|209:316,1,180,8|2,0:0|0:0,0:0:0:0:
117,324,93104,1,2,0:0:0:0:
325,308,93234,6,0,L|457:308,2,90,2|2|0,0:0|0:0|0:0,0:0:0:0:
325,308,93625,1,2,0:0:0:0:
109,228,93756,2,0,L|108:320,1,90,8|2,0:0|0:0,0:0:0:0:
199,228,94017,2,0,L|83:228,1,90,0|2,0:0|0:0,0:0:0:0:
329,232,94278,6,0,L|449:232,1,90,2|0,0:0|0:0,0:0:0:0:
329,232,94539,2,0,L|239:232,1,90,2|0,0:0|0:0,0:0:0:0:
429,316,94799,2,0,L|225:316,1,180,8|2,0:0|0:0,0:0:0:0:
345,316,95191,1,0,0:0:0:0:
49,220,95321,6,0,L|49:340,1,90,2|2,0:0|0:0,0:0:0:0:
149,308,95582,2,0,L|149:218,1,90,2|2,0:0|0:0,0:0:0:0:
385,268,95843,2,0,L|253:268,1,90,8|2,0:0|0:0,0:0:0:0:
385,268,96104,2,0,L|517:268,1,90,2|2,0:0|0:0,0:0:0:0:
197,180,96365,6,0,P|145:252|213:260,1,180,2|2,0:0|0:0,0:0:0:0:
289,268,96756,1,0,0:0:0:0:
61,312,96886,2,0,L|277:312,1,180,8|2,0:0|0:0,0:0:0:0:
149,312,97278,1,2,0:0:0:0:
417,304,97408,6,0,L|417:196,1,90,2|2,0:0|0:0,0:0:0:0:
325,212,97669,1,0,0:0:0:0:
417,214,97799,1,2,0:0:0:0:
116,60,97930,2,0,L|116:160,1,90,8|0,0:0|0:0,0:0:0:0:
204,164,98191,2,0,L|92:164,1,90,2|2,0:0|0:0,0:0:0:0:
381,192,98452,6,0,L|493:192,1,90,0|0,0:0|0:0,0:0:0:0:
397,212,98713,2,0,L|289:212,1,90,2|2,0:0|0:0,0:0:0:0:
93,196,98973,2,0,P|37:232|121:284,1,180,8|2,0:0|0:0,0:0:0:0:
21,292,99365,1,2,0:0:0:0:
265,208,99495,6,0,L|265:304,1,90,2|2,0:0|0:0,0:0:0:0:
173,296,99756,1,2,0:0:0:0:
173,296,99886,1,0,0:0:0:0:
437,292,100017,2,0,L|501:292,1,45,8|0,0:0|0:0,0:0:0:0:
482,292,100147,2,0,L|437:292,1,45,0|0,0:0|0:0,0:0:0:0:
393,300,100278,2,0,L|521:300,1,90,2|2,0:0|0:0,0:0:0:0:
201,232,100539,6,0,L|89:232,2,90,4|0|2,0:0|0:0|0:0,0:0:0:0:
393,220,100930,2,0,L|505:220,2,90,8|0|2,0:0|0:0|0:0,0:0:0:0:
201,208,101321,2,0,L|141:208,1,45,8|0,0:0|0:0,0:0:0:0:
301,168,101452,2,0,L|361:168,1,45,2|0,0:0|0:0,0:0:0:0:
153,156,101582,6,0,L|41:156,2,90,8|0|2,0:0|0:0|0:0,0:0:0:0:
345,144,101973,2,0,L|457:144,2,90,8|0|2,0:0|0:0|0:0,0:0:0:0:
149,124,102365,2,0,L|89:124,1,45,8|0,0:0|0:0,0:0:0:0:
265,81,102496,2,0,L|325:81,1,45,2|0,0:0|0:0,0:0:0:0:
101,84,102626,6,0,L|-11:84,2,90,8|0|2,0:0|0:0|0:0,0:0:0:0:
301,164,103017,2,0,L|413:164,2,90,8|0|2,0:0|0:0|0:0,0:0:0:0:
109,192,103408,2,0,L|109:260,1,45,8|0,0:0|0:0,0:0:0:0:
261,272,103539,2,0,L|317:272,1,45,2|0,0:0|0:0,0:0:0:0:
149,272,103669,6,0,L|93:272,1,45,8|0,0:0|0:0,0:0:0:0:
104,272,103799,2,0,L|149:272,1,45,0|0,0:0|0:0,0:0:0:0:
309,324,103930,2,0,L|365:324,1,45,2|0,0:0|0:0,0:0:0:0:
354,324,104060,2,0,L|309:324,1,45,0|0,0:0|0:0,0:0:0:0:
149,332,104191,6,0,L|93:332,1,45,2|0,0:0|0:0,0:0:0:0:
104,332,104321,2,0,L|149:332,1,45,0|0,0:0|0:0,0:0:0:0:
309,280,104452,2,0,L|365:280,1,45,2|0,0:0|0:0,0:0:0:0:
354,280,104582,2,0,L|309:280,1,45,0|0,0:0|0:0,0:0:0:0:
101,212,104713,6,0,L|45:212,1,45,4|0,0:0|0:0,0:0:0:0:
56,212,104843,2,0,L|101:212,1,45,2|0,0:0|0:0,0:0:0:0:
56,212,104973,2,0,L|0:212,1,45,8|0,0:0|0:0,0:0:0:0:
11,212,105103,2,0,L|56:212,1,45,2|0,0:0|0:0,0:0:0:0:
261,216,105234,6,0,L|317:216,1,45,8|0,0:0|0:0,0:0:0:0:
149,260,105365,2,0,L|93:260,1,45,2|0,0:0|0:0,0:0:0:0:
305,260,105495,2,0,L|361:260,1,45,8|0,0:0|0:0,0:0:0:0:
193,304,105626,2,0,L|137:304,1,45,2|0,0:0|0:0,0:0:0:0:
357,312,105756,6,0,L|413:312,1,45,8|2,0:0|0:0,0:0:0:0:
402,312,105886,2,0,L|357:312,1,45,2|2,0:0|0:0,0:0:0:0:
402,312,106016,2,0,L|458:312,1,45,8|2,0:0|0:0,0:0:0:0:
447,312,106146,2,0,L|402:312,1,45,2|2,0:0|0:0,0:0:0:0:
241,260,106278,6,0,L|181:260,1,45,8|2,0:0|0:0,0:0:0:0:
357,252,106408,2,0,L|417:252,1,45,2|2,0:0|0:0,0:0:0:0:
193,224,106539,2,0,L|133:224,1,45,8|2,0:0|0:0,0:0:0:0:
350,209,106669,2,0,L|410:209,1,45,2|2,0:0|0:0,0:0:0:0:
145,188,106799,6,0,L|93:188,1,45,0|0,0:0|0:0,0:0:0:0:
100,188,106930,2,0,L|145:188,1,45,0|0,0:0|0:0,0:0:0:0:
197,228,107060,2,0,L|249:228,1,45,0|0,0:0|0:0,0:0:0:0:
242,228,107191,2,0,L|197:228,1,45,0|0,0:0|0:0,0:0:0:0:
141,244,107321,6,0,L|89:244,1,45,0|0,0:0|0:0,0:0:0:0:
96,244,107452,2,0,L|141:244,1,45,0|0,0:0|0:0,0:0:0:0:
193,284,107582,2,0,L|245:284,1,45,0|0,0:0|0:0,0:0:0:0:
238,284,107713,2,0,L|193:284,1,45,0|0,0:0|0:0,0:0:0:0:
53,284,107843,5,2,0:0:0:0:
193,284,108104,1,2,0:0:0:0:
53,284,108365,1,2,0:0:0:0:
53,284,108495,1,2,0:0:0:0:
306,283,108626,1,8,0:0:0:0:
448,184,108886,6,0,L|358:184,1,90,4|2,0:0|0:0,0:0:0:0:
448,228,109147,2,0,L|448:120,1,90,2|2,0:0|0:0,0:0:0:0:
208,184,109408,2,0,L|104:184,1,90,8|2,0:0|0:0,0:0:0:0:
360,124,109669,2,0,L|468:124,1,90,2|2,0:0|0:0,0:0:0:0:
208,216,109930,6,0,L|208:112,1,90,0|2,1:0|0:0,0:0:0:0:
320,128,110191,2,0,L|320:218,1,90,2|2,0:0|0:0,0:0:0:0:
112,216,110452,2,0,L|16:216,1,90,8|2,0:0|0:0,0:0:0:0:
212,272,110713,2,0,L|302:272,1,90,2|0,0:0|0:0,0:0:0:0:
48,272,110973,6,0,L|48:156,1,90,0|2,1:0|0:0,0:0:0:0:
152,180,111234,2,0,L|152:68,1,90,2|2,0:0|0:0,0:0:0:0:
368,92,111495,2,0,L|488:92,1,90,8|2,0:0|0:0,0:0:0:0:
240,128,111756,2,0,L|120:128,1,90,2|2,0:0|0:0,0:0:0:0:
480,176,112017,6,0,L|480:72,1,90,4|0,0:0|0:0,0:0:0:0:
376,92,112278,2,0,L|488:92,1,90,2|0,0:0|0:0,0:0:0:0:
216,156,112539,2,0,L|108:156,1,90,2|0,0:0|0:0,0:0:0:0:
376,124,112800,2,0,L|466:124,1,90,8|0,0:0|0:0,0:0:0:0:
128,232,113060,6,0,L|128:112,1,90,4|2,0:0|0:0,0:0:0:0:
240,144,113321,2,0,L|240:234,1,90,2|2,0:0|0:0,0:0:0:0:
36,236,113582,2,0,L|136:236,1,90,8|2,0:0|0:0,0:0:0:0:
330,144,113843,2,0,L|230:144,1,90,2|2,0:0|0:0,0:0:0:0:
472,232,114104,6,0,L|472:104,1,90,0|2,1:0|0:0,0:0:0:0:
360,116,114365,2,0,L|260:116,1,90,2|2,0:0|0:0,0:0:0:0:
488,232,114626,2,0,L|488:100,1,90,8|2,0:0|0:0,0:0:0:0:
272,144,114886,2,0,L|272:234,1,90,2|0,0:0|0:0,0:0:0:0:
488,232,115147,6,0,L|432:232,1,45,4|0,0:0|0:0,0:0:0:0:
272,234,115277,2,0,L|328:234,1,45,0|0,0:0|0:0,0:0:0:0:
488,232,115408,1,2,0:0:0:0:
488,192,115538,6,0,L|432:192,1,45,4|0,0:0|0:0,0:0:0:0:
247,194,115668,2,0,L|303:194,1,45,0|0,0:0|0:0,0:0:0:0:
488,192,115799,1,2,0:0:0:0:
488,144,115930,6,0,L|432:144,1,45,4|0,0:0|0:0,0:0:0:0:
233,148,116060,2,0,L|289:148,1,45,0|0,0:0|0:0,0:0:0:0:
488,144,116191,1,2,0:0:0:0:
488,96,116321,6,0,L|432:96,1,45,4|0,0:0|0:0,0:0:0:0:
223,101,116452,2,0,L|279:101,1,45,0|0,0:0|0:0,0:0:0:0:
488,96,116582,1,2,0:0:0:0:
398,96,116713,2,0,L|502:96,1,90,8|0,0:0|0:0,0:0:0:0:
268,184,116973,2,0,L|178:184,1,90,8|0,0:0|0:0,0:0:0:0:
392,184,117234,5,2,0:0:0:0:
444,180,117299,1,0,0:0:0:0:
492,176,117365,1,2,0:0:0:0:
444,180,117430,1,0,0:0:0:0:
392,184,117495,1,2,0:0:0:0:
444,180,117560,1,0,0:0:0:0:
492,176,117626,1,2,0:0:0:0:
224,128,117756,2,0,L|108:128,2,90,8|0|2,0:0|0:0|0:0,0:0:0:0:
468,127,118147,6,0,P|481:170|372:247,1,180,2|2,0:0|0:0,0:0:0:0:
167,193,118539,2,0,L|271:193,1,90,2|2,0:0|0:0,0:0:0:0:
142,191,118799,2,0,L|140:100,1,90,8|0,0:0|0:0,0:0:0:0:
372,140,119060,2,0,L|480:140,1,90,2|0,0:0|0:0,0:0:0:0:
176,108,119321,6,0,L|86:108,3,90,2|2|2|2,0:0|0:0|0:0|0:0,0:0:0:0:
372,88,119843,2,0,L|256:88,1,90,8|0,0:0|0:0,0:0:0:0:
372,88,120104,1,2,0:0:0:0:
104,160,120234,6,0,L|284:159,1,180,2|2,0:0|0:0,0:0:0:0:
24,120,120626,2,0,L|24:209,1,90,2|2,0:0|0:0,0:0:0:0:
114,120,120886,2,0,L|-6:120,1,90,8|0,0:0|0:0,0:0:0:0:
264,180,121147,2,0,L|384:180,1,90,2|0,0:0|0:0,0:0:0:0:
156,224,121408,6,0,L|56:224,3,90,2|2|2|2,0:0|0:0|0:0|0:0,0:0:0:0:
352,132,121930,2,0,L|244:132,2,90,8|0|2,0:0|0:0|0:0,0:0:0:0:
152,184,122321,6,0,P|172:104|284:76,1,180,2|2,0:0|0:0,0:0:0:0:
480,132,122713,2,0,L|356:132,1,90,2|2,0:0|0:0,0:0:0:0:
296,208,122973,2,0,L|420:208,1,90,8|2,0:0|0:0,0:0:0:0:
156,296,123234,2,0,L|156:168,1,90,2|0,0:0|0:0,0:0:0:0:
356,280,123495,6,0,P|420:284|364:216,1,180,4|0,0:0|0:0,0:0:0:0:
356,208,123821,1,0,0:0:0:0:
172,280,123886,6,0,P|108:284|164:216,1,180,4|0,0:0|0:0,0:0:0:0:
172,208,124212,1,0,0:0:0:0:
356,136,124278,6,0,L|152:136,1,180,4|0,0:0|0:0,0:0:0:0:
224,136,124604,1,0,0:0:0:0:
400,192,124669,1,2,0:0:0:0:
184,288,124799,2,0,L|184:180,1,90,2|0,0:0|0:0,0:0:0:0:
274,198,125060,2,0,L|184:198,1,90,2|0,0:0|0:0,0:0:0:0:
436,112,125321,6,0,B|8:112,1,396.000012084961,8|4,0:0|0:0,0:0:0:0:
256,192,125712,12,0,133669,0:0:0:0:
60,208,133930,6,0,L|60:88,1,90,4|0,0:0|0:0,0:0:0:0:
156,116,134191,2,0,L|52:116,1,90,2|0,0:0|0:0,0:0:0:0:
356,116,134451,2,0,L|460:116,1,90,2|0,0:0|0:0,0:0:0:0:
356,116,134712,2,0,L|252:116,1,90,2|0,0:0|0:0,0:0:0:0:
472,188,134973,6,0,L|472:72,1,90,2|0,0:0|0:0,0:0:0:0:
384,40,135234,2,0,L|488:40,1,90,2|0,0:0|0:0,0:0:0:0:
260,80,135495,2,0,L|148:80,1,90,2|0,0:0|0:0,0:0:0:0:
260,80,135756,2,0,L|372:80,1,90,2|0,0:0|0:0,0:0:0:0:
68,168,136017,6,0,L|68:48,1,90,2|0,0:0|0:0,0:0:0:0:
158,78,136278,2,0,L|34:78,1,90,2|0,0:0|0:0,0:0:0:0:
260,80,136538,2,0,L|376:80,1,90,2|0,0:0|0:0,0:0:0:0:
350,80,136799,2,0,L|260:80,1,90,2|0,0:0|0:0,0:0:0:0:
488,40,137060,6,0,L|488:172,1,90,2|0,0:0|0:0,0:0:0:0:
400,132,137321,2,0,L|292:132,1,90,2|0,0:0|0:0,0:0:0:0:
112,136,137582,2,0,L|112:44,1,90,2|0,0:0|0:0,0:0:0:0:
216,44,137843,2,0,L|216:168,1,90,2|0,0:0|0:0,0:0:0:0:
28,100,138104,6,0,L|144:100,3,90,4|2|2|2,0:0|0:0|0:0|0:0,0:0:0:0:
312,96,138625,2,0,L|416:96,1,90,2|2,0:0|0:0,0:0:0:0:
312,96,138886,2,0,L|222:96,1,90,2|2,0:0|0:0,0:0:0:0:
464,52,139147,6,0,L|374:52,3,90,4|2|2|2,0:0|0:0|0:0|0:0,0:0:0:0:
180,132,139669,2,0,L|180:32,1,90,2|2,0:0|0:0,0:0:0:0:
272,40,139930,2,0,L|396:40,1,90,2|2,0:0|0:0,0:0:0:0:
168,96,140191,6,0,L|112:96,1,45,4|0,0:0|0:0,0:0:0:0:
123,96,140321,2,0,L|179:96,1,45,2|0,0:0|0:0,0:0:0:0:
228,68,140451,2,0,L|284:68,1,45,2|0,0:0|0:0,0:0:0:0:
273,68,140581,2,0,L|217:68,1,45,2|0,0:0|0:0,0:0:0:0:
63,124,140712,6,0,L|7:124,1,45,2|0,0:0|0:0,0:0:0:0:
18,124,140843,2,0,L|74:124,1,45,2|0,0:0|0:0,0:0:0:0:
123,96,140973,2,0,L|179:96,1,45,2|0,0:0|0:0,0:0:0:0:
168,96,141104,2,0,L|112:96,1,45,2|0,0:0|0:0,0:0:0:0:
64,44,141234,6,0,L|196:40,3,90,0|0|0|0,0:0|0:0|0:0|0:0,0:0:0:0:
264,40,141756,2,0,L|264:144,1,90,2|0,0:0|0:0,0:0:0:0:
24,152,142017,2,0,L|24:24,1,90,2|0,0:0|0:0,0:0:0:0:
266,152,142278,6,0,L|386:152,1,90,4|0,0:0|0:0,0:0:0:0:
136,152,142538,2,0,L|136:48,1,90,2|2,0:0|0:0,0:0:0:0:
248,60,142799,2,0,L|338:60,1,90,8|2,1:0|0:0,0:0:0:0:
120,152,143060,2,0,L|-4:152,1,90,8|2,0:0|0:0,0:0:0:0:
268,128,143321,6,0,L|376:128,1,90,8|2,1:0|0:0,0:0:0:0:
120,100,143582,2,0,L|12:100,3,90,8|2|8|2,0:0|0:0|1:0|0:0,0:0:0:0:
300,68,144104,2,0,L|300:158,1,90,8|2,0:0|0:0,0:0:0:0:
32,72,144364,6,0,L|248:72,1,180,8|8,1:0|0:0,0:0:0:0:
120,72,144756,1,2,0:0:0:0:
212,72,144886,2,0,L|324:72,1,90,8|2,1:0|0:0,0:0:0:0:
112,188,145147,2,0,L|112:68,1,90,8|2,0:0|0:0,0:0:0:0:
348,188,145408,6,0,L|464:188,1,90,8|2,1:0|0:0,0:0:0:0:
438,188,145669,2,0,L|348:188,1,90,8|2,0:0|0:0,0:0:0:0:
136,156,145930,2,0,L|20:156,1,90,8|2,1:0|0:0,0:0:0:0:
46,156,146191,2,0,L|136:156,1,90,8|2,0:0|0:0,0:0:0:0:
388,164,146451,6,0,L|388:64,1,90,8|2,1:0|0:0,0:0:0:0:
184,80,146712,2,0,L|68:80,1,90,8|2,0:0|0:0,0:0:0:0:
184,80,146973,2,0,L|274:80,2,90,8|2|8,1:0|0:0|0:0,0:0:0:0:
376,104,147364,6,0,L|476:104,1,90,2|8,0:0|1:0,0:0:0:0:
240,148,147625,2,0,L|150:149,1,90,2|8,0:0|0:0,0:0:0:0:
376,160,147886,2,0,P|344:72|244:52,1,180,2|2,0:0|0:0,0:0:0:0:
64,48,148278,2,0,L|192:48,1,90,8|2,0:0|0:0,0:0:0:0:
456,48,148538,6,0,L|360:48,1,90,8|2,1:0|0:0,0:0:0:0:
160,84,148799,2,0,L|256:84,1,90,8|2,0:0|0:0,0:0:0:0:
160,84,149060,2,0,L|156:176,1,90,8|2,1:0|0:0,0:0:0:0:
284,256,149321,2,0,L|284:160,1,90,8|2,0:0|0:0,0:0:0:0:
56,224,149582,6,0,L|160:224,1,90,2|0,0:0|0:0,0:0:0:0:
376,160,149843,2,0,L|272:160,1,90,2|0,0:0|0:0,0:0:0:0:
376,96,150104,2,0,L|424:96,1,45,2|2,0:0|0:0,0:0:0:0:
421,96,150234,2,0,L|376:96,1,45,2|2,0:0|0:0,0:0:0:0:
216,44,150364,2,0,L|168:44,1,45,8|2,0:0|0:0,0:0:0:0:
171,44,150494,2,0,L|216:44,1,45,2|2,0:0|0:0,0:0:0:0:
372,136,150625,6,0,L|424:136,1,45,4|0,0:0|0:0,0:0:0:0:
417,136,150756,2,0,L|372:136,1,45,0|0,0:0|0:0,0:0:0:0:
216,104,150886,2,0,L|164:104,1,45,8|0,0:0|0:0,0:0:0:0:
171,104,151017,2,0,L|216:104,1,45,0|0,0:0|0:0,0:0:0:0:
376,64,151147,6,0,L|428:64,1,45,2|0,0:0|0:0,0:0:0:0:
191,51,151278,2,0,L|192:115,1,45,2|0,0:0|0:0,0:0:0:0:
404,84,151408,2,0,L|403:19,1,45,8|0,0:0|0:0,0:0:0:0:
170,86,151539,2,0,L|125:86,1,45,0|0,0:0|0:0,0:0:0:0:
372,120,151669,6,0,L|448:120,1,45,2|0,0:0|0:0,0:0:0:0:
417,120,151799,2,0,L|360:120,1,45,0|0,0:0|0:0,0:0:0:0:
216,116,151930,2,0,L|160:116,1,45,8|0,0:0|0:0,0:0:0:0:
171,116,152060,2,0,L|232:116,1,45,0|0,0:0|0:0,0:0:0:0:
376,148,152191,6,0,L|456:148,1,45,2|0,0:0|0:0,0:0:0:0:
193,156,152321,2,0,L|191:108,1,45,2|0,0:0|0:0,0:0:0:0:
403,191,152451,2,0,L|405:258,1,45,8|0,0:0|0:0,0:0:0:0:
190,195,152581,2,0,L|145:195,1,45,2|2,0:0|0:0,0:0:0:0:
425,192,152712,6,0,P|477:184|421:120,1,180,4|0,0:0|0:0,0:0:0:0:
171,192,153104,2,0,P|108:153|174:118,1,180,4|0,0:0|0:0,0:0:0:0:
420,88,153495,2,0,L|240:91,1,180,4|0,0:0|0:0,0:0:0:0:
328,88,153886,5,2,0:0:0:0:
60,56,154017,2,0,L|60:164,1,90,8|0,0:0|0:0,0:0:0:0:
136,144,154278,2,0,L|181:144,1,45,2|2,0:0|0:0,0:0:0:0:
316,144,154408,2,0,L|364:144,1,45,2|2,0:0|0:0,0:0:0:0:
160,188,154538,2,0,L|48:188,1,90,2|2,0:0|0:0,0:0:0:0:
312,188,154799,6,0,L|424:188,1,90,4|2,0:0|0:0,0:0:0:0:
168,200,155060,2,0,L|168:96,1,90,8|2,0:0|0:0,0:0:0:0:
258,110,155321,2,0,L|158:110,1,90,2|2,0:0|0:0,0:0:0:0:
380,48,155582,2,0,L|480:48,1,90,8|0,0:0|0:0,0:0:0:0:
172,148,155843,6,0,L|172:24,1,90,2|2,0:0|0:0,0:0:0:0:
380,80,156104,2,0,L|470:80,1,90,8|0,0:0|0:0,0:0:0:0:
380,128,156364,2,0,L|380:4,1,90,2|2,0:0|0:0,0:0:0:0:
172,58,156625,2,0,L|82:58,1,90,8|0,0:0|0:0,0:0:0:0:
336,120,156886,6,0,L|204:120,1,90,2|2,0:0|0:0,0:0:0:0:
336,120,157147,2,0,L|426:120,1,90,8|0,0:0|0:0,0:0:0:0:
216,168,157408,2,0,L|216:68,1,90,2|2,0:0|0:0,0:0:0:0:
304,28,157669,2,0,L|420:24,1,90,8|0,0:0|0:0,0:0:0:0:
120,84,157930,5,4,0:0:0:0:
328,84,158060,2,0,P|224:96|192:172,1,180,8|2,0:0|0:0,0:0:0:0:
384,152,158451,1,8,0:0:0:0:
192,155,158582,2,0,P|132:107|216:76,1,180,2|2,0:0|0:0,0:0:0:0:
464,152,158973,6,0,L|464:48,1,90,8|0,0:0|0:0,0:0:0:0:
372,60,159234,2,0,L|372:150,1,90,2|0,0:0|0:0,0:0:0:0:
282,150,159495,2,0,L|405:150,1,90,2|0,0:0|0:0,0:0:0:0:
369,196,159756,2,0,L|261:197,1,90,2|0,0:0|0:0,0:0:0:0:
40,48,160017,6,0,L|144:48,1,90,2|0,0:0|0:0,0:0:0:0:
220,48,160278,2,0,L|116:48,1,90,2|0,0:0|0:0,0:0:0:0:
127,109,160538,2,0,L|217:109,1,90,2|0,0:0|0:0,0:0:0:0:
315,109,160799,2,0,L|316:211,1,90,2|0,0:0|0:0,0:0:0:0:
37,187,161060,6,0,L|153:188,1,90,2|0,0:0|0:0,0:0:0:0:
126,187,161321,2,0,L|10:188,1,90,2|0,0:0|0:0,0:0:0:0:
127,112,161582,2,0,L|216:112,1,90,2|0,0:0|0:0,0:0:0:0:
214,153,161843,2,0,L|106:153,1,90,2|0,0:0|0:0,0:0:0:0:
360,104,162104,6,0,L|461:103,1,90,2|0,0:0|0:0,0:0:0:0:
358,69,162364,1,2,0:0:0:0:
250,64,162495,2,0,L|160:64,2,90,0|2|0,0:0|0:0|0:0,0:0:0:0:
360,60,162886,2,0,L|360:184,1,90,2|0,0:0|0:0,0:0:0:0:
136,76,163147,6,0,L|260:76,1,90,2|0,0:0|0:0,0:0:0:0:
136,104,163408,2,0,L|12:104,1,90,2|0,0:0|0:0,0:0:0:0:
141,131,163669,2,0,L|265:131,1,90,2|0,0:0|0:0,0:0:0:0:
319,148,163930,2,0,L|229:148,1,90,2|0,0:0|0:0,0:0:0:0:
468,148,164191,6,0,L|468:40,1,90,2|0,0:0|0:0,0:0:0:0:
372,48,164451,2,0,L|260:48,1,90,2|0,0:0|0:0,0:0:0:0:
192,48,164712,2,0,L|308:48,1,90,2|0,0:0|0:0,0:0:0:0:
192,48,164973,2,0,L|102:48,1,90,2|0,0:0|0:0,0:0:0:0:
304,158,165234,6,0,L|304:50,1,90,2|0,0:0|0:0,0:0:0:0:
193,59,165495,2,0,L|69:59,1,90,2|0,0:0|0:0,0:0:0:0:
193,59,165756,2,0,L|301:59,1,90,2|0,0:0|0:0,0:0:0:0:
373,59,166017,2,0,L|372:169,1,90,2|0,0:0|0:0,0:0:0:0:
132,152,166278,6,0,L|132:48,1,90,2|2,0:0|0:0,0:0:0:0:
196,64,166473,1,2,0:0:0:0:
132,62,166538,2,0,L|24:60,1,90,2|2,0:0|0:0,0:0:0:0:
304,128,166799,2,0,L|424:128,1,90,2|0,0:0|0:0,0:0:0:0:
304,120,167060,2,0,L|184:120,1,90,2|0,0:0|0:0,0:0:0:0:
468,120,167321,6,0,L|468:12,1,90,6|0,0:0|0:0,0:0:0:0:
378,30,167582,2,0,L|498:30,1,90,2|0,0:0|0:0,0:0:0:0:
280,80,167843,2,0,L|180:80,1,90,2|0,0:0|0:0,0:0:0:0:
280,80,168104,2,0,L|380:80,1,90,2|0,0:0|0:0,0:0:0:0:
160,128,168364,6,0,L|160:28,1,90,2|0,0:0|0:0,0:0:0:0:
52,40,168625,2,0,L|52:130,1,90,2|0,0:0|0:0,0:0:0:0:
272,128,168886,2,0,L|376:128,1,90,2|0,0:0|0:0,0:0:0:0:
360,96,169147,2,0,L|256:96,1,90,2|0,0:0|0:0,0:0:0:0:
56,128,169408,6,0,L|56:36,1,90,2|0,0:0|0:0,0:0:0:0:
146,38,169669,2,0,L|46:38,1,90,2|0,0:0|0:0,0:0:0:0:
272,72,169930,2,0,L|372:72,1,90,2|0,0:0|0:0,0:0:0:0:
272,112,170191,2,0,L|172:112,1,90,2|0,0:0|0:0,0:0:0:0:
388,112,170451,6,0,L|478:112,1,90,2|0,0:0|0:0,0:0:0:0:
478,112,170712,2,0,L|388:112,1,90,2|0,0:0|0:0,0:0:0:0:
180,56,170973,2,0,L|90:56,1,90,2|0,0:0|0:0,0:0:0:0:
90,56,171234,2,0,L|180:56,1,90,2|0,0:0|0:0,0:0:0:0:
388,216,171495,6,0,L|388:120,1,90,2|0,0:0|0:0,0:0:0:0:
272,124,171756,2,0,L|272:214,1,90,2|0,0:0|0:0,0:0:0:0:
488,220,172017,2,0,L|488:104,1,90,2|0,0:0|0:0,0:0:0:0:
384,80,172278,2,0,L|272:76,1,90,2|0,0:0|0:0,0:0:0:0:
44,72,172538,6,0,L|148:72,3,90,2|0|2|0,0:0|0:0|0:0|0:0,0:0:0:0:
352,36,173060,2,0,L|248:36,3,90,2|0|2|0,0:0|0:0|0:0|0:0,0:0:0:0:
460,140,173582,6,0,L|460:20,1,90,2|2,0:0|0:0,0:0:0:0:
364,52,173843,2,0,L|492:52,1,90,2|2,0:0|0:0,0:0:0:0:
124,140,174104,2,0,L|124:20,1,90,2|2,0:0|0:0,0:0:0:0:
220,52,174365,2,0,L|92:52,1,90,2|2,0:0|0:0,0:0:0:0:
400,136,174625,6,0,L|212:136,2,180,2|8|8,0:0|0:0|0:0,0:0:0:0:
124,104,175669,6,0,L|214:104,1,90,4|0,0:0|0:0,0:0:0:0:
124,104,175930,2,0,L|20:104,1,90,2|0,0:0|0:0,0:0:0:0:
264,156,176191,2,0,L|368:156,1,90,8|0,0:0|0:0,0:0:0:0:
264,156,176452,2,0,L|156:156,1,90,2|0,0:0|0:0,0:0:0:0:
392,156,176713,6,0,L|392:66,1,90,0|0,1:0|0:0,0:0:0:0:
264,60,176974,2,0,L|164:60,1,90,2|0,0:0|0:0,0:0:0:0:
392,66,177235,2,0,L|488:66,1,90,8|2,0:0|0:0,0:0:0:0:
482,66,177496,2,0,L|392:66,1,90,2|0,0:0|0:0,0:0:0:0:
136,60,177756,6,0,L|136:176,1,90,0|0,1:0|0:0,0:0:0:0:
226,150,178017,2,0,L|118:150,1,90,2|0,0:0|0:0,0:0:0:0:
364,152,178278,2,0,L|454:152,1,90,8|0,0:0|0:0,0:0:0:0:
364,244,178539,2,0,L|274:244,1,90,2|0,0:0|0:0,0:0:0:0:
468,248,178800,6,0,L|468:158,1,90,2|0,0:0|0:0,0:0:0:0:
368,144,179061,1,2,0:0:0:0:
323,144,179126,1,0,0:0:0:0:
278,144,179191,1,0,0:0:0:0:
468,248,179321,2,0,L|468:158,1,90,2|0,0:0|0:0,0:0:0:0:
368,144,179582,1,8,0:0:0:0:
323,144,179647,1,0,0:0:0:0:
278,144,179712,1,0,0:0:0:0:
60,144,179843,6,0,L|60:264,1,90,4|0,0:0|0:0,0:0:0:0:
184,232,180104,2,0,L|184:142,1,90,2|0,0:0|0:0,0:0:0:0:
456,148,180365,2,0,L|366:148,1,90,8|0,0:0|0:0,0:0:0:0:
272,120,180626,2,0,L|372:120,1,90,2|0,0:0|0:0,0:0:0:0:
152,28,180887,6,0,L|152:156,1,90,0|0,1:0|0:0,0:0:0:0:
272,108,181148,2,0,L|372:108,1,90,2|0,0:0|0:0,0:0:0:0:
112,24,181409,2,0,L|112:156,1,90,8|0,0:0|0:0,0:0:0:0:
244,216,181669,2,0,L|244:126,1,90,2|0,0:0|0:0,0:0:0:0:
24,140,181930,6,0,L|80:140,1,45,4|0,0:0|0:0,0:0:0:0:
240,138,182060,2,0,L|184:138,1,45,0|0,0:0|0:0,0:0:0:0:
24,140,182191,1,2,0:0:0:0:
24,180,182321,6,0,L|80:180,1,45,4|0,0:0|0:0,0:0:0:0:
259,178,182451,2,0,L|203:178,1,45,0|0,0:0|0:0,0:0:0:0:
24,180,182582,1,2,0:0:0:0:
24,228,182713,6,0,L|80:228,1,45,4|0,0:0|0:0,0:0:0:0:
280,223,182843,2,0,L|224:223,1,45,0|0,0:0|0:0,0:0:0:0:
24,228,182974,1,2,0:0:0:0:
24,276,183104,6,0,L|80:276,1,45,4|0,0:0|0:0,0:0:0:0:
301,269,183235,2,0,L|245:269,1,45,0|0,0:0|0:0,0:0:0:0:
24,276,183365,1,2,0:0:0:0:
114,276,183496,2,0,L|10:276,1,90,8|0,0:0|0:0,0:0:0:0:
244,188,183756,2,0,L|334:188,1,90,8|0,0:0|0:0,0:0:0:0:
120,188,184017,5,2,0:0:0:0:
72,192,184082,1,0,0:0:0:0:
20,196,184148,1,2,0:0:0:0:
72,192,184213,1,0,0:0:0:0:
120,188,184278,1,2,0:0:0:0:
72,192,184343,1,0,0:0:0:0:
20,196,184409,1,2,0:0:0:0:
288,244,184539,2,0,L|404:244,2,90,8|0|2,0:0|0:0|0:0,0:0:0:0:
76,244,184930,6,0,P|16:220|92:164,1,180,2|2,0:0|0:0,0:0:0:0:
288,160,185322,2,0,L|184:160,1,90,2|2,0:0|0:0,0:0:0:0:
288,160,185582,2,0,L|408:160,1,90,8|0,0:0|0:0,0:0:0:0:
140,232,185843,2,0,L|32:232,1,90,2|0,0:0|0:0,0:0:0:0:
336,264,186104,6,0,L|426:264,3,90,2|2|2|2,0:0|0:0|0:0|0:0,0:0:0:0:
140,284,186626,2,0,L|256:284,1,90,8|0,0:0|0:0,0:0:0:0:
140,284,186887,1,2,0:0:0:0:
408,212,187017,6,0,L|228:213,1,180,2|2,0:0|0:0,0:0:0:0:
488,252,187409,2,0,L|488:163,1,90,2|2,0:0|0:0,0:0:0:0:
398,252,187669,2,0,L|518:252,1,90,8|0,0:0|0:0,0:0:0:0:
248,192,187930,2,0,L|128:192,1,90,2|0,0:0|0:0,0:0:0:0:
356,148,188191,6,0,L|456:148,3,90,2|2|2|2,0:0|0:0|0:0|0:0,0:0:0:0:
160,240,188713,2,0,L|268:240,2,90,8|0|2,0:0|0:0|0:0,0:0:0:0:
360,188,189104,6,0,P|340:268|228:296,1,180,2|2,0:0|0:0,0:0:0:0:
32,240,189496,2,0,L|156:240,1,90,2|2,0:0|0:0,0:0:0:0:
216,164,189756,2,0,L|92:164,1,90,8|0,0:0|0:0,0:0:0:0:
356,76,190017,2,0,L|356:204,1,90,0|0,0:0|0:0,0:0:0:0:
156,92,190278,6,0,P|92:88|148:156,1,180,4|0,0:0|0:0,0:0:0:0:
156,164,190604,1,0,0:0:0:0:
340,92,190669,6,0,P|404:88|348:156,1,180,4|0,0:0|0:0,0:0:0:0:
340,164,190995,1,0,0:0:0:0:
156,236,191061,6,0,L|360:236,1,180,4|0,0:0|0:0,0:0:0:0:
292,256,191387,1,0,0:0:0:0:
112,180,191452,1,2,0:0:0:0:
328,84,191582,2,0,L|328:192,1,90,2|0,0:0|0:0,0:0:0:0:
238,174,191843,2,0,L|328:174,1,90,2|0,0:0|0:0,0:0:0:0:
112,132,192104,2,0,L|56:132,1,45,2|2,0:0|0:0,0:0:0:0:
67,132,192235,2,0,L|112:132,1,45,2|2,0:0|0:0,0:0:0:0:
444,204,192364,6,0,L|444:300,1,90,4|2,0:0|0:0,0:0:0:0:
248,272,192624,2,0,L|159:273,2,90,8|2|2,0:0|0:0|0:0,0:0:0:0:
344,272,193016,1,2,0:0:0:0:
120,180,193146,2,0,L|120:292,1,90,8|2,0:0|0:0,0:0:0:0:
344,272,193408,6,0,L|344:152,1,90,2|2,0:0|0:0,0:0:0:0:
152,184,193668,2,0,L|28:188,2,90,8|2|2,0:0|0:0|0:0,0:0:0:0:
240,184,194059,1,2,0:0:0:0:
24,180,194190,2,0,L|28:276,1,90,8|2,0:0|0:0,0:0:0:0:
244,248,194450,6,0,L|144:248,2,90,2|2|8,0:0|0:0|0:0,0:0:0:0:
436,172,194842,2,0,P|500:220|428:248,1,180,2|2,0:0|0:0,0:0:0:0:
244,248,195233,2,0,L|348:248,1,90,8|2,0:0|0:0,0:0:0:0:
132,252,195494,6,0,L|32:252,2,90,2|2|8,0:0|0:0|0:0,0:0:0:0:
336,192,195885,2,0,P|412:216|412:324,1,180,2|2,0:0|0:0,0:0:0:0:
196,308,196277,2,0,L|196:196,1,90,8|2,0:0|0:0,0:0:0:0:
400,228,196537,6,0,L|512:228,2,90,2|2|8,0:0|0:0|0:0,0:0:0:0:
196,156,196929,2,0,P|132:192|212:228,1,180,2|2,0:0|0:0,0:0:0:0:
400,280,197320,2,0,L|400:168,1,90,8|2,0:0|0:0,0:0:0:0:
195,241,197581,6,0,L|95:241,2,90,2|2|8,0:0|0:0|0:0,0:0:0:0:
400,296,197972,2,0,L|192:296,1,180,2|2,0:0|0:0,0:0:0:0:
432,176,198363,2,0,L|432:280,1,90,8|2,0:0|0:0,0:0:0:0:
216,192,198624,6,0,L|148:192,1,45,2|2,0:0|0:0,0:0:0:0:
316,128,198755,2,0,L|376:128,1,45,2|2,0:0|0:0,0:0:0:0:
260,236,199016,6,0,L|192:236,1,45,2|2,0:0|0:0,0:0:0:0:
360,168,199146,2,0,L|428:168,1,45,2|2,0:0|0:0,0:0:0:0:
308,300,199407,6,0,L|240:300,1,45,2|2,0:0|0:0,0:0:0:0:
408,232,199537,2,0,L|476:232,1,45,2|2,0:0|0:0,0:0:0:0:
356,256,199798,6,0,L|288:256,1,45,2|2,0:0|0:0,0:0:0:0:
456,188,199929,2,0,L|524:188,1,45,2|2,0:0|0:0,0:0:0:0:
501,188,200059,2,0,L|456:188,1,45,2|0,0:0|0:0,0:0:0:0:
276,188,200190,6,0,P|232:224|296:280,1,135,2|2,0:0|0:0,0:0:0:0:
396,192,200450,2,0,P|416:244|388:276,1,90,8|0,0:0|0:0,0:0:0:0:
192,240,200711,6,0,L|128:240,1,45,4|0,0:0|0:0,0:0:0:0:
147,240,200842,2,0,L|192:240,1,45,2|0,0:0|0:0,0:0:0:0:
244,296,200972,2,0,L|308:296,1,45,2|0,0:0|0:0,0:0:0:0:
289,296,201103,2,0,L|244:296,1,45,2|0,0:0|0:0,0:0:0:0:
84,296,201233,6,0,L|32:296,1,45,8|0,0:0|0:0,0:0:0:0:
39,296,201363,2,0,L|84:296,1,45,2|0,0:0|0:0,0:0:0:0:
244,268,201494,2,0,L|296:268,1,45,2|0,0:0|0:0,0:0:0:0:
289,268,201624,2,0,L|244:268,1,45,2|0,0:0|0:0,0:0:0:0:
88,240,201755,6,0,L|24:240,1,45,8|0,1:0|0:0,0:0:0:0:
43,240,201886,2,0,L|88:240,1,45,2|0,0:0|0:0,0:0:0:0:
128,184,202016,2,0,L|64:184,1,45,2|0,0:0|0:0,0:0:0:0:
80,136,202147,2,0,L|125:136,1,45,2|0,0:0|0:0,0:0:0:0:
268,140,202277,6,0,L|336:140,1,45,8|0,0:0|0:0,0:0:0:0:
313,140,202407,2,0,L|268:140,1,45,2|0,0:0|0:0,0:0:0:0:
101,89,202538,2,0,L|33:89,1,45,2|0,0:0|0:0,0:0:0:0:
56,89,202669,2,0,L|101:89,1,45,2|0,0:0|0:0,0:0:0:0:
311,202,202798,6,0,L|365:202,1,45,8|0,1:0|0:0,0:0:0:0:
356,202,202929,2,0,L|311:202,1,45,2|0,0:0|0:0,0:0:0:0:
356,260,203059,2,0,L|410:260,1,45,2|0,0:0|0:0,0:0:0:0:
401,260,203190,2,0,L|347:260,1,45,2|0,0:0|0:0,0:0:0:0:
214,266,203320,6,0,L|154:266,1,45,8|0,0:0|0:0,0:0:0:0:
169,266,203450,2,0,L|214:266,1,45,2|0,0:0|0:0,0:0:0:0:
359,306,203581,2,0,L|419:306,1,45,2|0,0:0|0:0,0:0:0:0:
404,306,203711,2,0,L|359:306,1,45,2|0,0:0|0:0,0:0:0:0:
188,222,203842,6,0,L|128:222,1,45,8|0,1:0|0:0,0:0:0:0:
357,222,203972,2,0,L|417:222,1,45,2|0,0:0|0:0,0:0:0:0:
214,181,204103,2,0,P|178:197|222:266,1,135,2|0,0:0|0:0,0:0:0:0:
410,171,204363,6,0,L|412:253,1,45,8|0,0:0|0:0,0:0:0:0:
264,292,204494,2,0,L|187:295,1,45,0|0,0:0|0:0,0:0:0:0:
416,296,204625,2,0,P|473:288|501:216,1,135,8|0,1:0|0:0,0:0:0:0:
327,223,204885,6,0,L|260:222,1,45,4|0,0:0|0:0,0:0:0:0:
279,177,205016,2,0,L|324:178,1,45,2|0,0:0|0:0,0:0:0:0:
279,177,205146,2,0,L|235:177,1,45,2|0,0:0|0:0,0:0:0:0:
232,110,205277,2,0,L|299:109,1,45,2|0,0:0|0:0,0:0:0:0:
443,274,205407,6,0,L|510:273,1,45,8|0,0:0|0:0,0:0:0:0:
491,228,205538,2,0,L|446:229,1,45,2|0,0:0|0:0,0:0:0:0:
278,279,205668,2,0,L|211:278,1,45,2|0,0:0|0:0,0:0:0:0:
230,233,205799,2,0,L|275:234,1,45,2|0,0:0|0:0,0:0:0:0:
433,198,205929,6,0,L|509:198,1,45,8|0,1:0|0:0,0:0:0:0:
434,165,206059,2,0,L|358:165,1,45,2|0,0:0|0:0,0:0:0:0:
439,121,206190,2,0,L|484:121,1,45,2|0,0:0|0:0,0:0:0:0:
484,72,206320,2,0,L|408:72,1,45,2|0,0:0|0:0,0:0:0:0:
283,76,206450,6,0,L|214:77,1,45,8|0,0:0|0:0,0:0:0:0:
239,77,206581,2,0,L|284:77,1,45,2|0,0:0|0:0,0:0:0:0:
434,165,206711,2,0,L|503:166,1,45,2|0,0:0|0:0,0:0:0:0:
479,165,206842,2,0,L|435:165,1,45,2|0,0:0|0:0,0:0:0:0:
207,175,206972,6,0,P|148:219|204:264,1,135,2|0,0:0|0:0,0:0:0:0:
347,310,207233,2,0,L|400:312,1,45,0|0,0:0|0:0,0:0:0:0:
173,260,207363,2,0,P|111:279|188:309,1,180,8|0,0:0|0:0,0:0:0:0:
210,327,207690,1,0,0:0:0:0:
404,278,207755,6,0,P|453:246|397:221,1,135,2|0,0:0|0:0,0:0:0:0:
228,195,208016,2,0,L|176:196,1,45,0|0,0:0|0:0,0:0:0:0:
407,216,208146,2,0,P|453:135|395:133,1,180,8|0,0:0|0:0,0:0:0:0:
182,139,208537,1,2,0:0:0:0:
408,127,208669,2,0,L|136:128,1,270,2|0,0:0|0:0,0:0:0:0:
