osu file format v14

[General]
AudioFilename: audio.mp3
AudioLeadIn: 0
PreviewTime: 107778
Countdown: 0
SampleSet: Soft
StackLeniency: 0.7
Mode: 2
LetterboxInBreaks: 0
WidescreenStoryboard: 0

[Editor]
DistanceSpacing: 0.4
BeatDivisor: 4
GridSize: 4
TimelineZoom: 2.699999

[Metadata]
Title:People People feat. Nanahira
TitleUnicode:ピポピポ -People People- feat. ななひら
Artist:Neko Hacker
ArtistUnicode:Neko Hacker
Creator:My Angel RangE
Version:-Alien Alien-
Source:
Tags:nnzn kawaii future rock j-pop jpop pop featured artist fa ピポピポチャレンジ pipopipo challenge ネコハッカー sera kassan かっさん confetto neko hacker Ⅱ: stray jrock j-rock electronic japanese mpg mappers guild Muse Dash
BeatmapID:3753760
BeatmapSetID:1828947

[Difficulty]
HPDrainRate:5.5
CircleSize:4.2
OverallDifficulty:9.7
ApproachRate:9.7
SliderMultiplier:2
SliderTickRate:2

[Events]
//Background and Video events
0,0,"noname.jpg",0,0
//Break Periods
//Storyboard Layer 0 (Background)
//Storyboard Layer 1 (Fail)
//Storyboard Layer 2 (Pass)
//Storyboard Layer 3 (Foreground)
//Storyboard Layer 4 (Overlay)
//Storyboard Sound Samples

[TimingPoints]
365,260.869565217391,4,2,2,60,1,0
8712,-100,4,2,2,70,0,1
14973,-100,4,2,2,60,0,0
50451,-100,4,2,2,70,0,1
67147,-100,4,2,2,70,0,0
75495,-100,4,2,2,60,0,0
108886,-100,4,2,2,60,0,1
125321,-50,4,2,2,60,0,1
125582,-100,4,2,2,40,0,0
133930,-100,4,2,2,60,0,0
174625,-83.3333333333333,4,2,2,60,0,0
175669,-100,4,2,2,50,0,0
181930,-100,4,2,2,70,0,0
184538,-100,4,2,2,70,0,1
192364,-100,4,2,2,70,0,0
200712,-100,4,2,2,70,0,1
206973,-100,4,2,2,70,0,0
209060,-100,4,2,2,20,0,0

[Colours]
Combo1 : 175,96,255
Combo2 : 176,176,255

[HitObjects]
235,143,104,5,2,0:0:0:0:
286,124,169,1,2,0:0:0:0:
104,145,234,1,2,0:0:0:0:
56,164,299,1,2,0:0:0:0:
290,190,366,6,0,L|404:191,1,100,4|2,0:0|0:0,0:0:0:0:
179,193,626,1,8,0:0:0:0:
381,189,757,2,0,L|379:68,1,100,2|2,0:0|0:0,0:0:0:0:
180,87,1017,1,2,0:0:0:0:
379,89,1147,2,0,L|258:87,1,100,8|2,0:0|0:0,0:0:0:0:
466,87,1408,6,0,L|465:187,1,100,2|2,0:0|0:0,0:0:0:0:
263,87,1669,1,8,0:0:0:0:
466,87,1799,2,0,L|357:87,1,100,2|2,0:0|0:0,0:0:0:0:
160,87,2060,1,2,0:0:0:0:
361,164,2191,2,0,L|240:161,1,100,8|2,0:0|0:0,0:0:0:0:
63,110,2451,6,0,L|190:107,1,100,2|2,0:0|0:0,0:0:0:0:
359,101,2712,1,8,0:0:0:0:
85,167,2843,2,0,P|81:106|192:34,1,200,2|2,0:0|0:0,0:0:0:0:
424,117,3234,1,8,0:0:0:0:
424,154,3364,1,2,0:0:0:0:
186,113,3495,5,2,0:0:0:0:
424,117,3625,2,0,L|324:118,1,100,2|8,0:0|0:0,0:0:0:0:
99,156,3886,2,0,P|196:124|226:21,1,200,2|2,0:0|0:0,0:0:0:0:
35,39,4278,2,0,L|144:39,1,100,8|2,0:0|0:0,0:0:0:0:
414,40,4538,6,0,L|305:40,2,100,2|2|8,0:0|0:0|0:0,0:0:0:0:
208,83,4930,2,0,P|302:90|345:215,1,200,2|2,0:0|0:0,0:0:0:0:
134,173,5321,2,0,L|7:172,1,100,8|2,0:0|0:0,0:0:0:0:
295,260,5582,6,0,L|398:258,1,100,2|2,0:0|0:0,0:0:0:0:
186,252,5843,1,8,0:0:0:0:
409,257,5973,2,0,P|403:182|285:134,1,200,2|2,0:0|0:0,0:0:0:0:
497,133,6364,2,0,L|495:28,1,100,8|2,0:0|0:0,0:0:0:0:
424,31,6560,1,0,0:0:0:0:
262,29,6625,6,0,L|183:27,1,50,2|2,0:0|0:0,0:0:0:0:
400,72,6756,2,0,L|479:70,1,50,2|2,0:0|0:0,0:0:0:0:
260,64,6886,2,0,L|132:64,1,100,2|2,0:0|0:0,0:0:0:0:
208,72,7082,5,2,0:0:0:0:
419,115,7147,2,0,L|468:116,1,50,2|2,0:0|0:0,0:0:0:0:
260,120,7278,2,0,L|160:123,1,100,2|2,0:0|0:0,0:0:0:0:
205,148,7473,5,2,0:0:0:0:
446,150,7538,2,0,L|496:152,1,50,2|2,0:0|0:0,0:0:0:0:
264,180,7669,2,0,L|164:183,1,100,2|2,0:0|0:0,0:0:0:0:
164,182,7864,1,2,0:0:0:0:
292,252,7930,5,2,0:0:0:0:
317,251,7962,1,0,0:0:0:0:
342,251,7995,1,2,0:0:0:0:
144,252,8060,1,2,0:0:0:0:
120,251,8092,1,0,0:0:0:0:
95,251,8125,1,0,0:0:0:0:
296,304,8191,5,2,0:0:0:0:
321,299,8223,1,0,0:0:0:0:
343,288,8256,1,2,0:0:0:0:
361,270,8288,1,0,0:0:0:0:
372,248,8321,1,2,0:0:0:0:
375,224,8354,1,0,0:0:0:0:
370,199,8386,1,2,0:0:0:0:
144,188,8451,2,0,P|69:163|49:71,1,150,8|0,0:0|0:0,0:0:0:0:
334,54,8712,5,4,0:0:0:0:
388,63,8778,1,0,0:0:0:0:
419,117,8843,1,2,0:0:0:0:
402,173,8908,1,0,0:0:0:0:
229,141,8973,2,0,L|169:136,1,50,2|0,0:0|0:0,0:0:0:0:
402,173,9104,2,0,L|353:177,1,50,2|0,0:0|0:0,0:0:0:0:
155,219,9234,5,8,0:0:0:0:
100,195,9300,1,0,0:0:0:0:
94,133,9365,1,2,0:0:0:0:
138,96,9430,1,0,0:0:0:0:
305,101,9495,2,0,L|355:101,1,50,2|0,0:0|0:0,0:0:0:0:
111,63,9626,2,0,L|161:63,1,50,2|0,0:0|0:0,0:0:0:0:
377,193,9756,5,8,1:0:0:0:
425,153,9822,1,0,0:0:0:0:
413,99,9887,1,2,0:0:0:0:
366,81,9952,1,0,0:0:0:0:
169,144,10017,2,0,L|109:139,1,50,2|0,0:0|0:0,0:0:0:0:
365,202,10148,2,0,L|414:201,1,50,2|0,0:0|0:0,0:0:0:0:
196,268,10278,5,8,0:0:0:0:
160,209,10344,1,0,0:0:0:0:
189,147,10409,1,2,0:0:0:0:
255,125,10474,1,0,0:0:0:0:
62,161,10539,2,0,L|2:156,1,50,2|0,0:0|0:0,0:0:0:0:
210,139,10669,2,0,L|270:134,1,50,2|0,0:0|0:0,0:0:0:0:
16,119,10799,6,0,L|18:54,1,50,8|0,1:0|0:0,0:0:0:0:
87,59,10930,2,0,L|147:54,1,50,2|0,0:0|0:0,0:0:0:0:
346,69,11060,2,0,L|286:64,1,50,2|0,0:0|0:0,0:0:0:0:
114,109,11191,2,0,L|174:104,1,50,2|0,0:0|0:0,0:0:0:0:
373,140,11321,6,0,L|313:135,1,50,8|0,0:0|0:0,0:0:0:0:
88,144,11452,2,0,L|148:139,1,50,2|0,0:0|0:0,0:0:0:0:
408,176,11582,2,0,L|348:171,1,50,2|0,0:0|0:0,0:0:0:0:
68,176,11713,2,0,L|60:107,1,50,2|0,0:0|0:0,0:0:0:0:
314,182,11843,5,8,1:0:0:0:
371,182,11908,1,0,0:0:0:0:
99,172,11973,1,2,0:0:0:0:
41,174,12038,1,0,0:0:0:0:
237,173,12104,2,0,L|400:76,1,150,2|0,0:0|0:0,0:0:0:0:
212,112,12364,5,8,0:0:0:0:
55,125,12430,1,0,0:0:0:0:
195,124,12495,1,0,0:0:0:0:
239,123,12560,1,0,0:0:0:0:
400,211,12625,2,0,P|475:167|481:86,1,150,8|0,1:0|0:0,0:0:0:0:
225,180,12886,5,4,0:0:0:0:
176,164,12952,1,0,0:0:0:0:
147,112,13017,1,2,0:0:0:0:
160,65,13082,1,0,0:0:0:0:
394,67,13147,2,0,L|344:67,1,50,2|0,0:0|0:0,0:0:0:0:
176,64,13278,2,0,L|126:64,1,50,2|0,0:0|0:0,0:0:0:0:
346,102,13408,5,8,0:0:0:0:
395,106,13474,1,0,0:0:0:0:
435,146,13539,1,2,0:0:0:0:
428,202,13604,1,0,0:0:0:0:
207,184,13669,2,0,L|140:184,1,50,2|0,0:0|0:0,0:0:0:0:
380,184,13800,2,0,L|330:184,1,50,2|0,0:0|0:0,0:0:0:0:
130,181,13930,5,8,1:0:0:0:
81,163,13996,1,0,0:0:0:0:
51,115,14061,1,2,0:0:0:0:
63,64,14126,1,0,0:0:0:0:
309,69,14191,2,0,L|359:69,1,50,2|0,0:0|0:0,0:0:0:0:
144,64,14322,2,0,L|200:64,1,50,2|0,0:0|0:0,0:0:0:0:
379,58,14452,5,8,0:0:0:0:
430,74,14518,1,0,0:0:0:0:
465,119,14583,1,2,0:0:0:0:
468,178,14648,1,0,0:0:0:0:
288,184,14713,2,0,L|238:185,1,50,2|0,0:0|0:0,0:0:0:0:
456,184,14844,2,0,L|407:185,1,50,2|0,0:0|0:0,0:0:0:0:
145,187,14973,6,0,P|72:152|79:57,1,150,2|2,0:0|0:0,0:0:0:0:
135,86,15299,1,2,0:0:0:0:
348,71,15364,1,8,0:0:0:0:
273,71,15495,1,0,0:0:0:0:
476,72,15625,1,0,0:0:0:0:
476,72,15658,1,0,0:0:0:0:
476,72,15691,1,0,0:0:0:0:
220,216,15756,6,0,P|124:188|128:112,1,150,2|2,0:0|0:0,0:0:0:0:
196,96,16082,1,2,0:0:0:0:
392,144,16147,1,8,0:0:0:0:
392,144,16278,1,0,0:0:0:0:
160,128,16408,1,0,0:0:0:0:
160,128,16441,1,0,0:0:0:0:
160,128,16474,1,0,0:0:0:0:
392,144,16538,1,2,0:0:0:0:
160,128,16669,1,2,0:0:0:0:
199,239,17060,6,0,P|137:238|205:187,1,200,4|8,0:0|0:0,0:0:0:0:
284,184,17451,1,2,0:0:0:0:
97,179,17582,2,0,L|96:295,1,100,0|2,0:0|0:0,0:0:0:0:
307,274,17843,1,8,0:0:0:0:
222,274,17973,2,0,L|222:162,1,100,2|0,0:0|0:0,0:0:0:0:
446,187,18234,6,0,L|344:183,2,100,2|8|0,0:0|0:0|0:0,0:0:0:0:
225,180,18625,2,0,L|226:69,1,100,2|2,0:0|0:0,0:0:0:0:
336,79,18886,2,0,L|439:73,1,100,8|0,0:0|0:0,0:0:0:0:
225,180,19147,6,0,P|292:120|221:87,1,200,2|8,0:0|0:0,0:0:0:0:
27,86,19538,2,0,L|28:200,1,100,2|0,0:0|0:0,0:0:0:0:
271,86,19799,2,0,L|124:88,1,100,2|8,0:0|0:0,0:0:0:0:
293,168,20060,2,0,L|289:61,1,100,2|0,0:0|0:0,0:0:0:0:
87,106,20321,6,0,L|286:100,1,200,2|2,0:0|0:0,0:0:0:0:
20,157,20712,2,0,L|19:29,1,100,2|2,0:0|0:0,0:0:0:0:
131,59,20973,2,0,L|131:159,1,100,8|0,0:0|0:0,0:0:0:0:
373,111,21234,6,0,L|249:109,1,100,2|0,0:0|0:0,0:0:0:0:
474,111,21495,1,8,0:0:0:0:
270,177,21625,2,0,P|285:86|412:47,1,200,2|2,0:0|0:0,0:0:0:0:
164,37,22017,1,8,0:0:0:0:
265,78,22147,6,0,L|41:82,1,200,2|2,0:0|0:0,0:0:0:0:
70,135,22538,1,8,0:0:0:0:
323,139,22669,1,2,0:0:0:0:
219,137,22799,2,0,L|221:38,1,100,2|2,0:0|0:0,0:0:0:0:
326,74,23060,2,0,L|205:75,1,100,8|2,0:0|0:0,0:0:0:0:
426,168,23321,6,0,P|495:105|404:81,1,200,2|8,0:0|0:0,0:0:0:0:
230,79,23712,2,0,L|435:76,1,200,2|2,0:0|0:0,0:0:0:0:
230,79,24104,1,8,0:0:0:0:
440,168,24234,6,0,P|430:83|313:46,1,200,2|2,0:0|0:0,0:0:0:0:
206,74,24625,1,8,0:0:0:0:
335,93,24756,1,2,0:0:0:0:
129,222,24886,2,0,L|125:98,1,100,2|2,0:0|0:0,0:0:0:0:
359,221,25147,2,0,L|357:93,1,100,8|2,0:0|0:0,0:0:0:0:
288,121,25343,1,2,0:0:0:0:
119,125,25408,6,0,L|218:124,1,100,4|0,0:0|0:0,0:0:0:0:
17,130,25669,2,0,L|142:126,2,100,8|2|0,0:0|0:0|0:0,0:0:0:0:
227,74,26060,2,0,L|326:71,1,100,2|8,0:0|0:0,0:0:0:0:
119,143,26321,6,0,P|57:115|149:55,1,200,2|2,0:0|0:0,0:0:0:0:
333,100,26712,1,8,0:0:0:0:
333,100,26843,1,0,0:0:0:0:
124,90,26973,2,0,L|-2:91,1,100,2|2,0:0|0:0,0:0:0:0:
240,155,27234,2,0,L|368:151,1,100,8|0,0:0|0:0,0:0:0:0:
105,152,27495,6,0,P|115:64|233:29,1,200,2|8,0:0|0:0,0:0:0:0:
469,96,27886,2,0,L|327:95,1,100,2|0,0:0|0:0,0:0:0:0:
165,94,28147,2,0,L|307:93,1,100,2|8,0:0|0:0,0:0:0:0:
21,166,28408,6,0,P|27:93|143:59,1,200,2|2,0:0|0:0,0:0:0:0:
341,113,28799,2,0,L|219:111,1,100,8|2,0:0|0:0,0:0:0:0:
472,57,29060,2,0,L|471:182,1,100,2|2,0:0|0:0,0:0:0:0:
371,157,29321,2,0,L|497:156,1,100,8|0,0:0|0:0,0:0:0:0:
235,150,29582,5,2,0:0:0:0:
329,148,29712,2,0,L|328:47,1,100,0|8,0:0|0:0,0:0:0:0:
132,95,29973,2,0,P|248:62|264:-32,1,200,2|2,0:0|0:0,0:0:0:0:
169,13,30364,1,8,0:0:0:0:
397,197,30495,6,0,P|384:96|300:68,1,200,2|2,0:0|0:0,0:0:0:0:
396,69,30886,1,8,0:0:0:0:
182,70,31017,1,2,0:0:0:0:
397,97,31147,2,0,L|397:197,1,100,0|2,0:0|0:0,0:0:0:0:
185,200,31408,2,0,L|185:100,1,100,8|2,0:0|0:0,0:0:0:0:
262,100,31604,1,2,0:0:0:0:
397,97,31669,5,4,0:0:0:0:
143,149,31800,1,2,0:0:0:0:
80,104,32060,5,8,0:0:0:0:
334,156,32191,1,2,0:0:0:0:
397,97,32451,5,8,0:0:0:0:
143,149,32582,1,2,0:0:0:0:
80,104,32843,5,8,0:0:0:0:
320,98,32973,2,0,L|318:197,1,100,2|0,0:0|0:0,0:0:0:0:
94,186,33234,2,0,L|296:176,1,200,8|8,0:0|0:0,0:0:0:0:
201,160,33625,1,0,0:0:0:0:
389,173,33756,6,0,P|454:152|379:94,1,200,4|0,0:0|0:0,0:0:0:0:
292,93,34147,1,0,0:0:0:0:
499,90,34278,2,0,L|262:87,1,200,8|2,0:0|0:0,0:0:0:0:
404,97,34669,1,2,0:0:0:0:
192,102,34799,5,2,0:0:0:0:
295,99,34930,2,0,L|297:-21,1,100,2|0,0:0|0:0,0:0:0:0:
72,125,35191,2,0,L|279:129,1,200,2|2,0:0|0:0,0:0:0:0:
174,155,35582,2,0,L|177:52,1,100,0|2,0:0|0:0,0:0:0:0:
434,52,35843,6,0,L|430:151,1,100,2|0,0:0|0:0,0:0:0:0:
331,145,36104,2,0,L|218:142,1,100,2|0,0:0|0:0,0:0:0:0:
453,152,36364,2,0,P|381:137|359:0,1,200,8|2,0:0|0:0,0:0:0:0:
456,33,36756,1,0,0:0:0:0:
267,50,36886,6,0,L|141:51,1,100,2|2,0:0|0:0,0:0:0:0:
272,63,37147,2,0,L|398:59,1,100,2|2,0:0|0:0,0:0:0:0:
169,169,37408,1,8,0:0:0:0:
164,72,37538,1,2,0:0:0:0:
262,90,37669,2,0,L|143:85,1,100,2|2,0:0|0:0,0:0:0:0:
384,174,37930,6,0,P|450:140|373:83,1,200,2|2,0:0|0:0,0:0:0:0:
287,85,38321,1,0,0:0:0:0:
68,99,38451,2,0,L|311:102,1,200,8|2,0:0|0:0,0:0:0:0:
181,84,38843,1,2,0:0:0:0:
390,48,38973,5,2,0:0:0:0:
488,47,39104,2,0,L|491:160,1,100,2|0,0:0|0:0,0:0:0:0:
280,135,39364,2,0,L|497:135,1,200,2|0,0:0|0:0,0:0:0:0:
385,179,39756,2,0,L|379:67,1,100,2|2,0:0|0:0,0:0:0:0:
166,76,40017,6,0,L|59:75,1,100,0|0,0:0|0:0,0:0:0:0:
182,88,40278,2,0,L|289:87,1,100,2|2,0:0|0:0,0:0:0:0:
39,182,40538,2,0,L|37:60,1,100,8|0,0:0|0:0,0:0:0:0:
143,82,40799,2,0,L|242:86,1,100,2|2,0:0|0:0,0:0:0:0:
26,85,41060,5,2,0:0:0:0:
126,85,41191,2,0,L|18:85,1,100,2|2,0:0|0:0,0:0:0:0:
233,88,41451,2,0,L|333:90,1,100,0|8,0:0|0:0,0:0:0:0:
332,89,41647,1,0,0:0:0:0:
282,90,41712,1,0,0:0:0:0:
160,139,41843,2,0,L|160:25,1,100,2|2,0:0|0:0,0:0:0:0:
422,49,42104,5,4,0:0:0:0:
327,41,42234,1,0,0:0:0:0:
422,49,42364,1,2,0:0:0:0:
215,110,42495,2,0,L|81:111,1,100,8|0,0:0|0:0,0:0:0:0:
321,111,42756,1,2,0:0:0:0:
376,97,42821,1,0,0:0:0:0:
234,208,42886,1,8,0:0:0:0:
184,202,42951,1,0,0:0:0:0:
368,222,43016,1,2,0:0:0:0:
176,237,43147,5,8,0:0:0:0:
271,226,43278,1,0,0:0:0:0:
176,237,43408,1,2,0:0:0:0:
383,247,43538,6,0,L|505:249,1,100,8|0,0:0|0:0,0:0:0:0:
225,302,43799,1,2,0:0:0:0:
184,296,43864,1,0,0:0:0:0:
332,286,43930,1,8,0:0:0:0:
373,271,43995,1,0,0:0:0:0:
184,296,44060,1,2,0:0:0:0:
472,241,44191,6,0,L|363:241,2,100,8|0|2,0:0|0:0|0:0,0:0:0:0:
192,152,44582,2,0,L|301:152,2,100,8|0|2,0:0|0:0|0:0,0:0:0:0:
384,84,44973,2,0,L|469:79,1,50,8|0,0:0|0:0,0:0:0:0:
241,94,45104,2,0,L|156:89,1,50,2|0,0:0|0:0,0:0:0:0:
412,183,45234,6,0,L|429:129,1,50,8|0,0:0|0:0,0:0:0:0:
352,135,45364,2,0,L|284:133,1,50,0|0,0:0|0:0,0:0:0:0:
80,152,45495,2,0,L|80:88,1,50,2|0,0:0|0:0,0:0:0:0:
149,80,45625,2,0,L|218:76,1,50,0|0,0:0|0:0,0:0:0:0:
416,62,45756,6,0,L|347:58,1,50,2|0,0:0|0:0,0:0:0:0:
307,54,45886,2,0,L|238:50,1,50,0|0,0:0|0:0,0:0:0:0:
475,173,46017,2,0,L|476:100,1,50,2|0,0:0|0:0,0:0:0:0:
413,72,46147,2,0,L|344:68,1,50,0|0,0:0|0:0,0:0:0:0:
172,192,46278,5,4,0:0:0:0:
120,168,46343,1,0,0:0:0:0:
119,102,46408,1,2,0:0:0:0:
172,80,46473,1,0,0:0:0:0:
321,76,46538,1,8,0:0:0:0:
266,82,46604,1,0,0:0:0:0:
211,85,46669,1,2,0:0:0:0:
266,82,46734,1,0,0:0:0:0:
415,141,46799,5,8,0:0:0:0:
462,142,46864,1,0,0:0:0:0:
489,111,46929,1,2,0:0:0:0:
484,56,46995,1,0,0:0:0:0:
279,172,47060,1,8,0:0:0:0:
229,167,47125,1,0,0:0:0:0:
179,162,47190,1,2,0:0:0:0:
179,162,47256,1,0,0:0:0:0:
361,169,47321,6,0,L|432:165,1,50,8|2,0:0|0:0,0:0:0:0:
190,201,47451,2,0,L|140:203,1,50,2|2,0:0|0:0,0:0:0:0:
382,199,47582,2,0,L|432:201,1,50,8|2,0:0|0:0,0:0:0:0:
154,73,47712,2,0,L|225:69,1,50,2|2,0:0|0:0,0:0:0:0:
396,68,47843,6,0,L|467:64,1,50,8|2,0:0|0:0,0:0:0:0:
173,115,47973,2,0,L|123:117,1,50,2|2,0:0|0:0,0:0:0:0:
407,48,48104,2,0,L|478:44,1,50,8|2,0:0|0:0,0:0:0:0:
138,158,48234,2,0,L|88:160,1,50,2|2,0:0|0:0,0:0:0:0:
277,177,48364,5,0,0:0:0:0:
320,149,48429,1,0,0:0:0:0:
319,95,48494,1,0,0:0:0:0:
264,77,48559,1,0,0:0:0:0:
206,122,48625,5,0,0:0:0:0:
175,85,48690,1,0,0:0:0:0:
186,39,48755,1,0,0:0:0:0:
231,21,48820,1,0,0:0:0:0:
288,43,48886,6,0,L|346:37,1,50,0|0,0:0|0:0,0:0:0:0:
285,61,49017,2,0,L|227:55,1,50,0|0,0:0|0:0,0:0:0:0:
287,75,49147,6,0,L|345:69,1,50,0|0,0:0|0:0,0:0:0:0:
286,99,49278,2,0,L|228:93,1,50,0|0,0:0|0:0,0:0:0:0:
70,86,49408,5,2,0:0:0:0:
212,86,49669,1,2,0:0:0:0:
70,86,49930,2,0,L|195:86,1,100,2|2,0:0|0:0,0:0:0:0:
426,88,50191,1,8,0:0:0:0:
228,196,50451,6,0,L|227:65,1,100,4|2,0:0|0:0,0:0:0:0:
453,92,50712,2,0,L|452:191,1,100,2|2,0:0|0:0,0:0:0:0:
227,96,50973,1,8,0:0:0:0:
453,92,51104,1,2,0:0:0:0:
228,188,51234,2,0,L|228:65,1,100,2|2,0:0|0:0,0:0:0:0:
447,94,51495,6,0,L|327:93,1,100,0|2,1:0|0:0,0:0:0:0:
139,37,51756,2,0,L|257:34,1,100,2|2,0:0|0:0,0:0:0:0:
17,78,52017,1,8,0:0:0:0:
232,89,52148,1,2,0:0:0:0:
16,94,52278,2,0,L|16:193,1,100,2|0,0:0|0:0,0:0:0:0:
221,192,52538,6,0,L|99:193,1,100,0|2,1:0|0:0,0:0:0:0:
341,242,52799,2,0,L|219:243,1,100,2|2,0:0|0:0,0:0:0:0:
471,198,53060,1,8,0:0:0:0:
234,182,53191,1,2,0:0:0:0:
471,182,53321,2,0,L|472:59,1,100,2|2,0:0|0:0,0:0:0:0:
243,81,53582,6,0,L|351:80,1,100,4|0,0:0|0:0,0:0:0:0:
134,81,53843,2,0,L|134:202,1,100,2|0,0:0|0:0,0:0:0:0:
370,178,54104,2,0,L|369:49,1,100,2|0,0:0|0:0,0:0:0:0:
25,84,54364,2,0,L|33:217,1,100,8|0,0:0|0:0,0:0:0:0:
246,191,54625,6,0,L|121:190,1,100,4|2,0:0|0:0,0:0:0:0:
368,148,54886,2,0,L|493:147,1,100,2|2,0:0|0:0,0:0:0:0:
245,90,55147,1,8,0:0:0:0:
467,75,55278,1,2,0:0:0:0:
245,190,55408,2,0,L|245:68,1,100,2|2,0:0|0:0,0:0:0:0:
448,84,55669,6,0,L|452:183,1,100,0|2,1:0|0:0,0:0:0:0:
245,190,55930,2,0,L|366:188,1,100,2|2,0:0|0:0,0:0:0:0:
126,187,56191,1,8,0:0:0:0:
344,188,56322,1,2,0:0:0:0:
126,187,56452,2,0,L|122:62,1,100,2|0,0:0|0:0,0:0:0:0:
326,90,56712,6,0,L|375:90,1,50,4|0,0:0|0:0,0:0:0:0:
188,92,56843,2,0,L|138:95,1,50,0|0,0:0|0:0,0:0:0:0:
328,136,56973,2,0,L|436:80,1,100,2|4,0:0|0:0,0:0:0:0:
364,88,57169,5,0,0:0:0:0:
168,64,57234,2,0,L|116:68,1,50,0|0,0:0|0:0,0:0:0:0:
328,168,57364,2,0,L|452:104,1,100,2|4,0:0|0:0,0:0:0:0:
364,164,57560,5,0,0:0:0:0:
148,40,57625,2,0,L|98:41,1,50,0|0,0:0|0:0,0:0:0:0:
328,208,57756,2,0,L|440:148,1,100,2|4,0:0|0:0,0:0:0:0:
364,216,57951,5,0,0:0:0:0:
128,8,58017,2,0,L|40:12,1,50,0|0,0:0|0:0,0:0:0:0:
336,248,58147,2,0,L|433:240,1,50,2|0,0:0|0:0,0:0:0:0:
160,284,58278,5,8,0:0:0:0:
136,275,58310,1,0,0:0:0:0:
120,257,58343,1,0,0:0:0:0:
115,233,58375,1,0,0:0:0:0:
122,209,58408,1,0,0:0:0:0:
140,192,58441,1,0,0:0:0:0:
163,186,58473,1,0,0:0:0:0:
402,231,58538,5,8,0:0:0:0:
425,222,58570,1,0,0:0:0:0:
441,204,58603,1,0,0:0:0:0:
446,180,58635,1,0,0:0:0:0:
439,156,58668,1,0,0:0:0:0:
421,139,58701,1,0,0:0:0:0:
397,133,58733,1,0,0:0:0:0:
176,228,58799,5,2,0:0:0:0:
200,228,58831,1,0,0:0:0:0:
224,226,58864,1,0,0:0:0:0:
368,125,58929,1,2,0:0:0:0:
396,124,58962,1,0,0:0:0:0:
416,123,58994,1,0,0:0:0:0:
204,136,59060,5,2,0:0:0:0:
176,128,59092,1,0,0:0:0:0:
148,120,59125,1,0,0:0:0:0:
384,84,59190,1,2,0:0:0:0:
408,60,59223,1,0,0:0:0:0:
420,32,59255,1,0,0:0:0:0:
144,40,59321,6,0,L|228:103,1,100,8|0,0:0|0:0,0:0:0:0:
144,40,59582,1,2,0:0:0:0:
358,165,59712,6,0,P|351:82|224:61,1,200,2|2,0:0|0:0,0:0:0:0:
468,55,60104,2,0,L|353:55,1,100,2|2,0:0|0:0,0:0:0:0:
269,101,60364,2,0,L|387:104,1,100,8|0,0:0|0:0,0:0:0:0:
164,95,60625,2,0,L|163:209,1,100,2|0,0:0|0:0,0:0:0:0:
371,133,60886,6,0,L|225:134,2,100,2|2|2,0:0|0:0|0:0,0:0:0:0:
368,143,61278,1,2,0:0:0:0:
155,194,61408,2,0,L|53:197,1,100,8|0,0:0|0:0,0:0:0:0:
260,196,61669,1,2,0:0:0:0:
54,176,61799,6,0,P|126:157|171:28,1,200,2|2,0:0|0:0,0:0:0:0:
417,59,62191,2,0,L|284:57,1,100,2|2,0:0|0:0,0:0:0:0:
215,54,62451,2,0,L|348:52,1,100,8|0,0:0|0:0,0:0:0:0:
75,50,62712,2,0,L|76:171,1,100,2|0,0:0|0:0,0:0:0:0:
284,149,62973,6,0,L|184:150,2,100,2|2|2,0:0|0:0|0:0,0:0:0:0:
284,149,63364,1,2,0:0:0:0:
67,205,63495,2,0,L|166:203,1,100,8|0,0:0|0:0,0:0:0:0:
381,205,63756,1,2,0:0:0:0:
166,203,63886,6,0,P|94:177|89:55,1,200,2|2,0:0|0:0,0:0:0:0:
299,63,64278,2,0,L|421:61,1,100,2|2,0:0|0:0,0:0:0:0:
304,121,64538,2,0,L|196:116,1,100,8|2,0:0|0:0,0:0:0:0:
436,114,64799,2,0,L|442:233,1,100,2|0,0:0|0:0,0:0:0:0:
185,214,65060,6,0,P|121:205|107:94,1,150,4|0,0:0|0:0,0:0:0:0:
98,101,65321,1,0,0:0:0:0:
132,75,65386,1,0,0:0:0:0:
325,214,65451,6,0,P|383:207|433:113,1,150,4|0,0:0|0:0,0:0:0:0:
436,114,65712,1,0,0:0:0:0:
404,85,65777,1,0,0:0:0:0:
185,214,65843,6,0,P|144:148|209:111,1,150,4|0,0:0|0:0,0:0:0:0:
232,109,66104,1,0,0:0:0:0:
189,109,66169,1,0,0:0:0:0:
50,113,66234,1,2,0:0:0:0:
262,189,66364,6,0,L|400:190,1,100,2|0,0:0|0:0,0:0:0:0:
138,186,66625,2,0,L|132:63,1,100,2|0,0:0|0:0,0:0:0:0:
342,113,66886,2,0,L|426:101,1,50,8|0,0:0|0:0,0:0:0:0:
242,137,67017,2,0,L|187:142,1,50,0|0,0:0|0:0,0:0:0:0:
340,191,67147,6,0,L|454:192,1,100,4|2,0:0|0:0,0:0:0:0:
179,193,67407,1,2,0:0:0:0:
381,189,67538,2,0,L|379:68,1,100,2|8,0:0|0:0,0:0:0:0:
180,87,67799,1,2,0:0:0:0:
379,89,67929,2,0,L|258:87,1,100,2|2,0:0|0:0,0:0:0:0:
466,87,68190,6,0,L|465:187,1,100,0|2,1:0|0:0,0:0:0:0:
263,87,68451,1,2,0:0:0:0:
466,87,68581,2,0,L|357:87,1,100,2|8,0:0|0:0,0:0:0:0:
160,87,68842,1,2,0:0:0:0:
361,164,68973,2,0,L|240:161,1,100,2|2,0:0|0:0,0:0:0:0:
261,161,69169,1,0,0:0:0:0:
463,170,69233,6,0,L|479:51,1,100,2|0,0:0|0:0,0:0:0:0:
285,73,69495,1,2,0:0:0:0:
476,70,69625,1,0,0:0:0:0:
165,106,69756,2,0,L|91:109,1,50,8|0,0:0|0:0,0:0:0:0:
115,108,69886,2,0,L|165:106,1,50,0|0,0:0|0:0,0:0:0:0:
329,136,70017,2,0,L|403:139,1,50,8|0,0:0|0:0,0:0:0:0:
379,138,70147,2,0,L|329:136,1,50,0|0,0:0|0:0,0:0:0:0:
60,171,70278,6,0,L|61:54,1,100,2|0,0:0|0:0,0:0:0:0:
265,92,70538,1,2,0:0:0:0:
63,70,70669,1,0,0:0:0:0:
278,126,70799,2,0,L|346:126,1,50,8|0,0:0|0:0,0:0:0:0:
328,126,70930,2,0,L|278:126,1,50,0|0,0:0|0:0,0:0:0:0:
113,70,71060,2,0,L|64:70,1,50,8|0,0:0|0:0,0:0:0:0:
63,70,71191,2,0,L|113:70,1,50,0|0,0:0|0:0,0:0:0:0:
351,46,71321,6,0,L|251:45,2,100,4|2|2,0:0|0:0|0:0,0:0:0:0:
131,204,71712,2,0,P|144:128|276:88,1,200,2|2,0:0|0:0,0:0:0:0:
470,123,72104,2,0,L|371:123,1,100,2|2,0:0|0:0,0:0:0:0:
167,217,72364,6,0,L|270:215,1,100,0|2,1:0|0:0,0:0:0:0:
58,209,72625,1,2,0:0:0:0:
281,214,72755,2,0,P|275:139|157:91,1,200,2|2,0:0|0:0,0:0:0:0:
432,174,73146,2,0,L|434:69,1,100,2|2,0:0|0:0,0:0:0:0:
372,72,73342,1,0,0:0:0:0:
159,175,73408,6,0,P|62:135|56:87,1,150,2|0,0:0|0:0,0:0:0:0:
152,76,73734,1,0,0:0:0:0:
312,49,73799,1,8,0:0:0:0:
218,48,73930,1,0,0:0:0:0:
424,62,74060,1,0,0:0:0:0:
424,62,74093,1,0,0:0:0:0:
424,62,74126,1,0,0:0:0:0:
220,185,74191,6,0,P|131:141|124:75,1,150,2|0,0:0|0:0,0:0:0:0:
220,96,74517,1,0,0:0:0:0:
30,83,74582,1,8,0:0:0:0:
106,83,74713,1,0,0:0:0:0:
371,84,74843,1,0,0:0:0:0:
371,84,74876,1,0,0:0:0:0:
371,84,74909,1,0,0:0:0:0:
156,80,74973,1,2,0:0:0:0:
371,84,75104,1,2,0:0:0:0:
313,145,75495,6,0,P|375:146|307:197,1,200,4|8,0:0|0:0,0:0:0:0:
228,200,75886,1,2,0:0:0:0:
415,205,76017,2,0,L|416:89,1,100,0|2,0:0|0:0,0:0:0:0:
205,110,76278,1,8,0:0:0:0:
290,110,76408,2,0,L|290:222,1,100,2|0,0:0|0:0,0:0:0:0:
66,197,76669,6,0,L|168:201,2,100,2|8|0,0:0|0:0|0:0,0:0:0:0:
287,204,77060,2,0,L|286:315,1,100,2|2,0:0|0:0,0:0:0:0:
176,305,77321,2,0,L|73:311,1,100,8|0,0:0|0:0,0:0:0:0:
287,204,77582,6,0,P|220:264|291:297,1,200,2|8,0:0|0:0,0:0:0:0:
485,298,77973,2,0,L|484:184,1,100,2|0,0:0|0:0,0:0:0:0:
241,298,78234,2,0,L|388:296,1,100,2|8,0:0|0:0,0:0:0:0:
219,216,78495,2,0,L|223:323,1,100,2|0,0:0|0:0,0:0:0:0:
425,278,78756,6,0,L|226:284,1,200,2|2,0:0|0:0,0:0:0:0:
492,227,79147,2,0,L|493:355,1,100,2|2,0:0|0:0,0:0:0:0:
381,325,79408,2,0,L|381:225,1,100,8|0,0:0|0:0,0:0:0:0:
139,273,79669,6,0,L|263:275,1,100,2|0,0:0|0:0,0:0:0:0:
38,273,79930,1,8,0:0:0:0:
242,207,80060,2,0,P|227:298|100:337,1,200,2|2,0:0|0:0,0:0:0:0:
348,347,80452,1,8,0:0:0:0:
247,306,80582,6,0,L|471:302,1,200,2|2,0:0|0:0,0:0:0:0:
442,249,80973,1,8,0:0:0:0:
189,245,81104,1,2,0:0:0:0:
293,247,81234,2,0,L|291:346,1,100,2|2,0:0|0:0,0:0:0:0:
186,310,81495,2,0,L|307:309,1,100,8|2,0:0|0:0,0:0:0:0:
86,216,81756,6,0,P|17:279|108:303,1,200,2|8,0:0|0:0,0:0:0:0:
282,305,82147,2,0,L|77:308,1,200,2|2,0:0|0:0,0:0:0:0:
282,305,82539,1,8,0:0:0:0:
72,216,82669,6,0,P|82:301|199:338,1,200,2|2,0:0|0:0,0:0:0:0:
306,310,83060,1,8,0:0:0:0:
177,291,83191,1,2,0:0:0:0:
383,162,83321,2,0,L|387:286,1,100,2|2,0:0|0:0,0:0:0:0:
165,162,83582,2,0,L|167:290,1,100,8|2,0:0|0:0,0:0:0:0:
247,261,83778,1,2,0:0:0:0:
393,259,83843,6,0,L|294:260,1,100,4|0,0:0|0:0,0:0:0:0:
495,254,84104,2,0,L|370:258,2,100,8|2|0,0:0|0:0|0:0,0:0:0:0:
285,310,84495,2,0,L|186:313,1,100,2|8,0:0|0:0,0:0:0:0:
393,241,84756,6,0,P|455:269|363:329,1,200,2|2,0:0|0:0,0:0:0:0:
179,284,85147,1,8,0:0:0:0:
179,284,85278,1,0,0:0:0:0:
388,294,85408,2,0,L|514:293,1,100,2|2,0:0|0:0,0:0:0:0:
272,229,85669,2,0,L|144:233,1,100,8|0,0:0|0:0,0:0:0:0:
407,232,85930,6,0,P|397:320|279:355,1,200,2|8,0:0|0:0,0:0:0:0:
43,288,86321,2,0,L|185:289,1,100,2|0,0:0|0:0,0:0:0:0:
347,290,86582,2,0,L|205:291,1,100,2|8,0:0|0:0,0:0:0:0:
491,218,86843,6,0,P|485:291|369:325,1,200,2|2,0:0|0:0,0:0:0:0:
171,271,87234,2,0,L|293:273,1,100,8|2,0:0|0:0,0:0:0:0:
40,327,87495,2,0,L|41:202,1,100,2|2,0:0|0:0,0:0:0:0:
141,227,87756,2,0,L|15:228,1,100,8|0,0:0|0:0,0:0:0:0:
277,234,88017,5,2,0:0:0:0:
183,236,88147,2,0,L|184:337,1,100,0|8,0:0|0:0,0:0:0:0:
380,289,88408,2,0,P|264:322|248:416,1,200,2|2,0:0|0:0,0:0:0:0:
343,371,88799,1,8,0:0:0:0:
115,187,88930,6,0,P|232:224|208:312,1,200,2|2,0:0|0:0,0:0:0:0:
116,315,89321,1,8,0:0:0:0:
330,314,89452,1,2,0:0:0:0:
115,287,89582,2,0,L|115:187,1,100,0|2,0:0|0:0,0:0:0:0:
343,184,89843,2,0,L|343:284,1,100,8|2,0:0|0:0,0:0:0:0:
268,284,90039,1,2,0:0:0:0:
133,284,90104,5,4,0:0:0:0:
266,264,90235,1,2,0:0:0:0:
338,242,90495,5,8,0:0:0:0:
205,222,90626,1,2,0:0:0:0:
133,284,90886,5,8,0:0:0:0:
266,264,91017,1,2,0:0:0:0:
338,242,91278,5,8,0:0:0:0:
205,222,91408,2,0,L|200:122,1,100,2|0,0:0|0:0,0:0:0:0:
403,131,91669,2,0,L|201:133,1,200,8|8,0:0|0:0,0:0:0:0:
306,157,92060,1,0,0:0:0:0:
116,174,92191,6,0,P|51:153|126:95,1,200,4|0,0:0|0:0,0:0:0:0:
29,89,92582,1,0,0:0:0:0:
242,120,92713,2,0,L|3:128,1,200,8|2,0:0|0:0,0:0:0:0:
42,126,93104,1,2,0:0:0:0:
232,175,93234,5,2,0:0:0:0:
131,177,93365,2,0,L|133:57,1,100,2|0,0:0|0:0,0:0:0:0:
345,96,93626,2,0,L|138:100,1,200,2|2,0:0|0:0,0:0:0:0:
351,174,94017,2,0,L|460:174,1,100,0|2,0:0|0:0,0:0:0:0:
232,175,94278,6,0,L|230:52,1,100,2|0,0:0|0:0,0:0:0:0:
455,51,94539,2,0,L|452:183,1,100,2|0,0:0|0:0,0:0:0:0:
224,152,94799,2,0,P|156:103|246:58,1,200,8|2,0:0|0:0,0:0:0:0:
337,47,95191,1,0,0:0:0:0:
225,46,95321,6,0,L|99:42,1,100,2|2,0:0|0:0,0:0:0:0:
337,88,95582,2,0,L|332:203,1,100,2|2,0:0|0:0,0:0:0:0:
216,176,95843,2,0,L|346:174,1,100,8|2,0:0|0:0,0:0:0:0:
102,190,96104,2,0,L|101:49,1,100,2|2,0:0|0:0,0:0:0:0:
361,172,96365,6,0,P|322:106|183:108,1,200,2|2,0:0|0:0,0:0:0:0:
288,111,96756,1,0,0:0:0:0:
78,123,96886,2,0,L|322:118,1,200,8|2,0:0|0:0,0:0:0:0:
182,102,97278,1,2,0:0:0:0:
394,105,97408,6,0,L|286:106,2,100,2|2|0,0:0|0:0|0:0,0:0:0:0:
190,125,97799,2,0,P|215:48|359:25,1,200,2|0,0:0|0:0,0:0:0:0:
94,28,98191,2,0,L|96:127,1,100,2|2,0:0|0:0,0:0:0:0:
317,168,98452,6,0,L|209:169,1,100,0|0,0:0|0:0,0:0:0:0:
217,168,98713,2,0,L|316:170,1,100,2|2,0:0|0:0,0:0:0:0:
119,207,98973,2,0,L|118:108,1,100,8|0,0:0|0:0,0:0:0:0:
341,112,99234,2,0,L|339:211,1,100,2|2,0:0|0:0,0:0:0:0:
119,207,99495,5,2,0:0:0:0:
221,208,99626,2,0,L|222:88,1,100,2|2,0:0|0:0,0:0:0:0:
440,109,99886,2,0,L|340:111,1,100,0|8,0:0|0:0,0:0:0:0:
340,111,100082,1,0,0:0:0:0:
396,110,100147,1,0,0:0:0:0:
484,112,100278,2,0,L|485:238,1,100,2|2,0:0|0:0,0:0:0:0:
120,320,100538,5,4,0:0:0:0:
215,328,100668,1,0,0:0:0:0:
120,320,100798,1,2,0:0:0:0:
327,259,100929,2,0,L|461:258,1,100,8|0,0:0|0:0,0:0:0:0:
221,258,101190,1,2,0:0:0:0:
166,272,101255,1,0,0:0:0:0:
308,161,101320,1,8,0:0:0:0:
358,167,101385,1,0,0:0:0:0:
174,147,101450,1,2,0:0:0:0:
366,132,101581,5,8,0:0:0:0:
271,143,101712,1,0,0:0:0:0:
366,132,101842,1,2,0:0:0:0:
159,122,101972,6,0,L|37:120,1,100,8|0,0:0|0:0,0:0:0:0:
317,67,102233,1,2,0:0:0:0:
358,73,102298,1,0,0:0:0:0:
210,83,102364,1,8,0:0:0:0:
169,98,102429,1,0,0:0:0:0:
358,73,102494,1,2,0:0:0:0:
70,128,102625,6,0,L|179:128,2,100,8|0|2,0:0|0:0|0:0,0:0:0:0:
350,217,103016,2,0,L|241:217,2,100,8|0|2,0:0|0:0|0:0,0:0:0:0:
158,285,103407,2,0,L|73:290,1,50,8|0,0:0|0:0,0:0:0:0:
301,275,103538,2,0,L|386:280,1,50,2|0,0:0|0:0,0:0:0:0:
130,186,103668,6,0,L|113:240,1,50,8|0,0:0|0:0,0:0:0:0:
190,234,103798,2,0,L|258:236,1,50,0|0,0:0|0:0,0:0:0:0:
450,215,103929,2,0,L|450:279,1,50,2|0,0:0|0:0,0:0:0:0:
381,287,104059,2,0,L|312:291,1,50,0|0,0:0|0:0,0:0:0:0:
120,307,104190,6,0,L|189:311,1,50,2|0,0:0|0:0,0:0:0:0:
229,315,104320,2,0,L|298:319,1,50,0|0,0:0|0:0,0:0:0:0:
67,196,104451,2,0,L|66:269,1,50,2|0,0:0|0:0,0:0:0:0:
127,297,104581,2,0,L|196:301,1,50,0|0,0:0|0:0,0:0:0:0:
389,169,104712,5,4,0:0:0:0:
441,197,104777,1,0,0:0:0:0:
440,258,104842,1,2,0:0:0:0:
391,269,104907,1,0,0:0:0:0:
180,276,104972,1,8,0:0:0:0:
223,267,105038,1,0,0:0:0:0:
267,260,105103,1,2,0:0:0:0:
315,254,105168,1,0,0:0:0:0:
103,220,105233,5,8,0:0:0:0:
56,219,105298,1,0,0:0:0:0:
29,250,105363,1,2,0:0:0:0:
34,305,105429,1,0,0:0:0:0:
262,192,105494,1,8,0:0:0:0:
312,197,105559,1,0,0:0:0:0:
362,202,105624,1,2,0:0:0:0:
362,202,105690,1,0,0:0:0:0:
180,195,105755,6,0,L|109:199,1,50,8|2,0:0|0:0,0:0:0:0:
332,159,105885,2,0,L|382:157,1,50,2|2,0:0|0:0,0:0:0:0:
159,164,106016,2,0,L|109:162,1,50,8|2,0:0|0:0,0:0:0:0:
393,292,106146,2,0,L|322:296,1,50,2|2,0:0|0:0,0:0:0:0:
149,295,106277,6,0,L|78:299,1,50,8|2,0:0|0:0,0:0:0:0:
354,242,106407,2,0,L|404:240,1,50,2|2,0:0|0:0,0:0:0:0:
130,319,106538,2,0,L|59:323,1,50,8|2,0:0|0:0,0:0:0:0:
352,208,106668,2,0,L|402:206,1,50,2|2,0:0|0:0,0:0:0:0:
267,186,106799,5,0,0:0:0:0:
222,222,106864,1,0,0:0:0:0:
223,270,106930,1,0,0:0:0:0:
275,293,106995,1,0,0:0:0:0:
318,237,107060,5,0,0:0:0:0:
349,274,107125,1,0,0:0:0:0:
338,320,107191,1,0,0:0:0:0:
293,338,107256,1,0,0:0:0:0:
247,321,107321,6,0,L|189:327,1,50,0|0,0:0|0:0,0:0:0:0:
247,321,107451,2,0,L|305:327,1,50,0|0,0:0|0:0,0:0:0:0:
251,264,107582,6,0,L|209:224,1,50,0|0,0:0|0:0,0:0:0:0:
188,192,107712,2,0,L|198:129,1,50,0|0,0:0|0:0,0:0:0:0:
471,278,107843,5,2,0:0:0:0:
336,284,108104,1,2,0:0:0:0:
472,283,108364,2,0,L|473:163,1,100,2|2,0:0|0:0,0:0:0:0:
148,277,108625,1,8,0:0:0:0:
257,186,108886,6,0,L|371:187,1,100,4|2,0:0|0:0,0:0:0:0:
42,290,109147,2,0,L|43:191,1,100,2|2,0:0|0:0,0:0:0:0:
268,286,109408,1,8,0:0:0:0:
42,290,109539,1,2,0:0:0:0:
267,194,109669,2,0,L|267:317,1,100,2|2,0:0|0:0,0:0:0:0:
48,288,109930,6,0,L|168:289,1,100,0|2,1:0|0:0,0:0:0:0:
356,345,110191,2,0,L|238:348,1,100,2|2,0:0|0:0,0:0:0:0:
478,304,110452,1,8,0:0:0:0:
253,288,110583,1,2,0:0:0:0:
479,288,110713,2,0,L|479:189,1,100,2|0,0:0|0:0,0:0:0:0:
274,190,110973,6,0,L|396:189,1,100,0|2,1:0|0:0,0:0:0:0:
154,140,111234,2,0,L|276:139,1,100,2|2,0:0|0:0,0:0:0:0:
25,175,111495,1,8,0:0:0:0:
257,202,111626,1,2,0:0:0:0:
25,197,111756,2,0,L|24:320,1,100,2|2,0:0|0:0,0:0:0:0:
252,301,112017,6,0,L|144:302,1,100,4|0,0:0|0:0,0:0:0:0:
361,301,112278,2,0,L|361:180,1,100,2|0,0:0|0:0,0:0:0:0:
125,204,112539,2,0,L|126:333,1,100,2|0,0:0|0:0,0:0:0:0:
470,298,112799,2,0,L|462:165,1,100,8|0,0:0|0:0,0:0:0:0:
249,191,113060,6,0,L|374:192,1,100,4|2,0:0|0:0,0:0:0:0:
125,228,113321,2,0,L|0:229,1,100,2|2,0:0|0:0,0:0:0:0:
250,292,113582,1,8,0:0:0:0:
28,307,113713,1,2,0:0:0:0:
250,192,113843,2,0,L|250:314,1,100,2|2,0:0|0:0,0:0:0:0:
28,307,114104,6,0,L|24:208,1,100,0|2,1:0|0:0,0:0:0:0:
250,192,114365,2,0,L|129:194,1,100,2|2,0:0|0:0,0:0:0:0:
386,196,114626,1,8,0:0:0:0:
151,194,114757,1,2,0:0:0:0:
386,196,114887,2,0,L|390:321,1,100,2|0,0:0|0:0,0:0:0:0:
180,270,115147,6,0,L|131:270,1,50,4|0,0:0|0:0,0:0:0:0:
320,264,115278,2,0,L|370:261,1,50,0|0,0:0|0:0,0:0:0:0:
178,224,115408,2,0,L|70:280,1,100,2|4,0:0|0:0,0:0:0:0:
142,272,115604,5,0,0:0:0:0:
336,284,115669,2,0,L|388:280,1,50,0|0,0:0|0:0,0:0:0:0:
178,192,115799,2,0,L|54:256,1,100,2|4,0:0|0:0,0:0:0:0:
142,196,115995,5,0,0:0:0:0:
356,304,116060,2,0,L|406:303,1,50,0|0,0:0|0:0,0:0:0:0:
178,152,116191,2,0,L|66:212,1,100,2|4,0:0|0:0,0:0:0:0:
142,144,116386,5,0,0:0:0:0:
376,328,116452,2,0,L|464:324,1,50,0|0,0:0|0:0,0:0:0:0:
170,112,116582,2,0,L|73:120,1,50,2|0,0:0|0:0,0:0:0:0:
395,111,116713,5,8,0:0:0:0:
419,120,116745,1,0,0:0:0:0:
435,138,116778,1,0,0:0:0:0:
440,162,116810,1,0,0:0:0:0:
433,186,116843,1,0,0:0:0:0:
415,203,116876,1,0,0:0:0:0:
391,209,116908,1,0,0:0:0:0:
161,160,116973,5,8,0:0:0:0:
138,169,117005,1,0,0:0:0:0:
122,187,117038,1,0,0:0:0:0:
117,211,117070,1,0,0:0:0:0:
124,235,117103,1,0,0:0:0:0:
142,252,117136,1,0,0:0:0:0:
166,258,117168,1,0,0:0:0:0:
348,268,117234,5,2,0:0:0:0:
324,268,117266,1,0,0:0:0:0:
300,266,117299,1,0,0:0:0:0:
144,167,117364,1,2,0:0:0:0:
116,166,117397,1,0,0:0:0:0:
96,165,117429,1,0,0:0:0:0:
300,172,117495,5,2,0:0:0:0:
328,164,117527,1,0,0:0:0:0:
356,156,117560,1,0,0:0:0:0:
144,126,117625,1,2,0:0:0:0:
120,102,117658,1,0,0:0:0:0:
108,74,117690,1,0,0:0:0:0:
356,64,117756,6,0,L|266:120,1,100,8|0,0:0|0:0,0:0:0:0:
356,64,118017,1,2,0:0:0:0:
137,217,118147,6,0,P|144:300|271:321,1,200,2|2,0:0|0:0,0:0:0:0:
27,327,118539,2,0,L|142:327,1,100,2|2,0:0|0:0,0:0:0:0:
226,281,118799,2,0,L|108:278,1,100,8|0,0:0|0:0,0:0:0:0:
331,287,119060,2,0,L|332:173,1,100,2|0,0:0|0:0,0:0:0:0:
124,249,119321,6,0,L|270:248,2,100,2|2|2,0:0|0:0|0:0,0:0:0:0:
127,239,119713,1,2,0:0:0:0:
340,188,119843,2,0,L|442:185,1,100,8|0,0:0|0:0,0:0:0:0:
235,186,120104,1,2,0:0:0:0:
432,213,120234,6,0,P|373:231|437:307,1,200,2|2,0:0|0:0,0:0:0:0:
176,280,120626,2,0,L|309:282,1,100,2|2,0:0|0:0,0:0:0:0:
280,328,120886,2,0,L|147:330,1,100,8|0,0:0|0:0,0:0:0:0:
420,332,121147,2,0,L|419:211,1,100,2|0,0:0|0:0,0:0:0:0:
211,233,121408,6,0,L|311:232,2,100,2|2|2,0:0|0:0|0:0,0:0:0:0:
211,233,121799,1,2,0:0:0:0:
428,177,121930,2,0,L|329:179,1,100,8|0,0:0|0:0,0:0:0:0:
114,177,122191,1,2,0:0:0:0:
329,179,122321,6,0,P|401:205|406:327,1,200,2|2,0:0|0:0,0:0:0:0:
196,319,122713,2,0,L|74:321,1,100,2|2,0:0|0:0,0:0:0:0:
191,261,122973,2,0,L|299:266,1,100,8|2,0:0|0:0,0:0:0:0:
59,268,123234,2,0,L|53:149,1,100,2|0,0:0|0:0,0:0:0:0:
310,168,123495,6,0,P|374:177|388:288,1,150,4|0,0:0|0:0,0:0:0:0:
395,280,123756,1,0,0:0:0:0:
370,308,123821,1,0,0:0:0:0:
170,168,123886,6,0,P|112:175|62:269,1,150,4|0,0:0|0:0,0:0:0:0:
69,266,124147,1,0,0:0:0:0:
88,294,124212,1,0,0:0:0:0:
310,168,124278,6,0,P|351:234|286:271,1,150,4|0,0:0|0:0,0:0:0:0:
263,273,124539,1,0,0:0:0:0:
306,273,124604,1,0,0:0:0:0:
465,270,124669,1,2,0:0:0:0:
266,192,124799,6,0,L|128:191,1,100,2|0,0:0|0:0,0:0:0:0:
377,194,125060,2,0,L|383:317,1,100,2|0,0:0|0:0,0:0:0:0:
168,268,125321,6,0,B|369:263|369:263|370:122,1,300,8|0,0:0|0:0,0:0:0:0:
91,193,125582,5,4,0:0:0:0:
256,192,125712,12,0,133669,0:0:0:0:
68,207,133930,6,0,L|70:69,1,100,4|0,0:0|0:0,0:0:0:0:
307,106,134191,2,0,L|207:105,1,100,2|0,0:0|0:0,0:0:0:0:
306,49,134451,2,0,L|406:49,1,100,2|0,0:0|0:0,0:0:0:0:
180,142,134712,2,0,L|177:11,1,100,2|0,0:0|0:0,0:0:0:0:
408,93,134973,6,0,L|308:93,1,100,2|0,0:0|0:0,0:0:0:0:
109,89,135234,2,0,L|209:89,1,100,2|0,0:0|0:0,0:0:0:0:
106,102,135495,2,0,L|56:101,1,50,2|0,0:0|0:0,0:0:0:0:
56,102,135625,2,0,L|106:102,1,50,0|0,0:0|0:0,0:0:0:0:
259,102,135756,2,0,L|334:103,1,50,2|0,0:0|0:0,0:0:0:0:
309,102,135886,2,0,L|260:101,1,50,0|0,0:0|0:0,0:0:0:0:
56,115,136017,6,0,L|56:232,1,100,2|0,0:0|0:0,0:0:0:0:
262,207,136278,2,0,L|124:207,1,100,2|0,0:0|0:0,0:0:0:0:
162,207,136538,2,0,L|262:207,1,100,2|0,0:0|0:0,0:0:0:0:
477,207,136799,2,0,L|339:207,1,100,2|0,0:0|0:0,0:0:0:0:
165,190,137061,6,0,L|163:82,1,100,2|0,0:0|0:0,0:0:0:0:
373,79,137322,2,0,L|235:79,1,100,2|0,0:0|0:0,0:0:0:0:
373,79,137582,2,0,L|473:79,1,100,2|0,0:0|0:0,0:0:0:0:
255,109,137843,2,0,L|253:2,1,100,2|0,0:0|0:0,0:0:0:0:
472,64,138104,5,4,0:0:0:0:
346,50,138234,1,2,0:0:0:0:
472,64,138364,1,2,0:0:0:0:
346,50,138494,1,2,0:0:0:0:
472,95,138625,1,2,0:0:0:0:
385,152,138756,1,2,0:0:0:0:
389,253,138886,1,2,0:0:0:0:
485,285,139017,1,2,0:0:0:0:
191,297,139147,5,4,0:0:0:0:
312,311,139277,1,2,0:0:0:0:
191,297,139407,1,2,0:0:0:0:
312,311,139537,1,2,0:0:0:0:
191,266,139668,1,2,0:0:0:0:
278,209,139799,1,2,0:0:0:0:
274,108,139929,1,2,0:0:0:0:
178,76,140060,1,2,0:0:0:0:
427,191,140191,5,4,0:0:0:0:
449,179,140223,1,0,0:0:0:0:
467,162,140256,1,0,0:0:0:0:
480,141,140288,1,0,0:0:0:0:
486,117,140321,1,2,0:0:0:0:
433,112,140386,1,0,0:0:0:0:
391,104,140451,5,2,0:0:0:0:
376,50,140517,1,0,0:0:0:0:
409,6,140581,1,2,0:0:0:0:
460,11,140647,1,0,0:0:0:0:
224,137,140712,5,2,0:0:0:0:
200,129,140744,1,0,0:0:0:0:
183,111,140777,1,0,0:0:0:0:
176,88,140809,1,0,0:0:0:0:
182,63,140842,1,2,0:0:0:0:
199,45,140875,1,0,0:0:0:0:
222,37,140907,1,0,0:0:0:0:
353,43,140973,5,2,0:0:0:0:
376,50,141005,1,0,0:0:0:0:
393,69,141038,1,0,0:0:0:0:
399,93,141071,1,0,0:0:0:0:
392,117,141103,1,2,0:0:0:0:
375,134,141136,1,0,0:0:0:0:
351,142,141168,1,0,0:0:0:0:
279,146,141234,5,0,0:0:0:0:
388,145,141364,2,0,L|492:145,2,100,0|0|0,0:0|0:0|0:0,0:0:0:0:
488,145,141756,2,0,L|487:13,1,100,2|0,0:0|0:0,0:0:0:0:
238,41,142017,2,0,L|245:171,1,100,2|0,0:0|0:0,0:0:0:0:
490,132,142278,6,0,L|391:130,1,100,4|0,0:0|0:0,0:0:0:0:
168,96,142538,2,0,L|292:101,1,100,2|2,0:0|0:0,0:0:0:0:
168,96,142799,1,8,1:0:0:0:
396,162,142930,2,0,L|401:57,1,100,2|8,0:0|0:0,0:0:0:0:
308,57,143191,1,2,0:0:0:0:
96,130,143321,6,0,L|195:127,1,100,8|2,1:0|0:0,0:0:0:0:
415,107,143582,2,0,L|316:104,1,100,8|2,0:0|0:0,0:0:0:0:
447,62,143843,2,0,L|442:178,1,100,8|2,1:0|0:0,0:0:0:0:
222,130,144104,1,8,0:0:0:0:
319,121,144234,1,2,0:0:0:0:
110,180,144364,6,0,P|45:160|34:14,1,200,8|8,1:0|0:0,0:0:0:0:
117,38,144756,1,2,0:0:0:0:
345,37,144886,2,0,L|344:165,1,100,8|2,1:0|0:0,0:0:0:0:
118,131,145147,2,0,L|-19:127,1,100,8|2,0:0|0:0,0:0:0:0:
239,208,145408,5,8,1:0:0:0:
332,181,145538,1,2,0:0:0:0:
335,88,145669,1,8,0:0:0:0:
231,59,145799,1,2,0:0:0:0:
27,118,145930,5,8,1:0:0:0:
111,108,146060,1,2,0:0:0:0:
200,93,146191,1,8,0:0:0:0:
111,108,146321,1,2,0:0:0:0:
317,167,146451,6,0,L|180:171,1,100,8|2,1:0|0:0,0:0:0:0:
416,239,146712,2,0,P|485:202|493:67,1,200,8|8,0:0|1:0,0:0:0:0:
307,73,147104,1,2,0:0:0:0:
403,75,147234,1,8,0:0:0:0:
199,190,147364,6,0,P|135:148|231:89,1,200,2|2,0:0|0:0,0:0:0:0:
307,73,147756,1,8,0:0:0:0:
97,100,147886,2,0,L|320:98,1,200,2|2,0:0|0:0,0:0:0:0:
27,142,148278,2,0,L|27:23,1,100,8|2,0:0|0:0,0:0:0:0:
297,106,148538,6,0,L|190:106,1,100,8|2,1:0|0:0,0:0:0:0:
308,143,148799,2,0,L|422:141,1,100,8|2,0:0|0:0,0:0:0:0:
190,218,149060,1,8,1:0:0:0:
295,187,149191,1,2,0:0:0:0:
190,218,149321,1,8,0:0:0:0:
295,187,149452,1,2,0:0:0:0:
59,209,149582,6,0,L|58:323,1,100,2|0,0:0|0:0,0:0:0:0:
294,320,149843,2,0,L|293:220,1,100,2|0,0:0|0:0,0:0:0:0:
72,203,150104,2,0,L|76:121,1,50,2|2,0:0|0:0,0:0:0:0:
136,105,150234,2,0,L|226:79,1,50,2|2,0:0|0:0,0:0:0:0:
394,96,150364,2,0,L|466:95,1,50,8|2,0:0|0:0,0:0:0:0:
443,95,150495,2,0,L|393:95,1,50,2|2,0:0|0:0,0:0:0:0:
108,204,150625,6,0,L|96:112,1,50,4|0,0:0|0:0,0:0:0:0:
156,104,150756,2,0,L|224:94,1,50,0|0,0:0|0:0,0:0:0:0:
408,188,150886,2,0,L|478:186,1,50,8|0,0:0|0:0,0:0:0:0:
204,175,151017,2,0,L|152:169,1,50,0|0,0:0|0:0,0:0:0:0:
418,273,151147,6,0,L|422:178,1,50,2|0,0:0|0:0,0:0:0:0:
369,158,151278,2,0,L|291:160,1,50,2|0,0:0|0:0,0:0:0:0:
121,202,151408,2,0,L|207:199,1,50,8|0,0:0|0:0,0:0:0:0:
403,121,151538,2,0,L|317:118,1,50,0|0,0:0|0:0,0:0:0:0:
114,199,151669,6,0,L|30:203,1,50,2|0,0:0|0:0,0:0:0:0:
110,132,151800,2,0,L|172:128,1,50,0|0,0:0|0:0,0:0:0:0:
464,127,151930,2,0,L|391:109,1,50,8|0,0:0|0:0,0:0:0:0:
206,56,152061,2,0,L|294:42,1,50,0|0,0:0|0:0,0:0:0:0:
427,201,152191,6,0,L|486:201,1,50,2|0,0:0|0:0,0:0:0:0:
416,116,152322,2,0,L|338:118,1,50,2|0,0:0|0:0,0:0:0:0:
188,186,152452,2,0,L|138:187,1,50,8|0,0:0|0:0,0:0:0:0:
389,134,152583,2,0,L|340:136,1,50,2|2,0:0|0:0,0:0:0:0:
90,220,152712,6,0,P|19:169|90:131,1,200,4|0,0:0|0:0,0:0:0:0:
342,217,153104,2,0,P|413:166|342:128,1,200,4|0,0:0|0:0,0:0:0:0:
89,130,153495,6,0,B|289:129|289:129|169:127,1,300,4|2,0:0|0:0,0:0:0:0:
439,20,154017,2,0,L|441:152,1,100,8|0,0:0|0:0,0:0:0:0:
225,133,154278,2,0,L|145:127,1,50,2|2,0:0|0:0,0:0:0:0:
366,140,154408,2,0,L|416:144,1,50,2|2,0:0|0:0,0:0:0:0:
200,168,154538,2,0,L|150:171,1,50,2|2,0:0|0:0,0:0:0:0:
444,168,154668,2,0,L|395:172,1,50,2|2,0:0|0:0,0:0:0:0:
188,209,154799,6,0,L|54:209,1,100,4|2,0:0|0:0,0:0:0:0:
296,211,155060,2,0,L|395:213,1,100,8|2,0:0|0:0,0:0:0:0:
278,212,155321,2,0,L|278:102,1,100,2|2,0:0|0:0,0:0:0:0:
477,116,155582,2,0,L|476:215,1,100,8|0,0:0|0:0,0:0:0:0:
267,68,155843,6,0,L|395:69,1,100,2|2,0:0|0:0,0:0:0:0:
156,58,156104,2,0,L|153:183,1,100,8|0,0:0|0:0,0:0:0:0:
48,159,156364,2,0,L|45:59,1,100,2|2,0:0|0:0,0:0:0:0:
263,103,156625,2,0,L|391:96,1,100,8|0,0:0|0:0,0:0:0:0:
149,189,156886,6,0,P|58:156|43:25,1,200,2|8,0:0|0:0,0:0:0:0:
133,64,157278,1,0,0:0:0:0:
367,66,157408,2,0,L|480:68,1,100,2|2,0:0|0:0,0:0:0:0:
253,148,157669,2,0,L|148:148,1,100,8|0,0:0|0:0,0:0:0:0:
364,141,157930,5,4,0:0:0:0:
146,136,158060,1,8,0:0:0:0:
364,141,158191,2,0,L|464:141,1,100,0|2,0:0|0:0,0:0:0:0:
246,156,158451,1,8,0:0:0:0:
468,162,158581,1,2,0:0:0:0:
246,156,158712,2,0,L|141:156,1,100,0|2,0:0|0:0,0:0:0:0:
347,240,158973,6,0,P|413:220|336:163,1,200,8|2,0:0|0:0,0:0:0:0:
246,156,159364,1,0,0:0:0:0:
380,152,159495,2,0,L|383:39,1,100,2|0,0:0|0:0,0:0:0:0:
258,54,159756,2,0,L|148:54,1,100,2|0,0:0|0:0,0:0:0:0:
365,79,160017,5,2,0:0:0:0:
272,74,160147,2,0,L|150:72,2,100,0|2|0,0:0|0:0|0:0,0:0:0:0:
140,125,160538,2,0,L|152:12,1,100,2|0,0:0|0:0,0:0:0:0:
257,33,160799,2,0,L|357:36,1,100,2|0,0:0|0:0,0:0:0:0:
140,147,161060,6,0,P|78:74|151:46,1,200,2|2,0:0|0:0,0:0:0:0:
247,47,161451,1,0,0:0:0:0:
374,120,161582,2,0,L|274:119,1,100,2|0,0:0|0:0,0:0:0:0:
375,129,161843,2,0,L|477:129,1,100,2|0,0:0|0:0,0:0:0:0:
268,136,162104,6,0,P|291:59|426:52,1,200,2|2,0:0|0:0,0:0:0:0:
305,34,162495,1,0,0:0:0:0:
178,54,162625,2,0,L|277:54,1,100,2|0,0:0|0:0,0:0:0:0:
377,52,162886,2,0,L|277:54,1,100,2|0,0:0|0:0,0:0:0:0:
70,158,163147,6,0,L|67:45,1,100,2|0,0:0|0:0,0:0:0:0:
198,61,163408,2,0,L|195:160,1,100,2|0,0:0|0:0,0:0:0:0:
48,151,163669,2,0,L|153:139,1,100,2|0,0:0|0:0,0:0:0:0:
249,94,163930,2,0,L|144:82,1,100,2|0,0:0|0:0,0:0:0:0:
368,81,164191,5,2,0:0:0:0:
272,85,164321,1,0,0:0:0:0:
391,99,164451,2,0,L|386:-6,1,100,2|0,0:0|0:0,0:0:0:0:
283,20,164712,2,0,L|183:27,1,100,2|0,0:0|0:0,0:0:0:0:
288,56,164973,2,0,L|387:51,1,100,2|0,0:0|0:0,0:0:0:0:
176,192,165234,6,0,P|124:170|200:96,1,200,2|2,0:0|0:0,0:0:0:0:
267,103,165625,1,0,0:0:0:0:
160,145,165756,2,0,L|36:145,1,100,2|0,0:0|0:0,0:0:0:0:
179,100,166017,2,0,L|281:92,1,100,2|0,0:0|0:0,0:0:0:0:
63,235,166278,6,0,L|44:104,1,100,2|2,0:0|0:0,0:0:0:0:
110,136,166473,1,2,0:0:0:0:
295,134,166538,2,0,L|185:139,1,100,2|2,0:0|0:0,0:0:0:0:
408,131,166799,2,0,L|407:31,1,100,2|0,0:0|0:0,0:0:0:0:
272,26,167060,2,0,L|271:125,1,100,2|0,0:0|0:0,0:0:0:0:
490,146,167321,6,0,L|361:141,1,100,6|0,0:0|0:0,0:0:0:0:
498,140,167582,2,0,L|486:2,1,100,2|0,0:0|0:0,0:0:0:0:
384,43,167843,2,0,L|282:51,1,100,2|0,0:0|0:0,0:0:0:0:
284,50,168104,2,0,L|384:43,1,100,2|0,0:0|0:0,0:0:0:0:
178,195,168364,6,0,L|175:57,1,100,2|0,0:0|0:0,0:0:0:0:
287,89,168625,2,0,L|416:85,1,100,2|0,0:0|0:0,0:0:0:0:
288,143,168886,2,0,L|159:139,1,100,2|0,0:0|0:0,0:0:0:0:
402,201,169147,2,0,L|400:62,1,100,2|0,0:0|0:0,0:0:0:0:
191,72,169408,6,0,L|310:75,1,100,2|0,0:0|0:0,0:0:0:0:
187,109,169669,2,0,L|68:112,1,100,2|0,0:0|0:0,0:0:0:0:
315,213,169930,2,0,L|295:75,1,100,2|0,0:0|0:0,0:0:0:0:
191,122,170191,2,0,L|78:129,1,100,2|0,0:0|0:0,0:0:0:0:
297,182,170451,6,0,L|396:179,1,100,2|0,0:0|0:0,0:0:0:0:
293,156,170712,2,0,L|193:153,1,100,2|0,0:0|0:0,0:0:0:0:
398,126,170973,2,0,L|497:123,1,100,2|0,0:0|0:0,0:0:0:0:
498,74,171234,2,0,L|398:71,1,100,2|0,0:0|0:0,0:0:0:0:
155,72,171495,5,2,0:0:0:0:
155,72,171626,1,0,0:0:0:0:
266,75,171756,2,0,L|166:72,1,100,2|0,0:0|0:0,0:0:0:0:
353,123,172017,2,0,L|453:120,1,100,2|0,0:0|0:0,0:0:0:0:
352,174,172278,2,0,L|252:171,1,100,2|0,0:0|0:0,0:0:0:0:
476,233,172538,6,0,L|476:114,1,100,2|0,0:0|0:0,0:0:0:0:
380,120,172799,2,0,L|280:117,1,100,2|0,0:0|0:0,0:0:0:0:
57,113,173060,2,0,L|168:116,1,100,2|0,0:0|0:0,0:0:0:0:
156,115,173321,2,0,L|56:112,1,100,2|0,0:0|0:0,0:0:0:0:
362,54,173582,6,0,L|245:45,3,100,2|2|2|2,0:0|0:0|0:0|0:0,0:0:0:0:
39,143,174104,2,0,L|156:134,3,100,2|2|2|2,0:0|0:0|0:0|0:0,0:0:0:0:
389,191,174625,6,0,P|472:143|380:143,2,239.999992675781,2|8|8,0:0|0:0|0:0,0:0:0:0:
159,203,175669,6,0,L|160:70,1,100,4|0,0:0|0:0,0:0:0:0:
272,105,175930,2,0,L|272:204,1,100,2|0,0:0|0:0,0:0:0:0:
47,113,176191,2,0,L|162:112,1,100,8|0,0:0|0:0,0:0:0:0:
251,147,176451,2,0,L|136:146,1,100,2|0,0:0|0:0,0:0:0:0:
374,99,176713,6,0,L|374:199,1,100,0|0,1:0|0:0,0:0:0:0:
261,193,176973,2,0,L|261:293,1,100,2|0,0:0|0:0,0:0:0:0:
473,293,177235,1,8,0:0:0:0:
473,293,177364,1,2,0:0:0:0:
355,293,177495,2,0,L|352:170,1,100,2|0,0:0|0:0,0:0:0:0:
130,212,177756,6,0,L|17:207,1,100,0|0,1:0|0:0,0:0:0:0:
32,174,178017,2,0,L|145:169,1,100,2|0,0:0|0:0,0:0:0:0:
339,165,178278,1,8,0:0:0:0:
236,166,178408,1,0,0:0:0:0:
355,164,178539,2,0,L|354:41,1,100,2|0,0:0|0:0,0:0:0:0:
122,66,178800,6,0,L|222:67,1,100,2|0,0:0|0:0,0:0:0:0:
100,66,179061,1,2,0:0:0:0:
94,115,179126,1,0,0:0:0:0:
89,165,179191,1,0,0:0:0:0:
298,165,179321,2,0,L|198:166,1,100,2|0,0:0|0:0,0:0:0:0:
320,165,179582,1,8,0:0:0:0:
326,214,179647,1,0,0:0:0:0:
331,264,179712,1,0,0:0:0:0:
80,229,179843,6,0,L|74:100,1,100,4|0,0:0|0:0,0:0:0:0:
184,121,180104,2,0,L|288:116,1,100,2|0,0:0|0:0,0:0:0:0:
36,140,180364,2,0,L|36:-3,1,100,8|0,0:0|0:0,0:0:0:0:
141,40,180626,2,0,L|145:139,1,100,2|0,0:0|0:0,0:0:0:0:
353,147,180886,6,0,L|472:144,1,100,0|0,1:0|0:0,0:0:0:0:
353,147,181147,2,0,L|354:30,1,100,2|0,0:0|0:0,0:0:0:0:
146,148,181408,1,8,0:0:0:0:
54,149,181538,1,0,0:0:0:0:
146,148,181669,2,0,L|143:30,1,100,2|0,0:0|0:0,0:0:0:0:
356,96,181930,6,0,L|405:96,1,50,4|0,0:0|0:0,0:0:0:0:
236,100,182061,2,0,L|186:103,1,50,0|0,0:0|0:0,0:0:0:0:
358,142,182191,2,0,L|466:86,1,100,2|4,0:0|0:0,0:0:0:0:
394,94,182387,5,0,0:0:0:0:
224,128,182452,2,0,L|172:132,1,50,0|0,0:0|0:0,0:0:0:0:
358,174,182582,2,0,L|482:110,1,100,2|4,0:0|0:0,0:0:0:0:
394,170,182778,5,0,0:0:0:0:
216,152,182843,2,0,L|166:153,1,50,0|0,0:0|0:0,0:0:0:0:
358,214,182974,2,0,L|470:154,1,100,2|4,0:0|0:0,0:0:0:0:
394,222,183169,5,0,0:0:0:0:
200,176,183235,2,0,L|112:180,1,50,0|0,0:0|0:0,0:0:0:0:
366,254,183365,2,0,L|463:246,1,50,2|0,0:0|0:0,0:0:0:0:
179,112,183496,5,8,0:0:0:0:
155,121,183528,1,0,0:0:0:0:
139,139,183561,1,0,0:0:0:0:
134,163,183593,1,0,0:0:0:0:
141,187,183626,1,0,0:0:0:0:
159,204,183659,1,0,0:0:0:0:
183,210,183691,1,0,0:0:0:0:
352,165,183756,5,8,0:0:0:0:
375,174,183788,1,0,0:0:0:0:
391,192,183821,1,0,0:0:0:0:
396,216,183853,1,0,0:0:0:0:
389,240,183886,1,0,0:0:0:0:
371,257,183919,1,0,0:0:0:0:
347,263,183951,1,0,0:0:0:0:
136,264,184017,5,2,0:0:0:0:
160,264,184049,1,0,0:0:0:0:
184,262,184082,1,0,0:0:0:0:
352,165,184147,1,2,0:0:0:0:
380,164,184180,1,0,0:0:0:0:
400,163,184212,1,0,0:0:0:0:
184,168,184278,5,2,0:0:0:0:
156,160,184310,1,0,0:0:0:0:
128,152,184343,1,0,0:0:0:0:
352,124,184408,1,2,0:0:0:0:
376,100,184441,1,0,0:0:0:0:
388,72,184473,1,0,0:0:0:0:
164,52,184538,6,0,L|250:111,1,100,8|0,0:0|0:0,0:0:0:0:
164,52,184799,1,2,0:0:0:0:
362,213,184929,6,0,P|355:296|228:317,1,200,2|2,0:0|0:0,0:0:0:0:
472,323,185321,2,0,L|357:323,1,100,2|2,0:0|0:0,0:0:0:0:
273,277,185581,2,0,L|391:274,1,100,8|0,0:0|0:0,0:0:0:0:
168,283,185842,2,0,L|167:169,1,100,2|0,0:0|0:0,0:0:0:0:
375,245,186103,6,0,L|229:244,2,100,2|2|2,0:0|0:0|0:0,0:0:0:0:
372,235,186495,1,2,0:0:0:0:
159,184,186625,2,0,L|57:181,1,100,8|0,0:0|0:0,0:0:0:0:
264,182,186886,1,2,0:0:0:0:
58,202,187016,6,0,P|130:221|175:350,1,200,2|2,0:0|0:0,0:0:0:0:
421,319,187408,2,0,L|288:321,1,100,2|2,0:0|0:0,0:0:0:0:
308,258,187668,2,0,L|441:260,1,100,8|0,0:0|0:0,0:0:0:0:
79,328,187929,2,0,L|80:207,1,100,2|0,0:0|0:0,0:0:0:0:
288,229,188190,6,0,L|188:228,2,100,2|2|2,0:0|0:0|0:0,0:0:0:0:
288,229,188581,1,2,0:0:0:0:
71,173,188712,2,0,L|170:175,1,100,8|0,0:0|0:0,0:0:0:0:
385,173,188973,1,2,0:0:0:0:
170,175,189103,6,0,P|98:201|93:323,1,200,2|2,0:0|0:0,0:0:0:0:
303,315,189495,2,0,L|425:317,1,100,2|2,0:0|0:0,0:0:0:0:
308,257,189755,2,0,L|200:262,1,100,8|0,0:0|0:0,0:0:0:0:
440,264,190016,2,0,L|446:145,1,100,0|0,0:0|0:0,0:0:0:0:
189,164,190277,6,0,P|125:173|111:284,1,150,4|0,0:0|0:0,0:0:0:0:
96,276,190538,1,0,0:0:0:0:
128,304,190603,1,0,0:0:0:0:
329,164,190668,6,0,P|387:171|437:265,1,150,4|0,0:0|0:0,0:0:0:0:
440,264,190929,1,0,0:0:0:0:
416,296,190994,1,0,0:0:0:0:
189,164,191060,6,0,P|148:230|213:267,1,150,4|0,0:0|0:0,0:0:0:0:
236,269,191321,1,0,0:0:0:0:
193,269,191386,1,0,0:0:0:0:
57,265,191451,1,2,0:0:0:0:
266,189,191581,6,0,L|404:188,1,100,2|0,0:0|0:0,0:0:0:0:
142,192,191842,2,0,L|136:315,1,100,2|0,0:0|0:0,0:0:0:0:
346,265,192103,6,0,L|430:277,1,50,2|2,0:0|0:0,0:0:0:0:
205,240,192234,2,0,L|150:235,1,50,2|2,0:0|0:0,0:0:0:0:
344,208,192364,6,0,L|458:209,1,100,4|2,0:0|0:0,0:0:0:0:
181,223,192625,1,8,0:0:0:0:
383,219,192756,2,0,L|381:98,1,100,2|2,0:0|0:0,0:0:0:0:
182,117,193017,1,2,0:0:0:0:
381,119,193147,2,0,L|260:117,1,100,8|2,0:0|0:0,0:0:0:0:
468,117,193408,6,0,L|467:217,1,100,2|2,0:0|0:0,0:0:0:0:
265,117,193669,1,8,0:0:0:0:
468,117,193799,2,0,L|359:117,1,100,2|2,0:0|0:0,0:0:0:0:
162,117,194060,1,2,0:0:0:0:
363,194,194191,2,0,L|242:191,1,100,8|2,0:0|0:0,0:0:0:0:
65,140,194451,6,0,L|192:137,1,100,2|2,0:0|0:0,0:0:0:0:
361,131,194712,1,8,0:0:0:0:
87,197,194843,2,0,P|83:136|194:64,1,200,2|2,0:0|0:0,0:0:0:0:
426,147,195234,1,8,0:0:0:0:
426,184,195364,1,2,0:0:0:0:
188,143,195495,5,2,0:0:0:0:
426,147,195625,2,0,L|326:148,1,100,2|8,0:0|0:0,0:0:0:0:
101,186,195886,2,0,P|198:154|228:51,1,200,2|2,0:0|0:0,0:0:0:0:
37,69,196278,2,0,L|146:69,1,100,8|2,0:0|0:0,0:0:0:0:
416,70,196538,6,0,L|307:70,2,100,2|2|8,0:0|0:0|0:0,0:0:0:0:
210,113,196930,2,0,P|304:120|347:245,1,200,2|2,0:0|0:0,0:0:0:0:
136,203,197321,2,0,L|9:202,1,100,8|2,0:0|0:0,0:0:0:0:
297,290,197582,6,0,L|400:288,1,100,2|2,0:0|0:0,0:0:0:0:
188,282,197843,1,8,0:0:0:0:
411,287,197973,2,0,P|405:212|287:164,1,200,2|2,0:0|0:0,0:0:0:0:
499,163,198364,2,0,L|497:58,1,100,8|2,0:0|0:0,0:0:0:0:
426,61,198560,1,0,0:0:0:0:
264,59,198625,6,0,L|185:57,1,50,2|2,0:0|0:0,0:0:0:0:
402,102,198756,2,0,L|481:100,1,50,2|2,0:0|0:0,0:0:0:0:
262,94,198886,2,0,L|134:94,1,100,2|2,0:0|0:0,0:0:0:0:
214,102,199082,5,2,0:0:0:0:
427,138,199147,2,0,L|476:139,1,50,2|2,0:0|0:0,0:0:0:0:
262,150,199278,2,0,L|162:153,1,100,2|2,0:0|0:0,0:0:0:0:
210,178,199473,5,2,0:0:0:0:
454,173,199538,2,0,L|504:175,1,50,2|2,0:0|0:0,0:0:0:0:
266,210,199669,2,0,L|166:213,1,100,2|2,0:0|0:0,0:0:0:0:
166,212,199864,1,2,0:0:0:0:
294,282,199930,5,2,0:0:0:0:
319,281,199962,1,0,0:0:0:0:
344,281,199995,1,2,0:0:0:0:
146,282,200060,1,2,0:0:0:0:
122,281,200092,1,0,0:0:0:0:
97,281,200125,1,0,0:0:0:0:
298,334,200191,5,2,0:0:0:0:
323,329,200223,1,0,0:0:0:0:
345,318,200256,1,2,0:0:0:0:
363,300,200288,1,0,0:0:0:0:
374,278,200321,1,2,0:0:0:0:
377,254,200354,1,0,0:0:0:0:
372,229,200386,1,2,0:0:0:0:
146,218,200451,2,0,P|71:193|51:101,1,150,8|0,0:0|0:0,0:0:0:0:
336,84,200712,5,4,0:0:0:0:
383,94,200778,1,0,0:0:0:0:
410,182,200843,1,2,0:0:0:0:
411,139,200908,1,0,0:0:0:0:
231,171,200973,2,0,L|171:166,1,50,2|0,0:0|0:0,0:0:0:0:
409,208,201104,2,0,L|360:212,1,50,2|0,0:0|0:0,0:0:0:0:
185,228,201234,5,8,0:0:0:0:
131,217,201300,1,0,0:0:0:0:
103,177,201365,1,2,0:0:0:0:
113,127,201430,1,0,0:0:0:0:
307,131,201495,2,0,L|357:131,1,50,2|0,0:0|0:0,0:0:0:0:
113,93,201626,2,0,L|163:93,1,50,2|0,0:0|0:0,0:0:0:0:
379,223,201756,5,8,1:0:0:0:
427,183,201822,1,0,0:0:0:0:
415,129,201887,1,2,0:0:0:0:
368,111,201952,1,0,0:0:0:0:
171,174,202017,2,0,L|111:169,1,50,2|0,0:0|0:0,0:0:0:0:
379,237,202148,2,0,L|428:233,1,50,2|0,0:0|0:0,0:0:0:0:
173,308,202278,5,8,0:0:0:0:
148,245,202344,1,0,0:0:0:0:
196,198,202409,1,2,0:0:0:0:
259,187,202474,1,0,0:0:0:0:
72,192,202539,2,0,L|12:187,1,50,2|0,0:0|0:0,0:0:0:0:
212,169,202669,2,0,L|272:164,1,50,2|0,0:0|0:0,0:0:0:0:
18,149,202799,6,0,L|20:84,1,50,8|0,1:0|0:0,0:0:0:0:
96,88,202930,2,0,L|156:83,1,50,2|0,0:0|0:0,0:0:0:0:
348,99,203060,2,0,L|288:94,1,50,2|0,0:0|0:0,0:0:0:0:
116,139,203191,2,0,L|176:134,1,50,2|0,0:0|0:0,0:0:0:0:
375,170,203321,6,0,L|315:165,1,50,8|0,0:0|0:0,0:0:0:0:
106,169,203452,2,0,L|166:164,1,50,2|0,0:0|0:0,0:0:0:0:
390,204,203582,2,0,L|330:199,1,50,2|0,0:0|0:0,0:0:0:0:
91,204,203713,2,0,L|83:135,1,50,2|0,0:0|0:0,0:0:0:0:
336,194,203843,5,8,1:0:0:0:
397,197,203908,1,0,0:0:0:0:
113,211,203973,1,2,0:0:0:0:
55,213,204038,1,0,0:0:0:0:
296,224,204104,2,0,P|348:204|394:103,1,150,2|0,0:0|0:0,0:0:0:0:
227,155,204364,5,8,0:0:0:0:
57,155,204430,1,0,0:0:0:0:
207,153,204495,1,0,0:0:0:0:
250,127,204560,1,0,0:0:0:0:
402,241,204625,2,0,P|477:197|483:116,1,150,8|0,1:0|0:0,0:0:0:0:
227,210,204886,5,4,0:0:0:0:
178,194,204952,1,0,0:0:0:0:
149,142,205017,1,2,0:0:0:0:
162,95,205082,1,0,0:0:0:0:
396,97,205147,2,0,L|346:97,1,50,2|0,0:0|0:0,0:0:0:0:
162,95,205278,2,0,L|112:95,1,50,2|0,0:0|0:0,0:0:0:0:
348,132,205408,5,8,0:0:0:0:
397,136,205474,1,0,0:0:0:0:
437,176,205539,1,2,0:0:0:0:
430,232,205604,1,0,0:0:0:0:
209,214,205669,2,0,L|142:214,1,50,2|0,0:0|0:0,0:0:0:0:
371,216,205800,2,0,L|321:216,1,50,2|0,0:0|0:0,0:0:0:0:
132,211,205930,5,8,1:0:0:0:
83,193,205996,1,0,0:0:0:0:
53,145,206061,1,2,0:0:0:0:
65,94,206126,1,0,0:0:0:0:
312,88,206191,2,0,L|362:88,1,50,2|0,0:0|0:0,0:0:0:0:
144,88,206322,2,0,L|200:88,1,50,2|0,0:0|0:0,0:0:0:0:
381,88,206452,5,8,0:0:0:0:
432,104,206518,1,0,0:0:0:0:
467,149,206583,1,2,0:0:0:0:
470,208,206648,1,0,0:0:0:0:
306,215,206713,2,0,L|256:216,1,50,2|0,0:0|0:0,0:0:0:0:
461,213,206844,2,0,L|412:214,1,50,2|0,0:0|0:0,0:0:0:0:
154,222,206973,6,0,P|82:200|77:112,1,150,2|0,0:0|0:0,0:0:0:0:
142,125,207299,1,0,0:0:0:0:
328,101,207364,1,8,0:0:0:0:
248,101,207495,1,0,0:0:0:0:
447,101,207625,1,0,0:0:0:0:
447,101,207658,1,0,0:0:0:0:
447,101,207691,1,0,0:0:0:0:
222,250,207756,6,0,P|172:196|241:182,1,150,2|0,0:0|0:0,0:0:0:0:
144,168,208082,1,0,0:0:0:0:
308,171,208147,1,8,0:0:0:0:
308,171,208278,1,0,0:0:0:0:
66,170,208408,1,0,0:0:0:0:
66,170,208441,1,0,0:0:0:0:
66,170,208474,1,0,0:0:0:0:
308,171,208538,1,2,0:0:0:0:
107,202,208669,2,0,P|106:111|286:23,1,300,2|0,0:0|0:0,0:0:0:0:
