osu file format v14

[General]
AudioFilename: audio.mp3
AudioLeadIn: 0
PreviewTime: 50327
Countdown: 0
SampleSet: Normal
StackLeniency: 0.7
Mode: 1
LetterboxInBreaks: 0
WidescreenStoryboard: 1

[Editor]
DistanceSpacing: 0.3
BeatDivisor: 2
GridSize: 32
TimelineZoom: 0.7000002

[Metadata]
Title:People People feat. Nanahira
TitleUnicode:ピポピポ -People People- feat. ななひら
Artist:Neko Hacker
ArtistUnicode:Neko Hacker
Creator:Cynplytholowazy
Version:Kantan
Source:
Tags:Featured Artist FA osu! ピポピポチャレンジ pipopipo challenge ネコハッカー Sera Kassan かっさん confetto Neko Hacker Ⅱ: Stray Kawaii Future Rock Jrock J-rock Electronic Japanese BlackBN BlackBq iRedi
BeatmapID:3887904
BeatmapSetID:1884578

[Difficulty]
HPDrainRate:7.2
CircleSize:10
OverallDifficulty:3
ApproachRate:10
SliderMultiplier:1.3
SliderTickRate:1

[Events]
//Background and Video events
0,0,"maxresdefault.jpg",0,0
//Break Periods
2,125789,133487
//Storyboard Layer 0 (Background)
//Storyboard Layer 1 (Fail)
//Storyboard Layer 2 (Pass)
//Storyboard Layer 3 (Foreground)
//Storyboard Layer 4 (Overlay)
//Storyboard Sound Samples

[TimingPoints]
-3802,260.869565217391,4,1,0,90,1,0
16937,-100,4,1,0,80,0,0
50328,-100,4,1,0,90,0,0
50458,-100,4,1,0,90,0,1
58806,-100,4,1,0,90,0,0
59328,-100,4,1,0,90,0,1
67154,-100,4,1,0,90,0,0
75371,-100,4,1,0,80,0,0
108763,-100,4,1,0,90,0,0
108893,-100,4,1,0,90,0,1
117241,-100,4,1,0,90,0,0
117763,-100,4,1,0,90,0,1
125589,-100,4,1,0,90,0,0
125719,-100,4,1,0,70,0,0
133806,-100,4,1,0,80,0,0
141958,-100,4,1,0,90,0,0
159111,-100,4,1,0,80,0,0
175545,-100,4,1,0,75,0,0
181871,-100,4,1,0,90,0,0
181937,-100,4,1,0,90,0,1
184024,-100,4,1,0,90,0,0
184545,-100,4,1,0,90,0,1
192371,-100,4,1,0,90,0,0

[HitObjects]
256,192,371,5,6,0:0:0:0:
256,192,1154,1,0,0:0:0:0:
256,192,1415,1,2,0:0:0:0:
256,192,1937,1,0,0:0:0:0:
256,192,2458,1,2,0:0:0:0:
256,192,3241,1,0,0:0:0:0:
256,192,3502,1,2,0:0:0:0:
256,192,4024,1,2,0:0:0:0:
256,192,4545,1,2,0:0:0:0:
256,192,5328,1,0,0:0:0:0:
256,192,5589,1,2,0:0:0:0:
256,192,6111,1,0,0:0:0:0:
256,192,6632,1,0,0:0:0:0:
256,192,7024,1,0,0:0:0:0:
256,192,7415,1,0,0:0:0:0:
256,192,7806,1,0,0:0:0:0:
256,192,8197,1,2,0:0:0:0:
256,192,8719,1,4,0:0:0:0:
256,192,9502,1,0,0:0:0:0:
256,192,9763,1,2,0:0:0:0:
256,192,10284,1,0,0:0:0:0:
256,192,10806,1,2,0:0:0:0:
256,192,11328,1,0,0:0:0:0:
256,192,11589,1,0,0:0:0:0:
256,192,11850,1,2,0:0:0:0:
256,192,12371,1,0,0:0:0:0:
256,192,12632,1,2,0:0:0:0:
256,192,12893,1,4,0:0:0:0:
256,192,13676,1,0,0:0:0:0:
256,192,13937,1,2,0:0:0:0:
256,192,14458,1,0,0:0:0:0:
256,192,14980,1,2,0:0:0:0:
256,192,15371,1,0,0:0:0:0:
256,192,15763,1,2,0:0:0:0:
256,192,16154,1,0,0:0:0:0:
256,192,16545,1,2,0:0:0:0:
256,192,17067,1,4,0:0:0:0:
256,192,18111,1,2,0:0:0:0:
256,192,18632,1,0,0:0:0:0:
256,192,19154,1,2,0:0:0:0:
256,192,19545,1,2,0:0:0:0:
256,192,19937,1,0,0:0:0:0:
256,192,20328,1,2,0:0:0:0:
256,192,20719,1,0,0:0:0:0:
256,192,21241,1,2,0:0:0:0:
256,192,22284,1,0,0:0:0:0:
256,192,22806,1,2,0:0:0:0:
256,192,23328,1,0,0:0:0:0:
256,192,23719,1,0,0:0:0:0:
256,192,24111,1,2,0:0:0:0:
256,192,24502,1,0,0:0:0:0:
256,192,24893,1,2,0:0:0:0:
256,192,25415,1,0,0:0:0:0:
256,192,26458,1,2,0:0:0:0:
256,192,26980,1,0,0:0:0:0:
256,192,27502,1,2,0:0:0:0:
256,192,27893,1,2,0:0:0:0:
256,192,28284,1,0,0:0:0:0:
256,192,28676,1,2,0:0:0:0:
256,192,29067,1,0,0:0:0:0:
256,192,29589,1,2,0:0:0:0:
256,192,30632,1,2,0:0:0:0:
256,192,31154,1,0,0:0:0:0:
256,192,31676,1,6,0:0:0:0:
256,192,32067,1,0,0:0:0:0:
256,192,32458,1,0,0:0:0:0:
256,192,32850,1,2,0:0:0:0:
256,192,33241,1,2,0:0:0:0:
256,192,33763,1,4,0:0:0:0:
256,192,34806,1,2,0:0:0:0:
256,192,35328,1,0,0:0:0:0:
256,192,35850,1,2,0:0:0:0:
256,192,36371,1,2,0:0:0:0:
256,192,36893,1,0,0:0:0:0:
256,192,37937,1,2,0:0:0:0:
256,192,38458,1,0,0:0:0:0:
256,192,38980,1,2,0:0:0:0:
256,192,39502,1,2,0:0:0:0:
256,192,40024,1,0,0:0:0:0:
256,192,40545,1,0,0:0:0:0:
256,192,41067,1,2,0:0:0:0:
256,192,42111,1,6,0:0:0:0:
256,192,42502,1,0,0:0:0:0:
256,192,42893,1,0,0:0:0:0:
256,192,43154,1,2,0:0:0:0:
256,192,43545,1,0,0:0:0:0:
256,192,44197,1,2,0:0:0:0:
256,192,44589,1,2,0:0:0:0:
256,192,44980,1,0,0:0:0:0:
256,192,45241,1,2,0:0:0:0:
256,192,45763,1,0,0:0:0:0:
256,192,46284,1,6,0:0:0:0:
256,192,46806,1,2,0:0:0:0:
256,192,47067,1,0,0:0:0:0:
256,192,47328,1,2,0:0:0:0:
256,192,47589,1,2,0:0:0:0:
256,192,47850,1,0,0:0:0:0:
256,192,48111,1,0,0:0:0:0:
256,192,48371,1,6,0:0:0:0:
256,192,50458,1,6,0:0:0:0:
256,192,50980,1,2,0:0:0:0:
256,192,51241,1,0,0:0:0:0:
256,192,51502,1,2,0:0:0:0:
256,192,51763,1,2,0:0:0:0:
256,192,52024,1,0,0:0:0:0:
256,192,52545,1,2,0:0:0:0:
256,192,53067,1,2,0:0:0:0:
256,192,53328,1,0,0:0:0:0:
256,192,53589,1,2,0:0:0:0:
256,192,54632,1,6,0:0:0:0:
256,192,54893,1,0,0:0:0:0:
256,192,55154,1,2,0:0:0:0:
256,192,55415,1,2,0:0:0:0:
256,192,55676,1,0,0:0:0:0:
256,192,55937,1,0,0:0:0:0:
256,192,56197,1,2,0:0:0:0:
256,192,56719,1,6,0:0:0:0:
256,192,57111,1,6,0:0:0:0:
256,192,57502,1,6,0:0:0:0:
256,192,57893,1,6,0:0:0:0:
256,192,58284,1,6,0:0:0:0:
256,192,59328,1,6,0:0:0:0:
256,192,59719,1,2,0:0:0:0:
256,192,60111,1,0,0:0:0:0:
256,192,60371,1,2,0:0:0:0:
256,192,60893,1,2,0:0:0:0:
256,192,61415,1,0,0:0:0:0:
256,192,61806,1,2,0:0:0:0:
256,192,62458,1,2,0:0:0:0:
256,192,62980,1,6,0:0:0:0:
256,192,63502,1,0,0:0:0:0:
256,192,63893,1,2,0:0:0:0:
256,192,64284,1,2,0:0:0:0:
256,192,64545,1,0,0:0:0:0:
256,192,65067,1,6,0:0:0:0:
256,192,65458,1,6,0:0:0:0:
256,192,65850,1,6,0:0:0:0:
256,192,66371,1,4,0:0:0:0:
256,192,66632,1,6,0:0:0:0:
256,192,67154,1,6,0:0:0:0:
256,192,68197,1,0,0:0:0:0:
256,192,68719,1,0,0:0:0:0:
256,192,69241,1,2,0:0:0:0:
256,192,69502,1,0,0:0:0:0:
256,192,69763,1,2,0:0:0:0:
256,192,70284,1,0,0:0:0:0:
256,192,70545,1,0,0:0:0:0:
256,192,70806,1,2,0:0:0:0:
256,192,71328,1,4,0:0:0:0:
256,192,72371,1,0,0:0:0:0:
256,192,72893,1,0,0:0:0:0:
256,192,73415,1,2,0:0:0:0:
256,192,73806,1,0,0:0:0:0:
256,192,74197,1,2,0:0:0:0:
256,192,74589,1,0,0:0:0:0:
256,192,74980,1,2,0:0:0:0:
256,192,75502,1,4,0:0:0:0:
256,192,76024,1,2,0:0:0:0:
256,192,77067,1,2,0:0:0:0:
256,192,77589,1,0,0:0:0:0:
256,192,78111,1,2,0:0:0:0:
256,192,79154,1,2,0:0:0:0:
256,192,79676,1,0,0:0:0:0:
256,192,80197,1,2,0:0:0:0:
256,192,81241,1,2,0:0:0:0:
256,192,81763,1,0,0:0:0:0:
256,192,82284,1,2,0:0:0:0:
256,192,83328,1,2,0:0:0:0:
256,192,83850,1,4,0:0:0:0:
256,192,84371,1,2,0:0:0:0:
256,192,84763,1,0,0:0:0:0:
256,192,85415,1,2,0:0:0:0:
256,192,85937,1,0,0:0:0:0:
256,192,86458,1,2,0:0:0:0:
256,192,86850,1,0,0:0:0:0:
256,192,87502,1,2,0:0:0:0:
256,192,88024,1,0,0:0:0:0:
256,192,88545,1,2,0:0:0:0:
256,192,88937,1,0,0:0:0:0:
256,192,89589,1,2,0:0:0:0:
256,192,90111,1,0,0:0:0:0:
256,192,92197,1,4,0:0:0:0:
256,192,92719,1,0,0:0:0:0:
256,192,93241,1,2,0:0:0:0:
256,192,93502,1,2,0:0:0:0:
256,192,93763,1,0,0:0:0:0:
256,192,94284,1,2,0:0:0:0:
256,192,94806,1,0,0:0:0:0:
256,192,95067,1,0,0:0:0:0:
256,192,95328,1,2,0:0:0:0:
256,192,96371,1,2,0:0:0:0:
256,192,96893,1,0,0:0:0:0:
256,192,97415,1,2,0:0:0:0:
256,192,97676,1,2,0:0:0:0:
256,192,97937,1,0,0:0:0:0:
256,192,98458,1,2,0:0:0:0:
256,192,98980,1,2,0:0:0:0:
256,192,99241,1,0,0:0:0:0:
256,192,99502,1,2,0:0:0:0:
256,192,100545,1,6,0:0:0:0:
256,192,100937,1,0,0:0:0:0:
256,192,101328,1,0,0:0:0:0:
256,192,101589,1,2,0:0:0:0:
256,192,101980,1,0,0:0:0:0:
256,192,102632,1,2,0:0:0:0:
256,192,103024,1,2,0:0:0:0:
256,192,103415,1,0,0:0:0:0:
256,192,103676,1,2,0:0:0:0:
256,192,104197,1,0,0:0:0:0:
256,192,104719,1,6,0:0:0:0:
256,192,105241,1,2,0:0:0:0:
256,192,105502,1,0,0:0:0:0:
256,192,105763,1,2,0:0:0:0:
256,192,106024,1,2,0:0:0:0:
256,192,106284,1,0,0:0:0:0:
256,192,106545,1,0,0:0:0:0:
256,192,106806,1,6,0:0:0:0:
256,192,108893,1,6,0:0:0:0:
256,192,109415,1,2,0:0:0:0:
256,192,109676,1,0,0:0:0:0:
256,192,109937,1,2,0:0:0:0:
256,192,110197,1,2,0:0:0:0:
256,192,110458,1,0,0:0:0:0:
256,192,110980,1,2,0:0:0:0:
256,192,111502,1,2,0:0:0:0:
256,192,111763,1,0,0:0:0:0:
256,192,112024,1,2,0:0:0:0:
256,192,113067,1,6,0:0:0:0:
256,192,113328,1,0,0:0:0:0:
256,192,113589,1,2,0:0:0:0:
256,192,113850,1,2,0:0:0:0:
256,192,114111,1,0,0:0:0:0:
256,192,114371,1,0,0:0:0:0:
256,192,114632,1,2,0:0:0:0:
256,192,115154,1,6,0:0:0:0:
256,192,115545,1,6,0:0:0:0:
256,192,115937,1,6,0:0:0:0:
256,192,116328,1,6,0:0:0:0:
256,192,116719,1,6,0:0:0:0:
256,192,117763,1,6,0:0:0:0:
256,192,118154,1,2,0:0:0:0:
256,192,118545,1,0,0:0:0:0:
256,192,118806,1,2,0:0:0:0:
256,192,119328,1,2,0:0:0:0:
256,192,119850,1,0,0:0:0:0:
256,192,120241,1,2,0:0:0:0:
256,192,120893,1,2,0:0:0:0:
256,192,121415,1,6,0:0:0:0:
256,192,121937,1,0,0:0:0:0:
256,192,122328,1,2,0:0:0:0:
256,192,122719,1,2,0:0:0:0:
256,192,122980,1,0,0:0:0:0:
256,192,123502,1,6,0:0:0:0:
256,192,123893,1,6,0:0:0:0:
256,192,124284,1,6,0:0:0:0:
256,192,124806,1,4,0:0:0:0:
256,192,125067,1,6,0:0:0:0:
256,192,125589,1,6,0:0:0:0:
256,192,133937,5,6,0:0:0:0:
256,192,134980,1,0,0:0:0:0:
256,192,136024,1,2,0:0:0:0:
256,192,137067,1,0,0:0:0:0:
256,192,138111,1,2,0:0:0:0:
256,192,138632,1,2,0:0:0:0:
256,192,139154,1,0,0:0:0:0:
256,192,139676,1,0,0:0:0:0:
256,192,140197,1,2,0:0:0:0:
256,192,140458,1,0,0:0:0:0:
256,192,140719,1,2,0:0:0:0:
256,192,140980,1,2,0:0:0:0:
256,192,141241,1,0,0:0:0:0:
256,192,142284,1,4,0:0:0:0:
256,192,143067,1,0,0:0:0:0:
256,192,143328,1,2,0:0:0:0:
256,192,143850,1,0,0:0:0:0:
256,192,144371,1,2,0:0:0:0:
256,192,144893,1,0,0:0:0:0:
256,192,145415,1,2,0:0:0:0:
256,192,145676,1,0,0:0:0:0:
256,192,145937,1,2,0:0:0:0:
256,192,146197,1,2,0:0:0:0:
256,192,146458,1,0,0:0:0:0:
256,192,147371,1,2,0:0:0:0:
256,192,147632,1,2,0:0:0:0:
256,192,147893,1,2,0:0:0:0:
256,192,148545,1,0,0:0:0:0:
256,192,149067,1,2,0:0:0:0:
256,192,149328,1,0,0:0:0:0:
256,192,149589,1,2,0:0:0:0:
256,192,150632,1,6,0:0:0:0:
256,192,151154,1,0,0:0:0:0:
256,192,151415,1,0,0:0:0:0:
256,192,151676,1,2,0:0:0:0:
256,192,151937,1,0,0:0:0:0:
256,192,152197,1,2,0:0:0:0:
256,192,152719,1,4,0:0:0:0:
256,192,153111,1,4,0:0:0:0:
256,192,153502,1,6,0:0:0:0:
256,192,154806,1,4,0:0:0:0:
256,192,155328,1,0,0:0:0:0:
256,192,155850,1,2,0:0:0:0:
256,192,156111,1,0,0:0:0:0:
256,192,156371,1,2,0:0:0:0:
256,192,156632,1,2,0:0:0:0:
256,192,156893,1,0,0:0:0:0:
256,192,157415,1,0,0:0:0:0:
256,192,157937,1,6,0:0:0:0:
256,192,158980,1,4,0:0:0:0:
256,192,160024,1,2,0:0:0:0:
256,192,161067,1,0,0:0:0:0:
256,192,161589,1,2,0:0:0:0:
256,192,162111,1,0,0:0:0:0:
256,192,163154,1,0,0:0:0:0:
256,192,164197,1,2,0:0:0:0:
256,192,165241,1,2,0:0:0:0:
256,192,165763,1,0,0:0:0:0:
256,192,166284,1,2,0:0:0:0:
256,192,167328,1,6,0:0:0:0:
256,192,168371,1,2,0:0:0:0:
256,192,168893,1,0,0:0:0:0:
256,192,169415,1,2,0:0:0:0:
256,192,169937,1,2,0:0:0:0:
256,192,170458,1,0,0:0:0:0:
256,192,171502,1,0,0:0:0:0:
256,192,172024,1,0,0:0:0:0:
256,192,172545,1,2,0:0:0:0:
256,192,173589,1,2,0:0:0:0:
256,192,174111,1,0,0:0:0:0:
256,192,174632,1,2,0:0:0:0:
256,192,175676,1,6,0:0:0:0:
256,192,176719,1,2,0:0:0:0:
256,192,177241,1,0,0:0:0:0:
256,192,177763,1,2,0:0:0:0:
256,192,178806,1,2,0:0:0:0:
256,192,179850,1,6,0:0:0:0:
256,192,180893,1,2,0:0:0:0:
256,192,181415,1,0,0:0:0:0:
256,192,181937,1,6,0:0:0:0:
256,192,182328,1,6,0:0:0:0:
256,192,182719,1,6,0:0:0:0:
256,192,183111,1,6,0:0:0:0:
256,192,183502,1,6,0:0:0:0:
256,192,184545,1,6,0:0:0:0:
256,192,184937,1,2,0:0:0:0:
256,192,185328,1,0,0:0:0:0:
256,192,185589,1,2,0:0:0:0:
256,192,186111,1,2,0:0:0:0:
256,192,186632,1,0,0:0:0:0:
256,192,187024,1,2,0:0:0:0:
256,192,187676,1,2,0:0:0:0:
256,192,188197,1,6,0:0:0:0:
256,192,188719,1,0,0:0:0:0:
256,192,189111,1,2,0:0:0:0:
256,192,189502,1,2,0:0:0:0:
256,192,189763,1,0,0:0:0:0:
256,192,190284,1,6,0:0:0:0:
256,192,190676,1,6,0:0:0:0:
256,192,191067,1,6,0:0:0:0:
256,192,191589,1,4,0:0:0:0:
256,192,191850,1,6,0:0:0:0:
256,192,192371,1,6,0:0:0:0:
256,192,193154,1,0,0:0:0:0:
256,192,193415,1,2,0:0:0:0:
256,192,193937,1,0,0:0:0:0:
256,192,194458,1,2,0:0:0:0:
256,192,195241,1,0,0:0:0:0:
256,192,195502,1,2,0:0:0:0:
256,192,196024,1,2,0:0:0:0:
256,192,196545,1,2,0:0:0:0:
256,192,197328,1,0,0:0:0:0:
256,192,197589,1,2,0:0:0:0:
256,192,198111,1,0,0:0:0:0:
256,192,198632,1,0,0:0:0:0:
256,192,199024,1,0,0:0:0:0:
256,192,199415,1,0,0:0:0:0:
256,192,199806,1,0,0:0:0:0:
256,192,200197,1,2,0:0:0:0:
256,192,200719,1,4,0:0:0:0:
256,192,201502,1,0,0:0:0:0:
256,192,201763,1,2,0:0:0:0:
256,192,202284,1,0,0:0:0:0:
256,192,202806,1,2,0:0:0:0:
256,192,203328,1,0,0:0:0:0:
256,192,203589,1,0,0:0:0:0:
256,192,203850,1,2,0:0:0:0:
256,192,204371,1,0,0:0:0:0:
256,192,204632,1,2,0:0:0:0:
256,192,204893,1,4,0:0:0:0:
256,192,205676,1,0,0:0:0:0:
256,192,205937,1,2,0:0:0:0:
256,192,206458,1,0,0:0:0:0:
256,192,206980,1,2,0:0:0:0:
256,192,207371,1,0,0:0:0:0:
256,192,207763,1,2,0:0:0:0:
256,192,208154,1,0,0:0:0:0:
256,192,208545,1,2,0:0:0:0:
