osu file format v14

[General]
AudioFilename: audio.mp3
AudioLeadIn: 0
PreviewTime: 50327
Countdown: 0
SampleSet: Normal
StackLeniency: 0.7
Mode: 1
LetterboxInBreaks: 0
WidescreenStoryboard: 1

[Editor]
DistanceSpacing: 0.3
BeatDivisor: 4
GridSize: 32
TimelineZoom: 2.4

[Metadata]
Title:People People feat. Nanahira
TitleUnicode:ピポピポ -People People- feat. ななひら
Artist:Neko Hacker
ArtistUnicode:Neko Hacker
Creator:Cynplytholowazy
Version:Hype Train!
Source:
Tags:Featured Artist FA osu! ピポピポチャレンジ pipopipo challenge ネコハッカー Sera Kassan かっさん confetto Neko Hacker Ⅱ: Stray Kawaii Future Rock Jrock J-rock Electronic Japanese BlackBN BlackBq iRedi
BeatmapID:3880227
BeatmapSetID:1884578

[Difficulty]
HPDrainRate:6.6
CircleSize:10
OverallDifficulty:7
ApproachRate:10
SliderMultiplier:1.4
SliderTickRate:1

[Events]
//Background and Video events
0,0,"maxresdefault.jpg",0,0
//Break Periods
//Storyboard Layer 0 (Background)
//Storyboard Layer 1 (Fail)
//Storyboard Layer 2 (Pass)
//Storyboard Layer 3 (Foreground)
//Storyboard Layer 4 (Overlay)
//Storyboard Sound Samples

[TimingPoints]
-3802,260.869565217391,4,1,0,90,1,0
14980,-90.9090909090909,4,1,0,90,0,0
16937,-111.111111111111,4,1,0,80,0,0
31673,-100,4,1,0,80,0,0
31803,-100.626808100289,4,1,0,80,0,0
32064,-101.909272913716,4,1,0,80,0,0
32194,-102.560322374564,4,1,0,80,0,0
32455,-103.89287136599,4,1,0,80,0,0
32586,-104.574835897179,4,1,0,80,0,0
32719,-105.263157894737,4,1,0,80,0,0
32847,-105.960601137287,4,1,0,80,0,0
32977,-106.664622303997,4,1,0,80,0,0
33238,-108.106708106708,4,1,0,80,0,0
33499,-109.588321781138,4,1,0,80,0,0
33760,-111.111111111111,4,1,0,80,0,0
41850,-100,4,1,0,80,0,0
50328,-100,4,1,0,90,0,0
50458,-95.2380952380952,4,1,0,90,0,1
58806,-100,4,1,0,90,0,0
59328,-95.2380952380952,4,1,0,90,0,1
65067,-90.9090909090909,4,1,0,90,0,1
67154,-100,4,1,0,90,0,0
73415,-90.9090909090909,4,1,0,90,0,0
75371,-111.111111111111,4,1,0,80,0,0
92197,-100,4,1,0,80,0,0
108763,-100,4,1,0,90,0,0
108893,-95.2380952380952,4,1,0,90,0,1
117241,-100,4,1,0,90,0,0
117763,-95.2380952380952,4,1,0,90,0,1
123502,-90.9090909090909,4,1,0,90,0,1
125589,-90.9090909090909,4,1,0,90,0,0
125719,-117.647058823529,4,1,0,70,0,0
133806,-100,4,1,0,80,0,0
141958,-100,4,1,0,90,0,0
152719,-90.9090909090909,4,1,0,90,0,0
153763,-100,4,1,0,90,0,0
159111,-111.111111111111,4,1,0,80,0,0
175545,-125,4,1,0,75,0,0
181871,-95.2380952380952,4,1,0,90,0,0
181937,-95.2380952380952,4,1,0,90,0,1
184024,-100,4,1,0,90,0,0
184545,-95.2380952380952,4,1,0,90,0,1
190284,-90.9090909090909,4,1,0,90,0,1
191850,-100,4,1,0,90,0,1
192371,-100,4,1,0,90,0,0
206980,-90.9090909090909,4,1,0,90,0,0

[HitObjects]
256,192,111,5,0,0:0:0:0:
256,192,176,1,0,0:0:0:0:
256,192,241,1,2,0:0:0:0:
256,192,306,1,0,0:0:0:0:
256,192,371,1,6,0:0:0:0:
256,192,502,1,0,0:0:0:0:
256,192,567,1,0,0:0:0:0:
256,192,632,1,2,0:0:0:0:
256,192,763,1,0,0:0:0:0:
256,192,893,1,2,0:0:0:0:
256,192,958,1,2,0:0:0:0:
256,192,1024,1,0,0:0:0:0:
256,192,1089,1,0,0:0:0:0:
256,192,1154,1,2,0:0:0:0:
256,192,1284,1,0,0:0:0:0:
256,192,1415,1,2,0:0:0:0:
256,192,1545,1,2,0:0:0:0:
256,192,1611,1,2,0:0:0:0:
256,192,1676,1,0,0:0:0:0:
256,192,1806,1,0,0:0:0:0:
256,192,1937,1,2,0:0:0:0:
256,192,2002,1,0,0:0:0:0:
256,192,2067,1,2,0:0:0:0:
256,192,2132,1,2,0:0:0:0:
256,192,2197,1,0,0:0:0:0:
256,192,2328,1,0,0:0:0:0:
256,192,2458,1,2,0:0:0:0:
256,192,2524,1,0,0:0:0:0:
256,192,2589,1,2,0:0:0:0:
256,192,2654,1,2,0:0:0:0:
256,192,2719,1,0,0:0:0:0:
256,192,2784,1,0,0:0:0:0:
256,192,2850,1,2,0:0:0:0:
256,192,2980,1,0,0:0:0:0:
256,192,3111,1,2,0:0:0:0:
256,192,3176,1,2,0:0:0:0:
256,192,3241,1,0,0:0:0:0:
256,192,3371,1,0,0:0:0:0:
256,192,3502,1,2,0:0:0:0:
256,192,3567,1,0,0:0:0:0:
256,192,3632,1,2,0:0:0:0:
256,192,3697,1,2,0:0:0:0:
256,192,3763,1,0,0:0:0:0:
256,192,3893,1,2,0:0:0:0:
256,192,4024,1,0,0:0:0:0:
256,192,4154,1,0,0:0:0:0:
256,192,4219,1,0,0:0:0:0:
256,192,4284,1,2,0:0:0:0:
256,192,4350,1,0,0:0:0:0:
256,192,4415,1,2,0:0:0:0:
256,192,4545,1,2,0:0:0:0:
256,192,4611,1,0,0:0:0:0:
256,192,4676,1,2,0:0:0:0:
256,192,4741,1,2,0:0:0:0:
256,192,4806,1,0,0:0:0:0:
256,192,4871,1,0,0:0:0:0:
256,192,4937,1,2,0:0:0:0:
256,192,5067,1,0,0:0:0:0:
256,192,5197,1,2,0:0:0:0:
256,192,5263,1,2,0:0:0:0:
256,192,5328,1,0,0:0:0:0:
256,192,5458,1,0,0:0:0:0:
256,192,5589,1,2,0:0:0:0:
256,192,5719,1,0,0:0:0:0:
256,192,5784,1,0,0:0:0:0:
256,192,5850,1,2,0:0:0:0:
256,192,5915,1,2,0:0:0:0:
256,192,5980,1,0,0:0:0:0:
256,192,6111,1,0,0:0:0:0:
256,192,6241,1,2,0:0:0:0:
256,192,6371,1,0,0:0:0:0:
256,192,6502,1,2,0:0:0:0:
256,192,6632,1,0,0:0:0:0:
256,192,6697,1,0,0:0:0:0:
256,192,6763,1,0,0:0:0:0:
256,192,6828,1,2,0:0:0:0:
256,192,6893,1,2,0:0:0:0:
256,192,7024,1,0,0:0:0:0:
256,192,7089,1,0,0:0:0:0:
256,192,7154,1,0,0:0:0:0:
256,192,7219,1,0,0:0:0:0:
256,192,7284,1,2,0:0:0:0:
256,192,7415,1,0,0:0:0:0:
256,192,7480,1,0,0:0:0:0:
256,192,7545,1,0,0:0:0:0:
256,192,7611,1,2,0:0:0:0:
256,192,7676,1,2,0:0:0:0:
256,192,7806,1,0,0:0:0:0:
256,192,7871,1,0,0:0:0:0:
256,192,7937,1,0,0:0:0:0:
256,192,8002,1,0,0:0:0:0:
256,192,8067,1,2,0:0:0:0:
256,192,8132,1,0,0:0:0:0:
256,192,8197,1,2,0:0:0:0:
256,192,8263,1,2,0:0:0:0:
256,192,8328,1,0,0:0:0:0:
256,192,8393,1,0,0:0:0:0:
256,192,8458,1,2,0:0:0:0:
256,192,8719,1,4,0:0:0:0:
256,192,8850,1,2,0:0:0:0:
256,192,8915,1,2,0:0:0:0:
256,192,8980,1,0,0:0:0:0:
256,192,9111,1,2,0:0:0:0:
256,192,9241,1,0,0:0:0:0:
256,192,9306,1,0,0:0:0:0:
256,192,9371,1,2,0:0:0:0:
256,192,9437,1,0,0:0:0:0:
256,192,9502,1,2,0:0:0:0:
256,192,9632,1,0,0:0:0:0:
256,192,9763,1,2,0:0:0:0:
256,192,9893,1,2,0:0:0:0:
256,192,9958,1,2,0:0:0:0:
256,192,10024,1,0,0:0:0:0:
256,192,10154,1,2,0:0:0:0:
256,192,10284,1,0,0:0:0:0:
256,192,10350,1,0,0:0:0:0:
256,192,10415,1,2,0:0:0:0:
256,192,10480,1,0,0:0:0:0:
256,192,10545,1,2,0:0:0:0:
256,192,10611,1,2,0:0:0:0:
256,192,10676,1,0,0:0:0:0:
256,192,10741,1,0,0:0:0:0:
256,192,10806,1,2,0:0:0:0:
256,192,10937,1,0,0:0:0:0:
256,192,11002,1,0,0:0:0:0:
256,192,11067,1,2,0:0:0:0:
256,192,11197,1,0,0:0:0:0:
256,192,11328,1,2,0:0:0:0:
256,192,11393,1,2,0:0:0:0:
256,192,11458,1,0,0:0:0:0:
256,192,11524,1,2,0:0:0:0:
256,192,11589,1,0,0:0:0:0:
256,192,11719,1,0,0:0:0:0:
256,192,11850,1,2,0:0:0:0:
256,192,11980,1,0,0:0:0:0:
256,192,12045,1,0,0:0:0:0:
256,192,12111,1,2,0:0:0:0:
256,192,12241,1,0,0:0:0:0:
256,192,12371,1,2,0:0:0:0:
256,192,12437,1,2,0:0:0:0:
256,192,12502,1,2,0:0:0:0:
256,192,12632,1,4,0:0:0:0:
256,192,12893,1,6,0:0:0:0:
256,192,13024,1,0,0:0:0:0:
256,192,13089,1,0,0:0:0:0:
256,192,13154,1,2,0:0:0:0:
256,192,13284,1,0,0:0:0:0:
256,192,13415,1,2,0:0:0:0:
256,192,13480,1,2,0:0:0:0:
256,192,13545,1,0,0:0:0:0:
256,192,13611,1,2,0:0:0:0:
256,192,13676,1,0,0:0:0:0:
256,192,13806,1,0,0:0:0:0:
256,192,13937,1,2,0:0:0:0:
256,192,14067,1,0,0:0:0:0:
256,192,14132,1,0,0:0:0:0:
256,192,14197,1,2,0:0:0:0:
256,192,14328,1,0,0:0:0:0:
256,192,14458,1,2,0:0:0:0:
256,192,14524,1,0,0:0:0:0:
256,192,14589,1,2,0:0:0:0:
256,192,14654,1,2,0:0:0:0:
256,192,14719,1,0,0:0:0:0:
256,192,14784,1,0,0:0:0:0:
256,192,14850,1,2,0:0:0:0:
256,192,14980,1,4,0:0:0:0:
256,192,15176,1,4,0:0:0:0:
256,192,15371,1,4,0:0:0:0:
256,192,15502,1,6,0:0:0:0:
256,192,15763,1,4,0:0:0:0:
256,192,15958,1,4,0:0:0:0:
256,192,16154,1,4,0:0:0:0:
256,192,16284,1,6,0:0:0:0:
256,192,16545,1,6,0:0:0:0:
256,192,16676,1,6,0:0:0:0:
256,192,17067,1,4,0:0:0:0:
256,192,17197,1,0,0:0:0:0:
256,192,17263,1,0,0:0:0:0:
256,192,17328,1,2,0:0:0:0:
256,192,17458,1,0,0:0:0:0:
256,192,17589,1,2,0:0:0:0:
256,192,17719,1,2,0:0:0:0:
256,192,17850,1,0,0:0:0:0:
256,192,17980,1,2,0:0:0:0:
256,192,18111,1,0,0:0:0:0:
256,192,18241,1,0,0:0:0:0:
256,192,18306,1,0,0:0:0:0:
256,192,18371,1,2,0:0:0:0:
256,192,18502,1,0,0:0:0:0:
256,192,18632,1,2,0:0:0:0:
256,192,18763,1,2,0:0:0:0:
256,192,18893,1,0,0:0:0:0:
256,192,19024,1,0,0:0:0:0:
256,192,19154,1,2,0:0:0:0:
256,192,19284,1,0,0:0:0:0:
256,192,19350,1,0,0:0:0:0:
256,192,19415,1,2,0:0:0:0:
256,192,19545,1,2,0:0:0:0:
256,192,19676,1,0,0:0:0:0:
256,192,19806,1,2,0:0:0:0:
256,192,19937,1,0,0:0:0:0:
256,192,20067,1,2,0:0:0:0:
256,192,20197,1,0,0:0:0:0:
256,192,20328,1,0,0:0:0:0:
256,192,20393,1,0,0:0:0:0:
256,192,20458,1,2,0:0:0:0:
256,192,20589,1,0,0:0:0:0:
256,192,20719,1,2,0:0:0:0:
256,192,20850,1,2,0:0:0:0:
256,192,20980,1,0,0:0:0:0:
256,192,21241,1,2,0:0:0:0:
256,192,21371,1,0,0:0:0:0:
256,192,21437,1,0,0:0:0:0:
256,192,21502,1,0,0:0:0:0:
256,192,21632,1,2,0:0:0:0:
256,192,21763,1,0,0:0:0:0:
256,192,21893,1,2,0:0:0:0:
256,192,22024,1,0,0:0:0:0:
256,192,22154,1,0,0:0:0:0:
256,192,22284,1,0,0:0:0:0:
256,192,22415,1,2,0:0:0:0:
256,192,22480,1,2,0:0:0:0:
256,192,22545,1,0,0:0:0:0:
256,192,22676,1,2,0:0:0:0:
256,192,22806,1,0,0:0:0:0:
256,192,22937,1,0,0:0:0:0:
256,192,23067,1,2,0:0:0:0:
256,192,23197,1,0,0:0:0:0:
256,192,23328,1,2,0:0:0:0:
256,192,23458,1,0,0:0:0:0:
256,192,23524,1,0,0:0:0:0:
256,192,23589,1,0,0:0:0:0:
256,192,23719,1,2,0:0:0:0:
256,192,23850,1,0,0:0:0:0:
256,192,23980,1,2,0:0:0:0:
256,192,24111,1,0,0:0:0:0:
256,192,24241,1,2,0:0:0:0:
256,192,24371,1,0,0:0:0:0:
256,192,24502,1,2,0:0:0:0:
256,192,24632,1,2,0:0:0:0:
256,192,24763,1,0,0:0:0:0:
256,192,24893,1,0,0:0:0:0:
256,192,25024,1,2,0:0:0:0:
256,192,25154,1,0,0:0:0:0:
256,192,25284,1,2,0:0:0:0:
256,192,25350,1,2,0:0:0:0:
256,192,25415,1,0,0:0:0:0:
256,192,25676,1,0,0:0:0:0:
256,192,25806,1,2,0:0:0:0:
256,192,25871,1,2,0:0:0:0:
256,192,25937,1,0,0:0:0:0:
256,192,26067,1,2,0:0:0:0:
256,192,26197,1,0,0:0:0:0:
256,192,26328,1,2,0:0:0:0:
256,192,26458,1,0,0:0:0:0:
256,192,26589,1,0,0:0:0:0:
256,192,26719,1,2,0:0:0:0:
256,192,26850,1,0,0:0:0:0:
256,192,26980,1,2,0:0:0:0:
256,192,27111,1,2,0:0:0:0:
256,192,27176,1,2,0:0:0:0:
256,192,27241,1,0,0:0:0:0:
256,192,27371,1,2,0:0:0:0:
256,192,27502,1,0,0:0:0:0:
256,192,27763,1,2,0:0:0:0:
256,192,27893,1,0,0:0:0:0:
256,192,27958,1,0,0:0:0:0:
256,192,28024,1,2,0:0:0:0:
256,192,28154,1,2,0:0:0:0:
256,192,28284,1,0,0:0:0:0:
256,192,28415,1,2,0:0:0:0:
256,192,28545,1,0,0:0:0:0:
256,192,28676,1,0,0:0:0:0:
256,192,28741,1,0,0:0:0:0:
256,192,28806,1,2,0:0:0:0:
256,192,28937,1,0,0:0:0:0:
256,192,29067,1,2,0:0:0:0:
256,192,29197,1,2,0:0:0:0:
256,192,29328,1,0,0:0:0:0:
256,192,29458,1,2,0:0:0:0:
256,192,29589,1,0,0:0:0:0:
256,192,29719,1,0,0:0:0:0:
256,192,29850,1,2,0:0:0:0:
256,192,29980,1,0,0:0:0:0:
256,192,30241,1,0,0:0:0:0:
256,192,30371,1,2,0:0:0:0:
256,192,30502,1,0,0:0:0:0:
256,192,30632,1,2,0:0:0:0:
256,192,30763,1,2,0:0:0:0:
256,192,30893,1,0,0:0:0:0:
256,192,31024,1,2,0:0:0:0:
256,192,31154,1,0,0:0:0:0:
256,192,31284,1,0,0:0:0:0:
256,192,31415,1,2,0:0:0:0:
256,192,31545,1,0,0:0:0:0:
256,192,31611,1,0,0:0:0:0:
256,192,31676,1,6,0:0:0:0:
256,192,31806,1,4,0:0:0:0:
256,192,32067,1,6,0:0:0:0:
256,192,32197,1,4,0:0:0:0:
256,192,32458,1,6,0:0:0:0:
256,192,32589,1,4,0:0:0:0:
256,192,32850,1,6,0:0:0:0:
256,192,32980,1,6,0:0:0:0:
256,192,33241,1,0,0:0:0:0:
256,192,33502,1,6,0:0:0:0:
256,192,33763,1,4,0:0:0:0:
256,192,33893,1,2,0:0:0:0:
256,192,34024,1,0,0:0:0:0:
256,192,34154,1,0,0:0:0:0:
256,192,34284,1,2,0:0:0:0:
256,192,34350,1,0,0:0:0:0:
256,192,34415,1,2,0:0:0:0:
256,192,34480,1,2,0:0:0:0:
256,192,34545,1,0,0:0:0:0:
256,192,34611,1,0,0:0:0:0:
256,192,34676,1,2,0:0:0:0:
256,192,34741,1,0,0:0:0:0:
256,192,34806,1,2,0:0:0:0:
256,192,34937,1,2,0:0:0:0:
256,192,35067,1,0,0:0:0:0:
256,192,35197,1,0,0:0:0:0:
256,192,35328,1,2,0:0:0:0:
256,192,35393,1,2,0:0:0:0:
256,192,35458,1,0,0:0:0:0:
256,192,35524,1,0,0:0:0:0:
256,192,35589,1,2,0:0:0:0:
256,192,35654,1,0,0:0:0:0:
256,192,35719,1,2,0:0:0:0:
256,192,35784,1,2,0:0:0:0:
256,192,35850,1,0,0:0:0:0:
256,192,35980,1,0,0:0:0:0:
256,192,36111,1,2,0:0:0:0:
256,192,36241,1,0,0:0:0:0:
256,192,36371,1,2,0:0:0:0:
256,192,36437,1,0,0:0:0:0:
256,192,36502,1,2,0:0:0:0:
256,192,36567,1,0,0:0:0:0:
256,192,36632,1,2,0:0:0:0:
256,192,36697,1,2,0:0:0:0:
256,192,36763,1,0,0:0:0:0:
256,192,36828,1,0,0:0:0:0:
256,192,36893,1,2,0:0:0:0:
256,192,37024,1,0,0:0:0:0:
256,192,37154,1,2,0:0:0:0:
256,192,37284,1,2,0:0:0:0:
256,192,37415,1,0,0:0:0:0:
256,192,37480,1,0,0:0:0:0:
256,192,37545,1,2,0:0:0:0:
256,192,37611,1,0,0:0:0:0:
256,192,37676,1,2,0:0:0:0:
256,192,37741,1,2,0:0:0:0:
256,192,37806,1,0,0:0:0:0:
256,192,37871,1,0,0:0:0:0:
256,192,37937,1,2,0:0:0:0:
256,192,38067,1,2,0:0:0:0:
256,192,38197,1,0,0:0:0:0:
256,192,38328,1,0,0:0:0:0:
256,192,38458,1,2,0:0:0:0:
256,192,38524,1,2,0:0:0:0:
256,192,38589,1,0,0:0:0:0:
256,192,38654,1,0,0:0:0:0:
256,192,38719,1,2,0:0:0:0:
256,192,38784,1,0,0:0:0:0:
256,192,38850,1,2,0:0:0:0:
256,192,38915,1,2,0:0:0:0:
256,192,38980,1,0,0:0:0:0:
256,192,39111,1,0,0:0:0:0:
256,192,39241,1,2,0:0:0:0:
256,192,39371,1,2,0:0:0:0:
256,192,39502,1,0,0:0:0:0:
256,192,39567,1,0,0:0:0:0:
256,192,39632,1,2,0:0:0:0:
256,192,39697,1,0,0:0:0:0:
256,192,39763,1,2,0:0:0:0:
256,192,39828,1,0,0:0:0:0:
256,192,39893,1,2,0:0:0:0:
256,192,39958,1,2,0:0:0:0:
256,192,40024,1,0,0:0:0:0:
256,192,40154,1,0,0:0:0:0:
256,192,40284,1,2,0:0:0:0:
256,192,40415,1,0,0:0:0:0:
256,192,40545,1,2,0:0:0:0:
256,192,40611,1,0,0:0:0:0:
256,192,40676,1,2,0:0:0:0:
256,192,40741,1,0,0:0:0:0:
256,192,40806,1,2,0:0:0:0:
256,192,40871,1,2,0:0:0:0:
256,192,40937,1,0,0:0:0:0:
256,192,41002,1,0,0:0:0:0:
256,192,41067,1,2,0:0:0:0:
256,192,41197,1,2,0:0:0:0:
256,192,41328,1,0,0:0:0:0:
256,192,41458,1,0,0:0:0:0:
256,192,41589,1,2,0:0:0:0:
256,192,41980,1,0,0:0:0:0:
256,192,42111,1,2,0:0:0:0:
256,192,42176,1,2,0:0:0:0:
256,192,42241,1,0,0:0:0:0:
256,192,42306,1,0,0:0:0:0:
256,192,42371,1,0,0:0:0:0:
256,192,42437,1,0,0:0:0:0:
256,192,42502,1,2,0:0:0:0:
256,192,42567,1,0,0:0:0:0:
256,192,42632,1,0,0:0:0:0:
256,192,42697,1,0,0:0:0:0:
256,192,42763,1,0,0:0:0:0:
256,192,42828,1,0,0:0:0:0:
256,192,42893,1,2,0:0:0:0:
256,192,42958,1,2,0:0:0:0:
256,192,43024,1,2,0:0:0:0:
256,192,43089,1,0,0:0:0:0:
256,192,43154,1,2,0:0:0:0:
256,192,43219,1,2,0:0:0:0:
256,192,43284,1,0,0:0:0:0:
256,192,43350,1,0,0:0:0:0:
256,192,43415,1,0,0:0:0:0:
256,192,43480,1,0,0:0:0:0:
256,192,43545,1,2,0:0:0:0:
256,192,43611,1,0,0:0:0:0:
256,192,43676,1,0,0:0:0:0:
256,192,43741,1,0,0:0:0:0:
256,192,43806,1,0,0:0:0:0:
256,192,43871,1,0,0:0:0:0:
256,192,43937,1,2,0:0:0:0:
256,192,44002,1,2,0:0:0:0:
256,192,44067,1,2,0:0:0:0:
256,192,44132,1,0,0:0:0:0:
256,192,44197,1,2,0:0:0:0:
256,192,44263,1,2,0:0:0:0:
256,192,44328,1,0,0:0:0:0:
256,192,44393,1,0,0:0:0:0:
256,192,44458,1,0,0:0:0:0:
256,192,44524,1,0,0:0:0:0:
256,192,44589,1,2,0:0:0:0:
256,192,44654,1,0,0:0:0:0:
256,192,44719,1,0,0:0:0:0:
256,192,44784,1,0,0:0:0:0:
256,192,44850,1,0,0:0:0:0:
256,192,44915,1,0,0:0:0:0:
256,192,44980,1,2,0:0:0:0:
256,192,45045,1,2,0:0:0:0:
256,192,45111,1,0,0:0:0:0:
256,192,45176,1,0,0:0:0:0:
256,192,45241,1,2,0:0:0:0:
256,192,45306,1,2,0:0:0:0:
256,192,45371,1,2,0:0:0:0:
256,192,45437,1,0,0:0:0:0:
256,192,45502,1,2,0:0:0:0:
256,192,45567,1,2,0:0:0:0:
256,192,45632,1,0,0:0:0:0:
256,192,45697,1,0,0:0:0:0:
256,192,45763,1,2,0:0:0:0:
256,192,45828,1,0,0:0:0:0:
256,192,45893,1,0,0:0:0:0:
256,192,45958,1,0,0:0:0:0:
256,192,46024,1,2,0:0:0:0:
256,192,46089,1,2,0:0:0:0:
256,192,46154,1,0,0:0:0:0:
256,192,46219,1,0,0:0:0:0:
256,192,46284,1,2,0:0:0:0:
256,192,46415,1,0,0:0:0:0:
256,192,46480,1,0,0:0:0:0:
256,192,46545,1,0,0:0:0:0:
256,192,46676,1,2,0:0:0:0:
256,192,46741,1,2,0:0:0:0:
256,192,46806,1,0,0:0:0:0:
256,192,46937,1,2,0:0:0:0:
256,192,47002,1,2,0:0:0:0:
256,192,47067,1,2,0:0:0:0:
256,192,47197,1,0,0:0:0:0:
256,192,47263,1,0,0:0:0:0:
256,192,47328,1,2,0:0:0:0:
256,192,47393,1,0,0:0:0:0:
256,192,47458,1,0,0:0:0:0:
256,192,47524,1,0,0:0:0:0:
256,192,47589,1,2,0:0:0:0:
256,192,47654,1,2,0:0:0:0:
256,192,47719,1,0,0:0:0:0:
256,192,47784,1,0,0:0:0:0:
256,192,47850,1,2,0:0:0:0:
256,192,47915,1,2,0:0:0:0:
256,192,47980,1,2,0:0:0:0:
256,192,48045,1,0,0:0:0:0:
256,192,48111,1,2,0:0:0:0:
256,192,48176,1,2,0:0:0:0:
256,192,48241,1,0,0:0:0:0:
256,192,48306,1,0,0:0:0:0:
256,192,48371,1,6,0:0:0:0:
256,192,48502,1,0,0:0:0:0:
256,192,48567,1,0,0:0:0:0:
256,192,48632,1,2,0:0:0:0:
256,192,48697,1,0,0:0:0:0:
256,192,48763,1,0,0:0:0:0:
256,192,48828,1,0,0:0:0:0:
256,192,48893,1,2,0:0:0:0:
256,192,48958,1,2,0:0:0:0:
256,192,49024,1,0,0:0:0:0:
256,192,49089,1,0,0:0:0:0:
256,192,49154,1,2,0:0:0:0:
256,192,49219,1,2,0:0:0:0:
256,192,49284,1,2,0:0:0:0:
256,192,49350,1,0,0:0:0:0:
256,192,49415,1,2,0:0:0:0:
256,192,49676,1,0,0:0:0:0:
256,192,49937,1,2,0:0:0:0:
256,192,50067,1,0,0:0:0:0:
256,192,50197,1,6,0:0:0:0:
256,192,50458,1,6,0:0:0:0:
256,192,50589,1,0,0:0:0:0:
256,192,50654,1,0,0:0:0:0:
256,192,50719,1,2,0:0:0:0:
256,192,50784,1,2,0:0:0:0:
256,192,50850,1,0,0:0:0:0:
256,192,50980,1,2,0:0:0:0:
256,192,51045,1,0,0:0:0:0:
256,192,51111,1,2,0:0:0:0:
256,192,51176,1,2,0:0:0:0:
256,192,51241,1,0,0:0:0:0:
256,192,51306,1,0,0:0:0:0:
256,192,51371,1,2,0:0:0:0:
256,192,51437,1,0,0:0:0:0:
256,192,51502,1,2,0:0:0:0:
256,192,51632,1,0,0:0:0:0:
256,192,51697,1,0,0:0:0:0:
256,192,51763,1,2,0:0:0:0:
256,192,51828,1,2,0:0:0:0:
256,192,51893,1,0,0:0:0:0:
256,192,52024,1,2,0:0:0:0:
256,192,52089,1,0,0:0:0:0:
256,192,52154,1,2,0:0:0:0:
256,192,52219,1,2,0:0:0:0:
256,192,52284,1,0,0:0:0:0:
256,192,52415,1,0,0:0:0:0:
256,192,52545,1,2,0:0:0:0:
256,192,52676,1,0,0:0:0:0:
256,192,52741,1,0,0:0:0:0:
256,192,52806,1,2,0:0:0:0:
256,192,52871,1,2,0:0:0:0:
256,192,52937,1,0,0:0:0:0:
256,192,53067,1,2,0:0:0:0:
256,192,53132,1,0,0:0:0:0:
256,192,53197,1,2,0:0:0:0:
256,192,53263,1,2,0:0:0:0:
256,192,53328,1,0,0:0:0:0:
256,192,53393,1,0,0:0:0:0:
256,192,53458,1,2,0:0:0:0:
256,192,53524,1,0,0:0:0:0:
256,192,53589,1,2,0:0:0:0:
256,192,53719,1,0,0:0:0:0:
256,192,53784,1,0,0:0:0:0:
256,192,53850,1,2,0:0:0:0:
256,192,53915,1,2,0:0:0:0:
256,192,53980,1,0,0:0:0:0:
256,192,54111,1,2,0:0:0:0:
256,192,54176,1,2,0:0:0:0:
256,192,54241,1,0,0:0:0:0:
256,192,54306,1,0,0:0:0:0:
256,192,54371,1,2,0:0:0:0:
256,192,54502,1,0,0:0:0:0:
256,192,54632,1,2,0:0:0:0:
256,192,54697,1,0,0:0:0:0:
256,192,54763,1,2,0:0:0:0:
256,192,54828,1,2,0:0:0:0:
256,192,54893,1,0,0:0:0:0:
256,192,54958,1,0,0:0:0:0:
256,192,55024,1,2,0:0:0:0:
256,192,55089,1,0,0:0:0:0:
256,192,55154,1,2,0:0:0:0:
256,192,55284,1,2,0:0:0:0:
256,192,55350,1,2,0:0:0:0:
256,192,55415,1,0,0:0:0:0:
256,192,55545,1,0,0:0:0:0:
256,192,55676,1,2,0:0:0:0:
256,192,55806,1,0,0:0:0:0:
256,192,55871,1,0,0:0:0:0:
256,192,55937,1,2,0:0:0:0:
256,192,56002,1,0,0:0:0:0:
256,192,56067,1,2,0:0:0:0:
256,192,56132,1,2,0:0:0:0:
256,192,56197,1,0,0:0:0:0:
256,192,56328,1,0,0:0:0:0:
256,192,56458,1,2,0:0:0:0:
256,192,56524,1,2,0:0:0:0:
256,192,56589,1,0,0:0:0:0:
256,192,56654,1,0,0:0:0:0:
256,192,56719,1,2,0:0:0:0:
256,192,56784,1,2,0:0:0:0:
256,192,56850,1,2,0:0:0:0:
256,192,56915,1,2,0:0:0:0:
256,192,56980,1,0,0:0:0:0:
256,192,57111,1,2,0:0:0:0:
256,192,57176,1,2,0:0:0:0:
256,192,57241,1,2,0:0:0:0:
256,192,57306,1,0,0:0:0:0:
256,192,57371,1,0,0:0:0:0:
256,192,57502,1,2,0:0:0:0:
256,192,57567,1,2,0:0:0:0:
256,192,57632,1,2,0:0:0:0:
256,192,57697,1,2,0:0:0:0:
256,192,57763,1,0,0:0:0:0:
256,192,57893,1,2,0:0:0:0:
256,192,57958,1,2,0:0:0:0:
256,192,58024,1,2,0:0:0:0:
256,192,58089,1,0,0:0:0:0:
256,192,58154,1,0,0:0:0:0:
256,192,58284,1,2,0:0:0:0:
256,192,58350,1,2,0:0:0:0:
256,192,58415,1,2,0:0:0:0:
256,192,58480,1,2,0:0:0:0:
256,192,58545,1,0,0:0:0:0:
256,192,58806,1,2,0:0:0:0:
256,192,58937,1,2,0:0:0:0:
256,192,59067,1,0,0:0:0:0:
256,192,59197,1,0,0:0:0:0:
256,192,59328,1,6,0:0:0:0:
256,192,59458,1,2,0:0:0:0:
256,192,59524,1,2,0:0:0:0:
256,192,59589,1,0,0:0:0:0:
256,192,59719,1,2,0:0:0:0:
256,192,59980,1,2,0:0:0:0:
256,192,60111,1,0,0:0:0:0:
256,192,60176,1,2,0:0:0:0:
256,192,60241,1,0,0:0:0:0:
256,192,60371,1,2,0:0:0:0:
256,192,60502,1,2,0:0:0:0:
256,192,60632,1,0,0:0:0:0:
256,192,60893,1,2,0:0:0:0:
256,192,61024,1,2,0:0:0:0:
256,192,61089,1,2,0:0:0:0:
256,192,61154,1,0,0:0:0:0:
256,192,61284,1,0,0:0:0:0:
256,192,61415,1,2,0:0:0:0:
256,192,61545,1,0,0:0:0:0:
256,192,61611,1,0,0:0:0:0:
256,192,61676,1,2,0:0:0:0:
256,192,61806,1,2,0:0:0:0:
256,192,62067,1,0,0:0:0:0:
256,192,62197,1,2,0:0:0:0:
256,192,62328,1,0,0:0:0:0:
256,192,62393,1,0,0:0:0:0:
256,192,62458,1,2,0:0:0:0:
256,192,62589,1,2,0:0:0:0:
256,192,62719,1,0,0:0:0:0:
256,192,62980,1,6,0:0:0:0:
256,192,63111,1,2,0:0:0:0:
256,192,63176,1,2,0:0:0:0:
256,192,63241,1,0,0:0:0:0:
256,192,63371,1,0,0:0:0:0:
256,192,63502,1,2,0:0:0:0:
256,192,63632,1,0,0:0:0:0:
256,192,63697,1,0,0:0:0:0:
256,192,63763,1,2,0:0:0:0:
256,192,63893,1,2,0:0:0:0:
256,192,64154,1,2,0:0:0:0:
256,192,64284,1,0,0:0:0:0:
256,192,64350,1,2,0:0:0:0:
256,192,64415,1,0,0:0:0:0:
256,192,64545,1,2,0:0:0:0:
256,192,64676,1,2,0:0:0:0:
256,192,64806,1,0,0:0:0:0:
256,192,64871,1,0,0:0:0:0:
256,192,64937,1,0,0:0:0:0:
256,192,65002,1,0,0:0:0:0:
256,192,65067,1,6,0:0:0:0:
256,192,65458,1,6,0:0:0:0:
256,192,65850,1,6,0:0:0:0:
256,192,66241,1,4,0:0:0:0:
256,192,66371,1,4,0:0:0:0:
256,192,66632,1,2,0:0:0:0:
256,192,66697,1,2,0:0:0:0:
256,192,66763,1,2,0:0:0:0:
256,192,66828,1,2,0:0:0:0:
256,192,66893,1,4,0:0:0:0:
256,192,67154,1,6,0:0:0:0:
256,192,67284,1,0,0:0:0:0:
256,192,67350,1,0,0:0:0:0:
256,192,67415,1,2,0:0:0:0:
256,192,67545,1,0,0:0:0:0:
256,192,67676,1,2,0:0:0:0:
256,192,67741,1,2,0:0:0:0:
256,192,67806,1,0,0:0:0:0:
256,192,67871,1,0,0:0:0:0:
256,192,67937,1,2,0:0:0:0:
256,192,68067,1,0,0:0:0:0:
256,192,68197,1,2,0:0:0:0:
256,192,68328,1,0,0:0:0:0:
256,192,68393,1,0,0:0:0:0:
256,192,68458,1,2,0:0:0:0:
256,192,68589,1,0,0:0:0:0:
256,192,68719,1,2,0:0:0:0:
256,192,68784,1,2,0:0:0:0:
256,192,68850,1,0,0:0:0:0:
256,192,68915,1,0,0:0:0:0:
256,192,68980,1,2,0:0:0:0:
256,192,69045,1,2,0:0:0:0:
256,192,69111,1,0,0:0:0:0:
256,192,69176,1,0,0:0:0:0:
256,192,69241,1,2,0:0:0:0:
256,192,69502,1,0,0:0:0:0:
256,192,69632,1,0,0:0:0:0:
256,192,69763,1,2,0:0:0:0:
256,192,69850,1,2,0:0:0:0:
256,192,69937,1,2,0:0:0:0:
256,192,70024,1,0,0:0:0:0:
256,192,70111,1,0,0:0:0:0:
256,192,70197,1,0,0:0:0:0:
256,192,70284,1,2,0:0:0:0:
256,192,70415,1,0,0:0:0:0:
256,192,70480,1,0,0:0:0:0:
256,192,70545,1,2,0:0:0:0:
256,192,70611,1,2,0:0:0:0:
256,192,70676,1,0,0:0:0:0:
256,192,70741,1,0,0:0:0:0:
256,192,70806,1,2,0:0:0:0:
256,192,70871,1,0,0:0:0:0:
256,192,70937,1,2,0:0:0:0:
256,192,71002,1,0,0:0:0:0:
256,192,71067,1,2,0:0:0:0:
256,192,71132,1,2,0:0:0:0:
256,192,71197,1,0,0:0:0:0:
256,192,71328,1,6,0:0:0:0:
256,192,71458,1,0,0:0:0:0:
256,192,71589,1,2,0:0:0:0:
256,192,71719,1,0,0:0:0:0:
256,192,71784,1,0,0:0:0:0:
256,192,71850,1,2,0:0:0:0:
256,192,71915,1,2,0:0:0:0:
256,192,71980,1,0,0:0:0:0:
256,192,72045,1,0,0:0:0:0:
256,192,72111,1,2,0:0:0:0:
256,192,72241,1,0,0:0:0:0:
256,192,72371,1,2,0:0:0:0:
256,192,72502,1,0,0:0:0:0:
256,192,72567,1,0,0:0:0:0:
256,192,72632,1,2,0:0:0:0:
256,192,72763,1,0,0:0:0:0:
256,192,72893,1,2,0:0:0:0:
256,192,72958,1,2,0:0:0:0:
256,192,73024,1,0,0:0:0:0:
256,192,73089,1,0,0:0:0:0:
256,192,73154,1,2,0:0:0:0:
256,192,73284,1,2,0:0:0:0:
256,192,73415,1,4,0:0:0:0:
256,192,73611,1,4,0:0:0:0:
256,192,73806,1,4,0:0:0:0:
256,192,73937,1,6,0:0:0:0:
256,192,74197,1,4,0:0:0:0:
256,192,74393,1,4,0:0:0:0:
256,192,74589,1,4,0:0:0:0:
256,192,74719,1,6,0:0:0:0:
256,192,74980,1,6,0:0:0:0:
256,192,75111,1,6,0:0:0:0:
256,192,75502,1,4,0:0:0:0:
256,192,75763,1,0,0:0:0:0:
256,192,75893,1,0,0:0:0:0:
256,192,76024,1,2,0:0:0:0:
256,192,76154,1,0,0:0:0:0:
256,192,76284,1,2,0:0:0:0:
256,192,76415,1,2,0:0:0:0:
256,192,76545,1,0,0:0:0:0:
256,192,76676,1,0,0:0:0:0:
256,192,76806,1,2,0:0:0:0:
256,192,76937,1,0,0:0:0:0:
256,192,77067,1,2,0:0:0:0:
256,192,77197,1,2,0:0:0:0:
256,192,77328,1,0,0:0:0:0:
256,192,77458,1,0,0:0:0:0:
256,192,77589,1,2,0:0:0:0:
256,192,77850,1,0,0:0:0:0:
256,192,77980,1,0,0:0:0:0:
256,192,78111,1,2,0:0:0:0:
256,192,78241,1,0,0:0:0:0:
256,192,78371,1,2,0:0:0:0:
256,192,78502,1,0,0:0:0:0:
256,192,78632,1,2,0:0:0:0:
256,192,78763,1,2,0:0:0:0:
256,192,78828,1,2,0:0:0:0:
256,192,78893,1,0,0:0:0:0:
256,192,79024,1,0,0:0:0:0:
256,192,79154,1,2,0:0:0:0:
256,192,79284,1,0,0:0:0:0:
256,192,79415,1,2,0:0:0:0:
256,192,79545,1,2,0:0:0:0:
256,192,79676,1,0,0:0:0:0:
256,192,79806,1,0,0:0:0:0:
256,192,79937,1,2,0:0:0:0:
256,192,80067,1,0,0:0:0:0:
256,192,80197,1,2,0:0:0:0:
256,192,80328,1,2,0:0:0:0:
256,192,80458,1,0,0:0:0:0:
256,192,80589,1,2,0:0:0:0:
256,192,80719,1,0,0:0:0:0:
256,192,80850,1,0,0:0:0:0:
256,192,80980,1,2,0:0:0:0:
256,192,81111,1,0,0:0:0:0:
256,192,81241,1,2,0:0:0:0:
256,192,81371,1,2,0:0:0:0:
256,192,81502,1,0,0:0:0:0:
256,192,81632,1,2,0:0:0:0:
256,192,81763,1,0,0:0:0:0:
256,192,82024,1,0,0:0:0:0:
256,192,82154,1,0,0:0:0:0:
256,192,82284,1,2,0:0:0:0:
256,192,82415,1,0,0:0:0:0:
256,192,82545,1,2,0:0:0:0:
256,192,82676,1,2,0:0:0:0:
256,192,82806,1,0,0:0:0:0:
256,192,82937,1,2,0:0:0:0:
256,192,83067,1,0,0:0:0:0:
256,192,83197,1,2,0:0:0:0:
256,192,83328,1,0,0:0:0:0:
256,192,83458,1,2,0:0:0:0:
256,192,83589,1,0,0:0:0:0:
256,192,83719,1,2,0:0:0:0:
256,192,83850,1,4,0:0:0:0:
256,192,84111,1,0,0:0:0:0:
256,192,84241,1,0,0:0:0:0:
256,192,84371,1,2,0:0:0:0:
256,192,84502,1,0,0:0:0:0:
256,192,84632,1,2,0:0:0:0:
256,192,84763,1,2,0:0:0:0:
256,192,84893,1,0,0:0:0:0:
256,192,85024,1,0,0:0:0:0:
256,192,85154,1,2,0:0:0:0:
256,192,85284,1,0,0:0:0:0:
256,192,85350,1,0,0:0:0:0:
256,192,85415,1,2,0:0:0:0:
256,192,85545,1,0,0:0:0:0:
256,192,85676,1,2,0:0:0:0:
256,192,85806,1,2,0:0:0:0:
256,192,85937,1,0,0:0:0:0:
256,192,86197,1,0,0:0:0:0:
256,192,86328,1,0,0:0:0:0:
256,192,86458,1,2,0:0:0:0:
256,192,86589,1,0,0:0:0:0:
256,192,86719,1,2,0:0:0:0:
256,192,86850,1,2,0:0:0:0:
256,192,86980,1,0,0:0:0:0:
256,192,87111,1,2,0:0:0:0:
256,192,87176,1,2,0:0:0:0:
256,192,87241,1,0,0:0:0:0:
256,192,87371,1,0,0:0:0:0:
256,192,87502,1,2,0:0:0:0:
256,192,87632,1,0,0:0:0:0:
256,192,87763,1,2,0:0:0:0:
256,192,88024,1,0,0:0:0:0:
256,192,88154,1,0,0:0:0:0:
256,192,88284,1,2,0:0:0:0:
256,192,88415,1,0,0:0:0:0:
256,192,88545,1,2,0:0:0:0:
256,192,88676,1,2,0:0:0:0:
256,192,88806,1,0,0:0:0:0:
256,192,88937,1,2,0:0:0:0:
256,192,89067,1,0,0:0:0:0:
256,192,89197,1,2,0:0:0:0:
256,192,89328,1,0,0:0:0:0:
256,192,89458,1,2,0:0:0:0:
256,192,89589,1,0,0:0:0:0:
256,192,89719,1,2,0:0:0:0:
256,192,89850,1,0,0:0:0:0:
256,192,89980,1,0,0:0:0:0:
256,192,90111,1,2,0:0:0:0:
256,192,90241,1,0,0:0:0:0:
256,192,90502,1,2,0:0:0:0:
256,192,90632,1,0,0:0:0:0:
256,192,90893,1,2,0:0:0:0:
256,192,91024,1,0,0:0:0:0:
256,192,91284,1,2,0:0:0:0:
256,192,91415,1,2,0:0:0:0:
256,192,91545,1,0,0:0:0:0:
256,192,91611,1,0,0:0:0:0:
256,192,91676,1,2,0:0:0:0:
256,192,91806,1,0,0:0:0:0:
256,192,91937,1,6,0:0:0:0:
256,192,92197,1,4,0:0:0:0:
256,192,92328,1,2,0:0:0:0:
256,192,92393,1,2,0:0:0:0:
256,192,92458,1,0,0:0:0:0:
256,192,92589,1,0,0:0:0:0:
256,192,92719,1,2,0:0:0:0:
256,192,92784,1,0,0:0:0:0:
256,192,92850,1,2,0:0:0:0:
256,192,92915,1,2,0:0:0:0:
256,192,92980,1,0,0:0:0:0:
256,192,93111,1,0,0:0:0:0:
256,192,93241,1,2,0:0:0:0:
256,192,93371,1,0,0:0:0:0:
256,192,93437,1,0,0:0:0:0:
256,192,93502,1,2,0:0:0:0:
256,192,93632,1,0,0:0:0:0:
256,192,93763,1,2,0:0:0:0:
256,192,93828,1,2,0:0:0:0:
256,192,93893,1,0,0:0:0:0:
256,192,93958,1,0,0:0:0:0:
256,192,94024,1,2,0:0:0:0:
256,192,94154,1,0,0:0:0:0:
256,192,94284,1,2,0:0:0:0:
256,192,94415,1,0,0:0:0:0:
256,192,94480,1,0,0:0:0:0:
256,192,94545,1,2,0:0:0:0:
256,192,94676,1,0,0:0:0:0:
256,192,94806,1,2,0:0:0:0:
256,192,94871,1,0,0:0:0:0:
256,192,94937,1,2,0:0:0:0:
256,192,95002,1,2,0:0:0:0:
256,192,95067,1,0,0:0:0:0:
256,192,95197,1,0,0:0:0:0:
256,192,95328,1,2,0:0:0:0:
256,192,95458,1,0,0:0:0:0:
256,192,95589,1,2,0:0:0:0:
256,192,95719,1,0,0:0:0:0:
256,192,95850,1,2,0:0:0:0:
256,192,95915,1,2,0:0:0:0:
256,192,95980,1,2,0:0:0:0:
256,192,96045,1,2,0:0:0:0:
256,192,96111,1,0,0:0:0:0:
256,192,96241,1,0,0:0:0:0:
256,192,96371,1,6,0:0:0:0:
256,192,96502,1,0,0:0:0:0:
256,192,96567,1,0,0:0:0:0:
256,192,96632,1,2,0:0:0:0:
256,192,96763,1,0,0:0:0:0:
256,192,96893,1,2,0:0:0:0:
256,192,96958,1,0,0:0:0:0:
256,192,97024,1,2,0:0:0:0:
256,192,97089,1,2,0:0:0:0:
256,192,97154,1,0,0:0:0:0:
256,192,97284,1,2,0:0:0:0:
256,192,97415,1,0,0:0:0:0:
256,192,97545,1,2,0:0:0:0:
256,192,97611,1,2,0:0:0:0:
256,192,97676,1,0,0:0:0:0:
256,192,97806,1,0,0:0:0:0:
256,192,97937,1,2,0:0:0:0:
256,192,98002,1,2,0:0:0:0:
256,192,98067,1,0,0:0:0:0:
256,192,98132,1,2,0:0:0:0:
256,192,98197,1,0,0:0:0:0:
256,192,98328,1,0,0:0:0:0:
256,192,98458,1,2,0:0:0:0:
256,192,98589,1,0,0:0:0:0:
256,192,98654,1,0,0:0:0:0:
256,192,98719,1,2,0:0:0:0:
256,192,98850,1,0,0:0:0:0:
256,192,98980,1,2,0:0:0:0:
256,192,99045,1,2,0:0:0:0:
256,192,99111,1,0,0:0:0:0:
256,192,99176,1,0,0:0:0:0:
256,192,99241,1,2,0:0:0:0:
256,192,99371,1,0,0:0:0:0:
256,192,99502,1,2,0:0:0:0:
256,192,99567,1,2,0:0:0:0:
256,192,99632,1,2,0:0:0:0:
256,192,99697,1,2,0:0:0:0:
256,192,99763,1,0,0:0:0:0:
256,192,99893,1,0,0:0:0:0:
256,192,100024,1,6,0:0:0:0:
256,192,100415,1,0,0:0:0:0:
256,192,100545,1,2,0:0:0:0:
256,192,100611,1,2,0:0:0:0:
256,192,100676,1,0,0:0:0:0:
256,192,100741,1,0,0:0:0:0:
256,192,100806,1,0,0:0:0:0:
256,192,100871,1,0,0:0:0:0:
256,192,100937,1,2,0:0:0:0:
256,192,101002,1,0,0:0:0:0:
256,192,101067,1,0,0:0:0:0:
256,192,101132,1,0,0:0:0:0:
256,192,101197,1,0,0:0:0:0:
256,192,101263,1,0,0:0:0:0:
256,192,101328,1,2,0:0:0:0:
256,192,101393,1,2,0:0:0:0:
256,192,101458,1,2,0:0:0:0:
256,192,101524,1,0,0:0:0:0:
256,192,101589,1,2,0:0:0:0:
256,192,101654,1,2,0:0:0:0:
256,192,101719,1,0,0:0:0:0:
256,192,101784,1,0,0:0:0:0:
256,192,101850,1,0,0:0:0:0:
256,192,101915,1,0,0:0:0:0:
256,192,101980,1,2,0:0:0:0:
256,192,102045,1,0,0:0:0:0:
256,192,102111,1,0,0:0:0:0:
256,192,102176,1,0,0:0:0:0:
256,192,102241,1,0,0:0:0:0:
256,192,102306,1,0,0:0:0:0:
256,192,102371,1,2,0:0:0:0:
256,192,102437,1,2,0:0:0:0:
256,192,102502,1,2,0:0:0:0:
256,192,102567,1,0,0:0:0:0:
256,192,102632,1,2,0:0:0:0:
256,192,102697,1,2,0:0:0:0:
256,192,102763,1,0,0:0:0:0:
256,192,102828,1,0,0:0:0:0:
256,192,102893,1,0,0:0:0:0:
256,192,102958,1,0,0:0:0:0:
256,192,103024,1,2,0:0:0:0:
256,192,103089,1,0,0:0:0:0:
256,192,103154,1,0,0:0:0:0:
256,192,103219,1,0,0:0:0:0:
256,192,103284,1,0,0:0:0:0:
256,192,103350,1,0,0:0:0:0:
256,192,103415,1,2,0:0:0:0:
256,192,103480,1,2,0:0:0:0:
256,192,103545,1,0,0:0:0:0:
256,192,103611,1,0,0:0:0:0:
256,192,103676,1,2,0:0:0:0:
256,192,103741,1,2,0:0:0:0:
256,192,103806,1,2,0:0:0:0:
256,192,103871,1,0,0:0:0:0:
256,192,103937,1,2,0:0:0:0:
256,192,104002,1,2,0:0:0:0:
256,192,104067,1,0,0:0:0:0:
256,192,104132,1,0,0:0:0:0:
256,192,104197,1,2,0:0:0:0:
256,192,104263,1,0,0:0:0:0:
256,192,104328,1,0,0:0:0:0:
256,192,104393,1,0,0:0:0:0:
256,192,104458,1,2,0:0:0:0:
256,192,104524,1,2,0:0:0:0:
256,192,104589,1,0,0:0:0:0:
256,192,104654,1,0,0:0:0:0:
256,192,104719,1,6,0:0:0:0:
256,192,104850,1,0,0:0:0:0:
256,192,104915,1,0,0:0:0:0:
256,192,104980,1,0,0:0:0:0:
256,192,105111,1,2,0:0:0:0:
256,192,105176,1,2,0:0:0:0:
256,192,105241,1,0,0:0:0:0:
256,192,105371,1,2,0:0:0:0:
256,192,105437,1,2,0:0:0:0:
256,192,105502,1,2,0:0:0:0:
256,192,105632,1,0,0:0:0:0:
256,192,105697,1,0,0:0:0:0:
256,192,105763,1,2,0:0:0:0:
256,192,105828,1,0,0:0:0:0:
256,192,105893,1,0,0:0:0:0:
256,192,105958,1,0,0:0:0:0:
256,192,106024,1,2,0:0:0:0:
256,192,106089,1,2,0:0:0:0:
256,192,106154,1,0,0:0:0:0:
256,192,106219,1,0,0:0:0:0:
256,192,106284,1,2,0:0:0:0:
256,192,106350,1,2,0:0:0:0:
256,192,106415,1,2,0:0:0:0:
256,192,106480,1,0,0:0:0:0:
256,192,106545,1,2,0:0:0:0:
256,192,106611,1,2,0:0:0:0:
256,192,106676,1,0,0:0:0:0:
256,192,106741,1,0,0:0:0:0:
256,192,106806,1,6,0:0:0:0:
256,192,106937,1,0,0:0:0:0:
256,192,107002,1,0,0:0:0:0:
256,192,107067,1,2,0:0:0:0:
256,192,107132,1,0,0:0:0:0:
256,192,107197,1,0,0:0:0:0:
256,192,107263,1,0,0:0:0:0:
256,192,107328,1,2,0:0:0:0:
256,192,107393,1,2,0:0:0:0:
256,192,107458,1,0,0:0:0:0:
256,192,107524,1,0,0:0:0:0:
256,192,107589,1,2,0:0:0:0:
256,192,107654,1,2,0:0:0:0:
256,192,107719,1,2,0:0:0:0:
256,192,107784,1,0,0:0:0:0:
256,192,107850,1,2,0:0:0:0:
256,192,108111,1,0,0:0:0:0:
256,192,108371,1,2,0:0:0:0:
256,192,108502,1,0,0:0:0:0:
256,192,108632,1,6,0:0:0:0:
256,192,108893,1,6,0:0:0:0:
256,192,109024,1,0,0:0:0:0:
256,192,109089,1,0,0:0:0:0:
256,192,109154,1,2,0:0:0:0:
256,192,109219,1,2,0:0:0:0:
256,192,109284,1,0,0:0:0:0:
256,192,109415,1,2,0:0:0:0:
256,192,109480,1,0,0:0:0:0:
256,192,109545,1,2,0:0:0:0:
256,192,109611,1,2,0:0:0:0:
256,192,109676,1,0,0:0:0:0:
256,192,109741,1,0,0:0:0:0:
256,192,109806,1,2,0:0:0:0:
256,192,109871,1,0,0:0:0:0:
256,192,109937,1,2,0:0:0:0:
256,192,110067,1,0,0:0:0:0:
256,192,110132,1,0,0:0:0:0:
256,192,110197,1,2,0:0:0:0:
256,192,110263,1,2,0:0:0:0:
256,192,110328,1,0,0:0:0:0:
256,192,110458,1,2,0:0:0:0:
256,192,110524,1,0,0:0:0:0:
256,192,110589,1,2,0:0:0:0:
256,192,110654,1,2,0:0:0:0:
256,192,110719,1,0,0:0:0:0:
256,192,110850,1,0,0:0:0:0:
256,192,110980,1,2,0:0:0:0:
256,192,111111,1,0,0:0:0:0:
256,192,111176,1,0,0:0:0:0:
256,192,111241,1,2,0:0:0:0:
256,192,111306,1,2,0:0:0:0:
256,192,111371,1,0,0:0:0:0:
256,192,111502,1,2,0:0:0:0:
256,192,111567,1,0,0:0:0:0:
256,192,111632,1,2,0:0:0:0:
256,192,111697,1,2,0:0:0:0:
256,192,111763,1,0,0:0:0:0:
256,192,111828,1,0,0:0:0:0:
256,192,111893,1,2,0:0:0:0:
256,192,111958,1,0,0:0:0:0:
256,192,112024,1,2,0:0:0:0:
256,192,112154,1,0,0:0:0:0:
256,192,112219,1,0,0:0:0:0:
256,192,112284,1,2,0:0:0:0:
256,192,112350,1,2,0:0:0:0:
256,192,112415,1,0,0:0:0:0:
256,192,112545,1,2,0:0:0:0:
256,192,112611,1,2,0:0:0:0:
256,192,112676,1,0,0:0:0:0:
256,192,112741,1,0,0:0:0:0:
256,192,112806,1,2,0:0:0:0:
256,192,112937,1,0,0:0:0:0:
256,192,113067,1,2,0:0:0:0:
256,192,113132,1,0,0:0:0:0:
256,192,113197,1,2,0:0:0:0:
256,192,113263,1,2,0:0:0:0:
256,192,113328,1,0,0:0:0:0:
256,192,113393,1,0,0:0:0:0:
256,192,113458,1,2,0:0:0:0:
256,192,113524,1,0,0:0:0:0:
256,192,113589,1,2,0:0:0:0:
256,192,113719,1,2,0:0:0:0:
256,192,113784,1,2,0:0:0:0:
256,192,113850,1,0,0:0:0:0:
256,192,113980,1,0,0:0:0:0:
256,192,114111,1,2,0:0:0:0:
256,192,114241,1,0,0:0:0:0:
256,192,114306,1,0,0:0:0:0:
256,192,114371,1,2,0:0:0:0:
256,192,114437,1,0,0:0:0:0:
256,192,114502,1,2,0:0:0:0:
256,192,114567,1,2,0:0:0:0:
256,192,114632,1,0,0:0:0:0:
256,192,114763,1,0,0:0:0:0:
256,192,114893,1,2,0:0:0:0:
256,192,114958,1,2,0:0:0:0:
256,192,115024,1,0,0:0:0:0:
256,192,115089,1,0,0:0:0:0:
256,192,115154,1,2,0:0:0:0:
256,192,115219,1,2,0:0:0:0:
256,192,115284,1,2,0:0:0:0:
256,192,115350,1,2,0:0:0:0:
256,192,115415,1,0,0:0:0:0:
256,192,115545,1,2,0:0:0:0:
256,192,115611,1,2,0:0:0:0:
256,192,115676,1,2,0:0:0:0:
256,192,115741,1,0,0:0:0:0:
256,192,115806,1,0,0:0:0:0:
256,192,115937,1,2,0:0:0:0:
256,192,116002,1,2,0:0:0:0:
256,192,116067,1,2,0:0:0:0:
256,192,116132,1,2,0:0:0:0:
256,192,116197,1,0,0:0:0:0:
256,192,116328,1,2,0:0:0:0:
256,192,116393,1,2,0:0:0:0:
256,192,116458,1,2,0:0:0:0:
256,192,116524,1,0,0:0:0:0:
256,192,116589,1,0,0:0:0:0:
256,192,116719,1,2,0:0:0:0:
256,192,116784,1,2,0:0:0:0:
256,192,116850,1,2,0:0:0:0:
256,192,116915,1,2,0:0:0:0:
256,192,116980,1,0,0:0:0:0:
256,192,117241,1,2,0:0:0:0:
256,192,117371,1,2,0:0:0:0:
256,192,117502,1,0,0:0:0:0:
256,192,117632,1,0,0:0:0:0:
256,192,117763,1,6,0:0:0:0:
256,192,117893,1,2,0:0:0:0:
256,192,117958,1,2,0:0:0:0:
256,192,118024,1,0,0:0:0:0:
256,192,118154,1,2,0:0:0:0:
256,192,118415,1,2,0:0:0:0:
256,192,118545,1,0,0:0:0:0:
256,192,118611,1,2,0:0:0:0:
256,192,118676,1,0,0:0:0:0:
256,192,118806,1,2,0:0:0:0:
256,192,118937,1,2,0:0:0:0:
256,192,119067,1,0,0:0:0:0:
256,192,119328,1,2,0:0:0:0:
256,192,119458,1,2,0:0:0:0:
256,192,119524,1,2,0:0:0:0:
256,192,119589,1,0,0:0:0:0:
256,192,119719,1,0,0:0:0:0:
256,192,119850,1,2,0:0:0:0:
256,192,119980,1,0,0:0:0:0:
256,192,120045,1,0,0:0:0:0:
256,192,120111,1,2,0:0:0:0:
256,192,120241,1,2,0:0:0:0:
256,192,120502,1,0,0:0:0:0:
256,192,120632,1,2,0:0:0:0:
256,192,120763,1,0,0:0:0:0:
256,192,120828,1,0,0:0:0:0:
256,192,120893,1,2,0:0:0:0:
256,192,121024,1,2,0:0:0:0:
256,192,121154,1,0,0:0:0:0:
256,192,121415,1,6,0:0:0:0:
256,192,121545,1,2,0:0:0:0:
256,192,121611,1,2,0:0:0:0:
256,192,121676,1,0,0:0:0:0:
256,192,121806,1,0,0:0:0:0:
256,192,121937,1,2,0:0:0:0:
256,192,122067,1,0,0:0:0:0:
256,192,122132,1,0,0:0:0:0:
256,192,122197,1,2,0:0:0:0:
256,192,122328,1,2,0:0:0:0:
256,192,122589,1,2,0:0:0:0:
256,192,122719,1,0,0:0:0:0:
256,192,122784,1,2,0:0:0:0:
256,192,122850,1,0,0:0:0:0:
256,192,122980,1,2,0:0:0:0:
256,192,123111,1,2,0:0:0:0:
256,192,123241,1,0,0:0:0:0:
256,192,123306,1,0,0:0:0:0:
256,192,123371,1,0,0:0:0:0:
256,192,123437,1,0,0:0:0:0:
256,192,123502,1,6,0:0:0:0:
256,192,123893,1,6,0:0:0:0:
256,192,124284,1,6,0:0:0:0:
256,192,124676,1,4,0:0:0:0:
256,192,124806,1,4,0:0:0:0:
256,192,125067,1,2,0:0:0:0:
256,192,125132,1,2,0:0:0:0:
256,192,125197,1,2,0:0:0:0:
256,192,125263,1,2,0:0:0:0:
256,192,125328,1,4,0:0:0:0:
256,192,125589,1,6,0:0:0:0:
256,192,125980,1,2,0:0:0:0:
256,192,126371,1,2,0:0:0:0:
256,192,126632,1,2,0:0:0:0:
256,192,127024,1,2,0:0:0:0:
256,192,127415,1,2,0:0:0:0:
256,192,127676,1,0,0:0:0:0:
256,192,128067,1,0,0:0:0:0:
256,192,128458,1,0,0:0:0:0:
256,192,128719,1,0,0:0:0:0:
256,192,129111,1,0,0:0:0:0:
256,192,129502,1,0,0:0:0:0:
256,192,129763,1,2,0:0:0:0:
256,192,130024,1,0,0:0:0:0:
256,192,130154,1,2,0:0:0:0:
256,192,130415,1,0,0:0:0:0:
256,192,130545,1,2,0:0:0:0:
256,192,130806,1,0,0:0:0:0:
256,192,130937,1,2,0:0:0:0:
256,192,131197,1,0,0:0:0:0:
256,192,131328,1,0,0:0:0:0:
256,192,131458,1,2,0:0:0:0:
256,192,131719,1,0,0:0:0:0:
256,192,131850,1,2,0:0:0:0:
256,192,132111,1,0,0:0:0:0:
256,192,132241,1,2,0:0:0:0:
256,192,132502,1,0,0:0:0:0:
256,192,132632,1,2,0:0:0:0:
256,192,132763,1,0,0:0:0:0:
256,192,132893,1,0,0:0:0:0:
256,192,133024,1,2,0:0:0:0:
256,192,133284,1,0,0:0:0:0:
256,192,133545,1,2,0:0:0:0:
256,192,133676,1,0,0:0:0:0:
256,192,133937,1,6,0:0:0:0:
256,192,134197,1,0,0:0:0:0:
256,192,134263,1,0,0:0:0:0:
256,192,134328,1,2,0:0:0:0:
256,192,134393,1,0,0:0:0:0:
256,192,134458,1,2,0:0:0:0:
256,192,134524,1,2,0:0:0:0:
256,192,134589,1,0,0:0:0:0:
256,192,134654,1,0,0:0:0:0:
256,192,134719,1,2,0:0:0:0:
256,192,134784,1,0,0:0:0:0:
256,192,134850,1,2,0:0:0:0:
256,192,134915,1,2,0:0:0:0:
256,192,134980,1,0,0:0:0:0:
256,192,135045,1,0,0:0:0:0:
256,192,135111,1,2,0:0:0:0:
256,192,135176,1,0,0:0:0:0:
256,192,135241,1,2,0:0:0:0:
256,192,135306,1,2,0:0:0:0:
256,192,135371,1,0,0:0:0:0:
256,192,135437,1,0,0:0:0:0:
256,192,135502,1,2,0:0:0:0:
256,192,135567,1,0,0:0:0:0:
256,192,135632,1,0,0:0:0:0:
256,192,135697,1,0,0:0:0:0:
256,192,135763,1,2,0:0:0:0:
256,192,135828,1,2,0:0:0:0:
256,192,135893,1,0,0:0:0:0:
256,192,135958,1,0,0:0:0:0:
256,192,136024,1,2,0:0:0:0:
256,192,136284,1,0,0:0:0:0:
256,192,136350,1,0,0:0:0:0:
256,192,136415,1,2,0:0:0:0:
256,192,136480,1,0,0:0:0:0:
256,192,136545,1,2,0:0:0:0:
256,192,136611,1,2,0:0:0:0:
256,192,136676,1,0,0:0:0:0:
256,192,136741,1,0,0:0:0:0:
256,192,136806,1,2,0:0:0:0:
256,192,136871,1,2,0:0:0:0:
256,192,136937,1,0,0:0:0:0:
256,192,137002,1,0,0:0:0:0:
256,192,137067,1,2,0:0:0:0:
256,192,137328,1,0,0:0:0:0:
256,192,137393,1,0,0:0:0:0:
256,192,137458,1,2,0:0:0:0:
256,192,137524,1,0,0:0:0:0:
256,192,137589,1,2,0:0:0:0:
256,192,137654,1,2,0:0:0:0:
256,192,137719,1,0,0:0:0:0:
256,192,137784,1,0,0:0:0:0:
256,192,137850,1,2,0:0:0:0:
256,192,137915,1,2,0:0:0:0:
256,192,137980,1,0,0:0:0:0:
256,192,138045,1,0,0:0:0:0:
256,192,138111,1,2,0:0:0:0:
256,192,138241,1,0,0:0:0:0:
256,192,138371,1,2,0:0:0:0:
256,192,138502,1,0,0:0:0:0:
256,192,138632,1,2,0:0:0:0:
256,192,138763,1,0,0:0:0:0:
256,192,138893,1,2,0:0:0:0:
256,192,139024,1,0,0:0:0:0:
256,192,139154,1,2,0:0:0:0:
256,192,139284,1,0,0:0:0:0:
256,192,139415,1,2,0:0:0:0:
256,192,139545,1,0,0:0:0:0:
256,192,139676,1,2,0:0:0:0:
256,192,139806,1,0,0:0:0:0:
256,192,139937,1,2,0:0:0:0:
256,192,140067,1,0,0:0:0:0:
256,192,140197,1,2,0:0:0:0:
256,192,140263,1,2,0:0:0:0:
256,192,140328,1,2,0:0:0:0:
256,192,140393,1,0,0:0:0:0:
256,192,140458,1,2,0:0:0:0:
256,192,140524,1,2,0:0:0:0:
256,192,140589,1,0,0:0:0:0:
256,192,140654,1,0,0:0:0:0:
256,192,140719,1,2,0:0:0:0:
256,192,140784,1,2,0:0:0:0:
256,192,140850,1,2,0:0:0:0:
256,192,140915,1,0,0:0:0:0:
256,192,140980,1,2,0:0:0:0:
256,192,141045,1,2,0:0:0:0:
256,192,141111,1,0,0:0:0:0:
256,192,141176,1,0,0:0:0:0:
256,192,141241,1,2,0:0:0:0:
256,192,141371,1,0,0:0:0:0:
256,192,141502,1,2,0:0:0:0:
256,192,141632,1,2,0:0:0:0:
256,192,141763,1,0,0:0:0:0:
256,192,141893,1,0,0:0:0:0:
256,192,142024,1,6,0:0:0:0:
256,192,142284,1,4,0:0:0:0:
256,192,142545,1,0,0:0:0:0:
256,192,142676,1,2,0:0:0:0:
256,192,142741,1,2,0:0:0:0:
256,192,142806,1,0,0:0:0:0:
256,192,142937,1,2,0:0:0:0:
256,192,143002,1,2,0:0:0:0:
256,192,143067,1,2,0:0:0:0:
256,192,143197,1,0,0:0:0:0:
256,192,143263,1,0,0:0:0:0:
256,192,143328,1,2,0:0:0:0:
256,192,143393,1,0,0:0:0:0:
256,192,143458,1,2,0:0:0:0:
256,192,143524,1,2,0:0:0:0:
256,192,143589,1,0,0:0:0:0:
256,192,143719,1,2,0:0:0:0:
256,192,143784,1,2,0:0:0:0:
256,192,143850,1,2,0:0:0:0:
256,192,143980,1,0,0:0:0:0:
256,192,144045,1,0,0:0:0:0:
256,192,144111,1,2,0:0:0:0:
256,192,144241,1,0,0:0:0:0:
256,192,144371,1,2,0:0:0:0:
256,192,144632,1,2,0:0:0:0:
256,192,144763,1,0,0:0:0:0:
256,192,144828,1,0,0:0:0:0:
256,192,144893,1,0,0:0:0:0:
256,192,145024,1,2,0:0:0:0:
256,192,145089,1,2,0:0:0:0:
256,192,145154,1,0,0:0:0:0:
256,192,145219,1,2,0:0:0:0:
256,192,145284,1,0,0:0:0:0:
256,192,145350,1,0,0:0:0:0:
256,192,145415,1,2,0:0:0:0:
256,192,145545,1,0,0:0:0:0:
256,192,145611,1,0,0:0:0:0:
256,192,145676,1,2,0:0:0:0:
256,192,145806,1,0,0:0:0:0:
256,192,145937,1,2,0:0:0:0:
256,192,146002,1,2,0:0:0:0:
256,192,146067,1,0,0:0:0:0:
256,192,146132,1,0,0:0:0:0:
256,192,146197,1,2,0:0:0:0:
256,192,146263,1,0,0:0:0:0:
256,192,146328,1,2,0:0:0:0:
256,192,146393,1,2,0:0:0:0:
256,192,146458,1,0,0:0:0:0:
256,192,146589,1,2,0:0:0:0:
256,192,146654,1,2,0:0:0:0:
256,192,146719,1,2,0:0:0:0:
256,192,146850,1,0,0:0:0:0:
256,192,146915,1,0,0:0:0:0:
256,192,146980,1,2,0:0:0:0:
256,192,147045,1,0,0:0:0:0:
256,192,147111,1,2,0:0:0:0:
256,192,147176,1,2,0:0:0:0:
256,192,147241,1,0,0:0:0:0:
256,192,147371,1,2,0:0:0:0:
256,192,147502,1,0,0:0:0:0:
256,192,147567,1,0,0:0:0:0:
256,192,147632,1,2,0:0:0:0:
256,192,147697,1,2,0:0:0:0:
256,192,147763,1,0,0:0:0:0:
256,192,147893,1,2,0:0:0:0:
256,192,147958,1,2,0:0:0:0:
256,192,148024,1,2,0:0:0:0:
256,192,148154,1,0,0:0:0:0:
256,192,148284,1,2,0:0:0:0:
256,192,148415,1,2,0:0:0:0:
256,192,148545,1,0,0:0:0:0:
256,192,148676,1,2,0:0:0:0:
256,192,148741,1,2,0:0:0:0:
256,192,148806,1,0,0:0:0:0:
256,192,148937,1,2,0:0:0:0:
256,192,149067,1,0,0:0:0:0:
256,192,149132,1,0,0:0:0:0:
256,192,149197,1,2,0:0:0:0:
256,192,149263,1,0,0:0:0:0:
256,192,149328,1,2,0:0:0:0:
256,192,149458,1,0,0:0:0:0:
256,192,149589,1,2,0:0:0:0:
256,192,149850,1,2,0:0:0:0:
256,192,150111,1,0,0:0:0:0:
256,192,150176,1,0,0:0:0:0:
256,192,150241,1,0,0:0:0:0:
256,192,150306,1,0,0:0:0:0:
256,192,150371,1,2,0:0:0:0:
256,192,150632,1,2,0:0:0:0:
256,192,150697,1,2,0:0:0:0:
256,192,150763,1,0,0:0:0:0:
256,192,150828,1,0,0:0:0:0:
256,192,150893,1,2,0:0:0:0:
256,192,150958,1,0,0:0:0:0:
256,192,151024,1,2,0:0:0:0:
256,192,151089,1,0,0:0:0:0:
256,192,151154,1,2,0:0:0:0:
256,192,151219,1,2,0:0:0:0:
256,192,151284,1,0,0:0:0:0:
256,192,151350,1,0,0:0:0:0:
256,192,151415,1,2,0:0:0:0:
256,192,151480,1,0,0:0:0:0:
256,192,151545,1,2,0:0:0:0:
256,192,151611,1,0,0:0:0:0:
256,192,151676,1,2,0:0:0:0:
256,192,151741,1,2,0:0:0:0:
256,192,151806,1,0,0:0:0:0:
256,192,151871,1,0,0:0:0:0:
256,192,151937,1,2,0:0:0:0:
256,192,152002,1,0,0:0:0:0:
256,192,152067,1,0,0:0:0:0:
256,192,152132,1,0,0:0:0:0:
256,192,152197,1,2,0:0:0:0:
256,192,152263,1,2,0:0:0:0:
256,192,152328,1,0,0:0:0:0:
256,192,152393,1,0,0:0:0:0:
256,192,152458,1,2,0:0:0:0:
256,192,152524,1,0,0:0:0:0:
256,192,152589,1,0,0:0:0:0:
256,192,152654,1,0,0:0:0:0:
256,192,152719,1,6,0:0:0:0:
256,192,152980,1,0,0:0:0:0:
256,192,153111,1,6,0:0:0:0:
256,192,153371,1,0,0:0:0:0:
256,192,153502,1,6,0:0:0:0:
256,192,153893,1,0,0:0:0:0:
256,192,154024,1,2,0:0:0:0:
256,192,154089,1,2,0:0:0:0:
256,192,154154,1,0,0:0:0:0:
256,192,154219,1,0,0:0:0:0:
256,192,154284,1,2,0:0:0:0:
256,192,154350,1,0,0:0:0:0:
256,192,154415,1,2,0:0:0:0:
256,192,154480,1,2,0:0:0:0:
256,192,154545,1,0,0:0:0:0:
256,192,154611,1,0,0:0:0:0:
256,192,154676,1,2,0:0:0:0:
256,192,154741,1,2,0:0:0:0:
256,192,154806,1,4,0:0:0:0:
256,192,154937,1,0,0:0:0:0:
256,192,155067,1,2,0:0:0:0:
256,192,155197,1,0,0:0:0:0:
256,192,155328,1,2,0:0:0:0:
256,192,155458,1,0,0:0:0:0:
256,192,155524,1,0,0:0:0:0:
256,192,155589,1,2,0:0:0:0:
256,192,155719,1,0,0:0:0:0:
256,192,155850,1,2,0:0:0:0:
256,192,155980,1,0,0:0:0:0:
256,192,156045,1,0,0:0:0:0:
256,192,156111,1,2,0:0:0:0:
256,192,156241,1,0,0:0:0:0:
256,192,156371,1,2,0:0:0:0:
256,192,156437,1,2,0:0:0:0:
256,192,156502,1,0,0:0:0:0:
256,192,156567,1,0,0:0:0:0:
256,192,156632,1,2,0:0:0:0:
256,192,156763,1,0,0:0:0:0:
256,192,156893,1,2,0:0:0:0:
256,192,157024,1,0,0:0:0:0:
256,192,157089,1,0,0:0:0:0:
256,192,157154,1,2,0:0:0:0:
256,192,157219,1,2,0:0:0:0:
256,192,157284,1,0,0:0:0:0:
256,192,157415,1,2,0:0:0:0:
256,192,157545,1,0,0:0:0:0:
256,192,157611,1,0,0:0:0:0:
256,192,157676,1,2,0:0:0:0:
256,192,157806,1,0,0:0:0:0:
256,192,157937,1,6,0:0:0:0:
256,192,158067,1,6,0:0:0:0:
256,192,158328,1,4,0:0:0:0:
256,192,158458,1,6,0:0:0:0:
256,192,158589,1,4,0:0:0:0:
256,192,158850,1,0,0:0:0:0:
256,192,158980,1,6,0:0:0:0:
256,192,159241,1,0,0:0:0:0:
256,192,159371,1,0,0:0:0:0:
256,192,159502,1,2,0:0:0:0:
256,192,159632,1,0,0:0:0:0:
256,192,159763,1,2,0:0:0:0:
256,192,159893,1,2,0:0:0:0:
256,192,160024,1,0,0:0:0:0:
256,192,160284,1,2,0:0:0:0:
256,192,160415,1,2,0:0:0:0:
256,192,160545,1,0,0:0:0:0:
256,192,160806,1,0,0:0:0:0:
256,192,161067,1,2,0:0:0:0:
256,192,161328,1,0,0:0:0:0:
256,192,161458,1,2,0:0:0:0:
256,192,161589,1,0,0:0:0:0:
256,192,161719,1,0,0:0:0:0:
256,192,161850,1,2,0:0:0:0:
256,192,161980,1,2,0:0:0:0:
256,192,162111,1,0,0:0:0:0:
256,192,162371,1,2,0:0:0:0:
256,192,162502,1,2,0:0:0:0:
256,192,162632,1,0,0:0:0:0:
256,192,162893,1,2,0:0:0:0:
256,192,163154,1,0,0:0:0:0:
256,192,163415,1,0,0:0:0:0:
256,192,163545,1,0,0:0:0:0:
256,192,163676,1,2,0:0:0:0:
256,192,163806,1,0,0:0:0:0:
256,192,163937,1,2,0:0:0:0:
256,192,164067,1,2,0:0:0:0:
256,192,164197,1,0,0:0:0:0:
256,192,164458,1,2,0:0:0:0:
256,192,164589,1,2,0:0:0:0:
256,192,164719,1,0,0:0:0:0:
256,192,164980,1,0,0:0:0:0:
256,192,165241,1,2,0:0:0:0:
256,192,165502,1,0,0:0:0:0:
256,192,165632,1,2,0:0:0:0:
256,192,165763,1,0,0:0:0:0:
256,192,165893,1,0,0:0:0:0:
256,192,166024,1,2,0:0:0:0:
256,192,166154,1,0,0:0:0:0:
256,192,166284,1,2,0:0:0:0:
256,192,166415,1,0,0:0:0:0:
256,192,166480,1,0,0:0:0:0:
256,192,166545,1,2,0:0:0:0:
256,192,166676,1,0,0:0:0:0:
256,192,166806,1,2,0:0:0:0:
256,192,167067,1,0,0:0:0:0:
256,192,167328,1,6,0:0:0:0:
256,192,167458,1,0,0:0:0:0:
256,192,167589,1,2,0:0:0:0:
256,192,167719,1,2,0:0:0:0:
256,192,167850,1,0,0:0:0:0:
256,192,167980,1,0,0:0:0:0:
256,192,168111,1,2,0:0:0:0:
256,192,168241,1,0,0:0:0:0:
256,192,168371,1,2,0:0:0:0:
256,192,168502,1,2,0:0:0:0:
256,192,168632,1,0,0:0:0:0:
256,192,168763,1,0,0:0:0:0:
256,192,168893,1,2,0:0:0:0:
256,192,169024,1,0,0:0:0:0:
256,192,169154,1,0,0:0:0:0:
256,192,169284,1,0,0:0:0:0:
256,192,169415,1,2,0:0:0:0:
256,192,169545,1,2,0:0:0:0:
256,192,169676,1,0,0:0:0:0:
256,192,169806,1,0,0:0:0:0:
256,192,169937,1,2,0:0:0:0:
256,192,170067,1,0,0:0:0:0:
256,192,170197,1,2,0:0:0:0:
256,192,170328,1,2,0:0:0:0:
256,192,170458,1,0,0:0:0:0:
256,192,170589,1,2,0:0:0:0:
256,192,170719,1,0,0:0:0:0:
256,192,170850,1,0,0:0:0:0:
256,192,170980,1,2,0:0:0:0:
256,192,171111,1,2,0:0:0:0:
256,192,171241,1,0,0:0:0:0:
256,192,171371,1,0,0:0:0:0:
256,192,171502,1,2,0:0:0:0:
256,192,171632,1,0,0:0:0:0:
256,192,171763,1,2,0:0:0:0:
256,192,171893,1,0,0:0:0:0:
256,192,172024,1,2,0:0:0:0:
256,192,172154,1,2,0:0:0:0:
256,192,172284,1,0,0:0:0:0:
256,192,172415,1,0,0:0:0:0:
256,192,172545,1,2,0:0:0:0:
256,192,172676,1,0,0:0:0:0:
256,192,172806,1,2,0:0:0:0:
256,192,172937,1,0,0:0:0:0:
256,192,173067,1,2,0:0:0:0:
256,192,173197,1,2,0:0:0:0:
256,192,173328,1,0,0:0:0:0:
256,192,173458,1,0,0:0:0:0:
256,192,173589,1,2,0:0:0:0:
256,192,173719,1,2,0:0:0:0:
256,192,173850,1,0,0:0:0:0:
256,192,173980,1,2,0:0:0:0:
256,192,174111,1,0,0:0:0:0:
256,192,174241,1,0,0:0:0:0:
256,192,174371,1,2,0:0:0:0:
256,192,174502,1,0,0:0:0:0:
256,192,174632,1,2,0:0:0:0:
256,192,174893,1,2,0:0:0:0:
256,192,175154,1,2,0:0:0:0:
256,192,175676,1,6,0:0:0:0:
256,192,175806,1,0,0:0:0:0:
256,192,175937,1,2,0:0:0:0:
256,192,176067,1,0,0:0:0:0:
256,192,176197,1,2,0:0:0:0:
256,192,176328,1,0,0:0:0:0:
256,192,176393,1,0,0:0:0:0:
256,192,176458,1,2,0:0:0:0:
256,192,176589,1,0,0:0:0:0:
256,192,176719,1,2,0:0:0:0:
256,192,176850,1,0,0:0:0:0:
256,192,176980,1,2,0:0:0:0:
256,192,177111,1,0,0:0:0:0:
256,192,177241,1,2,0:0:0:0:
256,192,177306,1,2,0:0:0:0:
256,192,177371,1,2,0:0:0:0:
256,192,177437,1,2,0:0:0:0:
256,192,177502,1,0,0:0:0:0:
256,192,177632,1,0,0:0:0:0:
256,192,177763,1,2,0:0:0:0:
256,192,177893,1,0,0:0:0:0:
256,192,178024,1,2,0:0:0:0:
256,192,178154,1,0,0:0:0:0:
256,192,178284,1,2,0:0:0:0:
256,192,178415,1,0,0:0:0:0:
256,192,178480,1,0,0:0:0:0:
256,192,178545,1,2,0:0:0:0:
256,192,178676,1,0,0:0:0:0:
256,192,178806,1,2,0:0:0:0:
256,192,178937,1,2,0:0:0:0:
256,192,179067,1,0,0:0:0:0:
256,192,179132,1,0,0:0:0:0:
256,192,179197,1,2,0:0:0:0:
256,192,179263,1,2,0:0:0:0:
256,192,179328,1,0,0:0:0:0:
256,192,179458,1,0,0:0:0:0:
256,192,179589,1,2,0:0:0:0:
256,192,179850,1,6,0:0:0:0:
256,192,179980,1,0,0:0:0:0:
256,192,180111,1,2,0:0:0:0:
256,192,180241,1,0,0:0:0:0:
256,192,180371,1,2,0:0:0:0:
256,192,180502,1,0,0:0:0:0:
256,192,180567,1,0,0:0:0:0:
256,192,180632,1,2,0:0:0:0:
256,192,180763,1,0,0:0:0:0:
256,192,180893,1,2,0:0:0:0:
256,192,181024,1,0,0:0:0:0:
256,192,181154,1,2,0:0:0:0:
256,192,181284,1,0,0:0:0:0:
256,192,181415,1,2,0:0:0:0:
256,192,181545,1,2,0:0:0:0:
256,192,181611,1,2,0:0:0:0:
256,192,181676,1,0,0:0:0:0:
256,192,181806,1,0,0:0:0:0:
256,192,181937,1,2,0:0:0:0:
256,192,182002,1,2,0:0:0:0:
256,192,182067,1,2,0:0:0:0:
256,192,182132,1,2,0:0:0:0:
256,192,182197,1,0,0:0:0:0:
256,192,182328,1,2,0:0:0:0:
256,192,182393,1,2,0:0:0:0:
256,192,182458,1,2,0:0:0:0:
256,192,182524,1,0,0:0:0:0:
256,192,182589,1,0,0:0:0:0:
256,192,182719,1,2,0:0:0:0:
256,192,182784,1,2,0:0:0:0:
256,192,182850,1,2,0:0:0:0:
256,192,182915,1,2,0:0:0:0:
256,192,182980,1,0,0:0:0:0:
256,192,183111,1,2,0:0:0:0:
256,192,183176,1,2,0:0:0:0:
256,192,183241,1,2,0:0:0:0:
256,192,183306,1,0,0:0:0:0:
256,192,183371,1,0,0:0:0:0:
256,192,183502,1,2,0:0:0:0:
256,192,183567,1,2,0:0:0:0:
256,192,183632,1,2,0:0:0:0:
256,192,183697,1,2,0:0:0:0:
256,192,183763,1,0,0:0:0:0:
256,192,184024,1,2,0:0:0:0:
256,192,184154,1,2,0:0:0:0:
256,192,184284,1,0,0:0:0:0:
256,192,184415,1,0,0:0:0:0:
256,192,184545,1,6,0:0:0:0:
256,192,184676,1,2,0:0:0:0:
256,192,184741,1,2,0:0:0:0:
256,192,184806,1,0,0:0:0:0:
256,192,184937,1,2,0:0:0:0:
256,192,185197,1,2,0:0:0:0:
256,192,185328,1,0,0:0:0:0:
256,192,185393,1,2,0:0:0:0:
256,192,185458,1,0,0:0:0:0:
256,192,185589,1,2,0:0:0:0:
256,192,185719,1,2,0:0:0:0:
256,192,185850,1,0,0:0:0:0:
256,192,186111,1,2,0:0:0:0:
256,192,186241,1,2,0:0:0:0:
256,192,186306,1,2,0:0:0:0:
256,192,186371,1,0,0:0:0:0:
256,192,186502,1,0,0:0:0:0:
256,192,186632,1,2,0:0:0:0:
256,192,186763,1,0,0:0:0:0:
256,192,186828,1,0,0:0:0:0:
256,192,186893,1,2,0:0:0:0:
256,192,187024,1,2,0:0:0:0:
256,192,187284,1,0,0:0:0:0:
256,192,187415,1,2,0:0:0:0:
256,192,187545,1,0,0:0:0:0:
256,192,187611,1,0,0:0:0:0:
256,192,187676,1,2,0:0:0:0:
256,192,187806,1,2,0:0:0:0:
256,192,187937,1,0,0:0:0:0:
256,192,188197,1,6,0:0:0:0:
256,192,188328,1,2,0:0:0:0:
256,192,188393,1,2,0:0:0:0:
256,192,188458,1,0,0:0:0:0:
256,192,188589,1,0,0:0:0:0:
256,192,188719,1,2,0:0:0:0:
256,192,188850,1,0,0:0:0:0:
256,192,188915,1,0,0:0:0:0:
256,192,188980,1,2,0:0:0:0:
256,192,189111,1,2,0:0:0:0:
256,192,189371,1,2,0:0:0:0:
256,192,189502,1,0,0:0:0:0:
256,192,189567,1,2,0:0:0:0:
256,192,189632,1,0,0:0:0:0:
256,192,189763,1,2,0:0:0:0:
256,192,189893,1,2,0:0:0:0:
256,192,190024,1,0,0:0:0:0:
256,192,190089,1,0,0:0:0:0:
256,192,190154,1,0,0:0:0:0:
256,192,190219,1,0,0:0:0:0:
256,192,190284,1,6,0:0:0:0:
256,192,190676,1,6,0:0:0:0:
256,192,191067,1,6,0:0:0:0:
256,192,191458,1,4,0:0:0:0:
256,192,191589,1,4,0:0:0:0:
256,192,191850,1,2,0:0:0:0:
256,192,191915,1,2,0:0:0:0:
256,192,191980,1,2,0:0:0:0:
256,192,192045,1,2,0:0:0:0:
256,192,192111,1,0,0:0:0:0:
256,192,192176,1,0,0:0:0:0:
256,192,192241,1,2,0:0:0:0:
256,192,192306,1,0,0:0:0:0:
256,192,192371,1,6,0:0:0:0:
256,192,192502,1,0,0:0:0:0:
256,192,192567,1,0,0:0:0:0:
256,192,192632,1,2,0:0:0:0:
256,192,192763,1,0,0:0:0:0:
256,192,192893,1,2,0:0:0:0:
256,192,192958,1,2,0:0:0:0:
256,192,193024,1,0,0:0:0:0:
256,192,193089,1,0,0:0:0:0:
256,192,193154,1,2,0:0:0:0:
256,192,193284,1,0,0:0:0:0:
256,192,193415,1,2,0:0:0:0:
256,192,193545,1,2,0:0:0:0:
256,192,193611,1,2,0:0:0:0:
256,192,193676,1,0,0:0:0:0:
256,192,193806,1,0,0:0:0:0:
256,192,193937,1,2,0:0:0:0:
256,192,194002,1,0,0:0:0:0:
256,192,194067,1,2,0:0:0:0:
256,192,194132,1,2,0:0:0:0:
256,192,194197,1,0,0:0:0:0:
256,192,194328,1,0,0:0:0:0:
256,192,194458,1,2,0:0:0:0:
256,192,194524,1,0,0:0:0:0:
256,192,194589,1,2,0:0:0:0:
256,192,194654,1,2,0:0:0:0:
256,192,194719,1,0,0:0:0:0:
256,192,194784,1,0,0:0:0:0:
256,192,194850,1,2,0:0:0:0:
256,192,194980,1,0,0:0:0:0:
256,192,195111,1,2,0:0:0:0:
256,192,195176,1,2,0:0:0:0:
256,192,195241,1,0,0:0:0:0:
256,192,195371,1,0,0:0:0:0:
256,192,195502,1,2,0:0:0:0:
256,192,195567,1,0,0:0:0:0:
256,192,195632,1,2,0:0:0:0:
256,192,195697,1,2,0:0:0:0:
256,192,195763,1,0,0:0:0:0:
256,192,195893,1,2,0:0:0:0:
256,192,196024,1,0,0:0:0:0:
256,192,196154,1,0,0:0:0:0:
256,192,196219,1,0,0:0:0:0:
256,192,196284,1,2,0:0:0:0:
256,192,196350,1,0,0:0:0:0:
256,192,196415,1,2,0:0:0:0:
256,192,196545,1,2,0:0:0:0:
256,192,196611,1,0,0:0:0:0:
256,192,196676,1,2,0:0:0:0:
256,192,196741,1,2,0:0:0:0:
256,192,196806,1,0,0:0:0:0:
256,192,196871,1,0,0:0:0:0:
256,192,196937,1,2,0:0:0:0:
256,192,197067,1,0,0:0:0:0:
256,192,197197,1,2,0:0:0:0:
256,192,197263,1,2,0:0:0:0:
256,192,197328,1,0,0:0:0:0:
256,192,197458,1,0,0:0:0:0:
256,192,197589,1,2,0:0:0:0:
256,192,197719,1,0,0:0:0:0:
256,192,197784,1,0,0:0:0:0:
256,192,197850,1,2,0:0:0:0:
256,192,197915,1,2,0:0:0:0:
256,192,197980,1,0,0:0:0:0:
256,192,198111,1,0,0:0:0:0:
256,192,198241,1,2,0:0:0:0:
256,192,198371,1,0,0:0:0:0:
256,192,198502,1,2,0:0:0:0:
256,192,198632,1,0,0:0:0:0:
256,192,198697,1,0,0:0:0:0:
256,192,198763,1,0,0:0:0:0:
256,192,198828,1,2,0:0:0:0:
256,192,198893,1,2,0:0:0:0:
256,192,199024,1,0,0:0:0:0:
256,192,199089,1,0,0:0:0:0:
256,192,199154,1,0,0:0:0:0:
256,192,199219,1,0,0:0:0:0:
256,192,199284,1,2,0:0:0:0:
256,192,199415,1,0,0:0:0:0:
256,192,199480,1,0,0:0:0:0:
256,192,199545,1,0,0:0:0:0:
256,192,199611,1,2,0:0:0:0:
256,192,199676,1,2,0:0:0:0:
256,192,199806,1,0,0:0:0:0:
256,192,199871,1,0,0:0:0:0:
256,192,199937,1,0,0:0:0:0:
256,192,200002,1,0,0:0:0:0:
256,192,200067,1,2,0:0:0:0:
256,192,200132,1,0,0:0:0:0:
256,192,200197,1,2,0:0:0:0:
256,192,200263,1,2,0:0:0:0:
256,192,200328,1,0,0:0:0:0:
256,192,200393,1,0,0:0:0:0:
256,192,200458,1,2,0:0:0:0:
256,192,200719,1,4,0:0:0:0:
256,192,200850,1,2,0:0:0:0:
256,192,200915,1,2,0:0:0:0:
256,192,200980,1,0,0:0:0:0:
256,192,201111,1,2,0:0:0:0:
256,192,201241,1,0,0:0:0:0:
256,192,201306,1,0,0:0:0:0:
256,192,201371,1,2,0:0:0:0:
256,192,201437,1,0,0:0:0:0:
256,192,201502,1,2,0:0:0:0:
256,192,201632,1,0,0:0:0:0:
256,192,201763,1,2,0:0:0:0:
256,192,201893,1,2,0:0:0:0:
256,192,201958,1,2,0:0:0:0:
256,192,202024,1,0,0:0:0:0:
256,192,202154,1,2,0:0:0:0:
256,192,202284,1,0,0:0:0:0:
256,192,202350,1,0,0:0:0:0:
256,192,202415,1,2,0:0:0:0:
256,192,202480,1,0,0:0:0:0:
256,192,202545,1,2,0:0:0:0:
256,192,202611,1,2,0:0:0:0:
256,192,202676,1,0,0:0:0:0:
256,192,202741,1,0,0:0:0:0:
256,192,202806,1,2,0:0:0:0:
256,192,202937,1,0,0:0:0:0:
256,192,203002,1,0,0:0:0:0:
256,192,203067,1,2,0:0:0:0:
256,192,203197,1,0,0:0:0:0:
256,192,203328,1,2,0:0:0:0:
256,192,203393,1,2,0:0:0:0:
256,192,203458,1,0,0:0:0:0:
256,192,203524,1,2,0:0:0:0:
256,192,203589,1,0,0:0:0:0:
256,192,203719,1,0,0:0:0:0:
256,192,203850,1,2,0:0:0:0:
256,192,203980,1,0,0:0:0:0:
256,192,204045,1,0,0:0:0:0:
256,192,204111,1,2,0:0:0:0:
256,192,204241,1,0,0:0:0:0:
256,192,204371,1,2,0:0:0:0:
256,192,204437,1,2,0:0:0:0:
256,192,204502,1,2,0:0:0:0:
256,192,204632,1,4,0:0:0:0:
256,192,204893,1,6,0:0:0:0:
256,192,205024,1,0,0:0:0:0:
256,192,205089,1,0,0:0:0:0:
256,192,205154,1,2,0:0:0:0:
256,192,205284,1,0,0:0:0:0:
256,192,205415,1,2,0:0:0:0:
256,192,205480,1,2,0:0:0:0:
256,192,205545,1,0,0:0:0:0:
256,192,205611,1,2,0:0:0:0:
256,192,205676,1,0,0:0:0:0:
256,192,205806,1,0,0:0:0:0:
256,192,205937,1,2,0:0:0:0:
256,192,206067,1,0,0:0:0:0:
256,192,206132,1,0,0:0:0:0:
256,192,206197,1,2,0:0:0:0:
256,192,206328,1,0,0:0:0:0:
256,192,206458,1,2,0:0:0:0:
256,192,206524,1,0,0:0:0:0:
256,192,206589,1,2,0:0:0:0:
256,192,206654,1,2,0:0:0:0:
256,192,206719,1,0,0:0:0:0:
256,192,206784,1,0,0:0:0:0:
256,192,206850,1,2,0:0:0:0:
256,192,206980,1,4,0:0:0:0:
256,192,207176,1,4,0:0:0:0:
256,192,207371,1,4,0:0:0:0:
256,192,207502,1,6,0:0:0:0:
256,192,207763,1,4,0:0:0:0:
256,192,207958,1,4,0:0:0:0:
256,192,208154,1,4,0:0:0:0:
256,192,208284,1,6,0:0:0:0:
256,192,208545,1,6,0:0:0:0:
256,192,208676,1,6,0:0:0:0:
