osu file format v14

[General]
AudioFilename: audio.mp3
AudioLeadIn: 0
PreviewTime: 44786
Countdown: 0
SampleSet: Normal
StackLeniency: 0.7
Mode: 1
LetterboxInBreaks: 0
WidescreenStoryboard: 0

[Editor]
DistanceSpacing: 1.7
BeatDivisor: 4
GridSize: 16
TimelineZoom: 1

[Metadata]
Title:Kuishinbo Hacker feat. Kuishinbo Akachan
TitleUnicode:くいしんぼハッカー feat. くいしんぼあかちゃん
Artist:Neko Hacker
ArtistUnicode:Neko Hacker
Creator:Elfin
Version:Muzukashii
Source:
Tags:ネコハッカー パへたべたい! Pahe-Tabetai! Parfait JPop J-Pop Pop Japanese Underflow Sylphi Endroll
BeatmapID:2325515
BeatmapSetID:1059046

[Difficulty]
HPDrainRate:6
CircleSize:5
OverallDifficulty:4
ApproachRate:5
SliderMultiplier:1.4
SliderTickRate:1

[Events]
//Background and Video events
0,0,"bg.jpg",0,40
Video,-15,"0.mp4"
//Break Periods
//Storyboard Layer 0 (Background)
//Storyboard Layer 1 (Fail)
//Storyboard Layer 2 (Pass)
//Storyboard Layer 3 (Foreground)
//Storyboard Layer 4 (Overlay)
//Storyboard Sound Samples

[TimingPoints]
215,428.571428571429,4,1,0,40,1,0
5786,-100,4,1,0,50,0,0
6215,-100,4,1,0,60,0,0
6643,-100,4,1,0,70,0,0
7072,-100,4,1,0,80,0,0
44786,-100,4,1,0,80,0,1
72215,-100,4,1,0,80,0,0
109929,-100,4,1,0,80,0,1
137357,-100,4,1,0,65,0,0
144215,-100,4,1,0,72,0,0
151072,-100,4,1,0,80,0,0
178500,-100,4,1,0,80,0,1
193929,-100,4,1,0,80,0,0

[HitObjects]
256,192,215,5,0,0:0:0:0:
256,192,429,1,8,0:0:0:0:
256,192,643,1,0,0:0:0:0:
256,192,750,1,0,0:0:0:0:
256,192,1072,1,0,0:0:0:0:
256,192,1179,1,8,0:0:0:0:
256,192,1500,1,0,0:0:0:0:
256,192,1715,1,8,0:0:0:0:
256,192,1929,1,0,0:0:0:0:
256,192,2143,1,8,0:0:0:0:
256,192,2357,1,0,0:0:0:0:
256,192,2465,1,0,0:0:0:0:
256,192,2786,1,0,0:0:0:0:
256,192,2893,1,8,0:0:0:0:
256,192,3215,1,0,0:0:0:0:
256,192,3429,1,8,0:0:0:0:
256,192,3643,1,0,0:0:0:0:
256,192,3857,1,8,0:0:0:0:
256,192,4072,1,0,0:0:0:0:
256,192,4179,1,0,0:0:0:0:
256,192,4500,1,0,0:0:0:0:
256,192,4607,1,8,0:0:0:0:
256,192,4929,1,0,0:0:0:0:
256,192,5143,1,8,0:0:0:0:
256,192,5357,1,0,0:0:0:0:
256,192,5572,1,8,0:0:0:0:
256,192,5786,1,0,0:0:0:0:
256,192,5893,1,8,0:0:0:0:
256,192,6215,1,8,0:0:0:0:
256,192,6322,1,8,0:0:0:0:
256,192,6429,1,8,0:0:0:0:
256,192,6643,1,0,0:0:0:0:
256,192,6857,1,8,0:0:0:0:
256,192,7500,1,4,0:0:0:0:
256,192,7822,1,8,0:0:0:0:
256,192,7929,1,0,0:0:0:0:
256,192,8143,1,8,0:0:0:0:
256,192,8357,1,8,0:0:0:0:
256,192,8572,1,0,0:0:0:0:
256,192,8679,1,0,0:0:0:0:
256,192,8786,1,0,0:0:0:0:
256,192,9215,1,0,0:0:0:0:
256,192,9429,1,0,0:0:0:0:
256,192,9536,1,0,0:0:0:0:
256,192,9643,1,0,0:0:0:0:
256,192,9857,1,8,0:0:0:0:
256,192,10072,1,8,0:0:0:0:
256,192,10286,1,0,0:0:0:0:
256,192,10500,1,0,0:0:0:0:
256,192,10929,1,0,0:0:0:0:
256,192,11250,1,8,0:0:0:0:
256,192,11357,1,0,0:0:0:0:
256,192,11572,1,8,0:0:0:0:
256,192,11786,1,8,0:0:0:0:
256,192,12000,1,0,0:0:0:0:
256,192,12107,1,0,0:0:0:0:
256,192,12215,1,0,0:0:0:0:
256,192,12643,1,0,0:0:0:0:
256,192,12857,1,8,0:0:0:0:
256,192,12965,1,8,0:0:0:0:
256,192,13072,1,8,0:0:0:0:
256,192,13286,1,0,0:0:0:0:
256,192,13500,1,8,0:0:0:0:
256,192,13715,1,8,0:0:0:0:
256,192,13929,1,4,0:0:0:0:
256,192,14786,1,8,0:0:0:0:
256,192,15107,1,8,0:0:0:0:
256,192,15429,1,0,0:0:0:0:
256,192,16072,1,8,0:0:0:0:
256,192,16179,1,8,0:0:0:0:
256,192,16500,1,0,0:0:0:0:
256,192,16822,1,8,0:0:0:0:
256,192,17143,1,0,0:0:0:0:
256,192,17786,1,8,0:0:0:0:
256,192,17893,1,8,0:0:0:0:
256,192,18215,1,0,0:0:0:0:
256,192,18536,1,0,0:0:0:0:
256,192,18857,1,0,0:0:0:0:
256,192,19500,1,12,0:0:0:0:
256,192,19715,1,12,0:0:0:0:
256,192,19929,1,4,0:0:0:0:
256,192,20143,1,4,0:0:0:0:
256,192,20357,1,12,0:0:0:0:
256,192,20786,1,4,0:0:0:0:
256,192,21215,1,0,0:0:0:0:
256,192,21429,1,8,0:0:0:0:
256,192,21643,1,0,0:0:0:0:
256,192,21857,1,8,0:0:0:0:
256,192,21965,1,8,0:0:0:0:
256,192,22072,1,8,0:0:0:0:
256,192,22286,1,8,0:0:0:0:
256,192,22715,1,8,0:0:0:0:
256,192,22929,1,0,0:0:0:0:
256,192,23036,1,0,0:0:0:0:
256,192,23143,1,0,0:0:0:0:
256,192,23357,1,8,0:0:0:0:
256,192,23572,1,8,0:0:0:0:
256,192,23786,1,0,0:0:0:0:
256,192,24000,1,8,0:0:0:0:
256,192,24429,1,8,0:0:0:0:
256,192,24643,1,0,0:0:0:0:
256,192,24750,1,0,0:0:0:0:
256,192,24857,1,0,0:0:0:0:
256,192,25072,1,8,0:0:0:0:
256,192,25393,1,0,0:0:0:0:
256,192,25500,1,8,0:0:0:0:
256,192,25715,1,0,0:0:0:0:
256,192,25929,1,12,0:0:0:0:
256,192,26143,1,12,0:0:0:0:
256,192,26357,1,4,0:0:0:0:
256,192,26572,1,4,0:0:0:0:
256,192,26786,1,12,0:0:0:0:
256,192,27643,1,12,0:0:0:0:
256,192,28072,1,0,0:0:0:0:
256,192,28286,1,0,0:0:0:0:
256,192,28500,1,8,0:0:0:0:
256,192,28929,1,0,0:0:0:0:
256,192,29357,1,8,0:0:0:0:
256,192,29572,1,8,0:0:0:0:
256,192,29786,1,0,0:0:0:0:
256,192,30000,1,0,0:0:0:0:
256,192,30215,1,8,0:0:0:0:
256,192,31072,1,8,0:0:0:0:
256,192,31500,1,0,0:0:0:0:
256,192,31715,1,0,0:0:0:0:
256,192,31929,1,8,0:0:0:0:
256,192,32143,1,8,0:0:0:0:
256,192,32357,1,0,0:0:0:0:
256,192,32786,1,8,0:0:0:0:
256,192,33000,1,8,0:0:0:0:
256,192,33215,1,0,0:0:0:0:
256,192,33429,1,8,0:0:0:0:
256,192,33536,1,8,0:0:0:0:
256,192,33643,1,8,0:0:0:0:
256,192,34072,1,0,0:0:0:0:
256,192,34357,1,0,0:0:0:0:
256,192,34500,1,8,0:0:0:0:
256,192,34929,1,8,0:0:0:0:
256,192,35357,1,0,0:0:0:0:
256,192,35786,1,0,0:0:0:0:
256,192,36072,1,0,0:0:0:0:
256,192,36215,1,8,0:0:0:0:
256,192,36643,1,0,0:0:0:0:
256,192,36929,1,8,0:0:0:0:
256,192,37072,1,8,0:0:0:0:
256,192,37929,1,0,0:0:0:0:
256,192,38357,1,0,0:0:0:0:
256,192,38572,1,8,0:0:0:0:
256,192,38786,1,0,0:0:0:0:
256,192,39215,1,8,0:0:0:0:
256,192,39322,1,8,0:0:0:0:
256,192,39429,1,8,0:0:0:0:
256,192,39643,1,0,0:0:0:0:
256,192,39857,1,8,0:0:0:0:
256,192,40072,1,0,0:0:0:0:
256,192,40500,1,0,0:0:0:0:
256,192,40715,1,8,0:0:0:0:
256,192,40929,1,8,0:0:0:0:
256,192,41036,1,8,0:0:0:0:
256,192,41143,1,8,0:0:0:0:
256,192,41357,1,0,0:0:0:0:
256,192,41572,1,8,0:0:0:0:
256,192,41786,1,8,0:0:0:0:
256,192,42215,1,0,0:0:0:0:
256,192,42429,1,8,0:0:0:0:
256,192,42643,1,8,0:0:0:0:
256,192,42750,1,8,0:0:0:0:
256,192,42857,1,8,0:0:0:0:
256,192,43072,1,0,0:0:0:0:
256,192,43500,1,0,0:0:0:0:
256,192,43822,1,8,0:0:0:0:
256,192,44786,1,4,0:0:0:0:
256,192,45215,1,8,0:0:0:0:
256,192,45536,1,0,0:0:0:0:
256,192,45643,1,8,0:0:0:0:
256,192,45857,1,0,0:0:0:0:
256,192,46072,1,8,0:0:0:0:
256,192,46286,1,8,0:0:0:0:
256,192,46715,1,8,0:0:0:0:
256,192,46929,1,0,0:0:0:0:
256,192,47143,1,8,0:0:0:0:
256,192,47357,1,0,0:0:0:0:
256,192,47465,1,0,0:0:0:0:
256,192,47572,1,0,0:0:0:0:
256,192,47786,1,0,0:0:0:0:
256,192,48000,1,8,0:0:0:0:
256,192,48215,1,0,0:0:0:0:
256,192,48857,1,8,0:0:0:0:
256,192,49179,1,0,0:0:0:0:
256,192,49500,1,8,0:0:0:0:
256,192,49715,1,8,0:0:0:0:
256,192,49929,1,0,0:0:0:0:
256,192,50357,1,0,0:0:0:0:
256,192,50572,1,8,0:0:0:0:
256,192,50679,1,8,0:0:0:0:
256,192,50786,1,8,0:0:0:0:
256,192,51000,1,0,0:0:0:0:
256,192,51215,1,8,0:0:0:0:
256,192,51643,1,0,0:0:0:0:
256,192,52072,1,8,0:0:0:0:
256,192,52715,1,0,0:0:0:0:
256,192,52929,1,8,0:0:0:0:
256,192,53357,1,0,0:0:0:0:
256,192,53786,1,8,0:0:0:0:
256,192,54429,1,0,0:0:0:0:
256,192,54643,1,8,0:0:0:0:
256,192,55072,1,0,0:0:0:0:
256,192,55500,1,8,0:0:0:0:
256,192,56143,1,0,0:0:0:0:
256,192,56357,1,8,0:0:0:0:
256,192,56786,1,8,0:0:0:0:
256,192,57215,1,0,0:0:0:0:
256,192,57429,1,8,0:0:0:0:
256,192,57643,1,8,0:0:0:0:
256,192,58072,1,8,0:0:0:0:
256,192,58179,1,8,0:0:0:0:
256,192,58286,1,8,0:0:0:0:
256,192,58500,1,0,0:0:0:0:
256,192,58929,1,0,0:0:0:0:
256,192,59143,1,8,0:0:0:0:
256,192,59357,1,0,0:0:0:0:
256,192,59465,1,8,0:0:0:0:
256,192,59679,1,8,0:0:0:0:
256,192,59786,1,0,0:0:0:0:
256,192,60000,1,8,0:0:0:0:
256,192,60429,1,8,0:0:0:0:
256,192,60643,1,0,0:0:0:0:
256,192,60857,1,8,0:0:0:0:
256,192,61072,1,0,0:0:0:0:
256,192,61179,1,0,0:0:0:0:
256,192,61286,1,0,0:0:0:0:
256,192,61500,1,0,0:0:0:0:
256,192,61715,1,8,0:0:0:0:
256,192,61929,1,0,0:0:0:0:
256,192,62572,1,8,0:0:0:0:
256,192,62893,1,0,0:0:0:0:
256,192,63215,1,8,0:0:0:0:
256,192,63322,1,8,0:0:0:0:
256,192,63429,1,8,0:0:0:0:
256,192,63643,1,0,0:0:0:0:
256,192,64072,1,0,0:0:0:0:
256,192,64286,1,8,0:0:0:0:
256,192,64500,1,0,0:0:0:0:
256,192,64715,1,8,0:0:0:0:
256,192,64929,1,0,0:0:0:0:
256,192,65036,1,0,0:0:0:0:
256,192,65143,1,0,0:0:0:0:
256,192,65357,1,0,0:0:0:0:
256,192,65786,1,0,0:0:0:0:
256,192,66215,1,8,0:0:0:0:
256,192,66643,1,8,0:0:0:0:
256,192,66929,1,0,0:0:0:0:
256,192,67072,1,8,0:0:0:0:
256,192,67500,1,0,0:0:0:0:
256,192,67929,1,8,0:0:0:0:
256,192,68357,1,0,0:0:0:0:
256,192,68643,1,0,0:0:0:0:
256,192,68786,1,8,0:0:0:0:
256,192,69000,1,0,0:0:0:0:
256,192,69215,1,0,0:0:0:0:
256,192,69429,1,8,0:0:0:0:
256,192,69643,1,8,0:0:0:0:
256,192,70072,1,8,0:0:0:0:
256,192,70500,1,0,0:0:0:0:
256,192,72643,1,4,0:0:0:0:
256,192,72965,1,8,0:0:0:0:
256,192,73072,1,0,0:0:0:0:
256,192,73286,1,8,0:0:0:0:
256,192,73500,1,8,0:0:0:0:
256,192,73715,1,0,0:0:0:0:
256,192,73822,1,0,0:0:0:0:
256,192,73929,1,0,0:0:0:0:
256,192,74357,1,0,0:0:0:0:
256,192,74572,1,0,0:0:0:0:
256,192,74679,1,0,0:0:0:0:
256,192,74786,1,0,0:0:0:0:
256,192,75000,1,8,0:0:0:0:
256,192,75215,1,8,0:0:0:0:
256,192,75429,1,0,0:0:0:0:
256,192,75643,1,0,0:0:0:0:
256,192,76072,1,0,0:0:0:0:
256,192,76393,1,8,0:0:0:0:
256,192,76500,1,0,0:0:0:0:
256,192,76715,1,8,0:0:0:0:
256,192,76929,1,8,0:0:0:0:
256,192,77143,1,0,0:0:0:0:
256,192,77250,1,0,0:0:0:0:
256,192,77357,1,0,0:0:0:0:
256,192,77786,1,0,0:0:0:0:
256,192,78000,1,8,0:0:0:0:
256,192,78107,1,8,0:0:0:0:
256,192,78215,1,8,0:0:0:0:
256,192,78429,1,0,0:0:0:0:
256,192,78643,1,8,0:0:0:0:
256,192,79072,1,0,0:0:0:0:
256,192,79500,1,0,0:0:0:0:
256,192,79715,1,8,0:0:0:0:
256,192,79929,1,0,0:0:0:0:
256,192,80250,1,8,0:0:0:0:
256,192,80572,1,8,0:0:0:0:
256,192,81215,1,0,0:0:0:0:
256,192,81643,1,0,0:0:0:0:
256,192,81965,1,8,0:0:0:0:
256,192,82286,1,8,0:0:0:0:
256,192,82929,1,0,0:0:0:0:
256,192,83143,1,8,0:0:0:0:
256,192,83357,1,0,0:0:0:0:
256,192,83679,1,8,0:0:0:0:
256,192,84000,1,8,0:0:0:0:
256,192,84215,1,0,0:0:0:0:
256,192,84322,1,0,0:0:0:0:
256,192,84429,1,0,0:0:0:0:
256,192,84643,1,0,0:0:0:0:
256,192,84857,1,8,0:0:0:0:
256,192,85072,1,0,0:0:0:0:
256,192,85286,1,8,0:0:0:0:
256,192,85500,1,8,0:0:0:0:
256,192,85929,1,0,0:0:0:0:
256,192,86786,1,0,0:0:0:0:
256,192,87107,1,0,0:0:0:0:
256,192,87429,1,8,0:0:0:0:
256,192,88072,1,8,0:0:0:0:
256,192,88179,1,8,0:0:0:0:
256,192,88500,1,0,0:0:0:0:
256,192,88822,1,0,0:0:0:0:
256,192,89143,1,8,0:0:0:0:
256,192,89786,1,8,0:0:0:0:
256,192,89893,1,8,0:0:0:0:
256,192,90215,1,0,0:0:0:0:
256,192,90536,1,0,0:0:0:0:
256,192,90857,1,8,0:0:0:0:
256,192,91072,1,0,0:0:0:0:
256,192,92786,1,0,0:0:0:0:
256,192,93000,1,8,0:0:0:0:
256,192,93107,1,8,0:0:0:0:
256,192,93215,1,8,0:0:0:0:
256,192,93429,1,8,0:0:0:0:
256,192,93643,1,0,0:0:0:0:
256,192,93857,1,8,0:0:0:0:
256,192,94072,1,0,0:0:0:0:
256,192,94500,1,0,0:0:0:0:
256,192,94715,1,0,0:0:0:0:
256,192,94929,1,8,0:0:0:0:
256,192,95036,1,8,0:0:0:0:
256,192,95143,1,8,0:0:0:0:
256,192,95357,1,0,0:0:0:0:
256,192,95786,1,0,0:0:0:0:
256,192,96215,1,0,0:0:0:0:
256,192,96429,1,8,0:0:0:0:
256,192,96643,1,0,0:0:0:0:
256,192,96857,1,8,0:0:0:0:
256,192,96965,1,8,0:0:0:0:
256,192,97072,1,8,0:0:0:0:
256,192,97286,1,8,0:0:0:0:
256,192,97500,1,0,0:0:0:0:
256,192,97929,1,0,0:0:0:0:
256,192,98143,1,8,0:0:0:0:
256,192,98357,1,0,0:0:0:0:
256,192,98572,1,8,0:0:0:0:
256,192,98679,1,8,0:0:0:0:
256,192,98786,1,8,0:0:0:0:
256,192,99215,1,0,0:0:0:0:
256,192,99500,1,0,0:0:0:0:
256,192,99643,1,8,0:0:0:0:
256,192,100072,1,8,0:0:0:0:
256,192,100500,1,0,0:0:0:0:
256,192,100929,1,0,0:0:0:0:
256,192,101215,1,0,0:0:0:0:
256,192,101357,1,8,0:0:0:0:
256,192,101786,1,0,0:0:0:0:
256,192,102072,1,8,0:0:0:0:
256,192,102215,1,8,0:0:0:0:
256,192,103072,1,0,0:0:0:0:
256,192,103286,1,8,0:0:0:0:
256,192,103500,1,0,0:0:0:0:
256,192,103929,1,0,0:0:0:0:
256,192,104143,1,8,0:0:0:0:
256,192,104357,1,0,0:0:0:0:
256,192,104465,1,8,0:0:0:0:
256,192,104786,1,0,0:0:0:0:
256,192,105000,1,8,0:0:0:0:
256,192,105215,1,0,0:0:0:0:
256,192,105643,1,0,0:0:0:0:
256,192,105857,1,8,0:0:0:0:
256,192,106072,1,0,0:0:0:0:
256,192,106179,1,8,0:0:0:0:
256,192,106500,1,0,0:0:0:0:
256,192,106715,1,8,0:0:0:0:
256,192,106929,1,0,0:0:0:0:
256,192,107357,1,0,0:0:0:0:
256,192,107572,1,8,0:0:0:0:
256,192,107679,1,8,0:0:0:0:
256,192,107786,1,8,0:0:0:0:
256,192,108000,1,8,0:0:0:0:
256,192,108215,1,0,0:0:0:0:
256,192,108643,1,0,0:0:0:0:
256,192,108965,1,8,0:0:0:0:
256,192,109286,1,0,0:0:0:0:
256,192,109500,1,8,0:0:0:0:
256,192,109929,1,4,0:0:0:0:
256,192,110357,1,8,0:0:0:0:
256,192,110679,1,0,0:0:0:0:
256,192,110786,1,8,0:0:0:0:
256,192,111000,1,0,0:0:0:0:
256,192,111215,1,8,0:0:0:0:
256,192,111429,1,8,0:0:0:0:
256,192,111857,1,8,0:0:0:0:
256,192,112072,1,0,0:0:0:0:
256,192,112286,1,8,0:0:0:0:
256,192,112500,1,0,0:0:0:0:
256,192,112607,1,0,0:0:0:0:
256,192,112715,1,0,0:0:0:0:
256,192,112929,1,0,0:0:0:0:
256,192,113143,1,8,0:0:0:0:
256,192,113357,1,0,0:0:0:0:
256,192,114000,1,8,0:0:0:0:
256,192,114322,1,0,0:0:0:0:
256,192,114643,1,8,0:0:0:0:
256,192,114857,1,8,0:0:0:0:
256,192,115072,1,0,0:0:0:0:
256,192,115500,1,0,0:0:0:0:
256,192,115715,1,8,0:0:0:0:
256,192,115822,1,8,0:0:0:0:
256,192,115929,1,8,0:0:0:0:
256,192,116143,1,0,0:0:0:0:
256,192,116357,1,8,0:0:0:0:
256,192,116786,1,0,0:0:0:0:
256,192,117215,1,8,0:0:0:0:
256,192,117857,1,0,0:0:0:0:
256,192,118072,1,8,0:0:0:0:
256,192,118500,1,0,0:0:0:0:
256,192,118929,1,8,0:0:0:0:
256,192,119250,1,0,0:0:0:0:
256,192,119357,1,8,0:0:0:0:
256,192,119572,1,0,0:0:0:0:
256,192,119786,1,8,0:0:0:0:
256,192,120215,1,0,0:0:0:0:
256,192,120643,1,8,0:0:0:0:
256,192,121286,1,0,0:0:0:0:
256,192,121500,1,8,0:0:0:0:
256,192,121929,1,0,0:0:0:0:
256,192,122357,1,8,0:0:0:0:
256,192,122572,1,0,0:0:0:0:
256,192,122786,1,8,0:0:0:0:
256,192,123215,1,8,0:0:0:0:
256,192,123322,1,8,0:0:0:0:
256,192,123429,1,8,0:0:0:0:
256,192,123643,1,0,0:0:0:0:
256,192,124072,1,0,0:0:0:0:
256,192,124286,1,8,0:0:0:0:
256,192,124500,1,0,0:0:0:0:
256,192,124607,1,8,0:0:0:0:
256,192,124822,1,8,0:0:0:0:
256,192,124929,1,0,0:0:0:0:
256,192,125143,1,8,0:0:0:0:
256,192,125572,1,8,0:0:0:0:
256,192,125786,1,0,0:0:0:0:
256,192,126000,1,8,0:0:0:0:
256,192,126215,1,0,0:0:0:0:
256,192,126322,1,0,0:0:0:0:
256,192,126429,1,0,0:0:0:0:
256,192,126643,1,0,0:0:0:0:
256,192,126857,1,8,0:0:0:0:
256,192,127072,1,0,0:0:0:0:
256,192,127715,1,8,0:0:0:0:
256,192,128143,1,0,0:0:0:0:
256,192,128357,1,8,0:0:0:0:
256,192,128465,1,8,0:0:0:0:
256,192,128572,1,8,0:0:0:0:
256,192,128786,1,0,0:0:0:0:
256,192,129215,1,0,0:0:0:0:
256,192,129429,1,0,0:0:0:0:
256,192,129536,1,0,0:0:0:0:
256,192,129643,1,0,0:0:0:0:
256,192,129857,1,8,0:0:0:0:
256,192,130072,1,0,0:0:0:0:
256,192,130500,1,0,0:0:0:0:
256,192,130929,1,0,0:0:0:0:
256,192,131357,1,8,0:0:0:0:
256,192,131786,1,8,0:0:0:0:
256,192,132072,1,0,0:0:0:0:
256,192,132215,1,8,0:0:0:0:
256,192,132643,1,0,0:0:0:0:
256,192,133072,1,8,0:0:0:0:
256,192,133500,1,0,0:0:0:0:
256,192,133786,1,0,0:0:0:0:
256,192,133929,1,8,0:0:0:0:
256,192,134143,1,0,0:0:0:0:
256,192,134357,1,0,0:0:0:0:
256,192,134572,1,8,0:0:0:0:
256,192,134786,1,8,0:0:0:0:
256,192,135215,1,8,0:0:0:0:
256,192,135643,1,0,0:0:0:0:
256,192,136072,1,0,0:0:0:0:
256,192,136286,1,0,0:0:0:0:
256,192,136500,1,8,0:0:0:0:
256,192,137357,1,0,0:0:0:0:
256,192,137786,1,0,0:0:0:0:
256,192,138215,1,0,0:0:0:0:
256,192,138857,1,8,0:0:0:0:
256,192,139286,1,8,0:0:0:0:
256,192,139500,1,0,0:0:0:0:
256,192,139929,1,8,0:0:0:0:
256,192,140250,1,8,0:0:0:0:
256,192,140572,1,8,0:0:0:0:
256,192,140786,1,0,0:0:0:0:
256,192,141215,1,0,0:0:0:0:
256,192,141643,1,0,0:0:0:0:
256,192,142286,1,8,0:0:0:0:
256,192,142715,1,8,0:0:0:0:
256,192,142929,1,0,0:0:0:0:
256,192,143357,1,8,0:0:0:0:
256,192,143679,1,8,0:0:0:0:
256,192,144000,1,8,0:0:0:0:
256,192,144215,1,0,0:0:0:0:
256,192,144643,1,0,0:0:0:0:
256,192,145072,1,0,0:0:0:0:
256,192,145715,1,8,0:0:0:0:
256,192,146143,1,8,0:0:0:0:
256,192,146357,1,0,0:0:0:0:
256,192,146786,1,8,0:0:0:0:
256,192,147107,1,8,0:0:0:0:
256,192,147429,1,8,0:0:0:0:
256,192,147643,1,0,0:0:0:0:
256,192,148072,1,0,0:0:0:0:
256,192,148500,1,0,0:0:0:0:
256,192,148822,1,0,0:0:0:0:
256,192,149143,1,8,0:0:0:0:
256,192,151072,1,0,0:0:0:0:
256,192,151286,1,8,0:0:0:0:
256,192,151500,1,0,0:0:0:0:
256,192,151822,1,8,0:0:0:0:
256,192,152357,1,0,0:0:0:0:
256,192,152572,1,8,0:0:0:0:
256,192,152786,1,0,0:0:0:0:
256,192,153000,1,8,0:0:0:0:
256,192,153215,1,8,0:0:0:0:
256,192,153536,1,0,0:0:0:0:
256,192,153857,1,8,0:0:0:0:
256,192,153965,1,8,0:0:0:0:
256,192,154072,1,8,0:0:0:0:
256,192,154286,1,8,0:0:0:0:
256,192,154500,1,0,0:0:0:0:
256,192,154715,1,8,0:0:0:0:
256,192,154929,1,0,0:0:0:0:
256,192,155357,1,8,0:0:0:0:
256,192,155572,1,0,0:0:0:0:
256,192,155786,1,8,0:0:0:0:
256,192,156000,1,8,0:0:0:0:
256,192,156107,1,8,0:0:0:0:
256,192,156215,1,8,0:0:0:0:
256,192,156429,1,0,0:0:0:0:
256,192,156643,1,8,0:0:0:0:
256,192,156965,1,0,0:0:0:0:
256,192,157500,1,8,0:0:0:0:
256,192,157715,1,8,0:0:0:0:
256,192,157929,1,0,0:0:0:0:
256,192,158250,1,8,0:0:0:0:
256,192,158572,1,8,0:0:0:0:
240,176,159215,1,0,0:0:0:0:
240,176,159536,1,8,0:0:0:0:
240,176,159857,1,8,0:0:0:0:
240,176,160500,1,0,0:0:0:0:
240,176,160929,1,8,0:0:0:0:
240,176,161357,1,0,0:0:0:0:
240,176,161679,1,8,0:0:0:0:
240,176,161786,1,0,0:0:0:0:
240,176,162000,1,8,0:0:0:0:
240,176,162215,1,0,0:0:0:0:
240,176,162536,1,8,0:0:0:0:
240,176,162857,1,0,0:0:0:0:
256,192,164786,1,4,0:0:0:0:
256,192,166072,1,8,0:0:0:0:
256,192,166929,1,8,0:0:0:0:
256,192,167572,1,8,0:0:0:0:
256,192,167786,1,8,0:0:0:0:
256,192,168643,1,8,0:0:0:0:
256,192,169500,1,8,0:0:0:0:
256,192,170357,1,8,0:0:0:0:
256,192,171000,1,8,0:0:0:0:
256,192,171215,1,8,0:0:0:0:
256,192,171643,1,0,0:0:0:0:
256,192,172072,1,8,0:0:0:0:
256,192,172500,1,0,0:0:0:0:
256,192,172715,1,0,0:0:0:0:
256,192,172929,1,8,0:0:0:0:
256,192,173143,1,0,0:0:0:0:
256,192,173250,1,0,0:0:0:0:
256,192,173357,1,0,0:0:0:0:
256,192,173786,1,8,0:0:0:0:
256,192,174215,1,8,0:0:0:0:
256,192,174429,1,0,0:0:0:0:
256,192,174536,1,0,0:0:0:0:
256,192,174643,1,0,0:0:0:0:
256,192,174857,1,8,0:0:0:0:
256,192,175072,1,0,0:0:0:0:
256,192,175500,1,8,0:0:0:0:
256,192,175929,1,0,0:0:0:0:
256,192,176036,1,0,0:0:0:0:
256,192,176143,1,0,0:0:0:0:
256,192,176357,1,0,0:0:0:0:
256,192,176572,1,8,0:0:0:0:
256,192,178072,1,8,0:0:0:0:
256,192,178179,1,8,0:0:0:0:
256,192,178286,1,8,0:0:0:0:
256,192,178500,1,0,0:0:0:0:
256,192,178929,1,0,0:0:0:0:
256,192,179143,1,8,0:0:0:0:
256,192,179357,1,0,0:0:0:0:
256,192,179465,1,8,0:0:0:0:
256,192,179679,1,8,0:0:0:0:
256,192,179786,1,0,0:0:0:0:
256,192,180000,1,8,0:0:0:0:
256,192,180429,1,8,0:0:0:0:
256,192,180643,1,0,0:0:0:0:
256,192,180857,1,8,0:0:0:0:
256,192,181072,1,0,0:0:0:0:
256,192,181179,1,0,0:0:0:0:
256,192,181286,1,0,0:0:0:0:
256,192,181500,1,0,0:0:0:0:
256,192,181715,1,8,0:0:0:0:
256,192,181929,1,0,0:0:0:0:
256,192,182572,1,8,0:0:0:0:
256,192,183000,1,0,0:0:0:0:
256,192,183215,1,8,0:0:0:0:
256,192,183322,1,8,0:0:0:0:
256,192,183429,1,8,0:0:0:0:
256,192,183643,1,0,0:0:0:0:
256,192,184072,1,0,0:0:0:0:
256,192,184286,1,8,0:0:0:0:
256,192,184500,1,0,0:0:0:0:
256,192,184607,1,0,0:0:0:0:
256,192,184715,1,0,0:0:0:0:
256,192,184929,1,8,0:0:0:0:
256,192,185357,1,0,0:0:0:0:
256,192,185786,1,0,0:0:0:0:
256,192,186215,1,8,0:0:0:0:
256,192,186643,1,8,0:0:0:0:
256,192,186929,1,0,0:0:0:0:
256,192,187072,1,8,0:0:0:0:
256,192,187500,1,0,0:0:0:0:
256,192,187929,1,8,0:0:0:0:
256,192,188357,1,0,0:0:0:0:
256,192,188643,1,0,0:0:0:0:
256,192,188786,1,8,0:0:0:0:
256,192,189000,1,0,0:0:0:0:
256,192,189215,1,0,0:0:0:0:
256,192,189429,1,8,0:0:0:0:
256,192,189643,1,8,0:0:0:0:
256,192,190072,1,8,0:0:0:0:
256,192,190500,1,0,0:0:0:0:
256,192,190822,1,8,0:0:0:0:
256,192,190929,1,0,0:0:0:0:
256,192,191143,1,8,0:0:0:0:
256,192,191357,1,0,0:0:0:0:
256,192,191786,1,8,0:0:0:0:
256,192,192215,1,0,0:0:0:0:
256,192,192536,1,8,0:0:0:0:
256,192,192643,1,0,0:0:0:0:
256,192,192857,1,8,0:0:0:0:
256,192,193072,1,0,0:0:0:0:
256,192,193500,1,8,0:0:0:0:
256,192,193607,1,8,0:0:0:0:
256,192,193715,1,8,0:0:0:0:
256,192,194143,1,4,0:0:0:0:
256,192,194679,1,12,0:0:0:0:
256,192,195000,1,4,0:0:0:0:
256,192,195536,1,12,0:0:0:0:
256,192,195857,1,4,0:0:0:0:
256,192,196393,1,12,0:0:0:0:
