osu file format v14

[General]
AudioFilename: audio.mp3
AudioLeadIn: 0
PreviewTime: 165324
Countdown: 0
SampleSet: Soft
StackLeniency: 0.7
Mode: 3
LetterboxInBreaks: 0
SpecialStyle: 0
WidescreenStoryboard: 0

[Editor]
DistanceSpacing: 0.8
BeatDivisor: 4
GridSize: 8
TimelineZoom: 1.5

[Metadata]
Title:Kuishinbo Hacker feat. Kuishinbo Akachan
TitleUnicode:くいしんぼハッカー feat. くいしんぼあかちゃん
Artist:Neko Hacker
ArtistUnicode:Neko Hacker
Creator:Critical_Star
Version:Digital Fantasy
Source:
Tags:Kawaii Future Rock kiato 未来茶屋 vol.0 Japanese Electronic Kuo Kyoka Akasha featured artist fa 1st album bass pop electropop うごくちゃんコレクション ugoku-chan collection Mirai Chaya
BeatmapID:1908745
BeatmapSetID:913783

[Difficulty]
HPDrainRate:8.5
CircleSize:7
OverallDifficulty:8
ApproachRate:5
SliderMultiplier:1.4
SliderTickRate:1

[Events]
//Background and Video events
0,0,"Neko cat.jpg",0,0
//Break Periods
//Storyboard Layer 0 (Background)
//Storyboard Layer 1 (Fail)
//Storyboard Layer 2 (Pass)
//Storyboard Layer 3 (Foreground)
//Storyboard Layer 4 (Overlay)
//Storyboard Sound Samples

[TimingPoints]
324,428.571428571429,4,2,1,40,1,0
44895,-100,4,2,1,40,0,1
51752,-100,4,2,1,40,0,0
58609,-100,4,2,1,40,0,1
71895,-100,4,2,1,40,0,0
110038,-100,4,2,1,40,0,1
116895,-100,4,2,1,40,0,0
123752,-100,4,2,1,40,0,1
137466,-100,4,2,1,40,0,0
151181,-100,4,2,1,40,0,1
158038,-100,4,2,1,40,0,0
178609,-100,4,2,1,40,0,1
185466,-100,4,2,1,40,0,0
190609,-100,4,2,1,40,0,1
196502,-100,4,2,1,40,0,0

[HitObjects]
475,192,324,5,0,0:0:0:0:
36,192,324,1,0,0:0:0:0:
256,192,324,1,0,0:0:0:0:
402,192,431,1,0,0:0:0:0:
109,192,431,1,0,0:0:0:0:
182,192,538,128,0,752:0:0:0:0:
329,192,538,128,0,752:0:0:0:0:
475,192,752,1,0,0:0:0:0:
36,192,752,1,0,0:0:0:0:
329,192,859,1,0,0:0:0:0:
182,192,859,1,0,0:0:0:0:
329,192,1074,1,0,0:0:0:0:
182,192,1074,1,0,0:0:0:0:
36,192,1181,1,0,0:0:0:0:
475,192,1181,1,0,0:0:0:0:
256,192,1288,128,0,1502:0:0:0:0:
109,192,1502,1,0,0:0:0:0:
402,192,1502,1,0,0:0:0:0:
36,192,1609,1,0,0:0:0:0:
475,192,1609,1,0,0:0:0:0:
109,192,1716,1,0,0:0:0:0:
402,192,1716,1,0,0:0:0:0:
182,192,1824,1,0,0:0:0:0:
329,192,1824,1,0,0:0:0:0:
402,192,1931,1,0,0:0:0:0:
109,192,1931,1,0,0:0:0:0:
36,192,2038,1,0,0:0:0:0:
256,192,2038,1,0,0:0:0:0:
475,192,2038,1,0,0:0:0:0:
329,192,2145,1,0,0:0:0:0:
109,192,2145,1,0,0:0:0:0:
182,192,2252,128,0,2466:0:0:0:0:
402,192,2252,128,0,2466:0:0:0:0:
256,192,2466,1,0,0:0:0:0:
109,192,2466,1,0,0:0:0:0:
329,192,2574,1,0,0:0:0:0:
475,192,2574,1,0,0:0:0:0:
475,192,2788,1,0,0:0:0:0:
329,192,2788,1,0,0:0:0:0:
36,192,2895,1,0,0:0:0:0:
182,192,2895,1,0,0:0:0:0:
256,192,3002,128,0,3216:0:0:0:0:
109,192,3002,128,0,3216:0:0:0:0:
329,192,3216,1,0,0:0:0:0:
475,192,3216,1,0,0:0:0:0:
36,192,3324,1,0,0:0:0:0:
182,192,3324,1,0,0:0:0:0:
402,192,3431,128,0,3752:0:0:0:0:
329,192,3431,1,0,0:0:0:0:
109,192,3431,128,0,3752:0:0:0:0:
182,192,3538,1,0,0:0:0:0:
475,192,3752,1,0,0:0:0:0:
36,192,3752,1,0,0:0:0:0:
256,192,3752,1,0,0:0:0:0:
402,192,3859,1,0,0:0:0:0:
329,192,3966,1,0,0:0:0:0:
109,192,3966,1,0,0:0:0:0:
475,192,4181,1,0,0:0:0:0:
36,192,4181,1,0,0:0:0:0:
256,192,4181,1,0,0:0:0:0:
109,192,4288,1,0,0:0:0:0:
182,192,4395,1,0,0:0:0:0:
402,192,4395,1,0,0:0:0:0:
329,192,4502,1,0,0:0:0:0:
109,192,4502,1,0,0:0:0:0:
36,192,4609,1,0,0:0:0:0:
475,192,4609,1,0,0:0:0:0:
256,192,4609,1,0,0:0:0:0:
329,192,4716,1,0,0:0:0:0:
109,192,4824,1,0,0:0:0:0:
402,192,4824,1,0,0:0:0:0:
182,192,4931,1,0,0:0:0:0:
36,192,5038,1,0,0:0:0:0:
475,192,5038,1,0,0:0:0:0:
256,192,5038,1,0,0:0:0:0:
329,192,5145,1,0,0:0:0:0:
402,192,5252,1,0,0:0:0:0:
109,192,5252,1,0,0:0:0:0:
182,192,5359,1,0,0:0:0:0:
329,192,5359,1,0,0:0:0:0:
475,192,5466,1,0,0:0:0:0:
36,192,5466,1,0,0:0:0:0:
256,192,5466,1,0,0:0:0:0:
402,192,5574,1,0,0:0:0:0:
109,192,5574,1,0,0:0:0:0:
329,192,5681,1,0,0:0:0:0:
36,192,5681,1,0,0:0:0:0:
182,192,5788,1,0,0:0:0:0:
475,192,5895,1,0,0:0:0:0:
36,192,5895,1,0,0:0:0:0:
329,192,5895,1,0,0:0:0:0:
402,192,6002,1,0,0:0:0:0:
109,192,6002,1,0,0:0:0:0:
256,192,6002,1,0,0:0:0:0:
36,192,6109,1,0,0:0:0:0:
182,192,6216,1,0,0:0:0:0:
329,192,6216,1,0,0:0:0:0:
475,192,6324,1,0,0:0:0:0:
36,192,6324,1,0,0:0:0:0:
402,192,6377,1,0,0:0:0:0:
329,192,6431,1,0,0:0:0:0:
109,192,6431,1,0,0:0:0:0:
475,192,6538,1,0,0:0:0:0:
182,192,6538,1,0,0:0:0:0:
402,192,6645,1,0,0:0:0:0:
109,192,6645,1,0,0:0:0:0:
36,192,6752,1,0,0:0:0:0:
329,192,6752,1,0,0:0:0:0:
256,192,6806,1,0,0:0:0:0:
182,192,6859,1,0,0:0:0:0:
475,192,6859,1,0,0:0:0:0:
402,192,6966,1,0,0:0:0:0:
109,192,6966,1,0,0:0:0:0:
36,192,7074,1,0,0:0:0:0:
329,192,7074,1,0,0:0:0:0:
182,192,7181,128,0,7234:0:0:0:0:
256,192,7288,128,0,7341:0:0:0:0:
329,192,7395,128,0,7449:0:0:0:0:
475,192,7609,1,0,0:0:0:0:
402,192,7609,1,0,0:0:0:0:
36,192,7609,1,0,0:0:0:0:
109,192,7609,1,0,0:0:0:0:
256,192,7609,1,0,0:0:0:0:
182,192,7824,128,0,7931:0:0:0:0:
36,192,7824,1,0,0:0:0:0:
329,192,7931,128,0,8038:0:0:0:0:
109,192,7931,1,0,0:0:0:0:
36,192,8038,1,0,0:0:0:0:
475,192,8038,1,0,0:0:0:0:
256,192,8038,1,0,0:0:0:0:
182,192,8145,1,0,0:0:0:0:
329,192,8145,1,0,0:0:0:0:
475,192,8252,128,0,8788:0:0:0:0:
36,192,8252,1,0,0:0:0:0:
402,192,8466,128,0,8788:0:0:0:0:
109,192,8466,1,0,0:0:0:0:
256,192,8466,1,0,0:0:0:0:
329,192,8466,1,0,0:0:0:0:
36,192,8681,128,0,8895:0:0:0:0:
182,192,8681,1,0,0:0:0:0:
256,192,8788,1,0,0:0:0:0:
109,192,8895,1,0,0:0:0:0:
329,192,8895,1,0,0:0:0:0:
475,192,8895,128,0,9109:0:0:0:0:
402,192,8895,128,0,9109:0:0:0:0:
182,192,9109,1,0,0:0:0:0:
36,192,9109,1,0,0:0:0:0:
36,192,9324,128,0,9431:0:0:0:0:
109,192,9324,128,0,9431:0:0:0:0:
256,192,9324,128,0,9538:0:0:0:0:
402,192,9431,128,0,9538:0:0:0:0:
475,192,9431,128,0,9538:0:0:0:0:
36,192,9538,1,0,0:0:0:0:
329,192,9645,128,0,9752:0:0:0:0:
182,192,9645,128,0,9752:0:0:0:0:
109,192,9645,1,0,0:0:0:0:
36,192,9752,1,0,0:0:0:0:
475,192,9752,1,0,0:0:0:0:
182,192,9859,1,0,0:0:0:0:
329,192,9859,1,0,0:0:0:0:
109,192,9966,1,0,0:0:0:0:
475,192,9966,1,0,0:0:0:0:
402,192,9966,128,0,10502:0:0:0:0:
36,192,10181,1,0,0:0:0:0:
329,192,10181,128,0,10502:0:0:0:0:
182,192,10181,1,0,0:0:0:0:
256,192,10181,1,0,0:0:0:0:
182,192,10395,128,0,10609:0:0:0:0:
36,192,10395,1,0,0:0:0:0:
256,192,10609,1,0,0:0:0:0:
36,192,10609,1,0,0:0:0:0:
475,192,10609,128,0,10824:0:0:0:0:
402,192,10609,128,0,10824:0:0:0:0:
182,192,10824,1,0,0:0:0:0:
329,192,10824,1,0,0:0:0:0:
475,192,11038,128,0,11145:0:0:0:0:
402,192,11038,128,0,11145:0:0:0:0:
256,192,11038,128,0,11252:0:0:0:0:
109,192,11145,128,0,11252:0:0:0:0:
36,192,11145,128,0,11252:0:0:0:0:
475,192,11252,1,0,0:0:0:0:
182,192,11359,128,0,11466:0:0:0:0:
329,192,11359,128,0,11466:0:0:0:0:
402,192,11359,1,0,0:0:0:0:
36,192,11466,1,0,0:0:0:0:
475,192,11466,1,0,0:0:0:0:
182,192,11574,1,0,0:0:0:0:
329,192,11574,1,0,0:0:0:0:
36,192,11681,1,0,0:0:0:0:
475,192,11681,128,0,12216:0:0:0:0:
109,192,11895,1,0,0:0:0:0:
402,192,11895,128,0,12216:0:0:0:0:
256,192,11895,1,0,0:0:0:0:
329,192,11895,1,0,0:0:0:0:
109,192,12109,128,0,12324:0:0:0:0:
182,192,12109,1,0,0:0:0:0:
256,192,12216,1,0,0:0:0:0:
475,192,12324,1,0,0:0:0:0:
36,192,12324,1,0,0:0:0:0:
329,192,12324,1,0,0:0:0:0:
256,192,12431,1,0,0:0:0:0:
36,192,12538,1,0,0:0:0:0:
475,192,12538,1,0,0:0:0:0:
182,192,12538,1,0,0:0:0:0:
329,192,12645,1,0,0:0:0:0:
109,192,12752,1,0,0:0:0:0:
36,192,12752,1,0,0:0:0:0:
475,192,12752,1,0,0:0:0:0:
402,192,12752,1,0,0:0:0:0:
182,192,12859,1,0,0:0:0:0:
36,192,12966,1,0,0:0:0:0:
475,192,12966,128,0,13074:0:0:0:0:
256,192,12966,1,0,0:0:0:0:
329,192,13074,128,0,13181:0:0:0:0:
182,192,13074,1,0,0:0:0:0:
402,192,13181,128,0,13288:0:0:0:0:
36,192,13181,1,0,0:0:0:0:
475,192,13181,1,0,0:0:0:0:
109,192,13234,1,0,0:0:0:0:
329,192,13288,1,0,0:0:0:0:
182,192,13288,1,0,0:0:0:0:
36,192,13395,128,0,13502:0:0:0:0:
475,192,13395,1,0,0:0:0:0:
256,192,13395,1,0,0:0:0:0:
182,192,13502,128,0,13609:0:0:0:0:
329,192,13502,1,0,0:0:0:0:
475,192,13609,1,0,0:0:0:0:
109,192,13609,128,0,13716:0:0:0:0:
36,192,13609,1,0,0:0:0:0:
256,192,13609,1,0,0:0:0:0:
402,192,13716,1,0,0:0:0:0:
182,192,13716,1,0,0:0:0:0:
256,192,13824,128,0,13931:0:0:0:0:
329,192,13824,1,0,0:0:0:0:
36,192,13824,1,0,0:0:0:0:
402,192,13931,1,0,0:0:0:0:
182,192,13931,1,0,0:0:0:0:
36,192,14038,128,0,14359:0:0:0:0:
109,192,14038,128,0,14359:0:0:0:0:
329,192,14038,128,0,14359:0:0:0:0:
475,192,14038,128,0,14359:0:0:0:0:
256,192,14038,1,0,0:0:0:0:
256,192,14466,1,0,0:0:0:0:
36,192,14466,1,0,0:0:0:0:
475,192,14466,1,0,0:0:0:0:
475,192,14895,128,0,15002:0:0:0:0:
402,192,14895,128,0,15002:0:0:0:0:
36,192,14895,1,0,0:0:0:0:
182,192,14895,1,0,0:0:0:0:
36,192,15216,1,0,0:0:0:0:
475,192,15216,128,0,15324:0:0:0:0:
402,192,15216,128,0,15324:0:0:0:0:
182,192,15216,1,0,0:0:0:0:
256,192,15324,1,0,0:0:0:0:
109,192,15324,1,0,0:0:0:0:
329,192,15324,1,0,0:0:0:0:
36,192,15538,1,0,0:0:0:0:
329,192,15538,128,0,15966:0:0:0:0:
475,192,15538,128,0,15966:0:0:0:0:
182,192,15538,1,0,0:0:0:0:
402,192,15966,1,0,0:0:0:0:
182,192,15966,1,0,0:0:0:0:
109,192,16074,1,0,0:0:0:0:
329,192,16074,1,0,0:0:0:0:
36,192,16181,1,0,0:0:0:0:
256,192,16181,1,0,0:0:0:0:
475,192,16181,1,0,0:0:0:0:
402,192,16288,1,0,0:0:0:0:
109,192,16395,1,0,0:0:0:0:
329,192,16395,1,0,0:0:0:0:
182,192,16502,1,0,0:0:0:0:
402,192,16502,1,0,0:0:0:0:
475,192,16609,1,0,0:0:0:0:
256,192,16609,1,0,0:0:0:0:
36,192,16609,128,0,16716:0:0:0:0:
109,192,16609,128,0,16716:0:0:0:0:
475,192,16931,1,0,0:0:0:0:
109,192,16931,128,0,17038:0:0:0:0:
36,192,16931,128,0,17038:0:0:0:0:
329,192,16931,1,0,0:0:0:0:
256,192,17038,1,0,0:0:0:0:
402,192,17038,1,0,0:0:0:0:
182,192,17038,1,0,0:0:0:0:
475,192,17252,1,0,0:0:0:0:
36,192,17252,128,0,17681:0:0:0:0:
182,192,17252,128,0,17681:0:0:0:0:
329,192,17252,1,0,0:0:0:0:
109,192,17681,1,0,0:0:0:0:
329,192,17681,1,0,0:0:0:0:
182,192,17788,1,0,0:0:0:0:
402,192,17788,1,0,0:0:0:0:
256,192,17895,1,0,0:0:0:0:
475,192,17895,1,0,0:0:0:0:
36,192,17895,1,0,0:0:0:0:
109,192,18002,1,0,0:0:0:0:
256,192,18109,1,0,0:0:0:0:
475,192,18109,1,0,0:0:0:0:
182,192,18216,1,0,0:0:0:0:
402,192,18216,1,0,0:0:0:0:
109,192,18324,128,0,18431:0:0:0:0:
329,192,18324,128,0,18431:0:0:0:0:
36,192,18324,1,0,0:0:0:0:
475,192,18324,1,0,0:0:0:0:
109,192,18645,128,0,18752:0:0:0:0:
329,192,18645,128,0,18752:0:0:0:0:
475,192,18645,1,0,0:0:0:0:
36,192,18645,1,0,0:0:0:0:
182,192,18752,1,0,0:0:0:0:
402,192,18752,1,0,0:0:0:0:
256,192,18752,1,0,0:0:0:0:
182,192,18966,128,0,19395:0:0:0:0:
402,192,18966,128,0,19395:0:0:0:0:
36,192,18966,1,0,0:0:0:0:
475,192,18966,1,0,0:0:0:0:
475,192,19395,1,0,0:0:0:0:
256,192,19395,1,0,0:0:0:0:
36,192,19395,1,0,0:0:0:0:
109,192,19609,128,0,20038:0:0:0:0:
182,192,19609,1,0,0:0:0:0:
36,192,19609,1,0,0:0:0:0:
402,192,19824,128,0,20252:0:0:0:0:
329,192,19824,1,0,0:0:0:0:
475,192,19824,1,0,0:0:0:0:
182,192,20038,1,0,0:0:0:0:
36,192,20038,1,0,0:0:0:0:
256,192,20038,1,0,0:0:0:0:
109,192,20252,1,0,0:0:0:0:
256,192,20252,1,0,0:0:0:0:
329,192,20252,1,0,0:0:0:0:
109,192,20466,128,0,20788:0:0:0:0:
36,192,20466,128,0,20788:0:0:0:0:
402,192,20466,1,0,0:0:0:0:
182,192,20466,1,0,0:0:0:0:
329,192,20466,1,0,0:0:0:0:
402,192,20681,1,0,0:0:0:0:
256,192,20681,1,0,0:0:0:0:
475,192,20681,1,0,0:0:0:0:
36,192,20895,1,0,0:0:0:0:
475,192,20895,1,0,0:0:0:0:
109,192,20895,1,0,0:0:0:0:
402,192,20895,1,0,0:0:0:0:
256,192,20895,1,0,0:0:0:0:
182,192,21002,1,0,0:0:0:0:
36,192,21109,1,0,0:0:0:0:
329,192,21109,1,0,0:0:0:0:
109,192,21216,1,0,0:0:0:0:
256,192,21324,1,0,0:0:0:0:
475,192,21324,1,0,0:0:0:0:
402,192,21324,1,0,0:0:0:0:
182,192,21324,1,0,0:0:0:0:
329,192,21431,1,0,0:0:0:0:
182,192,21538,1,0,0:0:0:0:
36,192,21538,1,0,0:0:0:0:
256,192,21645,1,0,0:0:0:0:
402,192,21645,1,0,0:0:0:0:
475,192,21752,1,0,0:0:0:0:
182,192,21752,1,0,0:0:0:0:
36,192,21752,1,0,0:0:0:0:
329,192,21859,1,0,0:0:0:0:
256,192,21966,1,0,0:0:0:0:
109,192,21966,1,0,0:0:0:0:
402,192,22074,1,0,0:0:0:0:
182,192,22074,1,0,0:0:0:0:
329,192,22181,1,0,0:0:0:0:
475,192,22181,1,0,0:0:0:0:
36,192,22181,128,0,22609:0:0:0:0:
109,192,22181,1,0,0:0:0:0:
402,192,22395,1,0,0:0:0:0:
182,192,22395,128,0,22609:0:0:0:0:
329,192,22609,1,0,0:0:0:0:
475,192,22609,1,0,0:0:0:0:
109,192,22609,1,0,0:0:0:0:
402,192,22716,1,0,0:0:0:0:
475,192,22824,1,0,0:0:0:0:
182,192,22824,1,0,0:0:0:0:
256,192,22931,1,0,0:0:0:0:
329,192,23038,1,0,0:0:0:0:
402,192,23038,1,0,0:0:0:0:
36,192,23038,1,0,0:0:0:0:
475,192,23038,1,0,0:0:0:0:
109,192,23145,1,0,0:0:0:0:
256,192,23145,1,0,0:0:0:0:
402,192,23252,1,0,0:0:0:0:
256,192,23359,1,0,0:0:0:0:
109,192,23359,1,0,0:0:0:0:
182,192,23466,1,0,0:0:0:0:
36,192,23466,1,0,0:0:0:0:
329,192,23466,1,0,0:0:0:0:
402,192,23574,1,0,0:0:0:0:
475,192,23574,1,0,0:0:0:0:
256,192,23681,1,0,0:0:0:0:
109,192,23681,1,0,0:0:0:0:
329,192,23788,1,0,0:0:0:0:
402,192,23788,1,0,0:0:0:0:
36,192,23895,1,0,0:0:0:0:
182,192,23895,1,0,0:0:0:0:
475,192,23895,128,0,24324:0:0:0:0:
256,192,23895,1,0,0:0:0:0:
329,192,24109,128,0,24324:0:0:0:0:
109,192,24109,1,0,0:0:0:0:
182,192,24324,1,0,0:0:0:0:
402,192,24324,1,0,0:0:0:0:
36,192,24324,1,0,0:0:0:0:
329,192,24538,1,0,0:0:0:0:
109,192,24538,1,0,0:0:0:0:
182,192,24645,1,0,0:0:0:0:
402,192,24645,1,0,0:0:0:0:
36,192,24752,1,0,0:0:0:0:
329,192,24752,1,0,0:0:0:0:
475,192,24752,1,0,0:0:0:0:
109,192,24752,1,0,0:0:0:0:
256,192,24859,1,0,0:0:0:0:
109,192,24966,1,0,0:0:0:0:
402,192,24966,1,0,0:0:0:0:
182,192,25074,1,0,0:0:0:0:
329,192,25074,1,0,0:0:0:0:
256,192,25181,1,0,0:0:0:0:
475,192,25181,1,0,0:0:0:0:
36,192,25181,1,0,0:0:0:0:
402,192,25288,1,0,0:0:0:0:
182,192,25395,1,0,0:0:0:0:
36,192,25395,1,0,0:0:0:0:
256,192,25502,1,0,0:0:0:0:
402,192,25502,1,0,0:0:0:0:
109,192,25609,1,0,0:0:0:0:
475,192,25609,1,0,0:0:0:0:
329,192,25609,128,0,26038:0:0:0:0:
36,192,25609,1,0,0:0:0:0:
36,192,25824,1,0,0:0:0:0:
182,192,25824,128,0,26038:0:0:0:0:
475,192,26038,128,0,26145:0:0:0:0:
36,192,26252,128,0,26359:0:0:0:0:
329,192,26252,128,0,26359:0:0:0:0:
182,192,26252,128,0,26359:0:0:0:0:
182,192,26466,1,0,0:0:0:0:
36,192,26466,1,0,0:0:0:0:
475,192,26466,128,0,26574:0:0:0:0:
329,192,26466,1,0,0:0:0:0:
36,192,26681,128,0,26788:0:0:0:0:
329,192,26681,128,0,26788:0:0:0:0:
182,192,26681,128,0,26788:0:0:0:0:
256,192,26895,128,0,27324:0:0:0:0:
475,192,26895,128,0,27324:0:0:0:0:
36,192,26895,128,0,27324:0:0:0:0:
402,192,26895,128,0,27324:0:0:0:0:
109,192,26895,128,0,27324:0:0:0:0:
475,192,27752,1,0,0:0:0:0:
182,192,27752,1,0,0:0:0:0:
36,192,27752,128,0,27859:0:0:0:0:
329,192,27752,1,0,0:0:0:0:
109,192,27966,128,0,28074:0:0:0:0:
329,192,27966,1,0,0:0:0:0:
256,192,28181,128,0,28288:0:0:0:0:
402,192,28181,1,0,0:0:0:0:
182,192,28395,128,0,28502:0:0:0:0:
402,192,28395,1,0,0:0:0:0:
475,192,28609,128,0,28716:0:0:0:0:
109,192,28609,1,0,0:0:0:0:
402,192,28824,128,0,28931:0:0:0:0:
109,192,28824,1,0,0:0:0:0:
256,192,29038,128,0,29145:0:0:0:0:
36,192,29038,1,0,0:0:0:0:
329,192,29252,128,0,29359:0:0:0:0:
36,192,29252,1,0,0:0:0:0:
182,192,29466,128,0,29788:0:0:0:0:
475,192,29466,128,0,29574:0:0:0:0:
109,192,29466,128,0,29574:0:0:0:0:
402,192,29681,128,0,29788:0:0:0:0:
109,192,29681,128,0,29788:0:0:0:0:
329,192,29895,128,0,30216:0:0:0:0:
36,192,29895,128,0,30002:0:0:0:0:
256,192,29895,128,0,30002:0:0:0:0:
109,192,30109,128,0,30216:0:0:0:0:
256,192,30109,128,0,30216:0:0:0:0:
182,192,30324,128,0,30645:0:0:0:0:
475,192,30324,128,0,30431:0:0:0:0:
329,192,30324,128,0,30431:0:0:0:0:
402,192,30538,128,0,30645:0:0:0:0:
329,192,30538,128,0,30645:0:0:0:0:
256,192,30752,128,0,30859:0:0:0:0:
36,192,30752,128,0,30859:0:0:0:0:
475,192,30752,128,0,30859:0:0:0:0:
109,192,30966,1,0,0:0:0:0:
329,192,30966,1,0,0:0:0:0:
182,192,31074,1,0,0:0:0:0:
402,192,31074,1,0,0:0:0:0:
256,192,31181,1,0,0:0:0:0:
36,192,31181,128,0,31824:0:0:0:0:
475,192,31181,128,0,31288:0:0:0:0:
402,192,31395,128,0,31502:0:0:0:0:
182,192,31395,1,0,0:0:0:0:
329,192,31609,128,0,31716:0:0:0:0:
109,192,31609,1,0,0:0:0:0:
475,192,31824,1,0,0:0:0:0:
182,192,31824,1,0,0:0:0:0:
402,192,31931,1,0,0:0:0:0:
256,192,31931,1,0,0:0:0:0:
36,192,32038,128,0,32145:0:0:0:0:
475,192,32038,128,0,32681:0:0:0:0:
182,192,32038,1,0,0:0:0:0:
109,192,32252,128,0,32359:0:0:0:0:
256,192,32252,1,0,0:0:0:0:
182,192,32466,128,0,32574:0:0:0:0:
329,192,32466,1,0,0:0:0:0:
36,192,32681,1,0,0:0:0:0:
256,192,32681,1,0,0:0:0:0:
182,192,32788,1,0,0:0:0:0:
402,192,32788,1,0,0:0:0:0:
109,192,32895,128,0,33538:0:0:0:0:
475,192,32895,128,0,33002:0:0:0:0:
329,192,32895,1,0,0:0:0:0:
402,192,33109,128,0,33216:0:0:0:0:
256,192,33109,1,0,0:0:0:0:
329,192,33324,128,0,33431:0:0:0:0:
182,192,33324,1,0,0:0:0:0:
36,192,33538,1,0,0:0:0:0:
256,192,33538,1,0,0:0:0:0:
329,192,33645,1,0,0:0:0:0:
109,192,33645,1,0,0:0:0:0:
402,192,33752,128,0,34181:0:0:0:0:
182,192,33752,128,0,33859:0:0:0:0:
36,192,33752,1,0,0:0:0:0:
256,192,33966,128,0,34074:0:0:0:0:
109,192,33966,1,0,0:0:0:0:
329,192,34181,1,0,0:0:0:0:
475,192,34181,1,0,0:0:0:0:
329,192,34324,1,0,0:0:0:0:
182,192,34324,1,0,0:0:0:0:
182,192,34466,1,0,0:0:0:0:
36,192,34466,1,0,0:0:0:0:
402,192,34609,128,0,34931:0:0:0:0:
475,192,34609,128,0,34931:0:0:0:0:
109,192,34609,128,0,34931:0:0:0:0:
256,192,34609,128,0,34931:0:0:0:0:
402,192,35038,128,0,35359:0:0:0:0:
329,192,35038,128,0,35359:0:0:0:0:
182,192,35038,128,0,35359:0:0:0:0:
36,192,35038,128,0,35359:0:0:0:0:
329,192,35466,128,0,35788:0:0:0:0:
256,192,35466,128,0,35788:0:0:0:0:
36,192,35466,128,0,35788:0:0:0:0:
475,192,35466,128,0,35788:0:0:0:0:
36,192,35895,1,0,0:0:0:0:
182,192,35895,1,0,0:0:0:0:
402,192,35895,1,0,0:0:0:0:
402,192,36038,1,0,0:0:0:0:
256,192,36038,1,0,0:0:0:0:
109,192,36038,1,0,0:0:0:0:
475,192,36181,1,0,0:0:0:0:
182,192,36181,1,0,0:0:0:0:
329,192,36181,1,0,0:0:0:0:
256,192,36324,128,0,36645:0:0:0:0:
475,192,36324,128,0,36645:0:0:0:0:
36,192,36324,128,0,36645:0:0:0:0:
402,192,36324,128,0,36645:0:0:0:0:
109,192,36752,1,0,0:0:0:0:
329,192,36752,1,0,0:0:0:0:
475,192,36752,1,0,0:0:0:0:
402,192,36895,1,0,0:0:0:0:
256,192,36895,1,0,0:0:0:0:
109,192,36895,1,0,0:0:0:0:
182,192,37038,1,0,0:0:0:0:
329,192,37038,1,0,0:0:0:0:
36,192,37038,1,0,0:0:0:0:
256,192,37181,128,0,37502:0:0:0:0:
475,192,37181,128,0,37931:0:0:0:0:
36,192,37181,128,0,37502:0:0:0:0:
109,192,37181,128,0,37502:0:0:0:0:
256,192,37609,128,0,37931:0:0:0:0:
402,192,37609,128,0,37931:0:0:0:0:
109,192,37609,128,0,37931:0:0:0:0:
36,192,38038,1,0,0:0:0:0:
182,192,38038,1,0,0:0:0:0:
475,192,38038,1,0,0:0:0:0:
329,192,38145,1,0,0:0:0:0:
109,192,38145,1,0,0:0:0:0:
475,192,38252,128,0,38359:0:0:0:0:
109,192,38359,1,0,0:0:0:0:
329,192,38359,1,0,0:0:0:0:
36,192,38466,1,0,0:0:0:0:
182,192,38466,1,0,0:0:0:0:
402,192,38466,1,0,0:0:0:0:
475,192,38574,128,0,38681:0:0:0:0:
109,192,38681,1,0,0:0:0:0:
256,192,38681,1,0,0:0:0:0:
475,192,38895,1,0,0:0:0:0:
329,192,38895,1,0,0:0:0:0:
36,192,38895,1,0,0:0:0:0:
402,192,39002,1,0,0:0:0:0:
182,192,39002,1,0,0:0:0:0:
36,192,39109,128,0,39216:0:0:0:0:
402,192,39216,1,0,0:0:0:0:
182,192,39216,1,0,0:0:0:0:
475,192,39324,1,0,0:0:0:0:
329,192,39324,1,0,0:0:0:0:
109,192,39324,1,0,0:0:0:0:
36,192,39431,128,0,39538:0:0:0:0:
182,192,39431,1,0,0:0:0:0:
402,192,39538,1,0,0:0:0:0:
256,192,39538,1,0,0:0:0:0:
475,192,39752,1,0,0:0:0:0:
182,192,39752,1,0,0:0:0:0:
36,192,39752,1,0,0:0:0:0:
402,192,39859,1,0,0:0:0:0:
256,192,39859,1,0,0:0:0:0:
329,192,39966,128,0,40074:0:0:0:0:
402,192,40074,1,0,0:0:0:0:
256,192,40074,1,0,0:0:0:0:
475,192,40181,1,0,0:0:0:0:
182,192,40181,1,0,0:0:0:0:
36,192,40181,1,0,0:0:0:0:
329,192,40288,128,0,40395:0:0:0:0:
402,192,40395,1,0,0:0:0:0:
109,192,40395,1,0,0:0:0:0:
329,192,40609,1,0,0:0:0:0:
475,192,40609,1,0,0:0:0:0:
36,192,40609,1,0,0:0:0:0:
402,192,40716,1,0,0:0:0:0:
109,192,40716,1,0,0:0:0:0:
182,192,40824,128,0,40931:0:0:0:0:
109,192,40931,1,0,0:0:0:0:
402,192,40931,1,0,0:0:0:0:
475,192,41038,1,0,0:0:0:0:
36,192,41038,1,0,0:0:0:0:
256,192,41038,1,0,0:0:0:0:
182,192,41145,128,0,41252:0:0:0:0:
329,192,41145,1,0,0:0:0:0:
109,192,41252,1,0,0:0:0:0:
475,192,41252,1,0,0:0:0:0:
182,192,41466,1,0,0:0:0:0:
36,192,41466,1,0,0:0:0:0:
402,192,41466,1,0,0:0:0:0:
475,192,41466,1,0,0:0:0:0:
256,192,41574,1,0,0:0:0:0:
109,192,41574,1,0,0:0:0:0:
329,192,41681,1,0,0:0:0:0:
475,192,41681,1,0,0:0:0:0:
109,192,41788,1,0,0:0:0:0:
256,192,41788,1,0,0:0:0:0:
475,192,41895,1,0,0:0:0:0:
329,192,41895,1,0,0:0:0:0:
182,192,41895,1,0,0:0:0:0:
36,192,41895,1,0,0:0:0:0:
256,192,42002,1,0,0:0:0:0:
402,192,42002,1,0,0:0:0:0:
182,192,42109,1,0,0:0:0:0:
36,192,42109,1,0,0:0:0:0:
402,192,42216,1,0,0:0:0:0:
256,192,42216,1,0,0:0:0:0:
36,192,42324,1,0,0:0:0:0:
475,192,42324,1,0,0:0:0:0:
182,192,42324,1,0,0:0:0:0:
329,192,42324,1,0,0:0:0:0:
402,192,42431,1,0,0:0:0:0:
109,192,42431,1,0,0:0:0:0:
182,192,42538,1,0,0:0:0:0:
329,192,42538,1,0,0:0:0:0:
402,192,42645,1,0,0:0:0:0:
256,192,42645,1,0,0:0:0:0:
475,192,42752,1,0,0:0:0:0:
36,192,42752,1,0,0:0:0:0:
182,192,42752,1,0,0:0:0:0:
329,192,42752,1,0,0:0:0:0:
256,192,42859,1,0,0:0:0:0:
109,192,42859,1,0,0:0:0:0:
475,192,42966,1,0,0:0:0:0:
329,192,42966,1,0,0:0:0:0:
109,192,43074,1,0,0:0:0:0:
256,192,43074,1,0,0:0:0:0:
329,192,43181,128,0,43395:0:0:0:0:
475,192,43181,128,0,43395:0:0:0:0:
36,192,43181,128,0,43395:0:0:0:0:
109,192,43609,128,0,43824:0:0:0:0:
402,192,43609,128,0,43824:0:0:0:0:
256,192,43609,128,0,43824:0:0:0:0:
329,192,43931,128,0,44145:0:0:0:0:
182,192,43931,128,0,44145:0:0:0:0:
36,192,44145,128,0,44359:0:0:0:0:
475,192,44145,128,0,44359:0:0:0:0:
182,192,44252,128,0,44359:0:0:0:0:
329,192,44252,128,0,44359:0:0:0:0:
256,192,44466,1,0,0:0:0:0:
256,192,44681,1,0,0:0:0:0:
402,192,44895,1,0,0:0:0:0:
475,192,44895,1,0,0:0:0:0:
256,192,44895,1,0,0:0:0:0:
109,192,44895,1,0,0:0:0:0:
36,192,44895,1,0,0:0:0:0:
182,192,45109,1,0,0:0:0:0:
36,192,45109,1,0,0:0:0:0:
329,192,45324,1,0,0:0:0:0:
475,192,45324,1,0,0:0:0:0:
109,192,45324,1,0,0:0:0:0:
256,192,45538,1,0,0:0:0:0:
475,192,45538,1,0,0:0:0:0:
329,192,45645,1,0,0:0:0:0:
109,192,45645,1,0,0:0:0:0:
402,192,45752,1,0,0:0:0:0:
182,192,45752,1,0,0:0:0:0:
36,192,45752,1,0,0:0:0:0:
329,192,45966,1,0,0:0:0:0:
475,192,45966,1,0,0:0:0:0:
402,192,46181,1,0,0:0:0:0:
256,192,46181,1,0,0:0:0:0:
109,192,46181,1,0,0:0:0:0:
182,192,46395,1,0,0:0:0:0:
329,192,46395,1,0,0:0:0:0:
402,192,46502,1,0,0:0:0:0:
475,192,46609,1,0,0:0:0:0:
256,192,46609,1,0,0:0:0:0:
109,192,46609,1,0,0:0:0:0:
36,192,46609,1,0,0:0:0:0:
182,192,46824,1,0,0:0:0:0:
329,192,46824,1,0,0:0:0:0:
475,192,46931,1,0,0:0:0:0:
36,192,47038,1,0,0:0:0:0:
182,192,47038,1,0,0:0:0:0:
256,192,47038,1,0,0:0:0:0:
475,192,47145,1,0,0:0:0:0:
329,192,47145,1,0,0:0:0:0:
109,192,47252,1,0,0:0:0:0:
475,192,47359,1,0,0:0:0:0:
329,192,47359,1,0,0:0:0:0:
36,192,47466,1,0,0:0:0:0:
182,192,47466,1,0,0:0:0:0:
402,192,47466,1,0,0:0:0:0:
402,192,47681,1,0,0:0:0:0:
256,192,47681,1,0,0:0:0:0:
36,192,47895,1,0,0:0:0:0:
475,192,47895,1,0,0:0:0:0:
329,192,47895,1,0,0:0:0:0:
402,192,48109,1,0,0:0:0:0:
182,192,48109,1,0,0:0:0:0:
36,192,48324,1,0,0:0:0:0:
329,192,48324,128,0,48538:0:0:0:0:
475,192,48324,128,0,48538:0:0:0:0:
109,192,48324,1,0,0:0:0:0:
256,192,48538,1,0,0:0:0:0:
182,192,48645,128,0,48859:0:0:0:0:
36,192,48645,128,0,48859:0:0:0:0:
475,192,48752,1,0,0:0:0:0:
329,192,48752,1,0,0:0:0:0:
402,192,48752,1,0,0:0:0:0:
256,192,48966,128,0,49181:0:0:0:0:
402,192,48966,128,0,49181:0:0:0:0:
182,192,49074,1,0,0:0:0:0:
475,192,49074,1,0,0:0:0:0:
109,192,49181,1,0,0:0:0:0:
36,192,49181,1,0,0:0:0:0:
329,192,49288,128,0,49502:0:0:0:0:
182,192,49288,128,0,49502:0:0:0:0:
475,192,49395,1,0,0:0:0:0:
402,192,49502,1,0,0:0:0:0:
36,192,49609,1,0,0:0:0:0:
182,192,49609,1,0,0:0:0:0:
329,192,49609,1,0,0:0:0:0:
256,192,49824,1,0,0:0:0:0:
402,192,49824,1,0,0:0:0:0:
329,192,50038,1,0,0:0:0:0:
475,192,50038,1,0,0:0:0:0:
36,192,50038,1,0,0:0:0:0:
109,192,50038,1,0,0:0:0:0:
182,192,50252,1,0,0:0:0:0:
329,192,50252,1,0,0:0:0:0:
402,192,50466,1,0,0:0:0:0:
256,192,50466,128,0,50574:0:0:0:0:
109,192,50466,1,0,0:0:0:0:
329,192,50681,1,0,0:0:0:0:
182,192,50681,128,0,50788:0:0:0:0:
36,192,50681,1,0,0:0:0:0:
475,192,50788,1,0,0:0:0:0:
402,192,50788,1,0,0:0:0:0:
256,192,50895,1,0,0:0:0:0:
36,192,50895,128,0,51002:0:0:0:0:
109,192,50895,1,0,0:0:0:0:
329,192,51109,1,0,0:0:0:0:
109,192,51109,128,0,51216:0:0:0:0:
182,192,51109,1,0,0:0:0:0:
256,192,51324,1,0,0:0:0:0:
475,192,51324,128,0,51645:0:0:0:0:
402,192,51324,1,0,0:0:0:0:
36,192,51324,128,0,51645:0:0:0:0:
329,192,51538,1,0,0:0:0:0:
182,192,51538,1,0,0:0:0:0:
256,192,51645,1,0,0:0:0:0:
109,192,51645,1,0,0:0:0:0:
475,192,51752,1,0,0:0:0:0:
182,192,51752,1,0,0:0:0:0:
329,192,51752,1,0,0:0:0:0:
36,192,51752,1,0,0:0:0:0:
182,192,51966,1,0,0:0:0:0:
402,192,51966,1,0,0:0:0:0:
329,192,52074,1,0,0:0:0:0:
402,192,52181,128,0,52395:0:0:0:0:
36,192,52181,1,0,0:0:0:0:
109,192,52181,1,0,0:0:0:0:
475,192,52181,1,0,0:0:0:0:
182,192,52288,1,0,0:0:0:0:
256,192,52395,1,0,0:0:0:0:
182,192,52502,1,0,0:0:0:0:
36,192,52502,1,0,0:0:0:0:
402,192,52609,128,0,52824:0:0:0:0:
329,192,52609,1,0,0:0:0:0:
256,192,52716,1,0,0:0:0:0:
36,192,52824,1,0,0:0:0:0:
182,192,52824,1,0,0:0:0:0:
475,192,52824,1,0,0:0:0:0:
256,192,52931,1,0,0:0:0:0:
475,192,53038,1,0,0:0:0:0:
36,192,53038,1,0,0:0:0:0:
109,192,53038,1,0,0:0:0:0:
329,192,53038,1,0,0:0:0:0:
475,192,53252,128,0,53466:0:0:0:0:
256,192,53252,1,0,0:0:0:0:
256,192,53359,1,0,0:0:0:0:
109,192,53466,1,0,0:0:0:0:
36,192,53466,1,0,0:0:0:0:
402,192,53466,1,0,0:0:0:0:
329,192,53574,1,0,0:0:0:0:
182,192,53681,1,0,0:0:0:0:
475,192,53681,1,0,0:0:0:0:
256,192,53788,1,0,0:0:0:0:
475,192,53895,1,0,0:0:0:0:
402,192,53895,1,0,0:0:0:0:
36,192,53895,1,0,0:0:0:0:
182,192,53895,128,0,54109:0:0:0:0:
329,192,54002,1,0,0:0:0:0:
256,192,54109,1,0,0:0:0:0:
329,192,54216,1,0,0:0:0:0:
475,192,54216,1,0,0:0:0:0:
182,192,54324,1,0,0:0:0:0:
109,192,54324,128,0,54538:0:0:0:0:
256,192,54431,1,0,0:0:0:0:
475,192,54538,1,0,0:0:0:0:
329,192,54538,1,0,0:0:0:0:
36,192,54538,1,0,0:0:0:0:
256,192,54645,1,0,0:0:0:0:
36,192,54752,1,0,0:0:0:0:
475,192,54752,1,0,0:0:0:0:
402,192,54752,1,0,0:0:0:0:
182,192,54752,1,0,0:0:0:0:
256,192,54966,1,0,0:0:0:0:
36,192,54966,128,0,55181:0:0:0:0:
256,192,55074,1,0,0:0:0:0:
402,192,55181,1,0,0:0:0:0:
475,192,55181,1,0,0:0:0:0:
109,192,55181,1,0,0:0:0:0:
182,192,55288,1,0,0:0:0:0:
329,192,55395,1,0,0:0:0:0:
475,192,55395,1,0,0:0:0:0:
256,192,55502,1,0,0:0:0:0:
329,192,55609,128,0,55824:0:0:0:0:
36,192,55609,1,0,0:0:0:0:
475,192,55609,1,0,0:0:0:0:
182,192,55609,1,0,0:0:0:0:
109,192,55716,1,0,0:0:0:0:
402,192,55824,1,0,0:0:0:0:
329,192,55931,1,0,0:0:0:0:
36,192,55931,1,0,0:0:0:0:
182,192,56038,1,0,0:0:0:0:
475,192,56038,1,0,0:0:0:0:
109,192,56145,1,0,0:0:0:0:
475,192,56252,1,0,0:0:0:0:
36,192,56252,1,0,0:0:0:0:
329,192,56252,1,0,0:0:0:0:
402,192,56359,1,0,0:0:0:0:
182,192,56466,128,0,56681:0:0:0:0:
256,192,56466,1,0,0:0:0:0:
36,192,56466,1,0,0:0:0:0:
475,192,56466,1,0,0:0:0:0:
329,192,56681,1,0,0:0:0:0:
109,192,56681,1,0,0:0:0:0:
329,192,56788,1,0,0:0:0:0:
182,192,56895,1,0,0:0:0:0:
36,192,56895,1,0,0:0:0:0:
475,192,56895,1,0,0:0:0:0:
402,192,57002,1,0,0:0:0:0:
256,192,57002,1,0,0:0:0:0:
36,192,57109,1,0,0:0:0:0:
182,192,57109,1,0,0:0:0:0:
329,192,57216,1,0,0:0:0:0:
475,192,57216,1,0,0:0:0:0:
36,192,57324,1,0,0:0:0:0:
256,192,57324,1,0,0:0:0:0:
109,192,57324,1,0,0:0:0:0:
329,192,57431,1,0,0:0:0:0:
475,192,57431,1,0,0:0:0:0:
256,192,57538,1,0,0:0:0:0:
402,192,57538,1,0,0:0:0:0:
475,192,57645,1,0,0:0:0:0:
36,192,57645,1,0,0:0:0:0:
182,192,57645,1,0,0:0:0:0:
109,192,57752,1,0,0:0:0:0:
329,192,57752,1,0,0:0:0:0:
256,192,57806,1,0,0:0:0:0:
182,192,57859,1,0,0:0:0:0:
402,192,57859,1,0,0:0:0:0:
109,192,57913,1,0,0:0:0:0:
475,192,57966,1,0,0:0:0:0:
36,192,57966,1,0,0:0:0:0:
329,192,57966,1,0,0:0:0:0:
182,192,58074,1,0,0:0:0:0:
402,192,58074,1,0,0:0:0:0:
256,192,58181,128,0,58234:0:0:0:0:
36,192,58181,128,0,58234:0:0:0:0:
329,192,58288,128,0,58341:0:0:0:0:
109,192,58288,128,0,58341:0:0:0:0:
475,192,58395,128,0,58449:0:0:0:0:
256,192,58395,128,0,58449:0:0:0:0:
402,192,58502,128,0,58556:0:0:0:0:
182,192,58502,128,0,58556:0:0:0:0:
329,192,58609,1,0,0:0:0:0:
36,192,58609,1,0,0:0:0:0:
256,192,58609,1,0,0:0:0:0:
475,192,58609,1,0,0:0:0:0:
109,192,58609,1,0,0:0:0:0:
475,192,58824,128,0,59038:0:0:0:0:
256,192,58824,1,0,0:0:0:0:
182,192,59038,1,0,0:0:0:0:
36,192,59038,1,0,0:0:0:0:
329,192,59038,128,0,59252:0:0:0:0:
36,192,59252,1,0,0:0:0:0:
256,192,59252,1,0,0:0:0:0:
182,192,59359,1,0,0:0:0:0:
402,192,59359,1,0,0:0:0:0:
109,192,59466,1,0,0:0:0:0:
329,192,59466,1,0,0:0:0:0:
475,192,59466,1,0,0:0:0:0:
182,192,59574,128,0,59681:0:0:0:0:
36,192,59574,128,0,59681:0:0:0:0:
402,192,59681,1,0,0:0:0:0:
36,192,59788,128,0,59895:0:0:0:0:
182,192,59788,128,0,59895:0:0:0:0:
109,192,59895,1,0,0:0:0:0:
256,192,59895,1,0,0:0:0:0:
475,192,59895,1,0,0:0:0:0:
182,192,60002,1,0,0:0:0:0:
329,192,60002,1,0,0:0:0:0:
402,192,60056,1,0,0:0:0:0:
256,192,60109,128,0,60216:0:0:0:0:
475,192,60109,128,0,60216:0:0:0:0:
36,192,60109,128,0,60216:0:0:0:0:
36,192,60324,1,0,0:0:0:0:
256,192,60324,1,0,0:0:0:0:
402,192,60324,1,0,0:0:0:0:
475,192,60324,1,0,0:0:0:0:
109,192,60431,128,0,60645:0:0:0:0:
329,192,60538,1,0,0:0:0:0:
182,192,60538,1,0,0:0:0:0:
36,192,60645,1,0,0:0:0:0:
475,192,60752,1,0,0:0:0:0:
329,192,60752,1,0,0:0:0:0:
256,192,60752,1,0,0:0:0:0:
36,192,60859,1,0,0:0:0:0:
402,192,60966,1,0,0:0:0:0:
109,192,60966,128,0,61181:0:0:0:0:
256,192,61074,128,0,61181:0:0:0:0:
329,192,61074,1,0,0:0:0:0:
475,192,61181,1,0,0:0:0:0:
402,192,61181,1,0,0:0:0:0:
36,192,61181,1,0,0:0:0:0:
109,192,61288,1,0,0:0:0:0:
256,192,61288,1,0,0:0:0:0:
329,192,61395,1,0,0:0:0:0:
475,192,61395,1,0,0:0:0:0:
182,192,61502,1,0,0:0:0:0:
36,192,61502,1,0,0:0:0:0:
475,192,61609,1,0,0:0:0:0:
109,192,61609,1,0,0:0:0:0:
329,192,61609,1,0,0:0:0:0:
402,192,61824,1,0,0:0:0:0:
256,192,61824,1,0,0:0:0:0:
475,192,62038,1,0,0:0:0:0:
329,192,62038,1,0,0:0:0:0:
109,192,62038,128,0,62252:0:0:0:0:
256,192,62038,128,0,62252:0:0:0:0:
402,192,62145,1,0,0:0:0:0:
36,192,62252,1,0,0:0:0:0:
329,192,62359,128,0,62574:0:0:0:0:
475,192,62359,128,0,62574:0:0:0:0:
36,192,62466,1,0,0:0:0:0:
109,192,62466,1,0,0:0:0:0:
256,192,62466,1,0,0:0:0:0:
182,192,62681,128,0,62895:0:0:0:0:
36,192,62681,128,0,62895:0:0:0:0:
402,192,62681,1,0,0:0:0:0:
329,192,62788,1,0,0:0:0:0:
402,192,62895,1,0,0:0:0:0:
109,192,62895,1,0,0:0:0:0:
256,192,62895,1,0,0:0:0:0:
329,192,63002,128,0,63216:0:0:0:0:
475,192,63002,128,0,63216:0:0:0:0:
182,192,63109,1,0,0:0:0:0:
109,192,63216,1,0,0:0:0:0:
36,192,63324,1,0,0:0:0:0:
329,192,63324,1,0,0:0:0:0:
475,192,63324,1,0,0:0:0:0:
109,192,63431,1,0,0:0:0:0:
182,192,63484,1,0,0:0:0:0:
402,192,63538,1,0,0:0:0:0:
256,192,63538,1,0,0:0:0:0:
36,192,63752,1,0,0:0:0:0:
329,192,63752,1,0,0:0:0:0:
475,192,63752,1,0,0:0:0:0:
182,192,63752,1,0,0:0:0:0:
109,192,63859,1,0,0:0:0:0:
402,192,63859,1,0,0:0:0:0:
475,192,63966,1,0,0:0:0:0:
256,192,63966,1,0,0:0:0:0:
36,192,63966,1,0,0:0:0:0:
109,192,64181,1,0,0:0:0:0:
36,192,64181,128,0,64288:0:0:0:0:
329,192,64181,1,0,0:0:0:0:
182,192,64288,128,0,64395:0:0:0:0:
402,192,64288,1,0,0:0:0:0:
329,192,64395,128,0,64502:0:0:0:0:
475,192,64395,1,0,0:0:0:0:
36,192,64502,128,0,64609:0:0:0:0:
182,192,64502,1,0,0:0:0:0:
109,192,64609,1,0,0:0:0:0:
256,192,64609,1,0,0:0:0:0:
475,192,64609,128,0,64716:0:0:0:0:
329,192,64716,128,0,64824:0:0:0:0:
36,192,64716,1,0,0:0:0:0:
182,192,64824,1,0,0:0:0:0:
475,192,64824,128,0,64931:0:0:0:0:
329,192,64931,1,0,0:0:0:0:
182,192,65038,1,0,0:0:0:0:
36,192,65038,1,0,0:0:0:0:
475,192,65038,1,0,0:0:0:0:
329,192,65145,1,0,0:0:0:0:
109,192,65145,1,0,0:0:0:0:
256,192,65199,1,0,0:0:0:0:
182,192,65252,1,0,0:0:0:0:
475,192,65252,1,0,0:0:0:0:
36,192,65252,1,0,0:0:0:0:
402,192,65359,1,0,0:0:0:0:
256,192,65359,1,0,0:0:0:0:
475,192,65466,1,0,0:0:0:0:
182,192,65466,128,0,65574:0:0:0:0:
36,192,65466,128,0,65788:0:0:0:0:
329,192,65466,128,0,65574:0:0:0:0:
109,192,65681,128,0,65788:0:0:0:0:
256,192,65681,128,0,65788:0:0:0:0:
36,192,65895,1,0,0:0:0:0:
329,192,65895,128,0,66002:0:0:0:0:
182,192,65895,128,0,66216:0:0:0:0:
475,192,65895,128,0,66002:0:0:0:0:
256,192,66109,128,0,66216:0:0:0:0:
402,192,66109,128,0,66216:0:0:0:0:
475,192,66324,128,0,66645:0:0:0:0:
329,192,66324,128,0,66645:0:0:0:0:
36,192,66324,128,0,66645:0:0:0:0:
182,192,66324,128,0,66645:0:0:0:0:
182,192,66752,1,0,0:0:0:0:
475,192,66752,1,0,0:0:0:0:
329,192,66752,1,0,0:0:0:0:
36,192,66752,1,0,0:0:0:0:
256,192,67038,1,0,0:0:0:0:
475,192,67038,1,0,0:0:0:0:
36,192,67038,1,0,0:0:0:0:
109,192,67181,128,0,67395:0:0:0:0:
182,192,67181,128,0,67395:0:0:0:0:
329,192,67181,128,0,67395:0:0:0:0:
402,192,67181,128,0,67395:0:0:0:0:
329,192,67609,128,0,67824:0:0:0:0:
475,192,67609,128,0,67824:0:0:0:0:
182,192,67609,128,0,67824:0:0:0:0:
36,192,67609,128,0,67824:0:0:0:0:
256,192,67609,128,0,67824:0:0:0:0:
36,192,68038,128,0,68359:0:0:0:0:
109,192,68038,128,0,68359:0:0:0:0:
475,192,68038,128,0,68359:0:0:0:0:
402,192,68038,128,0,68359:0:0:0:0:
256,192,68038,128,0,68359:0:0:0:0:
36,192,68466,1,0,0:0:0:0:
329,192,68466,1,0,0:0:0:0:
475,192,68466,1,0,0:0:0:0:
182,192,68466,1,0,0:0:0:0:
256,192,68609,1,0,0:0:0:0:
182,192,68752,1,0,0:0:0:0:
36,192,68752,1,0,0:0:0:0:
329,192,68752,1,0,0:0:0:0:
475,192,68895,1,0,0:0:0:0:
256,192,68895,1,0,0:0:0:0:
109,192,68895,1,0,0:0:0:0:
402,192,68895,1,0,0:0:0:0:
402,192,69109,1,0,0:0:0:0:
182,192,69109,1,0,0:0:0:0:
36,192,69109,1,0,0:0:0:0:
329,192,69109,1,0,0:0:0:0:
402,192,69324,1,0,0:0:0:0:
109,192,69324,1,0,0:0:0:0:
36,192,69324,1,0,0:0:0:0:
256,192,69324,1,0,0:0:0:0:
329,192,69538,1,0,0:0:0:0:
475,192,69538,1,0,0:0:0:0:
109,192,69538,1,0,0:0:0:0:
182,192,69538,1,0,0:0:0:0:
182,192,69752,128,0,70074:0:0:0:0:
36,192,69752,128,0,70074:0:0:0:0:
329,192,69752,128,0,70074:0:0:0:0:
475,192,69752,1,0,0:0:0:0:
402,192,70181,128,0,70502:0:0:0:0:
256,192,70181,128,0,70502:0:0:0:0:
109,192,70181,128,0,70502:0:0:0:0:
475,192,70181,1,0,0:0:0:0:
329,192,70609,128,0,71520:0:0:0:0:
182,192,70609,128,0,71413:0:0:0:0:
36,192,70609,128,0,71359:0:0:0:0:
475,192,70609,128,0,71466:0:0:0:0:
36,192,71466,128,0,71520:0:0:0:0:
182,192,71520,128,0,71574:0:0:0:0:
475,192,71574,128,0,71627:0:0:0:0:
329,192,71627,128,0,71681:0:0:0:0:
36,192,71681,128,0,71734:0:0:0:0:
182,192,71734,128,0,71788:0:0:0:0:
475,192,71788,128,0,71841:0:0:0:0:
329,192,71841,128,0,71895:0:0:0:0:
109,192,72324,128,0,72377:0:0:0:0:
256,192,72431,128,0,72484:0:0:0:0:
402,192,72538,128,0,72591:0:0:0:0:
329,192,72752,1,0,0:0:0:0:
475,192,72752,1,0,0:0:0:0:
256,192,72752,1,0,0:0:0:0:
182,192,72752,1,0,0:0:0:0:
36,192,72752,1,0,0:0:0:0:
36,192,72966,1,0,0:0:0:0:
182,192,72966,1,0,0:0:0:0:
329,192,72966,1,0,0:0:0:0:
402,192,73074,1,0,0:0:0:0:
256,192,73074,1,0,0:0:0:0:
36,192,73181,1,0,0:0:0:0:
109,192,73181,1,0,0:0:0:0:
475,192,73181,1,0,0:0:0:0:
329,192,73288,1,0,0:0:0:0:
475,192,73395,1,0,0:0:0:0:
256,192,73395,1,0,0:0:0:0:
109,192,73395,1,0,0:0:0:0:
182,192,73609,1,0,0:0:0:0:
36,192,73609,1,0,0:0:0:0:
402,192,73609,1,0,0:0:0:0:
475,192,73609,1,0,0:0:0:0:
109,192,73824,1,0,0:0:0:0:
256,192,73824,1,0,0:0:0:0:
329,192,73931,1,0,0:0:0:0:
36,192,74038,1,0,0:0:0:0:
475,192,74038,1,0,0:0:0:0:
182,192,74038,1,0,0:0:0:0:
402,192,74038,1,0,0:0:0:0:
402,192,74252,1,0,0:0:0:0:
36,192,74252,1,0,0:0:0:0:
109,192,74359,1,0,0:0:0:0:
329,192,74466,1,0,0:0:0:0:
475,192,74466,1,0,0:0:0:0:
182,192,74466,1,0,0:0:0:0:
256,192,74466,1,0,0:0:0:0:
109,192,74574,1,0,0:0:0:0:
36,192,74574,1,0,0:0:0:0:
402,192,74681,1,0,0:0:0:0:
329,192,74788,1,0,0:0:0:0:
182,192,74788,1,0,0:0:0:0:
36,192,74895,1,0,0:0:0:0:
475,192,74895,1,0,0:0:0:0:
402,192,74895,1,0,0:0:0:0:
256,192,75002,1,0,0:0:0:0:
109,192,75002,1,0,0:0:0:0:
475,192,75109,1,0,0:0:0:0:
329,192,75109,1,0,0:0:0:0:
182,192,75109,1,0,0:0:0:0:
109,192,75324,1,0,0:0:0:0:
402,192,75324,1,0,0:0:0:0:
256,192,75324,1,0,0:0:0:0:
36,192,75324,1,0,0:0:0:0:
182,192,75538,1,0,0:0:0:0:
329,192,75538,1,0,0:0:0:0:
475,192,75538,1,0,0:0:0:0:
109,192,75752,1,0,0:0:0:0:
475,192,75752,1,0,0:0:0:0:
256,192,75752,1,0,0:0:0:0:
36,192,75752,1,0,0:0:0:0:
182,192,75966,1,0,0:0:0:0:
329,192,75966,1,0,0:0:0:0:
182,192,76181,1,0,0:0:0:0:
36,192,76181,1,0,0:0:0:0:
402,192,76181,1,0,0:0:0:0:
109,192,76181,1,0,0:0:0:0:
256,192,76288,1,0,0:0:0:0:
475,192,76288,1,0,0:0:0:0:
109,192,76395,1,0,0:0:0:0:
256,192,76502,1,0,0:0:0:0:
475,192,76502,1,0,0:0:0:0:
36,192,76609,1,0,0:0:0:0:
402,192,76609,1,0,0:0:0:0:
182,192,76609,1,0,0:0:0:0:
475,192,76716,1,0,0:0:0:0:
182,192,76824,1,0,0:0:0:0:
36,192,76824,1,0,0:0:0:0:
329,192,76824,1,0,0:0:0:0:
109,192,77038,1,0,0:0:0:0:
329,192,77038,1,0,0:0:0:0:
475,192,77038,1,0,0:0:0:0:
256,192,77038,1,0,0:0:0:0:
36,192,77252,1,0,0:0:0:0:
402,192,77252,1,0,0:0:0:0:
182,192,77252,1,0,0:0:0:0:
329,192,77359,1,0,0:0:0:0:
182,192,77466,1,0,0:0:0:0:
256,192,77466,1,0,0:0:0:0:
36,192,77466,1,0,0:0:0:0:
475,192,77574,1,0,0:0:0:0:
182,192,77681,1,0,0:0:0:0:
109,192,77681,1,0,0:0:0:0:
329,192,77681,1,0,0:0:0:0:
475,192,77788,1,0,0:0:0:0:
256,192,77895,1,0,0:0:0:0:
402,192,77895,1,0,0:0:0:0:
36,192,77895,1,0,0:0:0:0:
109,192,77895,1,0,0:0:0:0:
182,192,78002,1,0,0:0:0:0:
329,192,78002,1,0,0:0:0:0:
109,192,78109,128,0,78216:0:0:0:0:
475,192,78109,1,0,0:0:0:0:
182,192,78216,128,0,78324:0:0:0:0:
329,192,78216,1,0,0:0:0:0:
36,192,78324,1,0,0:0:0:0:
256,192,78324,128,0,78431:0:0:0:0:
475,192,78324,1,0,0:0:0:0:
109,192,78377,1,0,0:0:0:0:
182,192,78431,1,0,0:0:0:0:
329,192,78431,1,0,0:0:0:0:
402,192,78538,128,0,78645:0:0:0:0:
256,192,78538,1,0,0:0:0:0:
329,192,78645,128,0,78752:0:0:0:0:
182,192,78645,1,0,0:0:0:0:
256,192,78752,128,0,78859:0:0:0:0:
475,192,78752,1,0,0:0:0:0:
36,192,78752,1,0,0:0:0:0:
402,192,78752,1,0,0:0:0:0:
109,192,78859,1,0,0:0:0:0:
329,192,78859,1,0,0:0:0:0:
256,192,78966,128,0,79074:0:0:0:0:
182,192,78966,1,0,0:0:0:0:
475,192,78966,1,0,0:0:0:0:
109,192,79074,1,0,0:0:0:0:
402,192,79074,1,0,0:0:0:0:
36,192,79181,1,0,0:0:0:0:
475,192,79181,1,0,0:0:0:0:
329,192,79181,1,0,0:0:0:0:
182,192,79181,1,0,0:0:0:0:
109,192,79395,128,0,79609:0:0:0:0:
402,192,79395,1,0,0:0:0:0:
36,192,79609,1,0,0:0:0:0:
475,192,79609,1,0,0:0:0:0:
256,192,79609,1,0,0:0:0:0:
329,192,79609,1,0,0:0:0:0:
109,192,79824,1,0,0:0:0:0:
402,192,79824,1,0,0:0:0:0:
182,192,79931,1,0,0:0:0:0:
36,192,80038,1,0,0:0:0:0:
329,192,80038,1,0,0:0:0:0:
475,192,80038,1,0,0:0:0:0:
256,192,80145,1,0,0:0:0:0:
109,192,80145,1,0,0:0:0:0:
402,192,80145,1,0,0:0:0:0:
329,192,80359,1,0,0:0:0:0:
182,192,80359,1,0,0:0:0:0:
36,192,80359,1,0,0:0:0:0:
475,192,80466,1,0,0:0:0:0:
402,192,80466,1,0,0:0:0:0:
109,192,80466,1,0,0:0:0:0:
256,192,80466,1,0,0:0:0:0:
475,192,80681,128,0,80895:0:0:0:0:
109,192,80681,1,0,0:0:0:0:
402,192,80681,128,0,80895:0:0:0:0:
36,192,80895,1,0,0:0:0:0:
182,192,80895,1,0,0:0:0:0:
329,192,80895,1,0,0:0:0:0:
402,192,80949,1,0,0:0:0:0:
475,192,81002,1,0,0:0:0:0:
109,192,81109,1,0,0:0:0:0:
329,192,81109,1,0,0:0:0:0:
36,192,81216,1,0,0:0:0:0:
182,192,81324,1,0,0:0:0:0:
475,192,81324,1,0,0:0:0:0:
329,192,81324,1,0,0:0:0:0:
109,192,81324,1,0,0:0:0:0:
256,192,81431,1,0,0:0:0:0:
109,192,81538,1,0,0:0:0:0:
402,192,81538,1,0,0:0:0:0:
182,192,81645,1,0,0:0:0:0:
36,192,81752,1,0,0:0:0:0:
475,192,81752,1,0,0:0:0:0:
329,192,81752,1,0,0:0:0:0:
109,192,81859,1,0,0:0:0:0:
256,192,81859,1,0,0:0:0:0:
402,192,81859,1,0,0:0:0:0:
182,192,82074,1,0,0:0:0:0:
329,192,82074,1,0,0:0:0:0:
475,192,82074,1,0,0:0:0:0:
36,192,82181,1,0,0:0:0:0:
109,192,82181,1,0,0:0:0:0:
256,192,82181,1,0,0:0:0:0:
402,192,82181,1,0,0:0:0:0:
402,192,82395,1,0,0:0:0:0:
36,192,82395,128,0,82609:0:0:0:0:
109,192,82395,128,0,82609:0:0:0:0:
256,192,82609,1,0,0:0:0:0:
182,192,82609,1,0,0:0:0:0:
475,192,82609,1,0,0:0:0:0:
36,192,82716,1,0,0:0:0:0:
109,192,82770,1,0,0:0:0:0:
182,192,82824,1,0,0:0:0:0:
329,192,82824,1,0,0:0:0:0:
402,192,82931,1,0,0:0:0:0:
475,192,82931,1,0,0:0:0:0:
36,192,83038,1,0,0:0:0:0:
256,192,83038,1,0,0:0:0:0:
109,192,83038,1,0,0:0:0:0:
329,192,83038,1,0,0:0:0:0:
182,192,83252,1,0,0:0:0:0:
329,192,83252,1,0,0:0:0:0:
109,192,83359,1,0,0:0:0:0:
36,192,83359,1,0,0:0:0:0:
256,192,83466,1,0,0:0:0:0:
475,192,83466,1,0,0:0:0:0:
402,192,83466,1,0,0:0:0:0:
182,192,83574,1,0,0:0:0:0:
36,192,83574,1,0,0:0:0:0:
329,192,83574,1,0,0:0:0:0:
109,192,83788,1,0,0:0:0:0:
256,192,83788,1,0,0:0:0:0:
402,192,83788,1,0,0:0:0:0:
329,192,83895,1,0,0:0:0:0:
475,192,83895,1,0,0:0:0:0:
182,192,83895,1,0,0:0:0:0:
36,192,83895,1,0,0:0:0:0:
182,192,84109,128,0,84324:0:0:0:0:
329,192,84109,128,0,84324:0:0:0:0:
109,192,84109,1,0,0:0:0:0:
36,192,84324,1,0,0:0:0:0:
256,192,84324,1,0,0:0:0:0:
475,192,84324,1,0,0:0:0:0:
402,192,84377,1,0,0:0:0:0:
329,192,84431,1,0,0:0:0:0:
182,192,84431,1,0,0:0:0:0:
36,192,84538,1,0,0:0:0:0:
475,192,84538,1,0,0:0:0:0:
109,192,84538,1,0,0:0:0:0:
329,192,84645,1,0,0:0:0:0:
402,192,84752,1,0,0:0:0:0:
475,192,84752,1,0,0:0:0:0:
36,192,84752,1,0,0:0:0:0:
256,192,84752,1,0,0:0:0:0:
182,192,84966,1,0,0:0:0:0:
109,192,84966,1,0,0:0:0:0:
402,192,84966,1,0,0:0:0:0:
475,192,85181,1,0,0:0:0:0:
36,192,85181,1,0,0:0:0:0:
182,192,85181,1,0,0:0:0:0:
329,192,85181,1,0,0:0:0:0:
256,192,85234,1,0,0:0:0:0:
109,192,85288,1,0,0:0:0:0:
402,192,85288,1,0,0:0:0:0:
475,192,85395,1,0,0:0:0:0:
36,192,85395,1,0,0:0:0:0:
256,192,85395,1,0,0:0:0:0:
402,192,85502,1,0,0:0:0:0:
109,192,85609,1,0,0:0:0:0:
475,192,85609,1,0,0:0:0:0:
329,192,85609,1,0,0:0:0:0:
182,192,85609,1,0,0:0:0:0:
256,192,85716,1,0,0:0:0:0:
402,192,85824,1,0,0:0:0:0:
182,192,85824,1,0,0:0:0:0:
36,192,85824,1,0,0:0:0:0:
402,192,85931,1,0,0:0:0:0:
109,192,85931,1,0,0:0:0:0:
329,192,86038,1,0,0:0:0:0:
256,192,86038,128,0,86359:0:0:0:0:
36,192,86038,128,0,86359:0:0:0:0:
475,192,86038,128,0,86359:0:0:0:0:
182,192,86038,1,0,0:0:0:0:
109,192,86252,1,0,0:0:0:0:
182,192,86359,1,0,0:0:0:0:
475,192,86466,1,0,0:0:0:0:
256,192,86466,128,0,86520:0:0:0:0:
109,192,86574,128,0,86627:0:0:0:0:
329,192,86574,1,0,0:0:0:0:
109,192,86788,128,0,86841:0:0:0:0:
402,192,86895,128,0,87431:0:0:0:0:
475,192,86895,128,0,87431:0:0:0:0:
182,192,86895,1,0,0:0:0:0:
329,192,86895,1,0,0:0:0:0:
36,192,86895,1,0,0:0:0:0:
36,192,87216,128,0,87538:0:0:0:0:
109,192,87216,128,0,87538:0:0:0:0:
182,192,87216,1,0,0:0:0:0:
329,192,87216,1,0,0:0:0:0:
182,192,87538,1,0,0:0:0:0:
256,192,87538,1,0,0:0:0:0:
329,192,87538,128,0,87752:0:0:0:0:
402,192,87538,128,0,87806:0:0:0:0:
475,192,87538,128,0,87859:0:0:0:0:
182,192,87752,1,0,0:0:0:0:
109,192,87806,1,0,0:0:0:0:
36,192,87859,1,0,0:0:0:0:
182,192,87966,128,0,88020:0:0:0:0:
329,192,88074,128,0,88127:0:0:0:0:
182,192,88181,128,0,88234:0:0:0:0:
36,192,88181,128,0,88234:0:0:0:0:
329,192,88288,128,0,88341:0:0:0:0:
475,192,88288,128,0,88341:0:0:0:0:
256,192,88502,128,0,88556:0:0:0:0:
36,192,88609,128,0,89145:0:0:0:0:
109,192,88609,128,0,89145:0:0:0:0:
329,192,88609,1,0,0:0:0:0:
182,192,88609,1,0,0:0:0:0:
475,192,88609,1,0,0:0:0:0:
475,192,88931,128,0,89252:0:0:0:0:
402,192,88931,128,0,89252:0:0:0:0:
182,192,88931,1,0,0:0:0:0:
329,192,88931,1,0,0:0:0:0:
109,192,89252,128,0,89520:0:0:0:0:
329,192,89252,1,0,0:0:0:0:
182,192,89252,128,0,89466:0:0:0:0:
36,192,89252,128,0,89574:0:0:0:0:
256,192,89252,1,0,0:0:0:0:
329,192,89466,1,0,0:0:0:0:
402,192,89520,1,0,0:0:0:0:
475,192,89574,1,0,0:0:0:0:
109,192,89681,128,0,89734:0:0:0:0:
402,192,89788,128,0,89841:0:0:0:0:
182,192,89895,128,0,89949:0:0:0:0:
36,192,89895,128,0,89949:0:0:0:0:
329,192,90002,128,0,90056:0:0:0:0:
475,192,90002,128,0,90056:0:0:0:0:
109,192,90216,128,0,90270:0:0:0:0:
475,192,90324,128,0,90538:0:0:0:0:
329,192,90324,128,0,90538:0:0:0:0:
36,192,90324,128,0,90538:0:0:0:0:
256,192,90324,128,0,90538:0:0:0:0:
182,192,90645,128,0,90859:0:0:0:0:
329,192,90645,128,0,90859:0:0:0:0:
475,192,90645,128,0,90859:0:0:0:0:
109,192,90645,128,0,90859:0:0:0:0:
402,192,90966,128,0,91181:0:0:0:0:
256,192,90966,128,0,91181:0:0:0:0:
36,192,90966,128,0,91181:0:0:0:0:
109,192,90966,128,0,91181:0:0:0:0:
475,192,91181,1,0,0:0:0:0:
329,192,91395,1,0,0:0:0:0:
36,192,91395,128,0,91449:0:0:0:0:
475,192,91609,1,0,0:0:0:0:
109,192,91609,128,0,91663:0:0:0:0:
329,192,91824,1,0,0:0:0:0:
182,192,91824,128,0,91877:0:0:0:0:
256,192,92038,128,0,92466:0:0:0:0:
475,192,92038,128,0,92466:0:0:0:0:
36,192,92038,128,0,92466:0:0:0:0:
475,192,92895,1,0,0:0:0:0:
329,192,92895,1,0,0:0:0:0:
36,192,92895,1,0,0:0:0:0:
402,192,92895,1,0,0:0:0:0:
109,192,93002,1,0,0:0:0:0:
256,192,93002,1,0,0:0:0:0:
402,192,93109,1,0,0:0:0:0:
182,192,93109,1,0,0:0:0:0:
475,192,93109,1,0,0:0:0:0:
329,192,93216,1,0,0:0:0:0:
109,192,93216,1,0,0:0:0:0:
256,192,93324,1,0,0:0:0:0:
36,192,93324,1,0,0:0:0:0:
475,192,93324,1,0,0:0:0:0:
402,192,93431,1,0,0:0:0:0:
109,192,93431,1,0,0:0:0:0:
475,192,93538,1,0,0:0:0:0:
329,192,93538,1,0,0:0:0:0:
182,192,93538,1,0,0:0:0:0:
109,192,93645,1,0,0:0:0:0:
256,192,93645,1,0,0:0:0:0:
329,192,93752,1,0,0:0:0:0:
36,192,93752,1,0,0:0:0:0:
475,192,93752,1,0,0:0:0:0:
109,192,93859,1,0,0:0:0:0:
402,192,93859,1,0,0:0:0:0:
182,192,93859,1,0,0:0:0:0:
256,192,93966,1,0,0:0:0:0:
329,192,94074,1,0,0:0:0:0:
475,192,94074,1,0,0:0:0:0:
182,192,94074,1,0,0:0:0:0:
36,192,94181,1,0,0:0:0:0:
402,192,94181,1,0,0:0:0:0:
109,192,94181,1,0,0:0:0:0:
402,192,94395,1,0,0:0:0:0:
256,192,94395,1,0,0:0:0:0:
109,192,94395,1,0,0:0:0:0:
475,192,94609,1,0,0:0:0:0:
182,192,94609,1,0,0:0:0:0:
36,192,94609,1,0,0:0:0:0:
256,192,94716,1,0,0:0:0:0:
402,192,94716,1,0,0:0:0:0:
36,192,94824,1,0,0:0:0:0:
329,192,94824,1,0,0:0:0:0:
109,192,94824,1,0,0:0:0:0:
402,192,94931,1,0,0:0:0:0:
182,192,94931,1,0,0:0:0:0:
36,192,95038,1,0,0:0:0:0:
475,192,95038,1,0,0:0:0:0:
256,192,95038,1,0,0:0:0:0:
402,192,95145,1,0,0:0:0:0:
109,192,95145,1,0,0:0:0:0:
329,192,95252,1,0,0:0:0:0:
182,192,95252,1,0,0:0:0:0:
36,192,95252,1,0,0:0:0:0:
256,192,95359,1,0,0:0:0:0:
402,192,95359,1,0,0:0:0:0:
36,192,95466,1,0,0:0:0:0:
475,192,95466,1,0,0:0:0:0:
182,192,95466,1,0,0:0:0:0:
329,192,95574,1,0,0:0:0:0:
402,192,95574,1,0,0:0:0:0:
109,192,95574,1,0,0:0:0:0:
256,192,95681,1,0,0:0:0:0:
329,192,95788,1,0,0:0:0:0:
36,192,95788,1,0,0:0:0:0:
182,192,95788,1,0,0:0:0:0:
402,192,95895,1,0,0:0:0:0:
109,192,95895,1,0,0:0:0:0:
475,192,95895,1,0,0:0:0:0:
182,192,96109,1,0,0:0:0:0:
329,192,96109,1,0,0:0:0:0:
475,192,96109,1,0,0:0:0:0:
109,192,96216,1,0,0:0:0:0:
402,192,96216,1,0,0:0:0:0:
36,192,96324,1,0,0:0:0:0:
475,192,96324,1,0,0:0:0:0:
256,192,96324,1,0,0:0:0:0:
329,192,96431,1,0,0:0:0:0:
109,192,96431,1,0,0:0:0:0:
475,192,96538,1,0,0:0:0:0:
182,192,96538,1,0,0:0:0:0:
402,192,96538,1,0,0:0:0:0:
329,192,96645,1,0,0:0:0:0:
36,192,96645,1,0,0:0:0:0:
475,192,96752,1,0,0:0:0:0:
256,192,96752,1,0,0:0:0:0:
109,192,96752,1,0,0:0:0:0:
402,192,96859,1,0,0:0:0:0:
182,192,96859,1,0,0:0:0:0:
329,192,96966,1,0,0:0:0:0:
36,192,96966,1,0,0:0:0:0:
109,192,96966,1,0,0:0:0:0:
402,192,97074,1,0,0:0:0:0:
256,192,97074,1,0,0:0:0:0:
475,192,97181,1,0,0:0:0:0:
182,192,97181,1,0,0:0:0:0:
36,192,97181,1,0,0:0:0:0:
109,192,97288,1,0,0:0:0:0:
329,192,97288,1,0,0:0:0:0:
256,192,97288,1,0,0:0:0:0:
475,192,97395,1,0,0:0:0:0:
36,192,97395,1,0,0:0:0:0:
182,192,97502,1,0,0:0:0:0:
256,192,97502,1,0,0:0:0:0:
402,192,97502,1,0,0:0:0:0:
36,192,97609,1,0,0:0:0:0:
329,192,97609,1,0,0:0:0:0:
475,192,97609,1,0,0:0:0:0:
109,192,97824,1,0,0:0:0:0:
256,192,97824,1,0,0:0:0:0:
402,192,97824,1,0,0:0:0:0:
475,192,98038,1,0,0:0:0:0:
36,192,98038,1,0,0:0:0:0:
256,192,98038,1,0,0:0:0:0:
182,192,98145,1,0,0:0:0:0:
402,192,98145,1,0,0:0:0:0:
36,192,98252,1,0,0:0:0:0:
329,192,98252,1,0,0:0:0:0:
109,192,98252,1,0,0:0:0:0:
182,192,98359,1,0,0:0:0:0:
475,192,98359,1,0,0:0:0:0:
36,192,98466,1,0,0:0:0:0:
256,192,98466,1,0,0:0:0:0:
402,192,98466,1,0,0:0:0:0:
109,192,98574,1,0,0:0:0:0:
329,192,98574,1,0,0:0:0:0:
182,192,98681,1,0,0:0:0:0:
475,192,98681,1,0,0:0:0:0:
109,192,98788,1,0,0:0:0:0:
256,192,98788,1,0,0:0:0:0:
402,192,98788,1,0,0:0:0:0:
36,192,98895,1,0,0:0:0:0:
329,192,98895,1,0,0:0:0:0:
475,192,98895,1,0,0:0:0:0:
402,192,99002,1,0,0:0:0:0:
182,192,99002,1,0,0:0:0:0:
256,192,99002,1,0,0:0:0:0:
36,192,99109,1,0,0:0:0:0:
475,192,99109,1,0,0:0:0:0:
256,192,99216,1,0,0:0:0:0:
109,192,99216,1,0,0:0:0:0:
475,192,99324,1,0,0:0:0:0:
329,192,99324,1,0,0:0:0:0:
182,192,99466,1,0,0:0:0:0:
329,192,99466,1,0,0:0:0:0:
182,192,99609,1,0,0:0:0:0:
36,192,99609,1,0,0:0:0:0:
109,192,99752,128,0,100074:0:0:0:0:
36,192,99752,128,0,100074:0:0:0:0:
402,192,99752,128,0,100074:0:0:0:0:
256,192,99752,128,0,100074:0:0:0:0:
109,192,100181,128,0,100502:0:0:0:0:
182,192,100181,128,0,100502:0:0:0:0:
329,192,100181,128,0,100502:0:0:0:0:
475,192,100181,128,0,100502:0:0:0:0:
182,192,100609,128,0,100931:0:0:0:0:
256,192,100609,128,0,100931:0:0:0:0:
475,192,100609,128,0,100931:0:0:0:0:
36,192,100609,128,0,100931:0:0:0:0:
475,192,101038,1,0,0:0:0:0:
329,192,101038,1,0,0:0:0:0:
109,192,101038,1,0,0:0:0:0:
109,192,101181,1,0,0:0:0:0:
256,192,101181,1,0,0:0:0:0:
402,192,101181,1,0,0:0:0:0:
36,192,101324,1,0,0:0:0:0:
329,192,101324,1,0,0:0:0:0:
182,192,101324,1,0,0:0:0:0:
256,192,101466,128,0,101788:0:0:0:0:
36,192,101466,128,0,101788:0:0:0:0:
475,192,101466,128,0,101788:0:0:0:0:
109,192,101466,128,0,101788:0:0:0:0:
402,192,101895,1,0,0:0:0:0:
182,192,101895,1,0,0:0:0:0:
36,192,101895,1,0,0:0:0:0:
109,192,102038,1,0,0:0:0:0:
256,192,102038,1,0,0:0:0:0:
402,192,102038,1,0,0:0:0:0:
475,192,102181,1,0,0:0:0:0:
329,192,102181,1,0,0:0:0:0:
182,192,102181,1,0,0:0:0:0:
256,192,102324,128,0,102645:0:0:0:0:
36,192,102324,128,0,102645:0:0:0:0:
475,192,102324,128,0,102645:0:0:0:0:
402,192,102324,128,0,102645:0:0:0:0:
256,192,102752,128,0,103074:0:0:0:0:
109,192,102752,128,0,103074:0:0:0:0:
402,192,102752,128,0,103074:0:0:0:0:
475,192,103181,1,0,0:0:0:0:
329,192,103181,1,0,0:0:0:0:
36,192,103181,1,0,0:0:0:0:
182,192,103288,1,0,0:0:0:0:
402,192,103288,1,0,0:0:0:0:
36,192,103395,128,0,103502:0:0:0:0:
256,192,103395,1,0,0:0:0:0:
402,192,103502,1,0,0:0:0:0:
475,192,103609,1,0,0:0:0:0:
329,192,103609,1,0,0:0:0:0:
109,192,103609,1,0,0:0:0:0:
36,192,103716,128,0,103824:0:0:0:0:
182,192,103716,1,0,0:0:0:0:
402,192,103824,1,0,0:0:0:0:
256,192,103824,1,0,0:0:0:0:
329,192,103931,1,0,0:0:0:0:
109,192,103931,1,0,0:0:0:0:
36,192,104038,1,0,0:0:0:0:
182,192,104038,1,0,0:0:0:0:
475,192,104038,1,0,0:0:0:0:
109,192,104145,1,0,0:0:0:0:
329,192,104145,1,0,0:0:0:0:
475,192,104252,128,0,104359:0:0:0:0:
256,192,104252,1,0,0:0:0:0:
109,192,104359,1,0,0:0:0:0:
36,192,104466,1,0,0:0:0:0:
182,192,104466,1,0,0:0:0:0:
402,192,104466,1,0,0:0:0:0:
475,192,104574,128,0,104681:0:0:0:0:
329,192,104574,1,0,0:0:0:0:
109,192,104681,1,0,0:0:0:0:
256,192,104681,1,0,0:0:0:0:
402,192,104788,1,0,0:0:0:0:
182,192,104788,1,0,0:0:0:0:
36,192,104895,1,0,0:0:0:0:
329,192,104895,1,0,0:0:0:0:
475,192,104895,1,0,0:0:0:0:
109,192,105002,1,0,0:0:0:0:
256,192,105002,1,0,0:0:0:0:
182,192,105109,128,0,105216:0:0:0:0:
402,192,105109,1,0,0:0:0:0:
109,192,105216,1,0,0:0:0:0:
36,192,105324,1,0,0:0:0:0:
329,192,105324,1,0,0:0:0:0:
475,192,105324,1,0,0:0:0:0:
182,192,105431,128,0,105538:0:0:0:0:
256,192,105431,1,0,0:0:0:0:
109,192,105538,1,0,0:0:0:0:
402,192,105538,1,0,0:0:0:0:
256,192,105645,1,0,0:0:0:0:
329,192,105645,1,0,0:0:0:0:
182,192,105752,1,0,0:0:0:0:
36,192,105752,1,0,0:0:0:0:
475,192,105752,1,0,0:0:0:0:
109,192,105859,1,0,0:0:0:0:
402,192,105859,1,0,0:0:0:0:
329,192,105966,128,0,106074:0:0:0:0:
182,192,105966,1,0,0:0:0:0:
402,192,106074,1,0,0:0:0:0:
36,192,106181,1,0,0:0:0:0:
475,192,106181,1,0,0:0:0:0:
256,192,106181,1,0,0:0:0:0:
329,192,106288,128,0,106395:0:0:0:0:
402,192,106288,1,0,0:0:0:0:
36,192,106395,1,0,0:0:0:0:
182,192,106395,1,0,0:0:0:0:
256,192,106502,1,0,0:0:0:0:
329,192,106609,1,0,0:0:0:0:
475,192,106609,1,0,0:0:0:0:
182,192,106609,1,0,0:0:0:0:
36,192,106609,1,0,0:0:0:0:
256,192,106716,128,0,106931:0:0:0:0:
109,192,106716,1,0,0:0:0:0:
475,192,106824,128,0,106931:0:0:0:0:
402,192,106824,1,0,0:0:0:0:
109,192,106931,1,0,0:0:0:0:
256,192,107038,128,0,107252:0:0:0:0:
475,192,107038,1,0,0:0:0:0:
329,192,107038,1,0,0:0:0:0:
36,192,107145,128,0,107252:0:0:0:0:
182,192,107145,1,0,0:0:0:0:
329,192,107252,1,0,0:0:0:0:
475,192,107359,128,0,107466:0:0:0:0:
182,192,107359,1,0,0:0:0:0:
402,192,107466,1,0,0:0:0:0:
109,192,107466,1,0,0:0:0:0:
36,192,107466,1,0,0:0:0:0:
256,192,107574,1,0,0:0:0:0:
402,192,107681,1,0,0:0:0:0:
36,192,107681,128,0,107895:0:0:0:0:
182,192,107788,128,0,107895:0:0:0:0:
256,192,107788,1,0,0:0:0:0:
109,192,107895,1,0,0:0:0:0:
402,192,107895,1,0,0:0:0:0:
256,192,108002,1,0,0:0:0:0:
475,192,108002,128,0,108216:0:0:0:0:
109,192,108109,1,0,0:0:0:0:
329,192,108109,128,0,108216:0:0:0:0:
256,192,108216,1,0,0:0:0:0:
329,192,108324,1,0,0:0:0:0:
36,192,108324,128,0,108538:0:0:0:0:
475,192,108324,128,0,108538:0:0:0:0:
182,192,108431,1,0,0:0:0:0:
329,192,108538,1,0,0:0:0:0:
182,192,108645,1,0,0:0:0:0:
109,192,108752,128,0,108966:0:0:0:0:
329,192,108752,1,0,0:0:0:0:
402,192,108752,128,0,108966:0:0:0:0:
182,192,108859,1,0,0:0:0:0:
329,192,108966,1,0,0:0:0:0:
475,192,109074,128,0,109288:0:0:0:0:
182,192,109074,1,0,0:0:0:0:
329,192,109181,1,0,0:0:0:0:
36,192,109181,1,0,0:0:0:0:
256,192,109234,1,0,0:0:0:0:
182,192,109288,1,0,0:0:0:0:
329,192,109395,1,0,0:0:0:0:
475,192,109395,128,0,109502:0:0:0:0:
36,192,109395,1,0,0:0:0:0:
182,192,109502,1,0,0:0:0:0:
329,192,109609,1,0,0:0:0:0:
36,192,109609,128,0,109716:0:0:0:0:
475,192,109609,1,0,0:0:0:0:
256,192,109663,1,0,0:0:0:0:
182,192,109716,1,0,0:0:0:0:
329,192,109824,1,0,0:0:0:0:
36,192,109824,128,0,109931:0:0:0:0:
475,192,109824,1,0,0:0:0:0:
182,192,109931,1,0,0:0:0:0:
402,192,110038,1,0,0:0:0:0:
475,192,110038,1,0,0:0:0:0:
256,192,110038,1,0,0:0:0:0:
36,192,110038,1,0,0:0:0:0:
182,192,110252,128,0,110466:0:0:0:0:
329,192,110252,1,0,0:0:0:0:
402,192,110466,128,0,110681:0:0:0:0:
475,192,110466,1,0,0:0:0:0:
36,192,110466,1,0,0:0:0:0:
256,192,110466,1,0,0:0:0:0:
182,192,110574,128,0,110681:0:0:0:0:
329,192,110681,1,0,0:0:0:0:
182,192,110788,128,0,110895:0:0:0:0:
402,192,110788,1,0,0:0:0:0:
36,192,110895,1,0,0:0:0:0:
256,192,110895,128,0,111002:0:0:0:0:
475,192,110895,1,0,0:0:0:0:
109,192,111002,128,0,111109:0:0:0:0:
329,192,111109,128,0,111216:0:0:0:0:
182,192,111109,1,0,0:0:0:0:
109,192,111216,128,0,111324:0:0:0:0:
36,192,111324,1,0,0:0:0:0:
402,192,111324,128,0,111431:0:0:0:0:
256,192,111324,1,0,0:0:0:0:
475,192,111324,1,0,0:0:0:0:
109,192,111538,1,0,0:0:0:0:
475,192,111538,128,0,111752:0:0:0:0:
36,192,111645,1,0,0:0:0:0:
182,192,111752,128,0,112181:0:0:0:0:
256,192,111752,1,0,0:0:0:0:
402,192,111752,1,0,0:0:0:0:
402,192,111966,128,0,112181:0:0:0:0:
109,192,111966,1,0,0:0:0:0:
36,192,112181,128,0,112609:0:0:0:0:
329,192,112181,1,0,0:0:0:0:
109,192,112181,1,0,0:0:0:0:
475,192,112181,1,0,0:0:0:0:
475,192,112395,1,0,0:0:0:0:
329,192,112395,128,0,112609:0:0:0:0:
182,192,112395,1,0,0:0:0:0:
402,192,112502,1,0,0:0:0:0:
109,192,112609,1,0,0:0:0:0:
256,192,112609,1,0,0:0:0:0:
475,192,112609,1,0,0:0:0:0:
329,192,112716,1,0,0:0:0:0:
36,192,112824,1,0,0:0:0:0:
256,192,112824,128,0,113038:0:0:0:0:
475,192,112824,1,0,0:0:0:0:
329,192,113038,1,0,0:0:0:0:
36,192,113038,1,0,0:0:0:0:
182,192,113038,1,0,0:0:0:0:
475,192,113038,1,0,0:0:0:0:
402,192,113252,1,0,0:0:0:0:
109,192,113252,1,0,0:0:0:0:
256,192,113252,1,0,0:0:0:0:
182,192,113466,1,0,0:0:0:0:
36,192,113466,1,0,0:0:0:0:
329,192,113466,128,0,113681:0:0:0:0:
475,192,113466,128,0,113681:0:0:0:0:
109,192,113574,128,0,113788:0:0:0:0:
182,192,113681,1,0,0:0:0:0:
256,192,113788,1,0,0:0:0:0:
402,192,113788,1,0,0:0:0:0:
36,192,113895,1,0,0:0:0:0:
475,192,113895,1,0,0:0:0:0:
329,192,113895,1,0,0:0:0:0:
109,192,113895,1,0,0:0:0:0:
256,192,114002,1,0,0:0:0:0:
402,192,114002,128,0,114216:0:0:0:0:
182,192,114109,128,0,114324:0:0:0:0:
36,192,114109,128,0,114324:0:0:0:0:
256,192,114216,1,0,0:0:0:0:
329,192,114324,1,0,0:0:0:0:
475,192,114324,1,0,0:0:0:0:
256,192,114431,128,0,114645:0:0:0:0:
109,192,114431,128,0,114645:0:0:0:0:
402,192,114538,1,0,0:0:0:0:
329,192,114645,1,0,0:0:0:0:
256,192,114752,1,0,0:0:0:0:
109,192,114752,1,0,0:0:0:0:
475,192,114752,1,0,0:0:0:0:
36,192,114752,1,0,0:0:0:0:
402,192,114966,1,0,0:0:0:0:
182,192,114966,1,0,0:0:0:0:
36,192,114966,1,0,0:0:0:0:
256,192,115074,1,0,0:0:0:0:
36,192,115181,1,0,0:0:0:0:
109,192,115181,1,0,0:0:0:0:
329,192,115181,1,0,0:0:0:0:
475,192,115181,1,0,0:0:0:0:
329,192,115395,1,0,0:0:0:0:
182,192,115395,128,0,115609:0:0:0:0:
402,192,115609,1,0,0:0:0:0:
256,192,115609,128,0,115716:0:0:0:0:
109,192,115609,1,0,0:0:0:0:
475,192,115609,1,0,0:0:0:0:
36,192,115716,128,0,115824:0:0:0:0:
475,192,115824,1,0,0:0:0:0:
329,192,115824,128,0,115931:0:0:0:0:
182,192,115824,1,0,0:0:0:0:
109,192,115931,1,0,0:0:0:0:
36,192,115931,1,0,0:0:0:0:
402,192,116038,1,0,0:0:0:0:
475,192,116038,128,0,116145:0:0:0:0:
256,192,116038,1,0,0:0:0:0:
109,192,116145,128,0,116359:0:0:0:0:
402,192,116252,128,0,116359:0:0:0:0:
182,192,116252,1,0,0:0:0:0:
329,192,116252,1,0,0:0:0:0:
109,192,116466,1,0,0:0:0:0:
475,192,116466,128,0,116788:0:0:0:0:
36,192,116466,128,0,116788:0:0:0:0:
402,192,116466,1,0,0:0:0:0:
182,192,116574,1,0,0:0:0:0:
329,192,116574,1,0,0:0:0:0:
256,192,116681,128,0,116895:0:0:0:0:
475,192,116895,1,0,0:0:0:0:
36,192,116895,1,0,0:0:0:0:
402,192,116895,1,0,0:0:0:0:
109,192,116895,1,0,0:0:0:0:
256,192,117002,1,0,0:0:0:0:
109,192,117109,1,0,0:0:0:0:
329,192,117109,128,0,117324:0:0:0:0:
182,192,117216,1,0,0:0:0:0:
109,192,117324,128,0,117538:0:0:0:0:
475,192,117324,1,0,0:0:0:0:
402,192,117324,1,0,0:0:0:0:
36,192,117324,1,0,0:0:0:0:
329,192,117431,128,0,117645:0:0:0:0:
256,192,117538,1,0,0:0:0:0:
36,192,117645,1,0,0:0:0:0:
182,192,117645,1,0,0:0:0:0:
402,192,117645,1,0,0:0:0:0:
109,192,117752,128,0,117966:0:0:0:0:
475,192,117752,128,0,118074:0:0:0:0:
329,192,117752,1,0,0:0:0:0:
256,192,117859,1,0,0:0:0:0:
36,192,117966,1,0,0:0:0:0:
182,192,117966,1,0,0:0:0:0:
402,192,117966,128,0,118074:0:0:0:0:
256,192,118074,1,0,0:0:0:0:
36,192,118181,1,0,0:0:0:0:
475,192,118181,1,0,0:0:0:0:
329,192,118181,1,0,0:0:0:0:
109,192,118181,1,0,0:0:0:0:
36,192,118395,128,0,118609:0:0:0:0:
182,192,118395,1,0,0:0:0:0:
402,192,118395,1,0,0:0:0:0:
329,192,118502,1,0,0:0:0:0:
402,192,118609,1,0,0:0:0:0:
475,192,118609,1,0,0:0:0:0:
109,192,118609,1,0,0:0:0:0:
256,192,118716,1,0,0:0:0:0:
402,192,118824,1,0,0:0:0:0:
182,192,118824,128,0,119038:0:0:0:0:
329,192,118931,1,0,0:0:0:0:
402,192,119038,128,0,119252:0:0:0:0:
36,192,119038,1,0,0:0:0:0:
109,192,119038,1,0,0:0:0:0:
475,192,119038,1,0,0:0:0:0:
182,192,119145,128,0,119359:0:0:0:0:
256,192,119252,1,0,0:0:0:0:
475,192,119359,1,0,0:0:0:0:
329,192,119359,1,0,0:0:0:0:
109,192,119359,1,0,0:0:0:0:
402,192,119466,128,0,119681:0:0:0:0:
36,192,119466,128,0,119788:0:0:0:0:
182,192,119466,1,0,0:0:0:0:
256,192,119574,1,0,0:0:0:0:
475,192,119681,1,0,0:0:0:0:
329,192,119681,1,0,0:0:0:0:
109,192,119681,128,0,119788:0:0:0:0:
256,192,119788,1,0,0:0:0:0:
475,192,119895,1,0,0:0:0:0:
36,192,119895,1,0,0:0:0:0:
182,192,119895,1,0,0:0:0:0:
402,192,119895,1,0,0:0:0:0:
475,192,120109,128,0,120324:0:0:0:0:
329,192,120109,1,0,0:0:0:0:
109,192,120109,1,0,0:0:0:0:
182,192,120216,1,0,0:0:0:0:
109,192,120324,1,0,0:0:0:0:
36,192,120324,1,0,0:0:0:0:
402,192,120324,1,0,0:0:0:0:
329,192,120431,1,0,0:0:0:0:
36,192,120538,1,0,0:0:0:0:
182,192,120538,1,0,0:0:0:0:
402,192,120538,128,0,120752:0:0:0:0:
256,192,120645,1,0,0:0:0:0:
36,192,120752,1,0,0:0:0:0:
182,192,120752,128,0,120966:0:0:0:0:
475,192,120752,1,0,0:0:0:0:
109,192,120752,1,0,0:0:0:0:
402,192,120859,128,0,121074:0:0:0:0:
256,192,120966,1,0,0:0:0:0:
475,192,121074,1,0,0:0:0:0:
182,192,121074,1,0,0:0:0:0:
109,192,121074,1,0,0:0:0:0:
36,192,121181,1,0,0:0:0:0:
329,192,121181,1,0,0:0:0:0:
256,192,121288,1,0,0:0:0:0:
475,192,121395,1,0,0:0:0:0:
402,192,121395,1,0,0:0:0:0:
109,192,121395,1,0,0:0:0:0:
182,192,121502,1,0,0:0:0:0:
36,192,121609,1,0,0:0:0:0:
109,192,121609,128,0,121824:0:0:0:0:
256,192,121609,1,0,0:0:0:0:
475,192,121609,128,0,121931:0:0:0:0:
402,192,121824,128,0,121931:0:0:0:0:
182,192,121824,1,0,0:0:0:0:
182,192,121931,1,0,0:0:0:0:
36,192,122038,1,0,0:0:0:0:
475,192,122038,1,0,0:0:0:0:
329,192,122038,1,0,0:0:0:0:
109,192,122145,1,0,0:0:0:0:
256,192,122145,1,0,0:0:0:0:
475,192,122252,1,0,0:0:0:0:
329,192,122252,1,0,0:0:0:0:
182,192,122359,1,0,0:0:0:0:
36,192,122359,1,0,0:0:0:0:
475,192,122466,1,0,0:0:0:0:
256,192,122466,1,0,0:0:0:0:
402,192,122466,1,0,0:0:0:0:
182,192,122574,1,0,0:0:0:0:
36,192,122574,1,0,0:0:0:0:
256,192,122681,1,0,0:0:0:0:
109,192,122681,1,0,0:0:0:0:
36,192,122788,1,0,0:0:0:0:
475,192,122788,1,0,0:0:0:0:
329,192,122788,1,0,0:0:0:0:
402,192,122895,1,0,0:0:0:0:
182,192,122895,1,0,0:0:0:0:
256,192,122949,1,0,0:0:0:0:
329,192,123002,1,0,0:0:0:0:
109,192,123002,1,0,0:0:0:0:
402,192,123056,1,0,0:0:0:0:
36,192,123109,1,0,0:0:0:0:
475,192,123109,1,0,0:0:0:0:
182,192,123109,1,0,0:0:0:0:
329,192,123216,1,0,0:0:0:0:
109,192,123216,1,0,0:0:0:0:
256,192,123324,128,0,123377:0:0:0:0:
36,192,123324,128,0,123377:0:0:0:0:
329,192,123431,128,0,123484:0:0:0:0:
109,192,123431,128,0,123484:0:0:0:0:
402,192,123538,128,0,123591:0:0:0:0:
182,192,123538,128,0,123591:0:0:0:0:
475,192,123645,128,0,123699:0:0:0:0:
256,192,123645,128,0,123699:0:0:0:0:
36,192,123752,1,0,0:0:0:0:
109,192,123752,1,0,0:0:0:0:
329,192,123752,1,0,0:0:0:0:
182,192,123752,1,0,0:0:0:0:
402,192,123752,1,0,0:0:0:0:
36,192,123966,128,0,124181:0:0:0:0:
329,192,123966,1,0,0:0:0:0:
182,192,123966,1,0,0:0:0:0:
475,192,124181,1,0,0:0:0:0:
329,192,124181,128,0,124395:0:0:0:0:
182,192,124181,1,0,0:0:0:0:
109,192,124181,1,0,0:0:0:0:
475,192,124395,1,0,0:0:0:0:
256,192,124395,1,0,0:0:0:0:
329,192,124502,1,0,0:0:0:0:
36,192,124502,1,0,0:0:0:0:
109,192,124609,1,0,0:0:0:0:
402,192,124609,128,0,124716:0:0:0:0:
182,192,124716,128,0,124824:0:0:0:0:
36,192,124716,128,0,124824:0:0:0:0:
329,192,124824,128,0,124931:0:0:0:0:
475,192,124824,1,0,0:0:0:0:
182,192,124931,128,0,125038:0:0:0:0:
36,192,124931,128,0,125038:0:0:0:0:
402,192,125038,1,0,0:0:0:0:
256,192,125038,1,0,0:0:0:0:
475,192,125038,1,0,0:0:0:0:
109,192,125038,1,0,0:0:0:0:
329,192,125145,1,0,0:0:0:0:
182,192,125145,1,0,0:0:0:0:
109,192,125199,1,0,0:0:0:0:
256,192,125252,128,0,125359:0:0:0:0:
36,192,125252,128,0,125359:0:0:0:0:
475,192,125252,128,0,125359:0:0:0:0:
475,192,125466,1,0,0:0:0:0:
256,192,125466,1,0,0:0:0:0:
36,192,125466,1,0,0:0:0:0:
109,192,125466,1,0,0:0:0:0:
402,192,125574,128,0,125788:0:0:0:0:
329,192,125681,1,0,0:0:0:0:
182,192,125681,128,0,125895:0:0:0:0:
475,192,125788,1,0,0:0:0:0:
36,192,125895,1,0,0:0:0:0:
256,192,125895,1,0,0:0:0:0:
402,192,125895,1,0,0:0:0:0:
109,192,125895,1,0,0:0:0:0:
182,192,126002,1,0,0:0:0:0:
329,192,126109,128,0,126324:0:0:0:0:
109,192,126109,1,0,0:0:0:0:
256,192,126216,1,0,0:0:0:0:
36,192,126324,1,0,0:0:0:0:
475,192,126324,1,0,0:0:0:0:
182,192,126324,1,0,0:0:0:0:
402,192,126431,1,0,0:0:0:0:
256,192,126431,1,0,0:0:0:0:
329,192,126538,1,0,0:0:0:0:
36,192,126538,1,0,0:0:0:0:
475,192,126538,128,0,126752:0:0:0:0:
109,192,126645,1,0,0:0:0:0:
256,192,126645,1,0,0:0:0:0:
36,192,126752,1,0,0:0:0:0:
402,192,126752,1,0,0:0:0:0:
329,192,126752,1,0,0:0:0:0:
182,192,126752,1,0,0:0:0:0:
109,192,126859,1,0,0:0:0:0:
256,192,126859,1,0,0:0:0:0:
329,192,126913,1,0,0:0:0:0:
475,192,126966,128,0,127074:0:0:0:0:
402,192,126966,128,0,127074:0:0:0:0:
182,192,127074,128,0,127181:0:0:0:0:
36,192,127181,1,0,0:0:0:0:
475,192,127181,128,0,127395:0:0:0:0:
329,192,127181,128,0,127395:0:0:0:0:
256,192,127181,1,0,0:0:0:0:
182,192,127288,1,0,0:0:0:0:
402,192,127395,1,0,0:0:0:0:
109,192,127395,128,0,127609:0:0:0:0:
329,192,127502,1,0,0:0:0:0:
475,192,127609,1,0,0:0:0:0:
182,192,127609,1,0,0:0:0:0:
402,192,127609,1,0,0:0:0:0:
256,192,127609,1,0,0:0:0:0:
36,192,127716,128,0,127931:0:0:0:0:
109,192,127716,1,0,0:0:0:0:
329,192,127716,1,0,0:0:0:0:
402,192,127824,128,0,128038:0:0:0:0:
475,192,127824,128,0,128038:0:0:0:0:
182,192,127931,1,0,0:0:0:0:
256,192,127984,1,0,0:0:0:0:
36,192,128038,1,0,0:0:0:0:
329,192,128038,1,0,0:0:0:0:
109,192,128038,1,0,0:0:0:0:
402,192,128145,1,0,0:0:0:0:
475,192,128145,1,0,0:0:0:0:
36,192,128252,128,0,128359:0:0:0:0:
182,192,128252,128,0,128359:0:0:0:0:
256,192,128252,1,0,0:0:0:0:
475,192,128359,1,0,0:0:0:0:
402,192,128359,1,0,0:0:0:0:
329,192,128466,1,0,0:0:0:0:
109,192,128466,128,0,128574:0:0:0:0:
256,192,128466,128,0,128574:0:0:0:0:
36,192,128466,1,0,0:0:0:0:
475,192,128574,1,0,0:0:0:0:
402,192,128627,1,0,0:0:0:0:
182,192,128681,128,0,128788:0:0:0:0:
329,192,128681,128,0,128788:0:0:0:0:
36,192,128895,1,0,0:0:0:0:
256,192,128895,1,0,0:0:0:0:
475,192,128895,1,0,0:0:0:0:
109,192,128895,1,0,0:0:0:0:
329,192,129002,1,0,0:0:0:0:
402,192,129109,1,0,0:0:0:0:
182,192,129109,1,0,0:0:0:0:
36,192,129109,1,0,0:0:0:0:
475,192,129324,1,0,0:0:0:0:
402,192,129324,1,0,0:0:0:0:
36,192,129324,1,0,0:0:0:0:
256,192,129324,1,0,0:0:0:0:
182,192,129538,1,0,0:0:0:0:
109,192,129538,1,0,0:0:0:0:
329,192,129538,1,0,0:0:0:0:
36,192,129752,1,0,0:0:0:0:
256,192,129752,1,0,0:0:0:0:
475,192,129752,1,0,0:0:0:0:
109,192,129752,1,0,0:0:0:0:
402,192,129859,1,0,0:0:0:0:
329,192,129859,1,0,0:0:0:0:
182,192,129859,1,0,0:0:0:0:
36,192,129966,1,0,0:0:0:0:
256,192,130074,1,0,0:0:0:0:
402,192,130074,1,0,0:0:0:0:
109,192,130074,1,0,0:0:0:0:
182,192,130181,1,0,0:0:0:0:
329,192,130181,1,0,0:0:0:0:
475,192,130181,1,0,0:0:0:0:
36,192,130181,1,0,0:0:0:0:
256,192,130395,1,0,0:0:0:0:
402,192,130395,1,0,0:0:0:0:
109,192,130395,1,0,0:0:0:0:
36,192,130609,128,0,130931:0:0:0:0:
475,192,130609,128,0,130931:0:0:0:0:
329,192,130609,128,0,130716:0:0:0:0:
182,192,130609,128,0,130716:0:0:0:0:
109,192,130824,128,0,130931:0:0:0:0:
256,192,130824,128,0,130931:0:0:0:0:
475,192,131038,128,0,131359:0:0:0:0:
256,192,131038,128,0,131145:0:0:0:0:
402,192,131038,128,0,131145:0:0:0:0:
36,192,131038,128,0,131359:0:0:0:0:
329,192,131252,128,0,131359:0:0:0:0:
182,192,131252,128,0,131359:0:0:0:0:
36,192,131466,128,0,131788:0:0:0:0:
475,192,131466,128,0,131788:0:0:0:0:
182,192,131466,128,0,131788:0:0:0:0:
329,192,131466,128,0,131788:0:0:0:0:
475,192,131895,1,0,0:0:0:0:
36,192,131895,1,0,0:0:0:0:
182,192,131895,1,0,0:0:0:0:
329,192,131895,1,0,0:0:0:0:
256,192,132181,1,0,0:0:0:0:
475,192,132181,1,0,0:0:0:0:
36,192,132181,1,0,0:0:0:0:
109,192,132324,128,0,132538:0:0:0:0:
182,192,132324,128,0,132538:0:0:0:0:
329,192,132324,128,0,132538:0:0:0:0:
402,192,132324,128,0,132538:0:0:0:0:
329,192,132752,128,0,132966:0:0:0:0:
475,192,132752,128,0,132966:0:0:0:0:
182,192,132752,128,0,132966:0:0:0:0:
36,192,132752,128,0,132966:0:0:0:0:
256,192,132752,128,0,132966:0:0:0:0:
36,192,133181,128,0,133395:0:0:0:0:
475,192,133181,128,0,133395:0:0:0:0:
402,192,133181,128,0,133395:0:0:0:0:
256,192,133181,128,0,133395:0:0:0:0:
109,192,133181,128,0,133395:0:0:0:0:
475,192,133609,1,0,0:0:0:0:
109,192,133609,1,0,0:0:0:0:
36,192,133609,1,0,0:0:0:0:
402,192,133609,1,0,0:0:0:0:
256,192,133752,1,0,0:0:0:0:
329,192,133895,1,0,0:0:0:0:
475,192,133895,1,0,0:0:0:0:
182,192,133895,1,0,0:0:0:0:
109,192,134038,1,0,0:0:0:0:
36,192,134038,1,0,0:0:0:0:
256,192,134038,1,0,0:0:0:0:
402,192,134038,1,0,0:0:0:0:
109,192,134252,1,0,0:0:0:0:
182,192,134252,1,0,0:0:0:0:
329,192,134252,1,0,0:0:0:0:
475,192,134252,1,0,0:0:0:0:
109,192,134466,1,0,0:0:0:0:
256,192,134466,1,0,0:0:0:0:
402,192,134466,1,0,0:0:0:0:
475,192,134466,1,0,0:0:0:0:
329,192,134681,1,0,0:0:0:0:
182,192,134681,1,0,0:0:0:0:
36,192,134681,1,0,0:0:0:0:
402,192,134681,1,0,0:0:0:0:
329,192,134895,128,0,135216:0:0:0:0:
475,192,134895,128,0,135216:0:0:0:0:
182,192,134895,128,0,135216:0:0:0:0:
36,192,134895,1,0,0:0:0:0:
109,192,135324,128,0,135645:0:0:0:0:
256,192,135324,128,0,135645:0:0:0:0:
402,192,135324,128,0,135645:0:0:0:0:
36,192,135324,1,0,0:0:0:0:
36,192,135752,128,0,136609:0:0:0:0:
475,192,135752,128,0,136609:0:0:0:0:
256,192,135752,128,0,136609:0:0:0:0:
402,192,135752,1,0,0:0:0:0:
109,192,135752,1,0,0:0:0:0:
182,192,135859,1,0,0:0:0:0:
402,192,135966,1,0,0:0:0:0:
329,192,136074,1,0,0:0:0:0:
109,192,136181,1,0,0:0:0:0:
402,192,136181,1,0,0:0:0:0:
182,192,136288,1,0,0:0:0:0:
402,192,136395,1,0,0:0:0:0:
329,192,136502,1,0,0:0:0:0:
109,192,136609,1,0,0:0:0:0:
402,192,136609,1,0,0:0:0:0:
182,192,136716,1,0,0:0:0:0:
256,192,136824,1,0,0:0:0:0:
475,192,136824,1,0,0:0:0:0:
36,192,136824,1,0,0:0:0:0:
402,192,136931,1,0,0:0:0:0:
329,192,137038,1,0,0:0:0:0:
182,192,137038,1,0,0:0:0:0:
36,192,137038,1,0,0:0:0:0:
402,192,137145,1,0,0:0:0:0:
475,192,137252,1,0,0:0:0:0:
109,192,137252,1,0,0:0:0:0:
256,192,137252,1,0,0:0:0:0:
329,192,137359,1,0,0:0:0:0:
402,192,137466,1,0,0:0:0:0:
182,192,137466,128,0,137574:0:0:0:0:
36,192,137466,128,0,137574:0:0:0:0:
475,192,137466,128,0,137681:0:0:0:0:
329,192,137681,1,0,0:0:0:0:
475,192,137788,1,0,0:0:0:0:
182,192,137895,128,0,138002:0:0:0:0:
36,192,137895,128,0,138002:0:0:0:0:
329,192,137895,128,0,138109:0:0:0:0:
475,192,138109,1,0,0:0:0:0:
329,192,138216,1,0,0:0:0:0:
36,192,138324,128,0,138431:0:0:0:0:
182,192,138324,128,0,138431:0:0:0:0:
475,192,138324,128,0,138538:0:0:0:0:
109,192,138538,128,0,138645:0:0:0:0:
329,192,138538,1,0,0:0:0:0:
475,192,138645,1,0,0:0:0:0:
182,192,138752,128,0,138859:0:0:0:0:
36,192,138752,128,0,138859:0:0:0:0:
329,192,138752,128,0,138859:0:0:0:0:
256,192,138966,1,0,0:0:0:0:
109,192,138966,1,0,0:0:0:0:
402,192,138966,128,0,139395:0:0:0:0:
475,192,139181,128,0,139395:0:0:0:0:
182,192,139181,1,0,0:0:0:0:
36,192,139181,1,0,0:0:0:0:
36,192,139395,1,0,0:0:0:0:
329,192,139395,128,0,139502:0:0:0:0:
182,192,139502,1,0,0:0:0:0:
329,192,139609,128,0,139716:0:0:0:0:
475,192,139609,128,0,139716:0:0:0:0:
36,192,139609,128,0,139824:0:0:0:0:
182,192,139824,1,0,0:0:0:0:
36,192,139931,1,0,0:0:0:0:
329,192,140038,128,0,140145:0:0:0:0:
475,192,140038,128,0,140145:0:0:0:0:
182,192,140038,128,0,140252:0:0:0:0:
402,192,140252,1,0,0:0:0:0:
36,192,140252,1,0,0:0:0:0:
109,192,140359,1,0,0:0:0:0:
256,192,140359,1,0,0:0:0:0:
475,192,140466,1,0,0:0:0:0:
329,192,140466,1,0,0:0:0:0:
36,192,140466,1,0,0:0:0:0:
256,192,140574,1,0,0:0:0:0:
182,192,140627,1,0,0:0:0:0:
329,192,140681,1,0,0:0:0:0:
109,192,140681,1,0,0:0:0:0:
475,192,140681,1,0,0:0:0:0:
256,192,140788,1,0,0:0:0:0:
109,192,140895,1,0,0:0:0:0:
329,192,140895,128,0,141002:0:0:0:0:
475,192,140895,128,0,141002:0:0:0:0:
36,192,140895,128,0,141109:0:0:0:0:
182,192,141109,1,0,0:0:0:0:
36,192,141216,1,0,0:0:0:0:
329,192,141324,128,0,141431:0:0:0:0:
475,192,141324,128,0,141431:0:0:0:0:
182,192,141324,128,0,141538:0:0:0:0:
36,192,141538,1,0,0:0:0:0:
182,192,141645,1,0,0:0:0:0:
475,192,141752,128,0,141859:0:0:0:0:
329,192,141752,128,0,141859:0:0:0:0:
36,192,141752,128,0,141966:0:0:0:0:
402,192,141966,128,0,142074:0:0:0:0:
182,192,141966,1,0,0:0:0:0:
36,192,142074,1,0,0:0:0:0:
329,192,142181,128,0,142288:0:0:0:0:
475,192,142181,128,0,142288:0:0:0:0:
182,192,142181,128,0,142288:0:0:0:0:
256,192,142395,1,0,0:0:0:0:
402,192,142395,1,0,0:0:0:0:
109,192,142395,128,0,142824:0:0:0:0:
36,192,142609,128,0,142824:0:0:0:0:
329,192,142609,1,0,0:0:0:0:
475,192,142609,1,0,0:0:0:0:
475,192,142824,1,0,0:0:0:0:
182,192,142824,128,0,142931:0:0:0:0:
329,192,142931,1,0,0:0:0:0:
182,192,143038,128,0,143145:0:0:0:0:
36,192,143038,128,0,143145:0:0:0:0:
475,192,143038,128,0,143252:0:0:0:0:
329,192,143252,1,0,0:0:0:0:
475,192,143359,1,0,0:0:0:0:
182,192,143466,128,0,143574:0:0:0:0:
36,192,143466,128,0,143574:0:0:0:0:
329,192,143466,128,0,143681:0:0:0:0:
109,192,143681,1,0,0:0:0:0:
475,192,143681,1,0,0:0:0:0:
402,192,143788,1,0,0:0:0:0:
256,192,143788,1,0,0:0:0:0:
36,192,143895,1,0,0:0:0:0:
182,192,143895,1,0,0:0:0:0:
475,192,143895,1,0,0:0:0:0:
256,192,144002,1,0,0:0:0:0:
329,192,144056,1,0,0:0:0:0:
182,192,144109,1,0,0:0:0:0:
402,192,144109,1,0,0:0:0:0:
36,192,144109,1,0,0:0:0:0:
256,192,144216,1,0,0:0:0:0:
36,192,144324,1,0,0:0:0:0:
329,192,144324,128,0,144538:0:0:0:0:
475,192,144324,128,0,144538:0:0:0:0:
109,192,144431,1,0,0:0:0:0:
182,192,144538,1,0,0:0:0:0:
36,192,144645,128,0,144859:0:0:0:0:
256,192,144645,1,0,0:0:0:0:
475,192,144752,128,0,144966:0:0:0:0:
402,192,144752,1,0,0:0:0:0:
109,192,144752,1,0,0:0:0:0:
329,192,144859,128,0,144966:0:0:0:0:
182,192,144859,1,0,0:0:0:0:
256,192,144966,1,0,0:0:0:0:
36,192,145074,128,0,145288:0:0:0:0:
329,192,145074,1,0,0:0:0:0:
475,192,145181,128,0,145395:0:0:0:0:
402,192,145181,1,0,0:0:0:0:
182,192,145181,1,0,0:0:0:0:
329,192,145288,128,0,145395:0:0:0:0:
109,192,145288,1,0,0:0:0:0:
36,192,145395,1,0,0:0:0:0:
182,192,145502,128,0,145716:0:0:0:0:
256,192,145502,1,0,0:0:0:0:
36,192,145609,128,0,145824:0:0:0:0:
402,192,145609,1,0,0:0:0:0:
475,192,145609,1,0,0:0:0:0:
329,192,145716,1,0,0:0:0:0:
256,192,145824,1,0,0:0:0:0:
475,192,145824,128,0,146038:0:0:0:0:
109,192,145824,1,0,0:0:0:0:
329,192,145931,1,0,0:0:0:0:
402,192,146038,1,0,0:0:0:0:
182,192,146038,1,0,0:0:0:0:
36,192,146038,1,0,0:0:0:0:
109,192,146145,1,0,0:0:0:0:
475,192,146252,1,0,0:0:0:0:
182,192,146252,1,0,0:0:0:0:
329,192,146252,1,0,0:0:0:0:
256,192,146359,1,0,0:0:0:0:
402,192,146466,1,0,0:0:0:0:
36,192,146466,1,0,0:0:0:0:
182,192,146466,1,0,0:0:0:0:
329,192,146574,1,0,0:0:0:0:
475,192,146681,1,0,0:0:0:0:
109,192,146681,1,0,0:0:0:0:
329,192,146788,1,0,0:0:0:0:
182,192,146895,1,0,0:0:0:0:
402,192,146895,1,0,0:0:0:0:
36,192,146895,1,0,0:0:0:0:
329,192,147002,1,0,0:0:0:0:
475,192,147109,1,0,0:0:0:0:
256,192,147109,1,0,0:0:0:0:
109,192,147109,1,0,0:0:0:0:
329,192,147216,1,0,0:0:0:0:
182,192,147324,1,0,0:0:0:0:
36,192,147324,1,0,0:0:0:0:
402,192,147324,1,0,0:0:0:0:
256,192,147431,1,0,0:0:0:0:
329,192,147538,1,0,0:0:0:0:
109,192,147538,1,0,0:0:0:0:
475,192,147538,1,0,0:0:0:0:
256,192,147645,1,0,0:0:0:0:
475,192,147752,1,0,0:0:0:0:
182,192,147752,128,0,147966:0:0:0:0:
36,192,147752,128,0,147966:0:0:0:0:
402,192,147752,1,0,0:0:0:0:
329,192,147859,1,0,0:0:0:0:
256,192,147966,1,0,0:0:0:0:
475,192,148074,128,0,148288:0:0:0:0:
109,192,148074,1,0,0:0:0:0:
182,192,148127,1,0,0:0:0:0:
36,192,148181,128,0,148395:0:0:0:0:
402,192,148181,1,0,0:0:0:0:
256,192,148181,1,0,0:0:0:0:
182,192,148288,128,0,148395:0:0:0:0:
329,192,148288,1,0,0:0:0:0:
256,192,148395,1,0,0:0:0:0:
475,192,148502,128,0,148716:0:0:0:0:
182,192,148502,1,0,0:0:0:0:
36,192,148609,128,0,148824:0:0:0:0:
109,192,148609,1,0,0:0:0:0:
329,192,148609,1,0,0:0:0:0:
182,192,148716,128,0,148824:0:0:0:0:
402,192,148716,1,0,0:0:0:0:
475,192,148824,1,0,0:0:0:0:
329,192,148931,128,0,149145:0:0:0:0:
256,192,148931,1,0,0:0:0:0:
475,192,149038,128,0,149252:0:0:0:0:
109,192,149038,1,0,0:0:0:0:
36,192,149038,1,0,0:0:0:0:
182,192,149145,1,0,0:0:0:0:
256,192,149252,1,0,0:0:0:0:
36,192,149252,128,0,149466:0:0:0:0:
402,192,149252,1,0,0:0:0:0:
329,192,149359,1,0,0:0:0:0:
182,192,149466,1,0,0:0:0:0:
475,192,149466,1,0,0:0:0:0:
402,192,149681,1,0,0:0:0:0:
402,192,149895,1,0,0:0:0:0:
109,192,149895,1,0,0:0:0:0:
256,192,150002,128,0,150752:0:0:0:0:
36,192,150216,1,0,0:0:0:0:
182,192,150270,1,0,0:0:0:0:
329,192,150324,1,0,0:0:0:0:
475,192,150324,1,0,0:0:0:0:
182,192,150431,1,0,0:0:0:0:
36,192,150431,1,0,0:0:0:0:
475,192,150645,1,0,0:0:0:0:
329,192,150645,1,0,0:0:0:0:
182,192,150752,1,0,0:0:0:0:
36,192,150752,1,0,0:0:0:0:
475,192,150966,1,0,0:0:0:0:
329,192,150966,1,0,0:0:0:0:
36,192,151181,1,0,0:0:0:0:
402,192,151181,1,0,0:0:0:0:
475,192,151181,1,0,0:0:0:0:
182,192,151181,1,0,0:0:0:0:
256,192,151288,1,0,0:0:0:0:
109,192,151288,1,0,0:0:0:0:
329,192,151395,1,0,0:0:0:0:
475,192,151395,1,0,0:0:0:0:
36,192,151502,1,0,0:0:0:0:
182,192,151502,1,0,0:0:0:0:
109,192,151609,1,0,0:0:0:0:
329,192,151609,1,0,0:0:0:0:
475,192,151609,1,0,0:0:0:0:
256,192,151716,1,0,0:0:0:0:
402,192,151716,1,0,0:0:0:0:
36,192,151716,1,0,0:0:0:0:
182,192,151931,1,0,0:0:0:0:
329,192,151931,1,0,0:0:0:0:
36,192,151931,1,0,0:0:0:0:
475,192,152038,1,0,0:0:0:0:
402,192,152038,1,0,0:0:0:0:
36,192,152145,1,0,0:0:0:0:
109,192,152145,1,0,0:0:0:0:
256,192,152145,1,0,0:0:0:0:
329,192,152252,1,0,0:0:0:0:
475,192,152252,1,0,0:0:0:0:
256,192,152359,1,0,0:0:0:0:
475,192,152466,1,0,0:0:0:0:
36,192,152466,1,0,0:0:0:0:
182,192,152466,1,0,0:0:0:0:
402,192,152466,1,0,0:0:0:0:
182,192,152681,1,0,0:0:0:0:
402,192,152681,1,0,0:0:0:0:
109,192,152788,1,0,0:0:0:0:
329,192,152788,1,0,0:0:0:0:
36,192,152895,1,0,0:0:0:0:
475,192,152895,1,0,0:0:0:0:
256,192,152895,1,0,0:0:0:0:
329,192,153002,1,0,0:0:0:0:
182,192,153002,1,0,0:0:0:0:
475,192,153109,1,0,0:0:0:0:
109,192,153109,1,0,0:0:0:0:
402,192,153216,1,0,0:0:0:0:
256,192,153216,1,0,0:0:0:0:
182,192,153324,1,0,0:0:0:0:
36,192,153324,1,0,0:0:0:0:
475,192,153324,1,0,0:0:0:0:
109,192,153431,1,0,0:0:0:0:
256,192,153431,1,0,0:0:0:0:
329,192,153431,1,0,0:0:0:0:
256,192,153645,1,0,0:0:0:0:
402,192,153645,1,0,0:0:0:0:
475,192,153645,1,0,0:0:0:0:
36,192,153752,1,0,0:0:0:0:
182,192,153752,1,0,0:0:0:0:
329,192,153859,1,0,0:0:0:0:
475,192,153859,1,0,0:0:0:0:
109,192,153966,1,0,0:0:0:0:
36,192,154074,1,0,0:0:0:0:
182,192,154074,1,0,0:0:0:0:
329,192,154074,1,0,0:0:0:0:
475,192,154181,1,0,0:0:0:0:
256,192,154181,1,0,0:0:0:0:
402,192,154181,1,0,0:0:0:0:
109,192,154181,1,0,0:0:0:0:
256,192,154395,1,0,0:0:0:0:
36,192,154395,1,0,0:0:0:0:
182,192,154502,1,0,0:0:0:0:
402,192,154502,1,0,0:0:0:0:
109,192,154609,1,0,0:0:0:0:
329,192,154609,1,0,0:0:0:0:
475,192,154609,1,0,0:0:0:0:
182,192,154716,1,0,0:0:0:0:
402,192,154716,1,0,0:0:0:0:
36,192,154824,1,0,0:0:0:0:
256,192,154824,1,0,0:0:0:0:
182,192,154931,1,0,0:0:0:0:
475,192,154931,1,0,0:0:0:0:
109,192,155038,1,0,0:0:0:0:
36,192,155038,1,0,0:0:0:0:
329,192,155038,1,0,0:0:0:0:
182,192,155145,1,0,0:0:0:0:
475,192,155145,1,0,0:0:0:0:
402,192,155145,1,0,0:0:0:0:
256,192,155359,1,0,0:0:0:0:
402,192,155359,1,0,0:0:0:0:
109,192,155359,1,0,0:0:0:0:
36,192,155466,1,0,0:0:0:0:
182,192,155466,1,0,0:0:0:0:
475,192,155466,1,0,0:0:0:0:
402,192,155574,1,0,0:0:0:0:
109,192,155574,1,0,0:0:0:0:
256,192,155681,1,0,0:0:0:0:
475,192,155681,1,0,0:0:0:0:
182,192,155788,1,0,0:0:0:0:
256,192,155895,1,0,0:0:0:0:
475,192,155895,1,0,0:0:0:0:
36,192,155895,1,0,0:0:0:0:
402,192,155895,1,0,0:0:0:0:
402,192,156109,1,0,0:0:0:0:
182,192,156109,1,0,0:0:0:0:
329,192,156216,1,0,0:0:0:0:
109,192,156216,1,0,0:0:0:0:
256,192,156324,1,0,0:0:0:0:
36,192,156324,1,0,0:0:0:0:
475,192,156324,1,0,0:0:0:0:
402,192,156431,1,0,0:0:0:0:
182,192,156431,1,0,0:0:0:0:
475,192,156538,1,0,0:0:0:0:
36,192,156538,1,0,0:0:0:0:
329,192,156645,1,0,0:0:0:0:
109,192,156645,1,0,0:0:0:0:
475,192,156752,1,0,0:0:0:0:
182,192,156752,1,0,0:0:0:0:
402,192,156752,1,0,0:0:0:0:
256,192,156859,1,0,0:0:0:0:
36,192,156859,1,0,0:0:0:0:
109,192,156859,1,0,0:0:0:0:
256,192,157074,1,0,0:0:0:0:
402,192,157074,1,0,0:0:0:0:
109,192,157074,1,0,0:0:0:0:
329,192,157181,1,0,0:0:0:0:
475,192,157181,1,0,0:0:0:0:
182,192,157181,1,0,0:0:0:0:
36,192,157288,1,0,0:0:0:0:
109,192,157288,1,0,0:0:0:0:
256,192,157395,1,0,0:0:0:0:
402,192,157395,1,0,0:0:0:0:
182,192,157502,1,0,0:0:0:0:
329,192,157609,1,0,0:0:0:0:
36,192,157609,1,0,0:0:0:0:
475,192,157609,1,0,0:0:0:0:
109,192,157609,1,0,0:0:0:0:
256,192,157824,1,0,0:0:0:0:
109,192,157824,1,0,0:0:0:0:
402,192,157824,1,0,0:0:0:0:
329,192,158038,1,0,0:0:0:0:
475,192,158038,1,0,0:0:0:0:
36,192,158038,1,0,0:0:0:0:
182,192,158038,1,0,0:0:0:0:
109,192,158359,1,0,0:0:0:0:
329,192,158359,1,0,0:0:0:0:
182,192,158359,1,0,0:0:0:0:
402,192,158359,1,0,0:0:0:0:
36,192,158681,1,0,0:0:0:0:
329,192,158681,1,0,0:0:0:0:
475,192,158681,1,0,0:0:0:0:
182,192,158681,1,0,0:0:0:0:
256,192,159109,128,0,159163:0:0:0:0:
329,192,159163,128,0,159216:0:0:0:0:
182,192,159216,128,0,159270:0:0:0:0:
36,192,159324,1,0,0:0:0:0:
329,192,159324,1,0,0:0:0:0:
256,192,159324,1,0,0:0:0:0:
475,192,159324,1,0,0:0:0:0:
36,192,159645,1,0,0:0:0:0:
402,192,159645,1,0,0:0:0:0:
109,192,159645,1,0,0:0:0:0:
475,192,159645,1,0,0:0:0:0:
182,192,159966,1,0,0:0:0:0:
475,192,159966,1,0,0:0:0:0:
36,192,159966,1,0,0:0:0:0:
256,192,159966,1,0,0:0:0:0:
256,192,160395,128,0,160449:0:0:0:0:
182,192,160449,128,0,160502:0:0:0:0:
329,192,160502,128,0,160556:0:0:0:0:
109,192,160609,1,0,0:0:0:0:
402,192,160609,1,0,0:0:0:0:
475,192,160609,128,0,160931:0:0:0:0:
36,192,160609,128,0,160931:0:0:0:0:
182,192,160716,1,0,0:0:0:0:
256,192,160824,1,0,0:0:0:0:
329,192,160931,1,0,0:0:0:0:
109,192,161038,1,0,0:0:0:0:
402,192,161038,1,0,0:0:0:0:
475,192,161038,128,0,161359:0:0:0:0:
36,192,161038,128,0,161359:0:0:0:0:
182,192,161145,1,0,0:0:0:0:
256,192,161252,1,0,0:0:0:0:
329,192,161359,1,0,0:0:0:0:
402,192,161466,1,0,0:0:0:0:
182,192,161466,1,0,0:0:0:0:
36,192,161466,1,0,0:0:0:0:
475,192,161466,1,0,0:0:0:0:
109,192,161574,1,0,0:0:0:0:
402,192,161681,1,0,0:0:0:0:
329,192,161788,1,0,0:0:0:0:
475,192,161788,1,0,0:0:0:0:
109,192,161895,1,0,0:0:0:0:
36,192,161895,1,0,0:0:0:0:
256,192,161895,1,0,0:0:0:0:
402,192,162002,1,0,0:0:0:0:
182,192,162109,1,0,0:0:0:0:
36,192,162109,1,0,0:0:0:0:
329,192,162216,1,0,0:0:0:0:
475,192,162216,1,0,0:0:0:0:
256,192,162324,1,0,0:0:0:0:
109,192,162324,1,0,0:0:0:0:
36,192,162324,1,0,0:0:0:0:
402,192,162431,1,0,0:0:0:0:
329,192,162538,1,0,0:0:0:0:
182,192,162538,1,0,0:0:0:0:
109,192,162645,1,0,0:0:0:0:
36,192,162645,1,0,0:0:0:0:
256,192,162752,1,0,0:0:0:0:
475,192,162752,1,0,0:0:0:0:
402,192,162752,1,0,0:0:0:0:
109,192,162859,1,0,0:0:0:0:
182,192,162966,1,0,0:0:0:0:
329,192,162966,1,0,0:0:0:0:
402,192,163074,1,0,0:0:0:0:
36,192,163181,128,0,163395:0:0:0:0:
182,192,163181,128,0,163395:0:0:0:0:
475,192,163395,1,0,0:0:0:0:
109,192,163502,128,0,163716:0:0:0:0:
256,192,163502,128,0,163716:0:0:0:0:
475,192,163609,1,0,0:0:0:0:
475,192,163824,1,0,0:0:0:0:
109,192,163824,128,0,163877:0:0:0:0:
256,192,163824,128,0,163877:0:0:0:0:
475,192,164038,1,0,0:0:0:0:
182,192,164038,128,0,164466:0:0:0:0:
329,192,164038,128,0,164466:0:0:0:0:
475,192,164252,1,0,0:0:0:0:
475,192,164359,1,0,0:0:0:0:
475,192,164466,128,0,164788:0:0:0:0:
475,192,164895,1,0,0:0:0:0:
402,192,164895,1,0,0:0:0:0:
36,192,164895,1,0,0:0:0:0:
256,192,164895,1,0,0:0:0:0:
109,192,164895,1,0,0:0:0:0:
36,192,165324,128,0,165538:0:0:0:0:
475,192,165324,1,0,0:0:0:0:
402,192,165324,1,0,0:0:0:0:
182,192,165431,128,0,165538:0:0:0:0:
329,192,165431,128,0,165538:0:0:0:0:
182,192,165645,128,0,165752:0:0:0:0:
329,192,165645,128,0,165752:0:0:0:0:
36,192,165859,128,0,166074:0:0:0:0:
182,192,165966,128,0,166074:0:0:0:0:
329,192,165966,128,0,166074:0:0:0:0:
475,192,166181,1,0,0:0:0:0:
402,192,166181,1,0,0:0:0:0:
36,192,166181,1,0,0:0:0:0:
109,192,166288,1,0,0:0:0:0:
475,192,166395,1,0,0:0:0:0:
182,192,166395,128,0,166609:0:0:0:0:
36,192,166502,128,0,166609:0:0:0:0:
329,192,166502,1,0,0:0:0:0:
475,192,166609,1,0,0:0:0:0:
402,192,166609,128,0,166824:0:0:0:0:
182,192,166931,1,0,0:0:0:0:
329,192,166931,1,0,0:0:0:0:
475,192,167038,128,0,167252:0:0:0:0:
109,192,167038,1,0,0:0:0:0:
36,192,167038,1,0,0:0:0:0:
329,192,167145,128,0,167252:0:0:0:0:
182,192,167145,128,0,167252:0:0:0:0:
329,192,167359,128,0,167466:0:0:0:0:
182,192,167359,128,0,167466:0:0:0:0:
475,192,167574,128,0,167788:0:0:0:0:
329,192,167681,128,0,167788:0:0:0:0:
182,192,167681,128,0,167788:0:0:0:0:
36,192,167681,1,0,0:0:0:0:
109,192,167788,1,0,0:0:0:0:
182,192,167895,1,0,0:0:0:0:
36,192,167895,1,0,0:0:0:0:
475,192,167895,1,0,0:0:0:0:
402,192,168002,1,0,0:0:0:0:
329,192,168109,128,0,168324:0:0:0:0:
36,192,168109,1,0,0:0:0:0:
475,192,168216,128,0,168324:0:0:0:0:
182,192,168216,1,0,0:0:0:0:
36,192,168324,1,0,0:0:0:0:
256,192,168324,128,0,168538:0:0:0:0:
402,192,168538,1,0,0:0:0:0:
109,192,168538,1,0,0:0:0:0:
182,192,168645,1,0,0:0:0:0:
329,192,168645,1,0,0:0:0:0:
256,192,168752,128,0,168966:0:0:0:0:
475,192,168752,1,0,0:0:0:0:
36,192,168752,1,0,0:0:0:0:
402,192,168859,128,0,168966:0:0:0:0:
109,192,168859,128,0,168966:0:0:0:0:
329,192,169074,128,0,169181:0:0:0:0:
182,192,169074,128,0,169181:0:0:0:0:
256,192,169288,128,0,169502:0:0:0:0:
109,192,169395,128,0,169502:0:0:0:0:
402,192,169395,128,0,169502:0:0:0:0:
475,192,169609,1,0,0:0:0:0:
36,192,169609,1,0,0:0:0:0:
109,192,169609,128,0,169716:0:0:0:0:
402,192,169609,128,0,169716:0:0:0:0:
182,192,169716,128,0,169824:0:0:0:0:
329,192,169716,128,0,169824:0:0:0:0:
475,192,169824,128,0,169931:0:0:0:0:
36,192,169824,128,0,169931:0:0:0:0:
182,192,169931,128,0,170038:0:0:0:0:
329,192,169931,128,0,170038:0:0:0:0:
475,192,170038,128,0,170252:0:0:0:0:
36,192,170252,128,0,170359:0:0:0:0:
182,192,170252,128,0,170359:0:0:0:0:
475,192,170359,128,0,170466:0:0:0:0:
182,192,170466,1,0,0:0:0:0:
36,192,170466,1,0,0:0:0:0:
475,192,170574,1,0,0:0:0:0:
475,192,170788,128,0,171002:0:0:0:0:
402,192,170788,1,0,0:0:0:0:
329,192,170895,1,0,0:0:0:0:
256,192,171002,1,0,0:0:0:0:
475,192,171109,128,0,171216:0:0:0:0:
182,192,171109,1,0,0:0:0:0:
36,192,171109,1,0,0:0:0:0:
329,192,171216,1,0,0:0:0:0:
475,192,171324,128,0,171538:0:0:0:0:
182,192,171324,1,0,0:0:0:0:
36,192,171324,1,0,0:0:0:0:
329,192,171431,1,0,0:0:0:0:
109,192,171538,1,0,0:0:0:0:
475,192,171645,1,0,0:0:0:0:
329,192,171645,1,0,0:0:0:0:
256,192,171752,1,0,0:0:0:0:
36,192,171752,1,0,0:0:0:0:
109,192,171752,1,0,0:0:0:0:
402,192,171752,1,0,0:0:0:0:
182,192,171859,1,0,0:0:0:0:
36,192,171966,1,0,0:0:0:0:
329,192,171966,1,0,0:0:0:0:
402,192,171966,128,0,172181:0:0:0:0:
182,192,172074,1,0,0:0:0:0:
109,192,172181,1,0,0:0:0:0:
475,192,172181,1,0,0:0:0:0:
36,192,172181,1,0,0:0:0:0:
402,192,172288,128,0,172395:0:0:0:0:
329,192,172395,1,0,0:0:0:0:
182,192,172395,1,0,0:0:0:0:
475,192,172502,1,0,0:0:0:0:
256,192,172502,1,0,0:0:0:0:
402,192,172502,128,0,172716:0:0:0:0:
36,192,172609,1,0,0:0:0:0:
475,192,172716,1,0,0:0:0:0:
182,192,172716,1,0,0:0:0:0:
329,192,172716,1,0,0:0:0:0:
402,192,172824,1,0,0:0:0:0:
36,192,172824,1,0,0:0:0:0:
475,192,172931,1,0,0:0:0:0:
182,192,172931,1,0,0:0:0:0:
109,192,173038,1,0,0:0:0:0:
36,192,173038,1,0,0:0:0:0:
402,192,173038,128,0,173252:0:0:0:0:
256,192,173038,1,0,0:0:0:0:
182,192,173252,1,0,0:0:0:0:
329,192,173252,1,0,0:0:0:0:
182,192,173359,1,0,0:0:0:0:
329,192,173359,1,0,0:0:0:0:
36,192,173466,1,0,0:0:0:0:
475,192,173466,1,0,0:0:0:0:
256,192,173466,1,0,0:0:0:0:
402,192,173466,1,0,0:0:0:0:
329,192,173574,1,0,0:0:0:0:
475,192,173681,1,0,0:0:0:0:
182,192,173681,1,0,0:0:0:0:
109,192,173681,128,0,173895:0:0:0:0:
329,192,173788,1,0,0:0:0:0:
402,192,173895,1,0,0:0:0:0:
36,192,173895,1,0,0:0:0:0:
475,192,173895,1,0,0:0:0:0:
109,192,174002,128,0,174109:0:0:0:0:
182,192,174109,1,0,0:0:0:0:
329,192,174109,1,0,0:0:0:0:
36,192,174216,1,0,0:0:0:0:
256,192,174216,1,0,0:0:0:0:
109,192,174216,128,0,174431:0:0:0:0:
475,192,174324,1,0,0:0:0:0:
36,192,174431,1,0,0:0:0:0:
329,192,174431,1,0,0:0:0:0:
182,192,174431,1,0,0:0:0:0:
475,192,174538,1,0,0:0:0:0:
109,192,174538,1,0,0:0:0:0:
36,192,174645,1,0,0:0:0:0:
329,192,174645,1,0,0:0:0:0:
402,192,174752,1,0,0:0:0:0:
475,192,174752,1,0,0:0:0:0:
109,192,174752,128,0,174966:0:0:0:0:
256,192,174752,1,0,0:0:0:0:
329,192,174966,1,0,0:0:0:0:
182,192,174966,1,0,0:0:0:0:
329,192,175074,1,0,0:0:0:0:
182,192,175074,1,0,0:0:0:0:
475,192,175181,1,0,0:0:0:0:
36,192,175181,1,0,0:0:0:0:
256,192,175181,1,0,0:0:0:0:
402,192,175288,1,0,0:0:0:0:
182,192,175288,1,0,0:0:0:0:
36,192,175395,128,0,175502:0:0:0:0:
475,192,175395,128,0,175502:0:0:0:0:
109,192,175395,1,0,0:0:0:0:
402,192,175502,1,0,0:0:0:0:
256,192,175502,1,0,0:0:0:0:
36,192,175609,128,0,175824:0:0:0:0:
475,192,175609,128,0,175824:0:0:0:0:
109,192,175609,1,0,0:0:0:0:
182,192,175716,1,0,0:0:0:0:
329,192,175716,1,0,0:0:0:0:
109,192,175824,1,0,0:0:0:0:
402,192,175824,1,0,0:0:0:0:
182,192,175931,1,0,0:0:0:0:
329,192,175931,1,0,0:0:0:0:
36,192,176038,128,0,176145:0:0:0:0:
475,192,176038,128,0,176145:0:0:0:0:
256,192,176038,1,0,0:0:0:0:
182,192,176145,1,0,0:0:0:0:
329,192,176145,1,0,0:0:0:0:
109,192,176252,128,0,176359:0:0:0:0:
402,192,176252,128,0,176359:0:0:0:0:
256,192,176359,1,0,0:0:0:0:
182,192,176466,128,0,176574:0:0:0:0:
329,192,176466,128,0,176574:0:0:0:0:
36,192,176466,1,0,0:0:0:0:
475,192,176466,1,0,0:0:0:0:
402,192,176574,1,0,0:0:0:0:
109,192,176574,1,0,0:0:0:0:
256,192,176681,128,0,176788:0:0:0:0:
475,192,176681,1,0,0:0:0:0:
36,192,176681,1,0,0:0:0:0:
402,192,176788,1,0,0:0:0:0:
109,192,176788,1,0,0:0:0:0:
329,192,176895,128,0,177109:0:0:0:0:
182,192,176895,128,0,177109:0:0:0:0:
182,192,177216,1,0,0:0:0:0:
329,192,177216,1,0,0:0:0:0:
329,192,177324,1,0,0:0:0:0:
182,192,177324,1,0,0:0:0:0:
182,192,177431,1,0,0:0:0:0:
329,192,177431,1,0,0:0:0:0:
182,192,177645,1,0,0:0:0:0:
329,192,177645,1,0,0:0:0:0:
182,192,177859,1,0,0:0:0:0:
256,192,177913,1,0,0:0:0:0:
329,192,177966,1,0,0:0:0:0:
182,192,178074,1,0,0:0:0:0:
329,192,178181,128,0,178234:0:0:0:0:
475,192,178181,128,0,178234:0:0:0:0:
402,192,178288,128,0,178341:0:0:0:0:
256,192,178288,128,0,178341:0:0:0:0:
329,192,178395,128,0,178449:0:0:0:0:
182,192,178395,128,0,178449:0:0:0:0:
109,192,178502,128,0,178556:0:0:0:0:
256,192,178502,128,0,178556:0:0:0:0:
182,192,178609,1,0,0:0:0:0:
36,192,178609,1,0,0:0:0:0:
475,192,178609,1,0,0:0:0:0:
329,192,178609,1,0,0:0:0:0:
402,192,178716,1,0,0:0:0:0:
256,192,178716,1,0,0:0:0:0:
109,192,178824,128,0,179038:0:0:0:0:
475,192,178824,1,0,0:0:0:0:
36,192,178824,1,0,0:0:0:0:
475,192,179038,1,0,0:0:0:0:
182,192,179038,1,0,0:0:0:0:
329,192,179038,128,0,179466:0:0:0:0:
36,192,179038,1,0,0:0:0:0:
256,192,179252,1,0,0:0:0:0:
109,192,179252,128,0,179466:0:0:0:0:
402,192,179252,1,0,0:0:0:0:
182,192,179466,1,0,0:0:0:0:
36,192,179466,1,0,0:0:0:0:
475,192,179466,128,0,179895:0:0:0:0:
109,192,179574,1,0,0:0:0:0:
256,192,179574,1,0,0:0:0:0:
329,192,179681,128,0,179895:0:0:0:0:
109,192,179788,1,0,0:0:0:0:
256,192,179788,1,0,0:0:0:0:
182,192,179895,128,0,180109:0:0:0:0:
36,192,179895,1,0,0:0:0:0:
402,192,179895,1,0,0:0:0:0:
402,192,180109,128,0,180324:0:0:0:0:
256,192,180109,1,0,0:0:0:0:
109,192,180109,1,0,0:0:0:0:
36,192,180324,1,0,0:0:0:0:
329,192,180324,1,0,0:0:0:0:
475,192,180324,1,0,0:0:0:0:
109,192,180431,1,0,0:0:0:0:
256,192,180431,1,0,0:0:0:0:
329,192,180538,128,0,180752:0:0:0:0:
402,192,180538,1,0,0:0:0:0:
182,192,180538,1,0,0:0:0:0:
256,192,180752,1,0,0:0:0:0:
36,192,180752,1,0,0:0:0:0:
475,192,180752,1,0,0:0:0:0:
109,192,180752,1,0,0:0:0:0:
36,192,180966,128,0,181181:0:0:0:0:
329,192,180966,1,0,0:0:0:0:
182,192,180966,1,0,0:0:0:0:
256,192,181074,1,0,0:0:0:0:
402,192,181074,1,0,0:0:0:0:
109,192,181181,1,0,0:0:0:0:
475,192,181181,1,0,0:0:0:0:
182,192,181181,1,0,0:0:0:0:
329,192,181288,1,0,0:0:0:0:
475,192,181395,1,0,0:0:0:0:
109,192,181395,128,0,181609:0:0:0:0:
182,192,181395,1,0,0:0:0:0:
329,192,181502,1,0,0:0:0:0:
475,192,181609,1,0,0:0:0:0:
36,192,181609,1,0,0:0:0:0:
256,192,181609,1,0,0:0:0:0:
402,192,181609,1,0,0:0:0:0:
109,192,181824,1,0,0:0:0:0:
402,192,181824,1,0,0:0:0:0:
256,192,181824,1,0,0:0:0:0:
182,192,181931,1,0,0:0:0:0:
109,192,182038,1,0,0:0:0:0:
36,192,182038,1,0,0:0:0:0:
475,192,182038,1,0,0:0:0:0:
329,192,182038,1,0,0:0:0:0:
256,192,182145,1,0,0:0:0:0:
182,192,182252,128,0,182466:0:0:0:0:
402,192,182252,1,0,0:0:0:0:
475,192,182466,1,0,0:0:0:0:
256,192,182466,1,0,0:0:0:0:
36,192,182466,1,0,0:0:0:0:
329,192,182466,1,0,0:0:0:0:
402,192,182574,1,0,0:0:0:0:
182,192,182574,1,0,0:0:0:0:
475,192,182681,1,0,0:0:0:0:
36,192,182681,1,0,0:0:0:0:
329,192,182788,1,0,0:0:0:0:
109,192,182788,1,0,0:0:0:0:
36,192,182895,1,0,0:0:0:0:
475,192,182895,1,0,0:0:0:0:
256,192,182895,1,0,0:0:0:0:
182,192,183002,1,0,0:0:0:0:
402,192,183002,1,0,0:0:0:0:
329,192,183002,1,0,0:0:0:0:
475,192,183109,128,0,183324:0:0:0:0:
256,192,183216,1,0,0:0:0:0:
36,192,183216,1,0,0:0:0:0:
109,192,183216,1,0,0:0:0:0:
329,192,183324,1,0,0:0:0:0:
402,192,183324,1,0,0:0:0:0:
182,192,183324,1,0,0:0:0:0:
36,192,183431,1,0,0:0:0:0:
182,192,183538,1,0,0:0:0:0:
329,192,183538,1,0,0:0:0:0:
109,192,183645,1,0,0:0:0:0:
256,192,183752,1,0,0:0:0:0:
36,192,183752,1,0,0:0:0:0:
475,192,183752,1,0,0:0:0:0:
402,192,183859,1,0,0:0:0:0:
109,192,183966,1,0,0:0:0:0:
329,192,183966,128,0,184181:0:0:0:0:
256,192,184181,1,0,0:0:0:0:
36,192,184181,1,0,0:0:0:0:
475,192,184181,1,0,0:0:0:0:
182,192,184181,1,0,0:0:0:0:
329,192,184288,1,0,0:0:0:0:
109,192,184288,1,0,0:0:0:0:
475,192,184395,1,0,0:0:0:0:
36,192,184395,1,0,0:0:0:0:
402,192,184502,1,0,0:0:0:0:
182,192,184502,1,0,0:0:0:0:
475,192,184609,1,0,0:0:0:0:
256,192,184609,1,0,0:0:0:0:
36,192,184609,1,0,0:0:0:0:
329,192,184716,1,0,0:0:0:0:
109,192,184716,1,0,0:0:0:0:
182,192,184716,1,0,0:0:0:0:
36,192,184824,128,0,185038:0:0:0:0:
256,192,184931,1,0,0:0:0:0:
402,192,184931,1,0,0:0:0:0:
475,192,184931,1,0,0:0:0:0:
329,192,185038,1,0,0:0:0:0:
182,192,185038,1,0,0:0:0:0:
109,192,185038,1,0,0:0:0:0:
475,192,185145,1,0,0:0:0:0:
329,192,185252,1,0,0:0:0:0:
182,192,185252,1,0,0:0:0:0:
36,192,185252,1,0,0:0:0:0:
402,192,185359,1,0,0:0:0:0:
109,192,185466,128,0,185788:0:0:0:0:
36,192,185466,128,0,185788:0:0:0:0:
475,192,185466,128,0,185681:0:0:0:0:
329,192,185466,128,0,185681:0:0:0:0:
256,192,185681,128,0,185895:0:0:0:0:
402,192,185895,128,0,186216:0:0:0:0:
475,192,185895,128,0,186216:0:0:0:0:
182,192,185895,128,0,186109:0:0:0:0:
36,192,185895,128,0,186109:0:0:0:0:
256,192,186109,128,0,186324:0:0:0:0:
36,192,186324,128,0,186645:0:0:0:0:
109,192,186324,128,0,186645:0:0:0:0:
329,192,186324,128,0,186645:0:0:0:0:
475,192,186324,128,0,186645:0:0:0:0:
475,192,186752,1,0,0:0:0:0:
402,192,186752,1,0,0:0:0:0:
182,192,186752,1,0,0:0:0:0:
36,192,186752,1,0,0:0:0:0:
402,192,187038,1,0,0:0:0:0:
256,192,187038,1,0,0:0:0:0:
109,192,187038,1,0,0:0:0:0:
36,192,187181,128,0,187502:0:0:0:0:
182,192,187181,128,0,187502:0:0:0:0:
329,192,187181,128,0,187502:0:0:0:0:
475,192,187181,128,0,187502:0:0:0:0:
109,192,187609,128,0,187931:0:0:0:0:
182,192,187609,128,0,187931:0:0:0:0:
402,192,187609,128,0,187931:0:0:0:0:
329,192,187609,128,0,187931:0:0:0:0:
256,192,187609,1,0,0:0:0:0:
109,192,188038,128,0,188359:0:0:0:0:
36,192,188038,128,0,188359:0:0:0:0:
402,192,188038,128,0,188359:0:0:0:0:
475,192,188038,128,0,188359:0:0:0:0:
256,192,188038,128,0,188359:0:0:0:0:
109,192,188466,1,0,0:0:0:0:
36,192,188466,1,0,0:0:0:0:
256,192,188466,1,0,0:0:0:0:
402,192,188466,1,0,0:0:0:0:
475,192,188466,1,0,0:0:0:0:
182,192,188752,1,0,0:0:0:0:
36,192,188752,1,0,0:0:0:0:
329,192,188752,1,0,0:0:0:0:
402,192,188895,1,0,0:0:0:0:
475,192,188895,1,0,0:0:0:0:
256,192,188895,1,0,0:0:0:0:
109,192,188895,1,0,0:0:0:0:
329,192,189109,1,0,0:0:0:0:
402,192,189109,1,0,0:0:0:0:
182,192,189109,1,0,0:0:0:0:
36,192,189109,1,0,0:0:0:0:
109,192,189324,1,0,0:0:0:0:
36,192,189324,1,0,0:0:0:0:
256,192,189324,1,0,0:0:0:0:
402,192,189324,1,0,0:0:0:0:
329,192,189538,1,0,0:0:0:0:
475,192,189538,1,0,0:0:0:0:
182,192,189538,1,0,0:0:0:0:
109,192,189538,1,0,0:0:0:0:
402,192,189752,128,0,190074:0:0:0:0:
475,192,189752,128,0,190074:0:0:0:0:
109,192,189752,128,0,190074:0:0:0:0:
36,192,189752,128,0,190074:0:0:0:0:
256,192,189752,1,0,0:0:0:0:
182,192,190181,128,0,190502:0:0:0:0:
109,192,190181,128,0,190502:0:0:0:0:
329,192,190181,128,0,190502:0:0:0:0:
402,192,190181,128,0,190502:0:0:0:0:
256,192,190181,1,0,0:0:0:0:
256,192,190609,1,0,0:0:0:0:
36,192,190609,1,0,0:0:0:0:
475,192,190609,1,0,0:0:0:0:
402,192,190609,1,0,0:0:0:0:
109,192,190716,1,0,0:0:0:0:
182,192,190824,1,0,0:0:0:0:
329,192,190824,1,0,0:0:0:0:
109,192,190931,1,0,0:0:0:0:
36,192,191038,1,0,0:0:0:0:
329,192,191038,1,0,0:0:0:0:
475,192,191038,1,0,0:0:0:0:
402,192,191145,1,0,0:0:0:0:
256,192,191145,1,0,0:0:0:0:
182,192,191145,1,0,0:0:0:0:
36,192,191252,1,0,0:0:0:0:
182,192,191359,1,0,0:0:0:0:
329,192,191359,1,0,0:0:0:0:
475,192,191359,1,0,0:0:0:0:
36,192,191466,1,0,0:0:0:0:
256,192,191466,1,0,0:0:0:0:
109,192,191466,1,0,0:0:0:0:
329,192,191574,1,0,0:0:0:0:
182,192,191574,1,0,0:0:0:0:
475,192,191574,1,0,0:0:0:0:
402,192,191681,1,0,0:0:0:0:
36,192,191681,1,0,0:0:0:0:
109,192,191788,1,0,0:0:0:0:
329,192,191788,1,0,0:0:0:0:
475,192,191895,1,0,0:0:0:0:
36,192,191895,1,0,0:0:0:0:
182,192,191895,1,0,0:0:0:0:
402,192,191895,1,0,0:0:0:0:
256,192,192109,1,0,0:0:0:0:
36,192,192109,1,0,0:0:0:0:
475,192,192109,1,0,0:0:0:0:
109,192,192216,1,0,0:0:0:0:
182,192,192324,1,0,0:0:0:0:
475,192,192324,1,0,0:0:0:0:
329,192,192324,1,0,0:0:0:0:
402,192,192431,1,0,0:0:0:0:
329,192,192538,1,0,0:0:0:0:
182,192,192538,1,0,0:0:0:0:
402,192,192645,1,0,0:0:0:0:
475,192,192752,1,0,0:0:0:0:
182,192,192752,1,0,0:0:0:0:
36,192,192752,1,0,0:0:0:0:
109,192,192859,1,0,0:0:0:0:
256,192,192859,1,0,0:0:0:0:
329,192,192859,1,0,0:0:0:0:
475,192,192966,1,0,0:0:0:0:
329,192,193074,1,0,0:0:0:0:
182,192,193074,1,0,0:0:0:0:
36,192,193074,1,0,0:0:0:0:
475,192,193181,1,0,0:0:0:0:
256,192,193181,1,0,0:0:0:0:
402,192,193181,1,0,0:0:0:0:
182,192,193288,1,0,0:0:0:0:
36,192,193288,1,0,0:0:0:0:
329,192,193288,1,0,0:0:0:0:
109,192,193395,1,0,0:0:0:0:
475,192,193395,1,0,0:0:0:0:
182,192,193502,1,0,0:0:0:0:
329,192,193502,1,0,0:0:0:0:
36,192,193609,1,0,0:0:0:0:
475,192,193609,1,0,0:0:0:0:
402,192,193609,1,0,0:0:0:0:
256,192,193716,1,0,0:0:0:0:
182,192,193824,1,0,0:0:0:0:
36,192,193824,1,0,0:0:0:0:
329,192,193931,1,0,0:0:0:0:
475,192,193931,1,0,0:0:0:0:
475,192,194252,1,0,0:0:0:0:
402,192,194252,1,0,0:0:0:0:
182,192,194252,1,0,0:0:0:0:
36,192,194252,1,0,0:0:0:0:
256,192,194252,1,0,0:0:0:0:
402,192,194466,1,0,0:0:0:0:
475,192,194466,1,0,0:0:0:0:
182,192,194574,1,0,0:0:0:0:
109,192,194574,1,0,0:0:0:0:
36,192,194574,1,0,0:0:0:0:
329,192,194574,1,0,0:0:0:0:
475,192,194788,1,0,0:0:0:0:
329,192,194788,1,0,0:0:0:0:
402,192,194788,1,0,0:0:0:0:
36,192,194788,1,0,0:0:0:0:
182,192,194788,1,0,0:0:0:0:
475,192,195109,1,0,0:0:0:0:
256,192,195109,1,0,0:0:0:0:
36,192,195109,1,0,0:0:0:0:
182,192,195109,1,0,0:0:0:0:
402,192,195109,1,0,0:0:0:0:
109,192,195324,1,0,0:0:0:0:
36,192,195324,1,0,0:0:0:0:
475,192,195431,1,0,0:0:0:0:
402,192,195431,1,0,0:0:0:0:
182,192,195431,1,0,0:0:0:0:
256,192,195431,1,0,0:0:0:0:
475,192,195645,1,0,0:0:0:0:
36,192,195645,1,0,0:0:0:0:
109,192,195645,1,0,0:0:0:0:
329,192,195645,1,0,0:0:0:0:
182,192,195645,1,0,0:0:0:0:
475,192,195966,1,0,0:0:0:0:
329,192,195966,1,0,0:0:0:0:
256,192,195966,1,0,0:0:0:0:
109,192,195966,1,0,0:0:0:0:
36,192,195966,1,0,0:0:0:0:
182,192,196181,1,0,0:0:0:0:
329,192,196181,1,0,0:0:0:0:
475,192,196288,1,0,0:0:0:0:
109,192,196288,1,0,0:0:0:0:
36,192,196288,1,0,0:0:0:0:
402,192,196288,1,0,0:0:0:0:
256,192,196288,1,0,0:0:0:0:
36,192,196502,128,0,196824:0:0:0:0:
475,192,196502,128,0,196824:0:0:0:0:
182,192,196502,128,0,196931:0:0:0:0:
329,192,196502,128,0,196931:0:0:0:0:
256,192,196502,128,0,197038:0:0:0:0:
