osu file format v14

[General]
AudioFilename: audio.mp3
AudioLeadIn: 0
PreviewTime: 70726
Countdown: 0
SampleSet: Soft
StackLeniency: 0.7
Mode: 3
LetterboxInBreaks: 0
SpecialStyle: 0
WidescreenStoryboard: 0

[Editor]
Bookmarks: 226,12226,24226,36226,48226,60226,72226,84226,96226,102226,120226,132226,144226,156226,168226,180226,192226,204226
DistanceSpacing: 0.4
BeatDivisor: 4
GridSize: 32
TimelineZoom: 1.3

[Metadata]
Title:From Zero feat. Rika
TitleUnicode:From Zero feat. 利香
Artist:Neko Hacker
ArtistUnicode:Neko Hacker
Creator:Drum-Hitnormal
Version:Hard
Source:
Tags:amiichii faputa Critical_Star ML-ysg electronic Japanese edm dudehacker featured artist fa kawaii future rock bass sera kassan sho
BeatmapID:3132218
BeatmapSetID:1531489

[Difficulty]
HPDrainRate:8
CircleSize:4
OverallDifficulty:8
ApproachRate:5
SliderMultiplier:1.4
SliderTickRate:1

[Events]
//Background and Video events
0,0,"EVsuRbqVAAAd_05.jpg",0,0
//Break Periods
//Storyboard Layer 0 (Background)
//Storyboard Layer 1 (Fail)
//Storyboard Layer 2 (Pass)
//Storyboard Layer 3 (Foreground)
//Storyboard Layer 4 (Overlay)
//Storyboard Sound Samples
Sample,36976,0,"Hat Open.wav",50
Sample,38476,0,"Hat Open.wav",50
Sample,42976,0,"Hat Open.wav",50
Sample,49351,0,"Hat Open.wav",50
Sample,50851,0,"Hat Open.wav",50
Sample,52351,0,"Hat Open.wav",50
Sample,55351,0,"Hat Open.wav",50
Sample,56851,0,"Hat Open.wav",50
Sample,59101,0,"Hat Open.wav",50
Sample,67351,0,"Hat Open.wav",50
Sample,68851,0,"Hat Open.wav",50
Sample,84601,0,"Snare2.wav",40
Sample,86101,0,"Snare2.wav",40
Sample,88351,0,"Snare2.wav",40
Sample,89101,0,"Snare2.wav",40
Sample,95101,0,"Snare2.wav",40
Sample,95851,0,"Snare2.wav",40
Sample,107851,0,"Hat Open.wav",50
Sample,108601,0,"Hat Open.wav",50
Sample,110663,0,"Hat Open.wav",50
Sample,110851,0,"Hat Open.wav",50
Sample,143476,0,"Snare3.wav",30
Sample,144601,0,"Snare2.wav",40
Sample,146101,0,"Snare2.wav",40
Sample,149101,0,"Snare2.wav",40
Sample,155101,0,"Snare2.wav",40
Sample,194101,0,"Snare4.wav",40
Sample,197101,0,"Snare4.wav",40
Sample,200663,0,"Hat Open.wav",50
Sample,202163,0,"Hat Open.wav",50

[TimingPoints]
226,375,4,2,1,50,1,0
72226,-100,4,2,1,50,0,1
96226,-100,4,2,1,50,0,0
132226,-100,4,2,1,50,0,1
156226,-100,4,2,1,50,0,0
180226,-100,4,2,1,50,0,1
186226,-100,4,2,1,50,0,0
192601,-100,4,2,1,50,0,1
204226,-100,4,2,1,50,0,0

[HitObjects]
64,192,226,5,2,0:0:0:0:
192,192,226,1,4,0:0:0:0:
448,192,226,1,0,0:0:0:50:Clap.wav
320,192,413,1,0,0:0:0:0:
192,192,601,1,0,0:0:0:0:
64,192,694,1,0,0:0:0:0:
320,192,788,1,0,0:0:0:0:
448,192,976,128,0,1351:0:0:0:0:
64,192,1351,1,0,0:0:0:0:
320,192,1538,1,0,0:0:0:0:
192,192,1726,1,0,0:0:0:0:
448,192,1819,1,0,0:0:0:0:
320,192,1913,1,0,0:0:0:0:
64,192,2101,1,0,0:0:0:0:
448,192,2288,1,0,0:0:0:0:
192,192,2476,1,0,0:0:0:0:
320,192,2476,128,0,2851:0:0:0:0:
448,192,2851,1,0,0:0:0:0:
64,192,3038,1,0,0:0:0:0:
320,192,3226,1,0,0:0:0:0:
192,192,3413,1,0,0:0:0:0:
64,192,3601,1,0,0:0:0:0:
192,192,3788,1,0,0:0:0:0:
320,192,3976,1,0,0:0:0:0:
448,192,3976,128,0,4351:0:0:0:0:
192,192,4351,128,0,4538:0:0:0:0:
320,192,4538,128,0,4726:0:0:0:0:
64,192,4726,128,0,5101:0:0:0:0:
448,192,5101,128,0,5288:0:0:0:0:
320,192,5476,128,0,5851:0:0:0:0:
192,192,5476,128,0,6226:0:0:0:0:
64,192,5851,128,0,6226:0:0:0:0:
448,192,5851,128,0,6038:0:0:0:0:
320,192,6226,128,2,6319:0:0:0:0:
448,192,6226,1,4,0:0:0:0:
192,192,6413,128,0,6507:0:0:0:0:
320,192,6601,128,0,6694:0:0:0:0:
192,192,6788,128,0,6882:0:0:0:0:
64,192,6976,1,0,0:0:0:50:Finger.wav
448,192,6976,128,0,7351:0:0:0:0:
192,192,7351,1,2,0:0:0:0:
320,192,7351,128,0,7444:0:0:0:0:
320,192,7538,128,0,7632:0:0:0:0:
320,192,7726,128,0,7819:0:0:0:0:
448,192,7913,1,0,0:0:0:0:
64,192,7913,128,2,8007:0:0:0:0:
64,192,8101,128,0,8194:0:0:0:0:
320,192,8288,1,2,0:0:0:0:
192,192,8351,1,2,0:0:0:0:
64,192,8413,1,2,0:0:0:0:
320,192,8476,128,0,8538:0:0:0:50:Finger.wav
448,192,8476,1,0,0:0:0:0:
192,192,8601,128,0,8663:0:0:0:0:
64,192,8726,128,0,8788:0:0:0:0:
448,192,8851,128,0,8913:0:0:0:0:
320,192,8976,128,0,9038:0:0:0:0:
192,192,9101,128,0,9163:0:0:0:0:
448,192,9226,1,0,0:0:0:0:
64,192,9226,1,2,0:0:0:0:
320,192,9319,1,0,0:0:0:0:
192,192,9413,1,0,0:0:0:0:
64,192,9601,1,2,0:0:0:0:
448,192,9601,1,0,0:0:0:0:
192,192,9694,1,0,0:0:0:0:
320,192,9788,1,0,0:0:0:0:
64,192,9976,1,2,0:0:0:0:
448,192,9976,1,0,0:0:0:0:
320,192,10069,1,0,0:0:0:0:
192,192,10163,1,0,0:0:0:0:
64,192,10351,1,2,0:0:0:0:
448,192,10351,1,0,0:0:0:0:
192,192,10444,1,0,0:0:0:0:
320,192,10538,1,0,0:0:0:0:
64,192,10726,1,2,0:0:0:0:
448,192,10726,1,0,0:0:0:40:Snare1.wav
448,192,10913,1,0,0:0:0:40:Snare1.wav
192,192,10913,1,2,0:0:0:0:
192,192,11101,1,2,0:0:0:0:
320,192,11101,1,0,0:0:0:40:Snare1.wav
64,192,11288,1,2,0:0:0:0:
320,192,11288,1,0,0:0:0:40:Snare1.wav
64,192,11476,1,0,0:0:0:50:Tom1.wav
448,192,11476,1,0,0:0:0:0:
192,192,11757,1,0,0:0:0:50:Tom2.wav
320,192,11757,1,0,0:0:0:0:
320,192,12038,1,0,0:0:0:50:Tom3.wav
448,192,12038,1,0,0:0:0:0:
64,192,12226,1,4,0:0:0:0:
192,192,12226,1,2,0:0:0:0:
448,192,12226,1,0,0:0:0:0:
320,192,12413,1,0,0:0:0:0:
192,192,12413,1,0,0:0:0:0:
64,192,12601,1,0,0:0:0:0:
320,192,12601,1,0,0:0:0:0:
192,192,12694,1,0,0:0:0:0:
64,192,12788,1,0,0:0:0:0:
448,192,12788,1,0,0:0:0:0:
192,192,12976,1,0,0:0:0:40:Snare1.wav
320,192,12976,128,0,13351:0:0:0:0:
448,192,12976,1,0,0:0:0:0:
64,192,13351,1,2,0:0:0:0:
192,192,13351,1,0,0:0:0:0:
192,192,13538,1,0,0:0:0:0:
448,192,13538,1,0,0:0:0:0:
320,192,13726,1,0,0:0:0:0:
448,192,13726,1,0,0:0:0:0:
64,192,13819,1,0,0:0:0:0:
192,192,13913,1,2,0:0:0:0:
320,192,13913,1,0,0:0:0:0:
64,192,14101,1,0,0:0:0:0:
192,192,14101,1,0,0:0:0:0:
448,192,14288,1,2,0:0:0:0:
320,192,14351,1,2,0:0:0:0:
192,192,14413,1,2,0:0:0:0:
64,192,14476,128,0,14851:0:0:0:50:Hat Open.wav
320,192,14476,1,0,0:0:0:40:Snare1.wav
448,192,14476,1,0,0:0:0:0:
192,192,14851,1,0,0:0:0:0:
320,192,14851,1,0,0:0:0:0:
448,192,15038,1,0,0:0:0:0:
320,192,15038,1,2,0:0:0:0:
192,192,15226,1,0,0:0:0:0:
448,192,15226,1,0,0:0:0:0:
64,192,15226,1,2,0:0:0:0:
192,192,15413,1,0,0:0:0:0:
320,192,15413,1,0,0:0:0:0:
64,192,15601,1,0,0:0:0:0:
320,192,15601,1,0,0:0:0:0:
192,192,15788,1,0,0:0:0:0:
448,192,15788,1,0,0:0:0:0:
64,192,15976,1,0,0:0:0:50:Hat Open.wav
192,192,15976,128,0,16351:0:0:0:40:Snare1.wav
320,192,15976,1,0,0:0:0:0:
320,192,16351,1,2,0:0:0:0:
448,192,16351,1,0,0:0:0:0:
192,192,16538,1,0,0:0:0:0:
448,192,16538,1,0,0:0:0:0:
320,192,16726,1,0,0:0:0:0:
64,192,16726,1,0,0:0:0:0:
320,192,16913,1,2,0:0:0:0:
448,192,16913,1,0,0:0:0:0:
64,192,17101,1,0,0:0:0:0:
192,192,17101,1,0,0:0:0:0:
192,192,17288,1,0,0:0:0:0:
448,192,17288,1,0,0:0:0:0:
64,192,17476,1,2,0:0:0:0:
320,192,17476,128,0,17851:0:0:0:50:Hat Open.wav
448,192,17476,1,0,0:0:0:40:Snare1.wav
64,192,17851,1,2,0:0:0:0:
192,192,17851,128,0,18226:0:0:0:0:
64,192,18226,1,2,0:0:0:0:
448,192,18226,1,0,0:0:0:0:
448,192,18413,1,0,0:0:0:0:
192,192,18413,1,0,0:0:0:0:
64,192,18601,1,0,0:0:0:0:
320,192,18601,1,0,0:0:0:0:
192,192,18788,1,0,0:0:0:0:
320,192,18788,1,0,0:0:0:0:
64,192,18976,1,0,0:0:0:50:Hat Open.wav
192,192,18976,1,0,0:0:0:40:Snare1.wav
448,192,18976,1,0,0:0:0:0:
320,192,19257,1,0,0:0:0:0:
64,192,19351,1,2,0:0:0:0:
192,192,19351,1,0,0:0:0:0:
192,192,19538,1,0,0:0:0:0:
320,192,19538,1,0,0:0:0:0:
448,192,19726,1,0,0:0:0:0:
320,192,19726,1,0,0:0:0:0:
448,192,19913,1,0,0:0:0:0:
64,192,19913,1,2,0:0:0:0:
64,192,20101,1,0,0:0:0:0:
192,192,20101,1,0,0:0:0:0:
192,192,20288,1,2,0:0:0:0:
320,192,20351,1,2,0:0:0:0:
64,192,20413,1,2,0:0:0:0:
320,192,20476,128,0,20538:0:0:0:50:Hat Open.wav
448,192,20476,1,0,0:0:0:40:Snare1.wav
192,192,20601,128,0,20663:0:0:0:0:
64,192,20726,128,0,20788:0:0:0:0:
448,192,20851,128,0,20913:0:0:0:0:
320,192,20976,128,0,21038:0:0:0:0:
192,192,21101,128,0,21163:0:0:0:0:
448,192,21226,1,0,0:0:0:0:
64,192,21226,1,2,0:0:0:0:
448,192,21413,1,0,0:0:0:0:
192,192,21413,1,0,0:0:0:0:
192,192,21601,1,2,0:0:0:0:
320,192,21601,1,0,0:0:0:0:
64,192,21788,1,0,0:0:0:0:
320,192,21788,1,0,0:0:0:0:
64,192,21976,1,2,0:0:0:0:
192,192,21976,1,0,0:0:0:50:Hat Open.wav
448,192,21976,1,0,0:0:0:40:Snare1.wav
192,192,22163,1,0,0:0:0:0:
320,192,22163,1,0,0:0:0:0:
320,192,22351,1,2,0:0:0:0:
448,192,22351,1,0,0:0:0:0:
64,192,22538,1,0,0:0:0:0:
448,192,22538,1,0,0:0:0:0:
192,192,22726,1,0,0:0:0:0:
64,192,22726,1,2,0:0:0:0:
192,192,22913,1,0,0:0:0:0:
320,192,22913,1,0,0:0:0:0:
64,192,23101,1,2,0:0:0:0:
320,192,23101,1,0,0:0:0:0:
192,192,23288,1,0,0:0:0:0:
448,192,23288,1,0,0:0:0:0:
64,192,23476,1,2,0:0:0:0:
320,192,23476,1,0,0:0:0:50:Hat Open.wav
448,192,23476,1,0,0:0:0:40:Snare1.wav
192,192,23569,1,0,0:0:0:0:
320,192,23663,1,0,0:0:0:0:
448,192,23757,1,0,0:0:0:0:
64,192,23851,1,2,0:0:0:0:
192,192,23851,1,0,0:0:0:0:
320,192,23944,1,0,0:0:0:0:
192,192,24038,1,0,0:0:0:0:
320,192,24132,1,0,0:0:0:0:
64,192,24226,1,2,0:0:0:0:
192,192,24226,1,4,0:0:0:0:
448,192,24226,1,0,0:0:0:40:Snare2.wav
192,192,24413,1,0,0:0:0:0:
320,192,24413,1,0,0:0:0:0:
64,192,24601,1,2,0:0:0:0:
320,192,24601,1,0,0:0:0:50:Hat Open.wav
448,192,24601,1,0,0:0:0:40:Snare2.wav
64,192,24788,1,0,0:0:0:0:
192,192,24788,1,0,0:0:0:0:
192,192,24976,1,2,0:0:0:0:
448,192,24976,1,0,0:0:0:0:
192,192,25257,1,0,0:0:0:0:
64,192,25257,1,2,0:0:0:0:
320,192,25351,1,0,0:0:0:50:Hat Open.wav
448,192,25351,1,0,0:0:0:40:Snare2.wav
192,192,25538,1,2,0:0:0:0:
448,192,25538,1,0,0:0:0:0:
64,192,25726,1,2,0:0:0:0:
320,192,25726,128,0,26101:0:0:0:0:
64,192,26101,1,2,0:0:0:0:
192,192,26101,1,0,0:0:0:50:Hat Open.wav
448,192,26101,1,0,0:0:0:40:Snare2.wav
64,192,26288,1,0,0:0:0:0:
320,192,26382,1,0,0:0:0:0:
64,192,26476,1,2,0:0:0:0:
192,192,26476,1,0,0:0:0:0:
320,192,26757,1,2,0:0:0:0:
448,192,26757,1,0,0:0:0:0:
192,192,26851,1,0,0:0:0:40:Snare2.wav
64,192,26851,1,0,0:0:0:50:Hat Open.wav
192,192,27038,1,2,0:0:0:0:
448,192,27038,1,0,0:0:0:0:
320,192,27226,1,2,0:0:0:0:
448,192,27226,1,0,0:0:0:0:
64,192,27413,1,0,0:0:0:0:
320,192,27413,1,0,0:0:0:0:
64,192,27601,1,2,0:0:0:0:
192,192,27601,1,0,0:0:0:50:Hat Open.wav
448,192,27601,1,0,0:0:0:40:Snare2.wav
192,192,27788,1,0,0:0:0:0:
448,192,27788,1,0,0:0:0:0:
320,192,27882,1,0,0:0:0:0:
448,192,27976,1,0,0:0:0:0:
64,192,27976,1,2,0:0:0:0:
64,192,28257,1,2,0:0:0:0:
192,192,28257,1,0,0:0:0:0:
320,192,28351,1,0,0:0:0:50:Hat Open.wav
448,192,28351,1,0,0:0:0:40:Snare2.wav
192,192,28538,1,2,0:0:0:0:
448,192,28538,1,0,0:0:0:0:
64,192,28726,1,2,0:0:0:0:
320,192,28726,1,0,0:0:0:0:
192,192,28913,1,0,0:0:0:0:
64,192,29101,1,2,0:0:0:0:
192,192,29101,1,0,0:0:0:50:Hat Open.wav
448,192,29101,1,0,0:0:0:40:Snare2.wav
448,192,29288,1,0,0:0:0:0:
64,192,29476,128,0,29569:0:0:0:0:
192,192,29569,128,0,29663:0:0:0:0:
64,192,29663,128,0,29757:0:0:0:0:
320,192,29757,128,0,29851:0:0:0:0:
448,192,29851,128,0,29944:0:0:0:0:
320,192,29944,128,0,30038:0:0:0:0:
192,192,30038,128,0,30132:0:0:0:0:
64,192,30132,128,0,30226:0:0:0:0:
192,192,30226,1,2,0:0:0:0:
320,192,30226,1,0,0:0:0:0:
448,192,30226,1,0,0:0:0:0:
320,192,30413,1,0,0:0:0:50:Hat Open.wav
64,192,30601,1,2,0:0:0:0:
192,192,30601,1,0,0:0:0:40:Snare2.wav
448,192,30601,1,0,0:0:0:0:
192,192,30788,1,0,0:0:0:50:Hat Open.wav
320,192,30976,1,0,0:0:0:0:
448,192,30976,1,0,0:0:0:0:
64,192,30976,1,2,0:0:0:0:
64,192,31257,1,0,0:0:0:0:
192,192,31257,1,0,0:0:0:0:
320,192,31351,1,2,0:0:0:0:
448,192,31351,1,0,0:0:0:40:Snare2.wav
192,192,31538,1,0,0:0:0:50:Hat Open.wav
320,192,31538,1,0,0:0:0:0:
64,192,31726,128,2,32101:0:0:0:0:
192,192,31726,1,0,0:0:0:0:
448,192,31726,1,0,0:0:0:0:
192,192,32101,1,2,0:0:0:0:
320,192,32101,1,0,0:0:0:40:Snare2.wav
448,192,32101,1,0,0:0:0:0:
64,192,32288,1,0,0:0:0:50:Hat Open.wav
192,192,32382,1,0,0:0:0:0:
448,192,32476,1,0,0:0:0:0:
64,192,32476,1,2,0:0:0:0:
320,192,32476,1,0,0:0:0:0:
320,192,32757,1,0,0:0:0:0:
448,192,32757,1,0,0:0:0:0:
64,192,32851,1,2,0:0:0:0:
192,192,32851,1,0,0:0:0:40:Snare2.wav
320,192,33038,1,0,0:0:0:50:Hat Open.wav
448,192,33038,1,0,0:0:0:0:
64,192,33226,1,2,0:0:0:0:
192,192,33226,1,0,0:0:0:0:
448,192,33226,1,0,0:0:0:0:
320,192,33319,1,0,0:0:0:0:
64,192,33413,1,0,0:0:0:50:Hat Open.wav
192,192,33507,1,0,0:0:0:0:
448,192,33601,1,0,0:0:0:0:
320,192,33601,1,0,0:0:0:40:Snare2.wav
64,192,33601,1,2,0:0:0:0:
192,192,33694,1,0,0:0:0:0:
320,192,33788,1,0,0:0:0:50:Hat Open.wav
448,192,33882,1,0,0:0:0:0:
64,192,33976,1,2,0:0:0:0:
192,192,33976,1,0,0:0:0:0:
320,192,33976,1,0,0:0:0:0:
448,192,34069,1,0,0:0:0:0:
192,192,34163,1,0,0:0:0:50:Hat Open.wav
320,192,34257,1,0,0:0:0:0:
192,192,34351,1,0,0:0:0:40:Snare2.wav
448,192,34351,1,0,0:0:0:0:
64,192,34351,1,2,0:0:0:0:
320,192,34444,1,0,0:0:0:0:
64,192,34538,1,0,0:0:0:50:Hat Open.wav
192,192,34632,1,0,0:0:0:0:
64,192,34726,1,2,0:0:0:0:
320,192,34726,1,0,0:0:0:0:
448,192,34726,1,0,0:0:0:0:
192,192,34819,1,0,0:0:0:0:
448,192,34913,1,0,0:0:0:50:Hat Open.wav
320,192,35007,1,0,0:0:0:0:
64,192,35101,1,2,0:0:0:0:
192,192,35101,1,0,0:0:0:40:Snare2.wav
448,192,35101,1,0,0:0:0:0:
320,192,35194,1,0,0:0:0:0:
192,192,35288,1,0,0:0:0:50:Hat Open.wav
64,192,35382,1,0,0:0:0:0:
192,192,35476,1,2,0:0:0:0:
320,192,35476,1,0,0:0:0:0:
448,192,35476,1,0,0:0:0:0:
64,192,35569,1,0,0:0:0:0:
448,192,35663,1,0,0:0:0:50:Hat Open.wav
320,192,35757,1,0,0:0:0:0:
64,192,35851,1,2,0:0:0:0:
192,192,35851,1,0,0:0:0:40:Snare2.wav
448,192,35851,1,0,0:0:0:0:
320,192,35944,1,0,0:0:0:0:
192,192,36038,1,0,0:0:0:50:Hat Open.wav
64,192,36132,1,0,0:0:0:0:
320,192,36226,1,4,0:0:0:0:
448,192,36226,128,0,36319:0:0:0:0:
192,192,36226,1,2,0:0:0:0:
320,192,36413,128,0,36507:0:0:0:0:
192,192,36601,128,0,36694:0:0:0:0:
64,192,36788,128,0,36976:0:0:0:0:
448,192,36976,1,8,0:0:0:0:
64,192,37351,128,2,37444:0:0:0:0:
320,192,37351,1,0,0:0:0:0:
448,192,37351,1,0,0:0:0:0:
192,192,37538,128,2,37632:0:0:0:0:
320,192,37538,1,0,0:0:0:0:
448,192,37538,1,0,0:0:0:0:
320,192,37726,128,0,37819:0:0:0:0:
448,192,37913,128,0,38101:0:0:0:0:
64,192,38476,128,8,38569:0:0:0:0:
320,192,38663,128,0,38757:0:0:0:0:
192,192,38851,128,0,38944:0:0:0:0:
64,192,39038,1,2,0:0:0:0:
320,192,39038,1,0,0:0:0:0:
448,192,39038,128,0,39132:0:0:0:0:
448,192,39226,128,0,39601:0:0:0:0:
64,192,39226,1,2,0:0:0:0:
320,192,39226,1,0,0:0:0:0:
320,192,39788,128,0,39882:0:0:0:0:
320,192,39976,128,8,40351:0:0:0:0:
64,192,40351,1,2,0:0:0:0:
448,192,40351,1,0,0:0:0:50:Hat Open.wav
64,192,40538,1,2,0:0:0:0:
192,192,40538,128,0,40632:0:0:0:0:
320,192,40538,1,0,0:0:0:0:
192,192,40726,128,0,41101:0:0:0:0:
64,192,41288,128,0,41382:0:0:0:0:
64,192,41476,128,8,41851:0:0:0:0:
320,192,41663,1,2,0:0:0:0:
448,192,41663,1,0,0:0:0:0:
320,192,42038,1,0,0:0:0:0:
192,192,42038,1,2,0:0:0:0:
64,192,42226,128,2,42319:0:0:0:0:
192,192,42226,1,0,0:0:0:0:
320,192,42226,1,0,0:0:0:0:
192,192,42413,128,0,42507:0:0:0:0:
320,192,42601,128,0,42694:0:0:0:0:
64,192,42788,1,2,0:0:0:0:
192,192,42788,1,0,0:0:0:0:
448,192,42788,128,0,42976:0:0:0:0:
320,192,42976,1,8,0:0:0:0:
64,192,43351,1,2,0:0:0:0:
192,192,43351,1,0,0:0:0:0:
448,192,43351,128,0,43444:0:0:0:0:
320,192,43538,128,0,43632:0:0:0:0:
192,192,43726,128,0,43819:0:0:0:0:
64,192,43913,128,0,44101:0:0:0:0:
64,192,44288,128,0,44382:0:0:0:0:
192,192,44476,128,2,44569:0:0:0:0:
320,192,44476,1,0,0:0:0:50:Clap.wav
448,192,44476,1,0,0:0:0:0:
320,192,44663,128,0,44757:0:0:0:0:
448,192,44851,128,0,45038:0:0:0:0:
64,192,45038,1,0,0:0:0:0:
192,192,45038,1,0,0:0:0:0:
64,192,45226,128,2,45601:0:0:0:0:
192,192,45226,128,0,45601:0:0:0:0:
448,192,45226,1,0,0:0:0:0:
320,192,45601,1,0,0:0:0:50:Hat Open.wav
448,192,45788,1,0,0:0:0:0:
320,192,45882,1,0,0:0:0:0:
448,192,45976,1,0,0:0:0:0:
64,192,45976,128,2,46351:0:0:0:0:
192,192,45976,128,0,46351:0:0:0:0:
320,192,46351,1,0,0:0:0:50:Hat Open.wav
192,192,46538,1,0,0:0:0:0:
320,192,46632,1,0,0:0:0:0:
64,192,46726,1,2,0:0:0:0:
448,192,46726,1,0,0:0:0:0:
192,192,46819,1,0,0:0:0:0:
320,192,46913,1,0,0:0:0:0:
192,192,47007,1,0,0:0:0:0:
320,192,47101,1,2,0:0:0:0:
448,192,47101,1,0,0:0:0:50:Hat Open.wav
64,192,47194,1,0,0:0:0:0:
192,192,47288,1,0,0:0:0:0:
320,192,47382,1,0,0:0:0:0:
64,192,47476,1,2,0:0:0:0:
448,192,47476,1,0,0:0:0:0:
192,192,47569,1,0,0:0:0:0:
320,192,47663,1,0,0:0:0:0:
64,192,47757,1,2,0:0:0:0:
320,192,47851,1,2,0:0:0:0:
448,192,47851,1,0,0:0:0:50:Hat Open.wav
64,192,48038,1,0,0:0:0:0:
448,192,48038,1,0,0:0:0:0:
64,192,48226,1,2,0:0:0:0:
192,192,48226,1,4,0:0:0:0:
320,192,48226,1,0,0:0:0:0:
192,192,48413,1,0,0:0:0:0:
448,192,48601,1,0,0:0:0:50:Hat Open.wav
64,192,48601,1,2,0:0:0:0:
320,192,48601,1,8,0:0:0:0:
320,192,48788,1,0,0:0:0:0:
64,192,48976,1,2,0:0:0:0:
192,192,48976,1,0,0:0:0:0:
448,192,48976,1,0,0:0:0:0:
320,192,49163,1,0,0:0:0:0:
64,192,49257,1,2,0:0:0:0:
192,192,49257,1,0,0:0:0:0:
448,192,49351,1,8,0:0:0:0:
448,192,49538,1,0,0:0:0:0:
64,192,49538,1,2,0:0:0:0:
320,192,49538,1,0,0:0:0:0:
320,192,49726,1,0,0:0:0:0:
192,192,49726,1,0,0:0:0:0:
64,192,49726,1,2,0:0:0:0:
448,192,49913,1,0,0:0:0:0:
64,192,50101,1,8,0:0:0:0:
320,192,50101,1,2,0:0:0:0:
448,192,50101,1,0,0:0:0:50:Hat Open.wav
192,192,50288,1,0,0:0:0:0:
320,192,50476,1,0,0:0:0:0:
64,192,50476,1,2,0:0:0:0:
192,192,50476,1,0,0:0:0:0:
448,192,50663,1,0,0:0:0:0:
192,192,50757,1,0,0:0:0:0:
64,192,50757,1,2,0:0:0:0:
320,192,50851,1,8,0:0:0:0:
192,192,51038,1,0,0:0:0:0:
64,192,51038,1,2,0:0:0:0:
448,192,51038,1,0,0:0:0:0:
320,192,51226,1,0,0:0:0:0:
64,192,51226,1,2,0:0:0:0:
448,192,51226,1,0,0:0:0:0:
192,192,51413,1,0,0:0:0:0:
192,192,51601,1,8,0:0:0:0:
320,192,51601,1,2,0:0:0:0:
448,192,51601,1,0,0:0:0:50:Hat Open.wav
320,192,51788,1,0,0:0:0:0:
64,192,51976,1,2,0:0:0:0:
192,192,51976,1,0,0:0:0:0:
448,192,51976,1,0,0:0:0:0:
64,192,52163,1,0,0:0:0:0:
320,192,52257,1,2,0:0:0:0:
448,192,52257,1,0,0:0:0:0:
192,192,52351,1,8,0:0:0:0:
64,192,52538,1,2,0:0:0:0:
192,192,52538,1,0,0:0:0:0:
448,192,52538,1,0,0:0:0:0:
448,192,52726,1,0,0:0:0:0:
64,192,52726,1,2,0:0:0:0:
320,192,52726,1,0,0:0:0:0:
320,192,52913,1,0,0:0:0:0:
64,192,53101,1,8,0:0:0:0:
192,192,53101,1,2,0:0:0:0:
448,192,53101,1,0,0:0:0:50:Hat Open.wav
192,192,53288,1,0,0:0:0:0:
448,192,53476,1,0,0:0:0:0:
64,192,53569,1,0,0:0:0:0:
448,192,53663,1,0,0:0:0:0:
192,192,53851,1,0,0:0:0:0:
320,192,53944,1,0,0:0:0:0:
192,192,54038,1,0,0:0:0:0:
320,192,54132,1,0,0:0:0:0:
448,192,54226,1,0,0:0:0:0:
64,192,54226,1,2,0:0:0:0:
192,192,54226,1,4,0:0:0:0:
64,192,54413,1,0,0:0:0:0:
192,192,54601,1,8,0:0:0:0:
320,192,54601,1,2,0:0:0:0:
448,192,54601,1,0,0:0:0:50:Hat Open.wav
320,192,54788,1,0,0:0:0:0:
64,192,54976,1,2,0:0:0:0:
192,192,54976,1,0,0:0:0:0:
448,192,54976,1,0,0:0:0:0:
320,192,55163,1,0,0:0:0:0:
64,192,55257,1,2,0:0:0:0:
192,192,55257,1,0,0:0:0:0:
448,192,55351,1,8,0:0:0:0:
448,192,55538,1,0,0:0:0:0:
64,192,55538,1,2,0:0:0:0:
320,192,55538,1,0,0:0:0:0:
64,192,55726,1,2,0:0:0:0:
192,192,55726,1,0,0:0:0:0:
320,192,55726,1,0,0:0:0:0:
192,192,55913,1,0,0:0:0:0:
64,192,56101,1,8,0:0:0:0:
320,192,56101,1,2,0:0:0:0:
448,192,56101,1,0,0:0:0:50:Hat Open.wav
320,192,56288,1,0,0:0:0:0:
192,192,56476,1,0,0:0:0:0:
448,192,56476,1,0,0:0:0:0:
64,192,56476,1,2,0:0:0:0:
192,192,56663,1,0,0:0:0:0:
448,192,56757,1,0,0:0:0:0:
320,192,56757,1,2,0:0:0:0:
64,192,56851,1,8,0:0:0:0:
192,192,57038,1,2,0:0:0:0:
320,192,57038,1,0,0:0:0:0:
448,192,57038,1,0,0:0:0:0:
64,192,57226,1,2,0:0:0:0:
192,192,57226,128,0,57601:0:0:0:0:
448,192,57226,1,0,0:0:0:0:
320,192,57413,1,0,0:0:0:0:
64,192,57601,1,2,0:0:0:0:
320,192,57601,1,8,0:0:0:0:
448,192,57601,1,0,0:0:0:50:Hat Open.wav
192,192,57788,1,0,0:0:0:0:
448,192,57976,1,0,0:0:0:0:
192,192,57976,128,0,58351:0:0:0:0:
64,192,57976,1,2,0:0:0:0:
320,192,58163,1,2,0:0:0:0:
448,192,58163,1,0,0:0:0:0:
64,192,58351,1,10,0:0:0:0:
320,192,58351,1,0,0:0:0:50:Hat Open.wav
192,192,58538,1,2,0:0:0:0:
448,192,58538,1,0,0:0:0:0:
320,192,58632,1,0,0:0:0:0:
64,192,58726,1,2,0:0:0:0:
192,192,58819,1,2,0:0:0:0:
320,192,58913,1,2,0:0:0:0:
448,192,59007,1,2,0:0:0:0:
64,192,59101,1,2,0:0:0:0:
192,192,59194,1,2,0:0:0:0:
320,192,59288,1,2,0:0:0:0:
448,192,59382,1,2,0:0:0:0:
64,192,59476,1,2,0:0:0:0:
192,192,59569,1,2,0:0:0:0:
320,192,59663,1,2,0:0:0:0:
448,192,59757,1,2,0:0:0:0:
192,192,59851,1,0,0:0:0:0:
64,192,59944,128,0,60226:0:0:0:0:
192,192,60226,128,2,60413:0:0:0:0:
320,192,60226,1,4,0:0:0:0:
448,192,60226,1,0,0:0:0:0:
320,192,60413,128,0,60601:0:0:0:0:
448,192,60601,1,8,0:0:0:0:
64,192,60788,128,0,60976:0:0:0:0:
192,192,60976,128,0,61163:0:0:0:0:
320,192,61163,128,0,61351:0:0:0:0:
448,192,61351,1,8,0:0:0:0:
64,192,61538,128,0,61726:0:0:0:0:
192,192,61726,128,0,61913:0:0:0:0:
320,192,61913,128,0,62101:0:0:0:0:
64,192,62101,1,8,0:0:0:0:
448,192,62288,128,0,62663:0:0:0:0:
64,192,62663,128,2,62851:0:0:0:0:
192,192,62663,1,0,0:0:0:0:
320,192,62851,128,8,63038:0:0:0:0:
64,192,63038,1,2,0:0:0:0:
192,192,63038,128,0,63226:0:0:0:0:
320,192,63226,1,2,0:0:0:0:
448,192,63226,128,0,63413:0:0:0:0:
64,192,63601,1,8,0:0:0:0:
448,192,63601,128,0,63788:0:0:0:0:
64,192,63976,128,0,64163:0:0:0:0:
320,192,64163,128,0,64351:0:0:0:0:
448,192,64351,1,0,0:0:0:0:
192,192,64351,128,8,64538:0:0:0:0:
64,192,64538,128,0,64726:0:0:0:0:
448,192,64726,128,0,65101:0:0:0:0:
320,192,64913,128,0,65288:0:0:0:0:
64,192,65101,1,8,0:0:0:0:
192,192,65101,128,0,65476:0:0:0:0:
448,192,65288,128,0,65476:0:0:0:0:
320,192,65476,128,0,65663:0:0:0:0:
64,192,65663,1,8,0:0:0:0:
448,192,65663,1,0,0:0:0:0:
64,192,65851,1,8,0:0:0:0:
448,192,65851,1,0,0:0:0:0:
64,192,66226,1,2,0:0:0:0:
192,192,66226,1,4,0:0:0:0:
448,192,66226,1,0,0:0:0:0:
320,192,66413,1,0,0:0:0:0:
192,192,66601,1,8,0:0:0:0:
320,192,66601,1,2,0:0:0:0:
448,192,66601,1,0,0:0:0:50:Hat Open.wav
64,192,66788,1,0,0:0:0:0:
320,192,66882,1,0,0:0:0:0:
64,192,66976,1,2,0:0:0:0:
192,192,66976,1,0,0:0:0:0:
448,192,66976,1,0,0:0:0:0:
320,192,67163,1,0,0:0:0:0:
64,192,67257,1,2,0:0:0:0:
192,192,67257,1,0,0:0:0:0:
448,192,67351,1,8,0:0:0:0:
64,192,67538,1,2,0:0:0:0:
320,192,67538,1,0,0:0:0:0:
192,192,67632,1,0,0:0:0:0:
448,192,67726,1,0,0:0:0:0:
320,192,67726,1,2,0:0:0:0:
192,192,67913,1,0,0:0:0:0:
64,192,68101,1,2,0:0:0:0:
320,192,68101,1,8,0:0:0:0:
448,192,68101,1,0,0:0:0:50:Hat Open.wav
192,192,68288,1,0,0:0:0:0:
320,192,68382,1,0,0:0:0:0:
64,192,68476,1,2,0:0:0:0:
448,192,68476,1,0,0:0:0:0:
192,192,68663,1,0,0:0:0:0:
320,192,68757,1,2,0:0:0:0:
448,192,68757,1,0,0:0:0:0:
64,192,68851,1,8,0:0:0:0:
320,192,69038,1,2,0:0:0:0:
448,192,69038,1,0,0:0:0:0:
192,192,69226,1,0,0:0:0:0:
64,192,69226,1,2,0:0:0:0:
320,192,69319,1,0,0:0:0:0:
64,192,69413,1,2,0:0:0:0:
448,192,69507,1,0,0:0:0:0:
192,192,69601,1,10,0:0:0:0:
320,192,69601,1,0,0:0:0:50:Hat Open.wav
64,192,69694,1,0,0:0:0:0:
320,192,69788,1,2,0:0:0:0:
448,192,69882,1,0,0:0:0:0:
64,192,69976,1,2,0:0:0:0:
192,192,69976,1,0,0:0:0:0:
320,192,70069,1,0,0:0:0:0:
192,192,70163,1,2,0:0:0:0:
64,192,70257,1,0,0:0:0:0:
448,192,70351,1,0,0:0:0:50:Hat Open.wav
320,192,70351,1,10,0:0:0:0:
192,192,70444,1,0,0:0:0:0:
64,192,70538,1,2,0:0:0:0:
320,192,70538,1,0,0:0:0:0:
64,192,70726,128,2,71476:0:0:0:0:
192,192,70726,1,0,0:0:0:0:
448,192,70726,1,0,0:0:0:0:
64,192,72226,128,2,72413:0:0:0:0:
320,192,72226,1,0,0:0:0:0:
448,192,72226,128,0,72413:0:0:0:0:
192,192,72413,128,0,72601:0:0:0:0:
320,192,72507,128,0,72694:0:0:0:0:
448,192,72601,128,0,72788:0:0:0:0:
64,192,72788,128,0,72976:0:0:0:0:
192,192,72788,128,0,72976:0:0:0:0:
448,192,72976,128,0,73163:0:0:0:50:Hat Open.wav
320,192,72976,128,8,73163:0:0:0:0:
64,192,73351,128,2,73538:0:0:0:0:
192,192,73351,128,0,73538:0:0:0:0:
448,192,73538,128,0,73726:0:0:0:0:
64,192,73726,128,0,73913:0:0:0:0:
320,192,73726,128,0,73913:0:0:0:0:
448,192,73913,128,0,74101:0:0:0:0:
192,192,74007,128,0,74194:0:0:0:0:
64,192,74101,1,2,0:0:0:0:
320,192,74101,128,0,74288:0:0:0:50:Hat Open.wav
64,192,74288,128,0,74382:0:0:0:0:
448,192,74288,128,0,74476:0:0:0:0:
192,192,74476,128,8,74663:0:0:0:0:
320,192,74476,128,0,74663:0:0:0:0:
448,192,74851,128,0,75038:0:0:0:0:
192,192,74851,128,0,75038:0:0:0:0:
64,192,75038,128,0,75226:0:0:0:0:
320,192,75038,128,0,75226:0:0:0:0:
192,192,75226,128,2,75413:0:0:0:0:
448,192,75226,128,0,75601:0:0:0:0:
64,192,75413,128,0,75601:0:0:0:0:
320,192,75601,128,0,75788:0:0:0:0:
192,192,75788,128,0,75976:0:0:0:0:
64,192,75976,1,8,0:0:0:0:
448,192,75976,128,0,76351:0:0:0:50:Hat Open.wav
192,192,76163,128,0,76351:0:0:0:0:
64,192,76351,1,2,0:0:0:0:
320,192,76351,1,0,0:0:0:0:
448,192,76538,128,0,76726:0:0:0:0:
320,192,76538,128,0,76726:0:0:0:0:
64,192,76726,128,0,77101:0:0:0:0:
192,192,76913,128,0,77101:0:0:0:0:
320,192,77101,1,2,0:0:0:0:
448,192,77101,128,0,77288:0:0:0:50:Hat Open.wav
192,192,77288,128,0,77382:0:0:0:0:
320,192,77288,128,0,77476:0:0:0:0:
64,192,77476,128,8,77663:0:0:0:0:
448,192,77476,128,0,77851:0:0:0:0:
192,192,77663,128,0,77851:0:0:0:0:
320,192,77851,128,0,78038:0:0:0:0:
64,192,78038,1,0,0:0:0:0:
448,192,78038,128,0,78226:0:0:0:0:
192,192,78132,1,0,0:0:0:0:
320,192,78226,1,0,0:0:0:0:
64,192,78319,1,0,0:0:0:0:
192,192,78413,1,0,0:0:0:0:
320,192,78507,1,0,0:0:0:0:
448,192,78601,1,0,0:0:0:30:Snare3.wav
64,192,78694,1,0,0:0:0:0:
192,192,78788,1,0,0:0:0:30:Snare3.wav
320,192,78788,1,0,0:0:0:0:
64,192,78976,1,0,0:0:0:30:Snare3.wav
448,192,78976,1,0,0:0:0:0:
64,192,79351,128,2,79538:0:0:0:0:
320,192,79351,1,0,0:0:0:0:
448,192,79351,1,0,0:0:0:0:
192,192,79444,1,0,0:0:0:0:
320,192,79538,1,0,0:0:0:0:
192,192,79726,128,0,79913:0:0:0:0:
448,192,79913,1,0,0:0:0:0:
320,192,80007,128,0,80194:0:0:0:0:
448,192,80101,1,0,0:0:0:0:
64,192,80101,1,2,0:0:0:0:
192,192,80101,1,0,0:0:0:50:Hat Open.wav
64,192,80288,128,0,80476:0:0:0:0:
192,192,80476,128,8,80663:0:0:0:0:
448,192,80476,1,0,0:0:0:0:
320,192,80569,1,0,0:0:0:0:
64,192,80663,1,0,0:0:0:0:
192,192,80757,1,0,0:0:0:0:
448,192,80851,128,0,81038:0:0:0:0:
64,192,80944,1,0,0:0:0:0:
192,192,81038,1,0,0:0:0:0:
320,192,81132,1,0,0:0:0:0:
448,192,81226,1,0,0:0:0:0:
64,192,81226,128,2,81413:0:0:0:0:
192,192,81319,1,0,0:0:0:0:
320,192,81413,1,0,0:0:0:0:
64,192,81601,128,2,81788:0:0:0:0:
448,192,81601,1,0,0:0:0:0:
320,192,81694,1,0,0:0:0:0:
192,192,81788,1,0,0:0:0:0:
64,192,81976,1,2,0:0:0:0:
320,192,81976,1,0,0:0:0:50:Hat Open.wav
448,192,81976,128,0,82163:0:0:0:0:
192,192,82163,1,0,0:0:0:0:
64,192,82351,1,2,0:0:0:0:
448,192,82351,128,0,82538:0:0:0:0:
192,192,82444,1,0,0:0:0:0:
320,192,82538,1,0,0:0:0:0:
64,192,82726,1,2,0:0:0:0:
192,192,82726,1,0,0:0:0:0:
448,192,82726,1,0,0:0:0:0:
320,192,82913,1,0,0:0:0:0:
192,192,82913,1,2,0:0:0:0:
64,192,83101,128,2,83288:0:0:0:0:
320,192,83101,1,0,0:0:0:0:
192,192,83288,1,2,0:0:0:0:
448,192,83288,1,0,0:0:0:0:
320,192,83382,1,0,0:0:0:0:
64,192,83476,128,2,83663:0:0:0:0:
192,192,83569,1,0,0:0:0:0:
320,192,83663,1,0,0:0:0:0:
448,192,83757,1,0,0:0:0:0:
64,192,83851,128,0,84101:0:0:0:0:
192,192,83851,128,0,83976:0:0:0:0:
448,192,83976,128,0,84226:0:0:0:0:
320,192,84101,128,0,84226:0:0:0:0:
192,192,84226,1,4,0:0:0:0:
64,192,84226,1,2,0:0:0:0:
320,192,84319,1,0,0:0:0:0:
448,192,84413,1,0,0:0:0:0:
64,192,84507,1,0,0:0:0:0:
192,192,84507,1,0,0:0:0:0:
320,192,84601,1,2,0:0:0:0:
448,192,84601,1,0,0:0:0:50:Hat Open.wav
192,192,84694,1,0,0:0:0:0:
64,192,84788,1,0,0:0:0:0:
320,192,84788,1,0,0:0:0:0:
192,192,84976,1,2,0:0:0:0:
448,192,84976,1,0,0:0:0:0:
320,192,85069,1,0,0:0:0:0:
192,192,85257,1,0,0:0:0:0:
64,192,85257,1,2,0:0:0:0:
320,192,85351,1,0,0:0:0:50:Hat Open.wav
448,192,85351,1,0,0:0:0:40:Snare2.wav
192,192,85538,1,2,0:0:0:0:
448,192,85538,1,0,0:0:0:0:
64,192,85726,1,2,0:0:0:0:
320,192,85726,1,0,0:0:0:0:
192,192,85913,1,0,0:0:0:0:
320,192,86007,1,0,0:0:0:0:
448,192,86007,1,0,0:0:0:0:
64,192,86101,1,2,0:0:0:0:
192,192,86101,1,0,0:0:0:50:Hat Open.wav
448,192,86288,1,0,0:0:0:0:
192,192,86288,1,0,0:0:0:0:
320,192,86382,1,0,0:0:0:0:
448,192,86476,1,0,0:0:0:0:
64,192,86476,1,2,0:0:0:0:
192,192,86569,1,0,0:0:0:0:
320,192,86569,1,0,0:0:0:0:
64,192,86757,1,2,0:0:0:0:
192,192,86757,1,0,0:0:0:0:
320,192,86851,1,0,0:0:0:50:Hat Open.wav
448,192,86851,1,0,0:0:0:40:Snare2.wav
192,192,87038,1,2,0:0:0:0:
320,192,87038,1,0,0:0:0:0:
64,192,87226,1,2,0:0:0:0:
192,192,87226,1,0,0:0:0:0:
448,192,87226,1,0,0:0:0:0:
320,192,87413,1,0,0:0:0:0:
448,192,87601,1,0,0:0:0:40:Snare2.wav
320,192,87601,1,0,0:0:0:50:Hat Open.wav
64,192,87601,1,2,0:0:0:0:
64,192,87788,1,0,0:0:0:0:
192,192,87788,1,0,0:0:0:0:
320,192,87882,1,0,0:0:0:0:
64,192,87976,1,2,0:0:0:0:
448,192,87976,1,0,0:0:0:0:
192,192,88163,1,0,0:0:0:0:
320,192,88257,1,2,0:0:0:0:
448,192,88257,1,0,0:0:0:0:
64,192,88351,1,0,0:0:0:50:Hat Open.wav
320,192,88444,1,0,0:0:0:0:
64,192,88538,1,2,0:0:0:0:
448,192,88538,1,0,0:0:0:0:
192,192,88632,1,0,0:0:0:0:
320,192,88726,1,2,0:0:0:0:
448,192,88726,1,0,0:0:0:0:
320,192,88913,1,0,0:0:0:0:
64,192,88913,1,0,0:0:0:0:
448,192,89007,1,0,0:0:0:0:
64,192,89101,1,2,0:0:0:0:
192,192,89101,1,0,0:0:0:50:Hat Open.wav
320,192,89288,1,0,0:0:0:0:
448,192,89382,1,0,0:0:0:0:
64,192,89476,128,0,89569:0:0:0:30:Snare3.wav
320,192,89569,128,0,89757:0:0:0:30:Snare3.wav
192,192,89663,128,0,89851:0:0:0:30:Snare3.wav
64,192,89757,128,0,89851:0:0:0:30:Snare3.wav
448,192,89851,128,0,90038:0:0:0:30:Snare3.wav
320,192,89944,128,0,90132:0:0:0:0:
192,192,90038,128,0,90226:0:0:0:30:Snare3.wav
64,192,90132,128,0,90226:0:0:0:30:Snare3.wav
448,192,90226,1,4,0:0:0:0:
320,192,90226,1,2,0:0:0:0:
192,192,90319,1,0,0:0:0:0:
64,192,90413,1,0,0:0:0:50:Hat Open.wav
448,192,90507,1,0,0:0:0:0:
64,192,90601,1,2,0:0:0:0:
192,192,90601,1,0,0:0:0:40:Snare2.wav
320,192,90694,1,0,0:0:0:0:
448,192,90788,1,0,0:0:0:50:Hat Open.wav
64,192,90976,1,2,0:0:0:0:
320,192,90976,1,0,0:0:0:0:
192,192,91069,1,0,0:0:0:0:
320,192,91257,1,0,0:0:0:0:
448,192,91257,1,0,0:0:0:0:
64,192,91351,1,2,0:0:0:0:
192,192,91351,1,0,0:0:0:40:Snare2.wav
320,192,91538,1,0,0:0:0:0:
64,192,91538,1,0,0:0:0:50:Hat Open.wav
192,192,91726,1,2,0:0:0:0:
448,192,91726,1,0,0:0:0:0:
64,192,91913,1,0,0:0:0:50:Hat Open.wav
320,192,92007,1,0,0:0:0:0:
448,192,92007,1,0,0:0:0:0:
64,192,92101,1,2,0:0:0:0:
192,192,92101,1,0,0:0:0:40:Snare2.wav
320,192,92288,1,0,0:0:0:50:Hat Open.wav
448,192,92288,1,0,0:0:0:0:
192,192,92382,1,0,0:0:0:0:
64,192,92476,1,2,0:0:0:0:
448,192,92476,1,0,0:0:0:0:
320,192,92569,1,0,0:0:0:0:
192,192,92569,1,0,0:0:0:0:
448,192,92757,1,0,0:0:0:0:
320,192,92757,1,0,0:0:0:0:
64,192,92851,1,2,0:0:0:0:
192,192,92851,1,0,0:0:0:40:Snare2.wav
192,192,93038,1,0,0:0:0:50:Hat Open.wav
320,192,93038,1,0,0:0:0:0:
64,192,93226,1,2,0:0:0:0:
448,192,93226,128,0,93507:0:0:0:0:
320,192,93319,1,0,0:0:0:0:
192,192,93413,1,0,0:0:0:50:Hat Open.wav
64,192,93507,1,0,0:0:0:0:
320,192,93601,1,2,0:0:0:0:
448,192,93601,128,0,93882:0:0:0:40:Snare2.wav
192,192,93694,1,0,0:0:0:0:
64,192,93788,1,0,0:0:0:50:Hat Open.wav
320,192,93882,1,0,0:0:0:0:
192,192,93976,1,0,0:0:0:0:
64,192,93976,128,2,94257:0:0:0:0:
448,192,94069,1,0,0:0:0:0:
192,192,94163,1,0,0:0:0:50:Hat Open.wav
320,192,94257,1,0,0:0:0:0:
64,192,94351,128,2,94632:0:0:0:0:
448,192,94351,1,0,0:0:0:40:Snare2.wav
192,192,94444,1,0,0:0:0:0:
320,192,94538,1,0,0:0:0:50:Hat Open.wav
192,192,94632,1,0,0:0:0:0:
64,192,94726,1,2,0:0:0:0:
448,192,94726,1,0,0:0:0:0:
320,192,94819,1,0,0:0:0:0:
64,192,94913,128,0,95101:0:0:0:0:
192,192,95007,1,0,0:0:0:0:
448,192,95101,1,0,0:0:0:50:Hat Open.wav
320,192,95101,1,2,0:0:0:0:
192,192,95194,1,0,0:0:0:0:
320,192,95288,128,0,95476:0:0:0:0:
448,192,95382,1,0,0:0:0:0:
64,192,95476,128,2,95757:0:0:0:0:
192,192,95476,1,0,0:0:0:0:
448,192,95569,1,0,0:0:0:50:Hat Open.wav
320,192,95663,1,0,0:0:0:0:
192,192,95757,128,0,95851:0:0:0:0:
320,192,95851,1,2,0:0:0:0:
448,192,95851,1,0,0:0:0:50:Hat Open.wav
192,192,96038,128,0,96226:0:0:0:50:Hat Open.wav
320,192,96226,1,0,0:0:0:0:
64,192,96226,128,2,96413:0:0:0:0:
448,192,96226,128,0,98101:0:0:0:0:
320,192,96601,128,0,96788:0:0:0:0:
64,192,96788,1,0,0:0:0:0:
192,192,96976,128,0,97163:0:0:0:50:Finger.wav
320,192,96976,1,0,0:0:0:0:
320,192,97351,1,0,0:0:0:0:
192,192,97444,1,0,0:0:0:0:
320,192,97538,128,0,97726:0:0:0:0:
64,192,97726,1,0,0:0:0:0:
192,192,97819,1,0,0:0:0:0:
64,192,97913,128,0,98101:0:0:0:0:
192,192,98288,128,0,98476:0:0:0:0:
64,192,98476,1,0,0:0:0:50:Finger.wav
448,192,98476,1,0,0:0:0:0:
320,192,98569,1,0,0:0:0:0:
192,192,98663,1,0,0:0:0:0:
64,192,98757,1,0,0:0:0:0:
448,192,98851,1,0,0:0:0:0:
320,192,98944,1,0,0:0:0:0:
192,192,99038,1,0,0:0:0:0:
64,192,99132,1,0,0:0:0:0:
448,192,99226,128,0,99413:0:0:0:0:
192,192,99601,128,0,99788:0:0:0:0:
64,192,99976,1,0,0:0:0:50:Finger.wav
320,192,99976,128,0,100163:0:0:0:0:
320,192,100351,1,0,0:0:0:0:
448,192,100444,1,0,0:0:0:0:
192,192,100538,1,0,0:0:0:0:
64,192,100632,1,0,0:0:0:0:
320,192,100726,1,0,0:0:0:0:
448,192,100726,128,0,101382:0:0:0:0:
192,192,100819,1,0,0:0:0:0:
64,192,100913,1,0,0:0:0:0:
192,192,101007,1,0,0:0:0:0:
320,192,101101,128,0,101382:0:0:0:0:
64,192,101194,1,0,0:0:0:0:
192,192,101288,1,0,0:0:0:0:
64,192,101382,1,0,0:0:0:0:
320,192,101476,1,0,0:0:0:50:Clap.wav
448,192,101476,1,0,0:0:0:0:
192,192,101569,1,0,0:0:0:0:
320,192,101663,1,0,0:0:0:0:
448,192,101757,1,0,0:0:0:0:
64,192,101851,1,0,0:0:0:0:
192,192,101944,1,0,0:0:0:0:
320,192,102038,1,0,0:0:0:0:
448,192,102132,1,0,0:0:0:0:
192,192,102226,1,0,0:0:0:0:
64,192,102226,1,2,0:0:0:0:
320,192,102413,1,0,0:0:0:0:
64,192,102601,1,0,0:0:0:0:
192,192,102788,1,2,0:0:0:0:
448,192,102788,1,0,0:0:0:0:
320,192,102882,1,0,0:0:0:0:
64,192,102976,1,8,0:0:0:0:
192,192,102976,1,0,0:0:0:50:Hat Open.wav
320,192,103163,1,0,0:0:0:0:
64,192,103351,1,2,0:0:0:0:
448,192,103351,1,0,0:0:0:0:
192,192,103538,1,0,0:0:0:0:
320,192,103726,1,0,0:0:0:0:
64,192,103913,1,0,0:0:0:0:
448,192,104101,1,0,0:0:0:0:
320,192,104194,1,0,0:0:0:0:
64,192,104288,1,0,0:0:0:0:
192,192,104351,1,0,0:0:0:0:
320,192,104413,1,0,0:0:0:0:
64,192,104476,1,2,0:0:0:0:
448,192,104476,1,0,0:0:0:50:Clap.wav
192,192,104663,1,0,0:0:0:0:
320,192,104851,1,0,0:0:0:0:
192,192,105038,1,0,0:0:0:0:
64,192,105226,128,2,105601:0:0:0:0:
448,192,105226,128,0,105601:0:0:0:0:
192,192,105601,1,0,0:0:0:50:Hat Open.wav
320,192,105601,1,0,0:0:0:0:
448,192,105788,1,0,0:0:0:0:
320,192,105976,128,2,106351:0:0:0:0:
448,192,105976,128,0,106351:0:0:0:0:
192,192,106351,1,0,0:0:0:0:
64,192,106351,1,0,0:0:0:50:Hat Open.wav
448,192,106538,1,0,0:0:0:0:
192,192,106726,128,2,107101:0:0:0:0:
448,192,106726,128,0,107101:0:0:0:0:
64,192,107101,128,10,107476:0:0:0:0:
320,192,107101,128,0,107476:0:0:0:50:Hat Open.wav
192,192,107476,128,2,108226:0:0:0:0:
448,192,107476,1,0,0:0:0:0:
320,192,107757,1,2,0:0:0:0:
448,192,107757,1,0,0:0:0:0:
64,192,107851,128,8,108226:0:0:0:0:
320,192,108038,1,0,0:0:0:0:
320,192,108226,1,2,0:0:0:0:
448,192,108226,128,0,108976:0:0:0:0:
192,192,108413,1,0,0:0:0:0:
320,192,108601,1,8,0:0:0:0:
64,192,108788,1,2,0:0:0:0:
192,192,108788,1,0,0:0:0:0:
64,192,108976,1,2,0:0:0:0:
192,192,108976,1,0,0:0:0:0:
320,192,109351,1,8,0:0:0:0:
448,192,109351,1,0,0:0:0:50:Hat Open.wav
64,192,109726,1,2,0:0:0:0:
192,192,109726,128,0,110101:0:0:0:0:
320,192,110101,1,8,0:0:0:0:
448,192,110101,1,0,0:0:0:50:Hat Open.wav
64,192,110288,1,2,0:0:0:0:
192,192,110288,1,0,0:0:0:0:
64,192,110476,1,2,0:0:0:0:
448,192,110476,128,0,110851:0:0:0:0:
192,192,110569,1,0,0:0:0:0:
320,192,110663,1,8,0:0:0:0:
64,192,110757,1,0,0:0:0:0:
192,192,110851,1,8,0:0:0:0:
320,192,110944,1,0,0:0:0:0:
192,192,111038,1,0,0:0:0:0:
64,192,111132,1,0,0:0:0:0:
320,192,111226,128,2,111601:0:0:0:0:
448,192,111226,1,0,0:0:0:0:
192,192,111601,1,8,0:0:0:0:
448,192,111601,1,0,0:0:0:50:Hat Open.wav
64,192,111788,1,2,0:0:0:0:
320,192,111788,1,0,0:0:0:0:
64,192,111976,128,2,112351:0:0:0:0:
320,192,111976,1,0,0:0:0:0:
448,192,112351,1,0,0:0:0:50:Hat Open.wav
320,192,112351,1,8,0:0:0:0:
192,192,112538,1,0,0:0:0:0:
192,192,112726,128,2,113101:0:0:0:0:
320,192,112726,1,0,0:0:0:0:
64,192,113101,1,8,0:0:0:0:
448,192,113101,1,0,0:0:0:50:Hat Open.wav
320,192,113288,1,2,0:0:0:0:
448,192,113288,1,0,0:0:0:0:
64,192,113476,128,0,113569:0:0:0:0:
192,192,113663,128,0,113757:0:0:0:0:
320,192,113851,128,0,113944:0:0:0:0:
448,192,114038,128,0,114132:0:0:0:0:
320,192,114226,1,0,0:0:0:0:
64,192,114226,1,2,0:0:0:0:
192,192,114226,1,4,0:0:0:0:
192,192,114413,1,0,0:0:0:0:
64,192,114601,1,2,0:0:0:0:
320,192,114601,1,8,0:0:0:0:
448,192,114601,1,0,0:0:0:50:Hat Open.wav
192,192,114788,1,0,0:0:0:0:
320,192,114882,1,0,0:0:0:0:
64,192,114976,1,2,0:0:0:0:
192,192,114976,1,0,0:0:0:0:
448,192,114976,1,0,0:0:0:0:
320,192,115163,1,0,0:0:0:0:
64,192,115257,1,2,0:0:0:0:
192,192,115257,1,0,0:0:0:0:
320,192,115351,1,8,0:0:0:0:
448,192,115351,1,0,0:0:0:50:Hat Open.wav
192,192,115538,1,0,0:0:0:0:
64,192,115538,1,2,0:0:0:0:
448,192,115726,1,0,0:0:0:0:
320,192,115726,1,0,0:0:0:0:
192,192,115726,1,2,0:0:0:0:
320,192,115913,1,0,0:0:0:0:
64,192,116101,1,8,0:0:0:0:
192,192,116101,1,2,0:0:0:0:
448,192,116101,1,0,0:0:0:50:Hat Open.wav
320,192,116288,1,0,0:0:0:0:
192,192,116382,1,0,0:0:0:0:
64,192,116476,1,2,0:0:0:0:
320,192,116476,1,0,0:0:0:0:
448,192,116476,1,0,0:0:0:0:
192,192,116663,1,0,0:0:0:0:
320,192,116757,1,2,0:0:0:0:
448,192,116757,1,0,0:0:0:0:
64,192,116851,1,8,0:0:0:0:
192,192,116851,1,0,0:0:0:50:Hat Open.wav
448,192,117038,1,0,0:0:0:0:
320,192,117038,1,2,0:0:0:0:
64,192,117226,1,2,0:0:0:0:
192,192,117226,1,0,0:0:0:0:
320,192,117226,1,0,0:0:0:0:
192,192,117413,1,0,0:0:0:0:
64,192,117601,1,2,0:0:0:0:
320,192,117601,1,8,0:0:0:0:
448,192,117601,1,0,0:0:0:50:Hat Open.wav
192,192,117788,1,0,0:0:0:0:
320,192,117882,1,0,0:0:0:0:
64,192,117976,1,2,0:0:0:0:
192,192,117976,1,0,0:0:0:0:
448,192,117976,1,0,0:0:0:0:
320,192,118163,1,0,0:0:0:0:
192,192,118257,1,0,0:0:0:0:
64,192,118257,1,2,0:0:0:0:
320,192,118351,1,8,0:0:0:0:
448,192,118351,1,0,0:0:0:50:Hat Open.wav
64,192,118538,1,2,0:0:0:0:
192,192,118538,1,0,0:0:0:0:
64,192,118726,1,2,0:0:0:25:soft-hitwhistle.wav
320,192,118726,1,0,0:0:0:0:
448,192,118726,1,0,0:0:0:0:
192,192,118819,1,2,0:0:0:25:soft-hitwhistle.wav
320,192,118913,1,2,0:0:0:25:soft-hitwhistle.wav
192,192,119007,1,2,0:0:0:25:soft-hitwhistle.wav
64,192,119101,1,8,0:0:0:0:
448,192,119101,1,0,0:0:0:50:Hat Open.wav
192,192,119194,1,2,0:0:0:25:soft-hitwhistle.wav
320,192,119288,1,2,0:0:0:25:soft-hitwhistle.wav
448,192,119382,1,2,0:0:0:25:soft-hitwhistle.wav
64,192,119476,1,2,0:0:0:25:soft-hitwhistle.wav
192,192,119476,1,0,0:0:0:0:
320,192,119569,1,2,0:0:0:25:soft-hitwhistle.wav
192,192,119663,1,2,0:0:0:25:soft-hitwhistle.wav
64,192,119757,1,2,0:0:0:25:soft-hitwhistle.wav
448,192,119851,1,0,0:0:0:0:
320,192,119944,128,0,120226:0:0:0:0:
64,192,120226,128,2,120601:0:0:0:0:
192,192,120226,1,4,0:0:0:0:
448,192,120226,1,0,0:0:0:0:
192,192,120413,128,0,120601:0:0:0:0:
320,192,120601,1,8,0:0:0:0:
448,192,120788,128,0,120976:0:0:0:0:
64,192,120976,128,8,121351:0:0:0:0:
192,192,121163,128,0,121351:0:0:0:0:
320,192,121351,1,8,0:0:0:0:
448,192,121538,128,0,121726:0:0:0:0:
64,192,121726,128,8,122101:0:0:0:0:
192,192,121913,128,0,122101:0:0:0:0:
320,192,122101,1,8,0:0:0:0:
448,192,122288,128,0,122476:0:0:0:0:
64,192,122476,128,8,122851:0:0:0:0:
192,192,122476,1,0,0:0:0:0:
320,192,122663,128,2,122851:0:0:0:0:
448,192,122663,1,0,0:0:0:0:
192,192,122851,128,8,123038:0:0:0:0:
64,192,123038,1,2,0:0:0:0:
448,192,123038,128,0,123226:0:0:0:0:
320,192,123226,128,2,123413:0:0:0:0:
192,192,123226,1,8,0:0:0:0:
320,192,123601,128,8,123788:0:0:0:0:
448,192,123601,1,0,0:0:0:0:
64,192,123976,1,8,0:0:0:0:
192,192,123976,128,0,124163:0:0:0:0:
320,192,124163,128,0,124351:0:0:0:0:
64,192,124351,1,8,0:0:0:0:
448,192,124351,128,0,124538:0:0:0:0:
192,192,124538,128,0,124726:0:0:0:0:
320,192,124726,128,8,125476:0:0:0:0:
448,192,124726,128,0,124913:0:0:0:0:
64,192,124913,128,0,125101:0:0:0:0:
192,192,125101,128,8,125288:0:0:0:0:
448,192,125101,128,0,125476:0:0:0:0:
64,192,125288,128,0,125476:0:0:0:0:
192,192,125476,1,0,0:0:0:40:Clap.wav
320,192,125663,1,0,0:0:0:0:
448,192,125851,1,0,0:0:0:0:
64,192,126226,1,4,0:0:0:0:
192,192,126226,1,2,0:0:0:0:
320,192,126226,1,0,0:0:0:0:
192,192,126413,1,0,0:0:0:0:
64,192,126601,1,2,0:0:0:0:
320,192,126601,1,8,0:0:0:0:
448,192,126601,1,0,0:0:0:50:Hat Open.wav
192,192,126788,1,0,0:0:0:0:
320,192,126882,1,0,0:0:0:0:
64,192,126976,1,2,0:0:0:0:
448,192,126976,1,0,0:0:0:0:
192,192,127163,1,0,0:0:0:0:
320,192,127257,1,2,0:0:0:0:
448,192,127257,1,0,0:0:0:0:
192,192,127351,1,0,0:0:0:50:Hat Open.wav
64,192,127351,1,8,0:0:0:0:
320,192,127538,1,2,0:0:0:0:
448,192,127538,1,0,0:0:0:0:
192,192,127632,1,0,0:0:0:0:
64,192,127726,1,2,0:0:0:0:
448,192,127726,1,0,0:0:0:0:
320,192,127913,1,0,0:0:0:0:
64,192,128101,1,10,0:0:0:0:
192,192,128101,1,0,0:0:0:50:Hat Open.wav
320,192,128288,1,0,0:0:0:0:
192,192,128382,1,0,0:0:0:0:
64,192,128476,1,2,0:0:0:0:
448,192,128476,1,0,0:0:0:0:
320,192,128569,1,0,0:0:0:0:
192,192,128663,1,0,0:0:0:0:
448,192,128757,1,2,0:0:0:0:
64,192,128851,1,8,0:0:0:0:
192,192,128851,1,0,0:0:0:50:Hat Open.wav
64,192,129038,1,2,0:0:0:0:
448,192,129038,1,0,0:0:0:0:
192,192,129226,1,2,0:0:0:0:
448,192,129226,1,0,0:0:0:0:
320,192,129319,1,0,0:0:0:0:
64,192,129413,1,0,0:0:0:0:
192,192,129507,1,0,0:0:0:0:
320,192,129601,1,10,0:0:0:0:
448,192,129601,1,0,0:0:0:50:Hat Open.wav
64,192,129694,1,0,0:0:0:0:
192,192,129788,1,0,0:0:0:0:
320,192,129882,1,0,0:0:0:0:
448,192,129976,1,0,0:0:0:0:
64,192,129976,1,2,0:0:0:0:
320,192,130069,1,0,0:0:0:0:
192,192,130163,1,0,0:0:0:0:
64,192,130257,1,0,0:0:0:0:
320,192,130351,1,10,0:0:0:0:
448,192,130351,1,0,0:0:0:50:Hat Open.wav
192,192,130538,1,2,0:0:0:0:
448,192,130538,1,0,0:0:0:0:
64,192,130726,1,0,0:0:0:40:Snare1.wav
320,192,130726,1,0,0:0:0:0:
192,192,130913,1,0,0:0:0:40:Snare1.wav
320,192,131007,1,0,0:0:0:40:Snare1.wav
64,192,131101,1,0,0:0:0:40:Snare1.wav
448,192,131101,1,0,0:0:0:0:
192,192,131194,1,0,0:0:0:40:Snare1.wav
320,192,131288,1,0,0:0:0:50:Tom1.wav
192,192,131382,1,0,0:0:0:50:Tom2.wav
448,192,131476,1,0,0:0:0:50:Tom3.wav
64,192,131569,1,0,0:0:0:50:Tom3.wav
448,192,131663,1,2,0:0:0:0:
64,192,131757,1,2,0:0:0:0:
192,192,131851,1,0,0:0:0:40:Snare4.wav
320,192,131851,1,0,0:0:0:0:
448,192,131851,1,0,0:0:0:0:
64,192,132226,128,4,132413:0:0:0:0:
320,192,132226,1,2,0:0:0:0:
448,192,132226,128,0,132413:0:0:0:0:
192,192,132413,128,0,132601:0:0:0:50:Hat Open.wav
320,192,132507,128,0,132694:0:0:0:0:
64,192,132601,1,2,0:0:0:0:
448,192,132601,128,0,132788:0:0:0:40:Snare2.wav
192,192,132788,128,0,132976:0:0:0:0:
64,192,132788,128,0,132976:0:0:0:50:Hat Open.wav
320,192,132976,128,2,133163:0:0:0:0:
448,192,132976,128,0,133163:0:0:0:0:
64,192,133351,128,2,133538:0:0:0:0:
192,192,133351,128,0,133538:0:0:0:40:Snare2.wav
448,192,133538,128,0,133726:0:0:0:50:Hat Open.wav
64,192,133726,128,2,133913:0:0:0:0:
320,192,133726,128,0,133913:0:0:0:0:
448,192,133913,128,0,134101:0:0:0:50:Hat Open.wav
192,192,134007,128,0,134194:0:0:0:0:
64,192,134101,1,2,0:0:0:0:
320,192,134101,128,0,134288:0:0:0:40:Snare2.wav
64,192,134288,128,0,134476:0:0:0:50:Hat Open.wav
448,192,134288,128,0,134382:0:0:0:0:
320,192,134476,128,0,134663:0:0:0:0:
192,192,134476,128,2,134663:0:0:0:0:
192,192,134851,128,2,135038:0:0:0:0:
448,192,134851,128,0,135038:0:0:0:40:Snare2.wav
64,192,135038,128,0,135226:0:0:0:50:Hat Open.wav
320,192,135038,128,0,135226:0:0:0:0:
192,192,135226,128,2,135413:0:0:0:0:
448,192,135226,128,0,135601:0:0:0:0:
64,192,135413,128,0,135601:0:0:0:50:Hat Open.wav
192,192,135601,1,2,0:0:0:0:
320,192,135601,128,0,135788:0:0:0:40:Snare2.wav
192,192,135788,128,0,135976:0:0:0:50:Hat Open.wav
64,192,135976,1,2,0:0:0:0:
448,192,135976,128,0,136351:0:0:0:0:
64,192,136163,128,0,136351:0:0:0:50:Hat Open.wav
320,192,136351,1,0,0:0:0:40:Snare2.wav
192,192,136351,1,2,0:0:0:0:
320,192,136538,128,0,136726:0:0:0:50:Hat Open.wav
448,192,136538,128,0,136726:0:0:0:0:
64,192,136726,128,2,137101:0:0:0:0:
192,192,136726,1,0,0:0:0:0:
192,192,136913,128,0,137101:0:0:0:50:Hat Open.wav
320,192,137101,1,2,0:0:0:0:
448,192,137101,128,0,137288:0:0:0:40:Snare2.wav
192,192,137288,128,0,137382:0:0:0:50:Hat Open.wav
320,192,137288,128,0,137476:0:0:0:0:
64,192,137476,128,2,137663:0:0:0:0:
448,192,137476,128,0,137851:0:0:0:0:
320,192,137663,128,0,137851:0:0:0:50:Hat Open.wav
64,192,137851,1,2,0:0:0:0:
192,192,137851,128,0,138038:0:0:0:40:Snare2.wav
320,192,138038,128,0,138226:0:0:0:50:Hat Open.wav
64,192,138226,128,2,138413:0:0:0:0:
192,192,138226,1,4,0:0:0:0:
448,192,138226,128,0,138413:0:0:0:0:
320,192,138413,128,0,138601:0:0:0:50:Hat Open.wav
192,192,138507,128,0,138694:0:0:0:0:
64,192,138601,128,2,138788:0:0:0:0:
448,192,138601,1,0,0:0:0:40:Snare2.wav
320,192,138788,128,0,138976:0:0:0:50:Hat Open.wav
448,192,138788,128,0,138976:0:0:0:0:
64,192,138976,128,2,139163:0:0:0:0:
192,192,138976,128,0,139163:0:0:0:0:
320,192,139351,128,2,139538:0:0:0:0:
448,192,139351,128,0,139538:0:0:0:40:Snare2.wav
64,192,139538,128,0,139726:0:0:0:50:Hat Open.wav
448,192,139726,128,0,139913:0:0:0:0:
192,192,139726,128,2,139913:0:0:0:0:
64,192,139913,128,0,140101:0:0:0:50:Hat Open.wav
320,192,140007,128,0,140194:0:0:0:0:
192,192,140101,128,2,140288:0:0:0:0:
448,192,140101,1,0,0:0:0:40:Snare2.wav
64,192,140288,128,0,140476:0:0:0:50:Hat Open.wav
448,192,140288,128,0,140382:0:0:0:0:
192,192,140476,1,2,0:0:0:0:
320,192,140476,128,0,140601:0:0:0:0:
192,192,140601,128,0,140726:0:0:0:0:
448,192,140726,128,0,140851:0:0:0:0:
64,192,140851,1,2,0:0:0:0:
320,192,140851,128,0,140976:0:0:0:40:Snare2.wav
192,192,140976,128,0,141101:0:0:0:0:
448,192,141101,128,0,141226:0:0:0:0:
192,192,141226,1,0,0:0:0:0:
64,192,141226,128,2,141476:0:0:0:0:
320,192,141476,1,2,0:0:0:0:
448,192,141476,1,0,0:0:0:0:
192,192,141601,128,0,141851:0:0:0:0:
320,192,141726,1,2,0:0:0:0:
448,192,141726,1,0,0:0:0:0:
64,192,141976,1,2,0:0:0:0:
448,192,141976,128,0,142226:0:0:0:40:Snare2.wav
64,192,142226,1,2,0:0:0:0:
192,192,142226,1,0,0:0:0:0:
320,192,142351,128,0,142601:0:0:0:0:
64,192,142476,1,2,0:0:0:0:
192,192,142476,1,0,0:0:0:0:
448,192,142726,1,0,0:0:0:0:
192,192,142726,1,0,0:0:0:0:
64,192,142726,1,2,0:0:0:0:
320,192,142976,1,2,0:0:0:0:
448,192,142976,1,0,0:0:0:0:
64,192,143101,1,0,0:0:0:0:
320,192,143226,1,2,0:0:0:0:
448,192,143226,1,0,0:0:0:0:
64,192,143288,1,0,0:0:0:30:Snare3.wav
192,192,143288,1,0,0:0:0:0:
320,192,143382,1,0,0:0:0:30:Snare3.wav
448,192,143382,1,0,0:0:0:0:
64,192,143476,1,2,0:0:0:0:
192,192,143476,1,0,0:0:0:40:Snare2.wav
320,192,143663,1,0,0:0:0:30:Snare3.wav
448,192,143663,1,0,0:0:0:0:
192,192,143757,1,0,0:0:0:0:
64,192,143757,1,0,0:0:0:30:Snare3.wav
320,192,143944,1,0,0:0:0:30:Snare3.wav
448,192,143944,1,0,0:0:0:0:
64,192,144038,1,0,0:0:0:30:Snare3.wav
192,192,144038,1,0,0:0:0:0:
64,192,144226,1,2,0:0:0:0:
192,192,144226,1,4,0:0:0:0:
320,192,144319,1,0,0:0:0:0:
448,192,144413,1,0,0:0:0:0:
64,192,144507,1,0,0:0:0:0:
320,192,144601,1,2,0:0:0:0:
448,192,144601,1,0,0:0:0:50:Hat Open.wav
192,192,144694,1,0,0:0:0:0:
320,192,144788,1,0,0:0:0:0:
448,192,144882,1,0,0:0:0:0:
192,192,144976,1,0,0:0:0:0:
64,192,144976,1,2,0:0:0:0:
320,192,145163,1,0,0:0:0:0:
64,192,145257,1,2,0:0:0:0:
192,192,145257,1,0,0:0:0:0:
320,192,145351,1,0,0:0:0:50:Hat Open.wav
448,192,145351,1,0,0:0:0:40:Snare2.wav
192,192,145538,1,2,0:0:0:0:
448,192,145538,1,0,0:0:0:0:
320,192,145632,1,0,0:0:0:0:
64,192,145726,1,2,0:0:0:0:
192,192,145726,1,0,0:0:0:0:
64,192,145913,1,0,0:0:0:0:
320,192,146007,1,0,0:0:0:0:
448,192,146007,1,0,0:0:0:0:
64,192,146101,1,2,0:0:0:0:
192,192,146101,1,0,0:0:0:50:Hat Open.wav
448,192,146288,1,0,0:0:0:0:
320,192,146382,1,0,0:0:0:0:
64,192,146476,1,2,0:0:0:0:
448,192,146476,1,0,0:0:0:0:
192,192,146569,1,0,0:0:0:0:
320,192,146663,1,0,0:0:0:0:
64,192,146757,1,2,0:0:0:0:
320,192,146851,1,0,0:0:0:50:Hat Open.wav
448,192,146851,1,0,0:0:0:40:Snare2.wav
192,192,147038,1,2,0:0:0:0:
320,192,147038,1,0,0:0:0:0:
64,192,147226,1,2,0:0:0:0:
192,192,147226,1,0,0:0:0:0:
448,192,147226,1,0,0:0:0:0:
320,192,147413,1,0,0:0:0:0:
64,192,147601,1,2,0:0:0:0:
320,192,147601,1,0,0:0:0:50:Hat Open.wav
448,192,147601,1,0,0:0:0:40:Snare2.wav
192,192,147788,1,0,0:0:0:0:
320,192,147882,1,0,0:0:0:0:
64,192,147976,1,2,0:0:0:0:
192,192,147976,1,0,0:0:0:0:
320,192,148163,1,0,0:0:0:0:
448,192,148257,1,2,0:0:0:0:
64,192,148351,1,0,0:0:0:50:Hat Open.wav
192,192,148351,1,0,0:0:0:40:Snare2.wav
320,192,148444,1,0,0:0:0:0:
64,192,148538,1,2,0:0:0:0:
192,192,148632,1,0,0:0:0:0:
448,192,148726,1,0,0:0:0:0:
320,192,148726,1,2,0:0:0:0:
64,192,148913,1,0,0:0:0:0:
320,192,149007,1,0,0:0:0:0:
64,192,149101,1,2,0:0:0:0:
192,192,149101,1,0,0:0:0:50:Hat Open.wav
448,192,149288,1,0,0:0:0:0:
64,192,149476,128,0,149663:0:0:0:20:Snare3.wav
192,192,149569,128,0,149757:0:0:0:20:Snare3.wav
320,192,149663,128,0,149851:0:0:0:20:Snare3.wav
448,192,149757,128,0,149851:0:0:0:0:
64,192,149851,128,0,150038:0:0:0:20:Snare3.wav
192,192,149944,128,0,150132:0:0:0:0:
320,192,150038,128,0,150226:0:0:0:20:Snare3.wav
448,192,150132,128,0,150226:0:0:0:20:Snare3.wav
192,192,150226,1,2,0:0:0:0:
64,192,150226,1,4,0:0:0:0:
320,192,150319,1,0,0:0:0:0:
448,192,150413,1,0,0:0:0:50:Hat Open.wav
192,192,150507,1,0,0:0:0:0:
64,192,150601,1,2,0:0:0:0:
320,192,150601,1,0,0:0:0:40:Snare2.wav
448,192,150694,1,0,0:0:0:0:
192,192,150788,1,0,0:0:0:50:Hat Open.wav
320,192,150976,1,2,0:0:0:0:
448,192,150976,1,0,0:0:0:0:
192,192,151069,1,0,0:0:0:0:
448,192,151163,1,0,0:0:0:50:Hat Open.wav
320,192,151257,1,0,0:0:0:0:
64,192,151351,1,2,0:0:0:0:
192,192,151351,1,0,0:0:0:40:Snare2.wav
320,192,151538,1,0,0:0:0:0:
64,192,151538,1,0,0:0:0:50:Hat Open.wav
448,192,151726,1,0,0:0:0:0:
192,192,151726,1,2,0:0:0:0:
64,192,151913,1,0,0:0:0:50:Hat Open.wav
320,192,152007,1,0,0:0:0:0:
448,192,152007,1,0,0:0:0:0:
64,192,152101,1,2,0:0:0:0:
192,192,152101,1,0,0:0:0:40:Snare2.wav
320,192,152288,1,0,0:0:0:50:Hat Open.wav
192,192,152382,1,0,0:0:0:0:
64,192,152476,1,2,0:0:0:0:
448,192,152476,1,0,0:0:0:0:
320,192,152569,1,0,0:0:0:0:
192,192,152663,1,0,0:0:0:50:Hat Open.wav
448,192,152757,1,0,0:0:0:0:
64,192,152851,1,2,0:0:0:0:
192,192,152851,1,0,0:0:0:40:Snare2.wav
320,192,152944,1,0,0:0:0:0:
448,192,153038,1,0,0:0:0:50:Hat Open.wav
192,192,153132,1,0,0:0:0:0:
64,192,153226,1,2,0:0:0:0:
448,192,153226,128,0,153507:0:0:0:0:
320,192,153319,1,0,0:0:0:0:
192,192,153413,1,0,0:0:0:50:Hat Open.wav
64,192,153507,1,0,0:0:0:0:
320,192,153601,1,2,0:0:0:0:
448,192,153601,128,0,153882:0:0:0:40:Snare2.wav
192,192,153694,1,0,0:0:0:0:
64,192,153788,1,0,0:0:0:50:Hat Open.wav
320,192,153882,1,0,0:0:0:0:
64,192,153976,128,2,154257:0:0:0:0:
192,192,153976,1,0,0:0:0:0:
448,192,154069,1,0,0:0:0:0:
192,192,154163,1,0,0:0:0:50:Hat Open.wav
320,192,154257,1,0,0:0:0:0:
64,192,154351,128,2,154632:0:0:0:0:
448,192,154351,1,0,0:0:0:40:Snare2.wav
192,192,154444,1,0,0:0:0:0:
320,192,154538,1,0,0:0:0:50:Hat Open.wav
192,192,154632,1,0,0:0:0:0:
64,192,154726,1,2,0:0:0:0:
448,192,154726,1,0,0:0:0:0:
320,192,154819,1,0,0:0:0:0:
64,192,154913,128,0,155101:0:0:0:0:
192,192,155007,1,0,0:0:0:0:
320,192,155101,1,2,0:0:0:0:
448,192,155101,1,0,0:0:0:50:Hat Open.wav
192,192,155194,1,0,0:0:0:0:
320,192,155288,128,0,155476:0:0:0:0:
448,192,155382,1,0,0:0:0:0:
64,192,155476,128,2,155757:0:0:0:0:
192,192,155476,1,0,0:0:0:0:
448,192,155569,1,0,0:0:0:0:
320,192,155663,1,2,0:0:0:0:
192,192,155757,128,0,155851:0:0:0:0:
320,192,155851,1,2,0:0:0:0:
448,192,155851,1,0,0:0:0:0:
64,192,155944,1,0,0:0:0:0:
192,192,156038,128,2,156132:0:0:0:0:
320,192,156132,1,0,0:0:0:0:
64,192,156226,128,2,157538:0:0:0:0:
192,192,156226,1,0,0:0:0:0:
448,192,156226,128,0,159226:0:0:0:0:
320,192,157538,128,0,158476:0:0:0:0:
192,192,158476,128,0,159226:0:0:0:0:
320,192,159226,128,0,159788:0:0:0:0:
448,192,159788,128,0,159976:0:0:0:0:
64,192,159976,128,0,160538:0:0:0:0:
320,192,160538,128,0,160726:0:0:0:0:
192,192,160726,128,0,160913:0:0:0:0:
320,192,160913,128,0,161101:0:0:0:0:
448,192,161101,128,0,161288:0:0:0:0:
64,192,161288,128,0,161476:0:0:0:0:
192,192,161382,128,0,161476:0:0:0:0:
320,192,161476,128,0,161663:0:0:0:0:
192,192,161663,128,0,161851:0:0:0:0:
64,192,161851,128,0,162226:0:0:0:0:
448,192,162038,128,0,162226:0:0:0:0:
192,192,162226,128,0,162413:0:0:0:0:
320,192,162413,128,0,162601:0:0:0:0:
192,192,162601,128,0,162788:0:0:0:0:
320,192,162788,128,0,162976:0:0:0:0:
448,192,162788,128,0,162976:0:0:0:0:
64,192,162976,128,0,163163:0:0:0:0:
320,192,163163,128,0,163351:0:0:0:0:
64,192,163351,128,0,163538:0:0:0:0:
192,192,163351,128,0,163538:0:0:0:0:
448,192,163538,128,0,163726:0:0:0:0:
64,192,163726,128,0,163913:0:0:0:0:
192,192,163913,128,0,164101:0:0:0:0:
320,192,163913,128,0,164101:0:0:0:0:
448,192,164101,128,0,164288:0:0:0:0:
64,192,164288,128,0,164476:0:0:0:0:
320,192,164476,128,0,164663:0:0:0:0:
448,192,164476,128,0,164663:0:0:0:0:
192,192,164663,128,0,164851:0:0:0:0:
448,192,164851,128,0,165038:0:0:0:0:
64,192,165038,128,0,165226:0:0:0:0:
320,192,165038,128,0,165226:0:0:0:0:
192,192,165226,128,0,165413:0:0:0:0:
320,192,165413,128,0,165601:0:0:0:0:
64,192,165601,128,0,165788:0:0:0:0:
448,192,165601,128,0,165788:0:0:0:0:
192,192,165788,128,0,165976:0:0:0:0:
320,192,165976,128,0,166163:0:0:0:0:
64,192,166163,128,0,166351:0:0:0:0:
192,192,166163,128,0,166351:0:0:0:0:
448,192,166351,1,0,0:0:0:0:
320,192,166444,1,0,0:0:0:0:
192,192,166538,1,0,0:0:0:0:
320,192,166632,1,0,0:0:0:0:
64,192,166726,1,0,0:0:0:0:
448,192,166819,1,0,0:0:0:0:
320,192,166913,1,0,0:0:0:0:
192,192,167007,1,0,0:0:0:0:
64,192,167101,128,0,167288:0:0:0:0:
448,192,167101,128,0,167476:0:0:0:0:
320,192,167288,128,0,167476:0:0:0:0:
192,192,167382,128,0,167476:0:0:0:0:
64,192,168226,1,2,0:0:0:0:
320,192,168226,1,4,0:0:0:0:
448,192,168226,128,0,168476:0:0:0:0:
192,192,168476,128,0,168663:0:0:0:0:
320,192,168601,1,2,0:0:0:0:
448,192,168601,1,0,0:0:0:40:Snare4.wav
64,192,168663,128,0,168851:0:0:0:0:
320,192,168851,128,0,168976:0:0:0:0:
64,192,169163,128,0,169538:0:0:0:0:
320,192,169351,1,0,0:0:0:40:Snare4.wav
448,192,169351,1,0,0:0:0:0:
192,192,169538,128,0,169726:0:0:0:0:
192,192,169913,128,2,170007:0:0:0:0:
320,192,170007,128,0,170101:0:0:0:0:
64,192,170101,128,0,170194:0:0:0:40:Snare4.wav
448,192,170101,1,0,0:0:0:0:
192,192,170194,128,0,170288:0:0:0:0:
320,192,170288,128,0,170382:0:0:0:0:
448,192,170382,128,0,170476:0:0:0:0:
64,192,170476,128,2,170757:0:0:0:0:
192,192,170476,1,0,0:0:0:0:
320,192,170757,128,2,171038:0:0:0:0:
448,192,170757,1,0,0:0:0:0:
192,192,170851,1,0,0:0:0:0:
64,192,170851,1,0,0:0:0:40:Snare4.wav
192,192,171038,128,2,171226:0:0:0:0:
448,192,171038,1,0,0:0:0:0:
64,192,171226,1,2,0:0:0:0:
448,192,171226,128,0,171319:0:0:0:0:
320,192,171507,128,0,171601:0:0:0:0:
64,192,171601,1,0,0:0:0:40:Snare4.wav
192,192,171601,1,0,0:0:0:0:
64,192,171788,128,2,172163:0:0:0:0:
320,192,171788,1,0,0:0:0:0:
448,192,171788,1,0,0:0:0:0:
448,192,172163,128,0,172257:0:0:0:0:
320,192,172257,128,0,172351:0:0:0:0:
192,192,172351,128,2,172444:0:0:0:0:
448,192,172351,1,0,0:0:0:40:Snare4.wav
64,192,172444,128,0,172538:0:0:0:0:
448,192,172538,128,0,172632:0:0:0:0:
192,192,172632,128,0,172726:0:0:0:0:
320,192,172726,128,0,172819:0:0:0:0:
448,192,172819,128,0,172913:0:0:0:0:
64,192,172913,128,2,173007:0:0:0:0:
192,192,173007,128,0,173101:0:0:0:0:
64,192,173101,1,0,0:0:0:40:Snare4.wav
320,192,173101,128,0,173194:0:0:0:0:
448,192,173194,128,0,173288:0:0:0:0:
192,192,173288,128,0,173382:0:0:0:0:
64,192,173382,128,0,173476:0:0:0:0:
320,192,173476,128,2,173569:0:0:0:0:
448,192,173476,1,0,0:0:0:0:
192,192,173569,128,0,173663:0:0:0:0:
448,192,173663,128,0,173757:0:0:0:0:
320,192,173757,128,2,173851:0:0:0:0:
64,192,173851,128,0,173944:0:0:0:40:Snare4.wav
192,192,173851,1,0,0:0:0:0:
448,192,173944,128,0,174038:0:0:0:0:
192,192,174038,128,2,174132:0:0:0:0:
320,192,174132,128,0,174226:0:0:0:0:
64,192,174226,1,2,0:0:0:0:
192,192,174226,1,4,0:0:0:0:
448,192,174226,128,0,174413:0:0:0:0:
320,192,174413,128,0,174601:0:0:0:0:
64,192,174601,128,2,174788:0:0:0:0:
448,192,174601,1,0,0:0:0:40:Snare4.wav
192,192,174788,128,0,174976:0:0:0:0:
448,192,174976,128,0,175163:0:0:0:0:
320,192,175163,128,0,175351:0:0:0:0:
448,192,175351,1,0,0:0:0:0:
192,192,175351,128,0,175538:0:0:0:40:Snare4.wav
64,192,175538,128,0,175913:0:0:0:0:
320,192,175913,1,2,0:0:0:0:
448,192,175913,128,0,176101:0:0:0:0:
64,192,176101,1,0,0:0:0:40:Snare4.wav
192,192,176101,1,0,0:0:0:0:
192,192,176288,128,0,176476:0:0:0:0:
320,192,176476,128,2,176663:0:0:0:0:
448,192,176476,1,0,0:0:0:0:
448,192,176663,128,0,176851:0:0:0:0:
64,192,176757,1,2,0:0:0:0:
192,192,176851,128,0,177038:0:0:0:40:Snare4.wav
320,192,176851,1,0,0:0:0:0:
320,192,177038,128,2,177226:0:0:0:0:
448,192,177038,1,0,0:0:0:0:
192,192,177226,1,0,0:0:0:0:
64,192,177226,128,2,177413:0:0:0:0:
192,192,177413,128,0,177601:0:0:0:0:
320,192,177601,1,0,0:0:0:40:Snare4.wav
448,192,177601,128,0,177788:0:0:0:0:
64,192,177788,128,2,177976:0:0:0:0:
192,192,177788,1,0,0:0:0:0:
320,192,177976,128,0,178163:0:0:0:0:
192,192,178163,128,0,178351:0:0:0:0:
320,192,178351,1,2,0:0:0:0:
448,192,178351,128,0,178538:0:0:0:40:Snare4.wav
64,192,178538,128,2,179288:0:0:0:0:
192,192,178538,1,0,0:0:0:0:
448,192,179288,1,0,0:0:0:0:
320,192,179382,1,0,0:0:0:0:
448,192,179476,1,0,0:0:0:0:
448,192,179663,1,0,0:0:0:0:
320,192,179757,1,0,0:0:0:0:
448,192,179851,128,0,180038:0:0:0:0:
64,192,180226,1,2,0:0:0:0:
192,192,180226,1,4,0:0:0:0:
320,192,180226,1,0,0:0:0:0:
192,192,180507,1,0,0:0:0:0:
320,192,180788,1,0,0:0:0:0:
64,192,180976,1,0,0:0:0:40:Snare4.wav
448,192,180976,1,0,0:0:0:0:
320,192,181351,1,2,0:0:0:0:
448,192,181351,1,0,0:0:0:0:
64,192,181538,1,0,0:0:0:0:
192,192,181538,1,0,0:0:0:0:
448,192,181726,1,0,0:0:0:0:
320,192,181726,1,0,0:0:0:0:
64,192,181913,1,2,0:0:0:0:
192,192,181913,1,0,0:0:0:0:
320,192,182101,1,0,0:0:0:0:
448,192,182101,1,0,0:0:0:0:
64,192,182288,1,2,0:0:0:0:
192,192,182351,1,2,0:0:0:0:
320,192,182413,1,2,0:0:0:0:
64,192,182476,1,0,0:0:0:40:Snare4.wav
448,192,182476,1,0,0:0:0:0:
320,192,182851,1,0,0:0:0:0:
64,192,183038,1,2,0:0:0:0:
192,192,183038,1,0,0:0:0:0:
192,192,183226,1,0,0:0:0:0:
64,192,183226,1,2,0:0:0:0:
448,192,183413,1,0,0:0:0:0:
320,192,183413,1,0,0:0:0:0:
64,192,183601,1,0,0:0:0:0:
192,192,183601,1,0,0:0:0:0:
320,192,183788,1,0,0:0:0:0:
448,192,183788,1,0,0:0:0:0:
64,192,183976,1,0,0:0:0:40:Snare4.wav
448,192,183976,1,0,0:0:0:0:
320,192,184351,1,2,0:0:0:0:
448,192,184351,1,0,0:0:0:0:
64,192,184538,1,0,0:0:0:0:
192,192,184538,1,0,0:0:0:0:
320,192,184726,1,0,0:0:0:0:
448,192,184726,1,0,0:0:0:0:
64,192,184913,1,2,0:0:0:0:
192,192,184913,1,0,0:0:0:0:
448,192,185101,1,0,0:0:0:0:
320,192,185101,1,0,0:0:0:0:
64,192,185288,1,0,0:0:0:50:Tom1.wav
448,192,185382,1,0,0:0:0:50:Tom1.wav
64,192,185476,1,2,0:0:0:0:
192,192,185476,1,0,0:0:0:40:Snare1.wav
320,192,185569,1,0,0:0:0:0:
192,192,185663,1,0,0:0:0:40:Snare1.wav
448,192,185757,1,2,0:0:0:0:
64,192,185851,1,0,0:0:0:50:Tom2.wav
320,192,185944,1,0,0:0:0:50:Tom2.wav
192,192,186038,1,2,0:0:0:0:
320,192,186132,1,0,0:0:0:50:Tom3.wav
64,192,186226,128,2,186976:0:0:0:0:
448,192,186226,1,0,0:0:0:0:
320,192,186507,1,0,0:0:0:0:
448,192,186601,1,0,0:0:0:15:Snare3.wav
192,192,186788,1,0,0:0:0:0:
448,192,186976,128,0,187726:0:0:0:15:Snare3.wav
64,192,187257,1,0,0:0:0:15:Snare3.wav
320,192,187351,1,0,0:0:0:0:
64,192,187538,1,0,0:0:0:15:Snare3.wav
192,192,187726,128,0,188476:0:0:0:15:Snare3.wav
448,192,188007,1,0,0:0:0:0:
320,192,188101,1,0,0:0:0:15:Snare3.wav
64,192,188288,1,0,0:0:0:0:
320,192,188476,128,0,188851:0:0:0:15:Snare3.wav
64,192,188757,1,0,0:0:0:15:Snare3.wav
448,192,188851,128,0,189226:0:0:0:0:
320,192,189038,1,0,0:0:0:15:Snare3.wav
192,192,189226,128,0,189601:0:0:0:0:
64,192,189226,1,0,0:0:0:15:Snare3.wav
64,192,189601,128,0,189976:0:0:0:15:Snare3.wav
448,192,189601,1,0,0:0:0:0:
192,192,189976,1,0,0:0:0:15:Snare3.wav
320,192,189976,128,0,190351:0:0:0:0:
64,192,190257,1,0,0:0:0:15:Snare3.wav
448,192,190351,128,0,190726:0:0:0:0:
192,192,190538,1,0,0:0:0:15:Snare3.wav
64,192,190726,128,0,191476:0:0:0:15:Snare3.wav
320,192,190726,1,0,0:0:0:0:
192,192,191101,1,0,0:0:0:15:Snare3.wav
448,192,191476,1,0,0:0:0:20:Tom1.wav
320,192,191663,1,0,0:0:0:20:Tom1.wav
192,192,191757,1,0,0:0:0:20:Tom1.wav
320,192,191851,1,0,0:0:0:20:Tom1.wav
192,192,191897,1,0,0:0:0:20:Tom1.wav
64,192,191944,1,0,0:0:0:20:Tom1.wav
448,192,192038,1,0,0:0:0:20:Tom1.wav
320,192,192132,1,0,0:0:0:20:Tom1.wav
192,192,192226,1,0,0:0:0:50:Tom2.wav
320,192,192319,1,0,0:0:0:50:Tom2.wav
64,192,192413,1,0,0:0:0:40:Snare4.wav
448,192,192413,1,0,0:0:0:0:
192,192,192601,1,2,0:0:0:0:
320,192,192601,1,0,0:0:0:50:Hat Open.wav
448,192,192601,1,0,0:0:0:40:Snare4.wav
64,192,192788,1,0,0:0:0:0:
448,192,192882,1,0,0:0:0:0:
64,192,192976,1,2,0:0:0:0:
192,192,192976,1,0,0:0:0:0:
320,192,193069,1,0,0:0:0:0:
448,192,193163,1,0,0:0:0:0:
64,192,193257,1,2,0:0:0:0:
320,192,193351,1,0,0:0:0:50:Hat Open.wav
448,192,193351,1,0,0:0:0:40:Snare4.wav
192,192,193538,1,2,0:0:0:0:
448,192,193538,1,0,0:0:0:0:
320,192,193632,1,0,0:0:0:0:
64,192,193726,1,2,0:0:0:0:
192,192,193726,1,0,0:0:0:0:
64,192,193913,1,0,0:0:0:0:
320,192,194007,1,0,0:0:0:0:
448,192,194007,1,0,0:0:0:0:
64,192,194101,1,2,0:0:0:0:
192,192,194101,1,0,0:0:0:50:Hat Open.wav
192,192,194288,1,0,0:0:0:0:
320,192,194382,1,0,0:0:0:0:
448,192,194476,1,0,0:0:0:0:
64,192,194476,1,2,0:0:0:0:
192,192,194569,1,0,0:0:0:0:
320,192,194663,1,0,0:0:0:0:
64,192,194757,1,2,0:0:0:0:
320,192,194851,1,0,0:0:0:50:Hat Open.wav
448,192,194851,1,0,0:0:0:40:Snare4.wav
192,192,195038,1,2,0:0:0:0:
320,192,195038,1,0,0:0:0:0:
64,192,195226,1,2,0:0:0:0:
192,192,195226,1,0,0:0:0:0:
448,192,195226,1,0,0:0:0:0:
320,192,195413,1,0,0:0:0:0:
64,192,195601,1,2,0:0:0:0:
320,192,195601,1,0,0:0:0:50:Hat Open.wav
448,192,195601,1,0,0:0:0:40:Snare4.wav
192,192,195788,1,0,0:0:0:0:
320,192,195882,1,0,0:0:0:0:
64,192,195976,1,2,0:0:0:0:
192,192,195976,1,0,0:0:0:0:
320,192,196163,1,0,0:0:0:0:
448,192,196257,1,2,0:0:0:0:
64,192,196351,1,0,0:0:0:50:Hat Open.wav
192,192,196351,1,0,0:0:0:40:Snare4.wav
320,192,196444,1,0,0:0:0:0:
64,192,196538,1,2,0:0:0:0:
192,192,196632,1,0,0:0:0:0:
320,192,196726,1,2,0:0:0:0:
448,192,196726,1,0,0:0:0:0:
64,192,196913,1,0,0:0:0:0:
320,192,196913,1,0,0:0:0:0:
448,192,197007,1,0,0:0:0:0:
64,192,197101,1,2,0:0:0:0:
192,192,197101,1,0,0:0:0:50:Hat Open.wav
320,192,197288,1,0,0:0:0:0:
64,192,197476,128,0,197569:0:0:0:0:
320,192,197569,128,0,197757:0:0:0:0:
192,192,197663,128,0,197851:0:0:0:0:
64,192,197757,128,0,197851:0:0:0:0:
448,192,197851,128,0,198038:0:0:0:0:
320,192,197944,128,0,198132:0:0:0:0:
192,192,198038,128,0,198226:0:0:0:0:
64,192,198132,128,0,198226:0:0:0:0:
320,192,198226,1,2,0:0:0:0:
448,192,198226,1,8,0:0:0:0:
192,192,198319,1,0,0:0:0:0:
64,192,198413,1,0,0:0:0:50:Hat Open.wav
448,192,198507,1,0,0:0:0:0:
64,192,198601,1,0,0:0:0:40:Snare4.wav
192,192,198601,1,0,0:0:0:0:
320,192,198694,1,0,0:0:0:0:
448,192,198788,1,0,0:0:0:50:Hat Open.wav
64,192,198976,1,0,0:0:0:0:
192,192,199069,1,0,0:0:0:0:
320,192,199163,1,2,0:0:0:0:
448,192,199163,1,0,0:0:0:50:Hat Open.wav
64,192,199351,1,0,0:0:0:40:Snare4.wav
192,192,199351,1,0,0:0:0:0:
320,192,199538,1,0,0:0:0:50:Hat Open.wav
192,192,199726,1,2,0:0:0:0:
448,192,199726,1,0,0:0:0:0:
320,192,199913,1,0,0:0:0:50:Hat Open.wav
192,192,200007,1,0,0:0:0:0:
64,192,200007,1,0,0:0:0:0:
320,192,200101,1,0,0:0:0:40:Snare4.wav
448,192,200101,1,0,0:0:0:0:
64,192,200288,1,0,0:0:0:50:Hat Open.wav
192,192,200382,1,0,0:0:0:0:
64,192,200476,1,0,0:0:0:0:
448,192,200476,1,0,0:0:0:0:
320,192,200569,1,0,0:0:0:0:
192,192,200663,1,2,0:0:0:0:
448,192,200757,1,0,0:0:0:0:
64,192,200851,1,0,0:0:0:40:Snare4.wav
192,192,200851,1,0,0:0:0:0:
320,192,201038,1,0,0:0:0:50:Hat Open.wav
64,192,201226,1,2,0:0:0:0:
448,192,201226,1,0,0:0:0:0:
192,192,201319,1,0,0:0:0:0:
320,192,201413,1,0,0:0:0:50:Hat Open.wav
192,192,201507,1,0,0:0:0:0:
64,192,201601,1,0,0:0:0:40:Snare4.wav
448,192,201601,1,0,0:0:0:0:
320,192,201694,1,0,0:0:0:0:
64,192,201788,1,0,0:0:0:50:Hat Open.wav
192,192,201882,1,0,0:0:0:0:
320,192,201976,1,0,0:0:0:0:
448,192,201976,1,0,0:0:0:0:
64,192,202069,1,0,0:0:0:0:
320,192,202163,1,2,0:0:0:0:
64,192,202257,1,0,0:0:0:0:
192,192,202351,1,0,0:0:0:40:Snare4.wav
448,192,202351,1,0,0:0:0:0:
320,192,202538,1,0,0:0:0:50:Hat Open.wav
192,192,202538,1,2,0:0:0:0:
64,192,202726,1,2,0:0:0:0:
448,192,202726,1,0,0:0:0:0:
320,192,202819,1,0,0:0:0:0:
192,192,202913,1,0,0:0:0:0:
64,192,203007,1,0,0:0:0:0:
448,192,203101,1,0,0:0:0:0:
192,192,203194,1,0,0:0:0:0:
320,192,203288,1,0,0:0:0:0:
448,192,203382,1,0,0:0:0:0:
64,192,203476,1,0,0:0:0:0:
192,192,203569,1,0,0:0:0:0:
320,192,203663,1,2,0:0:0:0:
448,192,203663,1,0,0:0:0:0:
64,192,203757,1,0,0:0:0:0:
192,192,203851,1,0,0:0:0:0:
448,192,203944,1,0,0:0:0:0:
320,192,204038,1,0,0:0:0:0:
192,192,204132,1,0,0:0:0:0:
64,192,204226,128,2,205726:0:0:0:0:
320,192,204226,1,4,0:0:0:0:
448,192,204226,128,0,207226:0:0:0:0:
192,192,205726,1,0,0:0:0:0:
320,192,205726,128,0,207226:0:0:0:0:
64,192,207226,1,0,0:0:0:0:
192,192,207226,1,0,0:0:0:0:
448,192,207413,1,0,0:0:0:0:
64,192,207601,1,0,0:0:0:0:
192,192,207788,1,0,0:0:0:0:
448,192,207976,1,0,0:0:0:0:
320,192,208257,1,0,0:0:0:0:
192,192,208538,1,0,0:0:0:0:
64,192,208726,1,0,0:0:0:0:
320,192,208726,128,0,209476:0:0:0:0:
64,192,209476,128,0,210226:0:0:0:0:
192,192,209476,1,0,0:0:0:0:
320,192,210226,1,0,0:0:0:0:
448,192,210226,1,0,0:0:0:0:
192,192,210413,1,0,0:0:0:0:
320,192,210601,1,0,0:0:0:0:
64,192,210788,1,0,0:0:0:0:
192,192,210976,128,0,211726:0:0:0:0:
448,192,210976,1,0,0:0:0:0:
64,192,211726,1,0,0:0:0:0:
320,192,211726,128,0,212476:0:0:0:0:
192,192,212101,1,0,0:0:0:0:
64,192,212476,1,0,0:0:0:0:
448,192,212476,128,0,213226:0:0:0:0:
192,192,212851,128,0,213226:0:0:0:0:
64,192,213226,1,0,0:0:0:0:
320,192,213226,128,0,214351:0:0:0:0:
192,192,213413,1,0,0:0:0:0:
448,192,213601,1,0,0:0:0:0:
64,192,213788,1,0,0:0:0:0:
192,192,213976,128,0,214351:0:0:0:0:
448,192,214538,1,0,0:0:0:0:
448,192,214726,1,0,0:0:0:0:
320,192,215101,1,0,0:0:0:0:
192,192,215476,1,0,0:0:0:0:
64,192,215757,1,0,0:0:0:0:
448,192,216038,128,0,217726:0:0:0:0:
