osu file format v14

[General]
AudioFilename: audio.mp3
AudioLeadIn: 0
PreviewTime: 28436
Countdown: 0
SampleSet: Soft
StackLeniency: 0.7
Mode: 3
LetterboxInBreaks: 0
SpecialStyle: 0
WidescreenStoryboard: 1

[Editor]
Bookmarks: 27761
DistanceSpacing: 0.4
BeatDivisor: 4
GridSize: 32
TimelineZoom: 1.2

[Metadata]
Title:Circulation
TitleUnicode:Circulation
Artist:Neko Hacker
ArtistUnicode:Neko Hacker
Creator:Critical_Star
Version:Collab Insane
Source:
Tags:Kawaii Future Rock Japanese J-Pop bass sera kassan sho Instrumental FA Featured Artist MG MPG Mappers' Guild Koneko Records Maxus sera1250 kassaaaaaaan セラ かっさん duo 1st first album self-titled album track 07 OFUTONE Neko_Hacker True Cooperation priority quest LN long note Electronic DixonBlackwing
BeatmapID:4457397
BeatmapSetID:2121312

[Difficulty]
HPDrainRate:7
CircleSize:7
OverallDifficulty:7
ApproachRate:5
SliderMultiplier:1.4
SliderTickRate:1

[Events]
//Background and Video events
0,0,"BG.jpg",0,0
//Break Periods
//Storyboard Layer 0 (Background)
//Storyboard Layer 1 (Fail)
//Storyboard Layer 2 (Pass)
//Storyboard Layer 3 (Foreground)
//Storyboard Layer 4 (Overlay)
//Storyboard Sound Samples

[TimingPoints]
214,444.444444444444,4,2,1,40,1,0

[HitObjects]
36,192,214,128,0,1991:0:0:0:0:
402,192,214,128,0,658:0:0:0:0:
109,192,214,128,0,658:0:0:0:0:
256,192,436,128,0,658:0:0:0:0:
329,192,658,128,0,1102:0:0:0:0:
182,192,880,128,0,1102:0:0:0:0:
256,192,1102,128,0,1547:0:0:0:0:
402,192,1325,128,0,1547:0:0:0:0:
109,192,1547,128,0,1991:0:0:0:0:
182,192,1769,128,0,1991:0:0:0:0:
475,192,1991,128,0,3769:0:0:0:0:
329,192,1991,128,0,2436:0:0:0:0:
402,192,1991,128,0,2436:0:0:0:0:
256,192,2213,128,0,2436:0:0:0:0:
109,192,2436,128,0,2880:0:0:0:0:
182,192,2658,128,0,2880:0:0:0:0:
402,192,2880,128,0,3325:0:0:0:0:
329,192,3102,128,0,3325:0:0:0:0:
36,192,3325,128,0,3769:0:0:0:0:
109,192,3547,128,0,3769:0:0:0:0:
256,192,3769,128,0,5547:0:0:0:0:
182,192,3769,128,0,4213:0:0:0:0:
402,192,3769,128,0,4213:0:0:0:0:
36,192,3991,128,0,4213:0:0:0:0:
475,192,4213,128,0,4658:0:0:0:0:
329,192,4436,128,0,4658:0:0:0:0:
109,192,4658,128,0,5102:0:0:0:0:
182,192,4880,128,0,5102:0:0:0:0:
329,192,5102,128,0,5547:0:0:0:0:
402,192,5325,128,0,5547:0:0:0:0:
109,192,5547,128,0,7325:0:0:0:0:
475,192,5547,128,0,5991:0:0:0:0:
182,192,5547,128,0,5991:0:0:0:0:
36,192,5769,128,0,5991:0:0:0:0:
329,192,5991,128,0,6436:0:0:0:0:
256,192,6213,128,0,6436:0:0:0:0:
402,192,6436,128,0,6880:0:0:0:0:
329,192,6658,128,0,6880:0:0:0:0:
182,192,6880,128,0,7325:0:0:0:0:
256,192,7102,128,0,7325:0:0:0:0:
402,192,7325,128,0,9102:0:0:0:0:
36,192,7325,128,0,7769:0:0:0:0:
329,192,7325,128,0,7769:0:0:0:0:
182,192,7547,128,0,7769:0:0:0:0:
256,192,7769,128,0,8213:0:0:0:0:
109,192,7991,128,0,8213:0:0:0:0:
329,192,8213,128,0,8658:0:0:0:0:
182,192,8436,128,0,8658:0:0:0:0:
475,192,8658,128,0,9102:0:0:0:0:
256,192,8880,128,0,9102:0:0:0:0:
36,192,9102,128,0,10880:0:0:0:0:
109,192,9102,128,0,9547:0:0:0:0:
329,192,9102,128,0,9547:0:0:0:0:
182,192,9325,128,0,9547:0:0:0:0:
256,192,9547,128,0,9991:0:0:0:0:
182,192,9769,128,0,9991:0:0:0:0:
329,192,9991,128,0,10436:0:0:0:0:
256,192,10213,128,0,10436:0:0:0:0:
402,192,10436,128,0,10880:0:0:0:0:
329,192,10658,128,0,10880:0:0:0:0:
475,192,10880,128,0,12658:0:0:0:0:
182,192,10880,128,0,11325:0:0:0:0:
256,192,10880,128,0,11325:0:0:0:0:
329,192,11102,128,0,11325:0:0:0:0:
109,192,11325,128,0,11769:0:0:0:0:
256,192,11547,128,0,11769:0:0:0:0:
36,192,11769,128,0,12213:0:0:0:0:
182,192,11991,128,0,12213:0:0:0:0:
402,192,12213,128,0,12658:0:0:0:0:
329,192,12436,128,0,12658:0:0:0:0:
109,192,12658,128,0,13102:0:0:0:0:
182,192,12658,128,0,13102:0:0:0:0:
36,192,12658,128,0,13102:0:0:0:0:
256,192,12880,128,0,13102:0:0:0:0:
329,192,12880,128,0,13102:0:0:0:0:
475,192,13102,128,0,13325:0:0:0:0:
402,192,13102,128,0,13325:0:0:0:0:
109,192,13325,1,0,0:0:0:0:
182,192,13325,1,0,0:0:0:0:
329,192,13436,1,0,0:0:0:0:
256,192,13436,1,0,0:0:0:0:
36,192,13547,1,0,0:0:0:0:
402,192,13547,1,0,0:0:0:0:
475,192,13547,1,0,0:0:0:0:
256,192,13769,128,0,13991:0:0:0:0:
182,192,13769,128,0,13991:0:0:0:0:
329,192,13769,1,0,0:0:0:0:
402,192,13880,1,0,0:0:0:0:
36,192,13991,128,0,14213:0:0:0:0:
109,192,13991,128,0,14213:0:0:0:0:
475,192,13991,1,0,0:0:0:0:
329,192,14213,128,0,14436:0:0:0:0:
256,192,14213,128,0,14436:0:0:0:0:
36,192,14436,128,0,15325:0:0:0:0:
182,192,14436,128,0,15325:0:0:0:0:
475,192,14436,128,0,15102:0:0:0:0:
109,192,14436,1,0,0:0:0:0:
402,192,15102,1,0,0:0:0:0:
329,192,15102,1,0,0:0:0:0:
256,192,15325,1,0,0:0:0:0:
329,192,15325,1,0,0:0:0:0:
475,192,15547,128,0,16213:0:0:0:0:
109,192,15547,128,0,15991:0:0:0:0:
182,192,15547,128,0,15769:0:0:0:0:
329,192,15769,128,0,15991:0:0:0:0:
256,192,15991,128,0,16213:0:0:0:0:
36,192,15991,128,0,16213:0:0:0:0:
109,192,16213,128,0,17102:0:0:0:0:
329,192,16213,128,0,17102:0:0:0:0:
402,192,16213,128,0,16880:0:0:0:0:
182,192,16436,1,0,0:0:0:0:
256,192,16436,1,0,0:0:0:0:
402,192,17102,1,0,0:0:0:0:
475,192,17102,1,0,0:0:0:0:
256,192,17325,128,0,17991:0:0:0:0:
329,192,17325,128,0,17769:0:0:0:0:
182,192,17325,128,0,17547:0:0:0:0:
36,192,17547,128,0,17769:0:0:0:0:
109,192,17769,128,0,17991:0:0:0:0:
402,192,17769,128,0,17991:0:0:0:0:
182,192,17769,1,0,0:0:0:0:
182,192,17991,128,0,18658:0:0:0:0:
329,192,17991,128,0,18880:0:0:0:0:
475,192,17991,128,0,18880:0:0:0:0:
109,192,18658,1,0,0:0:0:0:
256,192,18658,1,0,0:0:0:0:
36,192,18880,1,0,0:0:0:0:
182,192,18880,1,0,0:0:0:0:
256,192,19102,128,0,19547:0:0:0:0:
402,192,19102,128,0,19325:0:0:0:0:
109,192,19102,128,0,19547:0:0:0:0:
329,192,19325,128,0,19547:0:0:0:0:
402,192,19547,128,0,19769:0:0:0:0:
182,192,19547,128,0,19769:0:0:0:0:
475,192,19547,128,0,19769:0:0:0:0:
36,192,19769,128,0,21102:0:0:0:0:
256,192,19769,128,0,20880:0:0:0:0:
109,192,19769,128,0,20213:0:0:0:0:
182,192,19991,128,0,20213:0:0:0:0:
475,192,20213,128,0,21102:0:0:0:0:
329,192,20658,1,0,0:0:0:0:
402,192,20658,1,0,0:0:0:0:
109,192,20880,1,0,0:0:0:0:
182,192,20880,1,0,0:0:0:0:
256,192,21102,1,0,0:0:0:0:
329,192,21102,1,0,0:0:0:0:
36,192,21325,1,0,0:0:0:0:
109,192,21325,1,0,0:0:0:0:
475,192,21547,128,0,21991:0:0:0:0:
402,192,21547,128,0,21991:0:0:0:0:
256,192,21547,128,0,21769:0:0:0:0:
182,192,21769,128,0,21991:0:0:0:0:
36,192,21991,128,0,22436:0:0:0:0:
109,192,21991,128,0,22436:0:0:0:0:
329,192,21991,128,0,22213:0:0:0:0:
182,192,22213,128,0,22436:0:0:0:0:
402,192,22436,128,0,22880:0:0:0:0:
475,192,22436,128,0,22880:0:0:0:0:
329,192,22436,128,0,22658:0:0:0:0:
256,192,22658,128,0,22880:0:0:0:0:
36,192,22880,128,0,23102:0:0:0:0:
182,192,22880,128,0,23325:0:0:0:0:
109,192,22880,128,0,23102:0:0:0:0:
329,192,23102,128,0,23325:0:0:0:0:
475,192,23102,128,0,23769:0:0:0:0:
402,192,23102,128,0,23325:0:0:0:0:
109,192,23325,128,0,23769:0:0:0:0:
256,192,23325,128,0,23769:0:0:0:0:
36,192,23325,128,0,23547:0:0:0:0:
402,192,23547,128,0,23769:0:0:0:0:
182,192,23769,128,0,23991:0:0:0:0:
329,192,23769,128,0,24213:0:0:0:0:
36,192,23769,128,0,23991:0:0:0:0:
402,192,23991,128,0,24213:0:0:0:0:
475,192,23991,128,0,24213:0:0:0:0:
256,192,23991,128,0,24213:0:0:0:0:
36,192,24213,128,0,25102:0:0:0:0:
109,192,24213,128,0,25102:0:0:0:0:
182,192,24213,128,0,24436:0:0:0:0:
402,192,24436,128,0,24658:0:0:0:0:
475,192,24436,128,0,24658:0:0:0:0:
329,192,24658,128,0,24880:0:0:0:0:
256,192,24658,128,0,24880:0:0:0:0:
475,192,24880,128,0,25102:0:0:0:0:
182,192,24880,128,0,25102:0:0:0:0:
256,192,25102,128,0,27769:0:0:0:0:
402,192,25102,128,0,25658:0:0:0:0:
329,192,25102,128,0,27769:0:0:0:0:
402,192,25769,128,0,27769:0:0:0:0:
182,192,25769,128,0,26325:0:0:0:0:
109,192,25769,128,0,26325:0:0:0:0:
109,192,26436,128,0,27769:0:0:0:0:
182,192,26436,128,0,27769:0:0:0:0:
36,192,26436,128,0,27769:0:0:0:0:
329,192,28658,128,0,29102:0:0:0:0:
256,192,28658,128,0,29102:0:0:0:0:
36,192,28658,128,0,29102:0:0:0:0:
402,192,28658,1,0,0:0:0:0:
109,192,28880,128,0,29325:0:0:0:0:
182,192,29102,128,0,29325:0:0:0:0:
329,192,29325,128,0,29769:0:0:0:0:
402,192,29325,128,0,29769:0:0:0:0:
36,192,29325,128,0,29769:0:0:0:0:
475,192,29325,1,0,0:0:0:0:
182,192,29547,128,0,29991:0:0:0:0:
256,192,29547,1,0,0:0:0:0:
109,192,29769,128,0,29991:0:0:0:0:
475,192,29991,128,0,30436:0:0:0:0:
402,192,29991,128,0,30436:0:0:0:0:
256,192,29991,128,0,30436:0:0:0:0:
329,192,29991,1,0,0:0:0:0:
109,192,30213,128,0,30436:0:0:0:0:
182,192,30436,128,0,30658:0:0:0:0:
109,192,30658,128,0,31102:0:0:0:0:
36,192,30658,128,0,31102:0:0:0:0:
329,192,30658,128,0,31102:0:0:0:0:
475,192,30658,1,0,0:0:0:0:
256,192,30880,128,0,31102:0:0:0:0:
182,192,31102,128,0,31325:0:0:0:0:
402,192,31325,1,0,0:0:0:0:
329,192,31325,128,0,31769:0:0:0:0:
475,192,31325,128,0,31769:0:0:0:0:
256,192,31547,128,0,31769:0:0:0:0:
36,192,31769,128,0,32213:0:0:0:0:
402,192,31769,128,0,32213:0:0:0:0:
109,192,31769,128,0,31991:0:0:0:0:
182,192,31769,1,0,0:0:0:0:
329,192,31991,128,0,32213:0:0:0:0:
182,192,32213,128,0,32658:0:0:0:0:
256,192,32213,128,0,32658:0:0:0:0:
475,192,32213,128,0,32658:0:0:0:0:
109,192,32213,1,0,0:0:0:0:
402,192,32436,128,0,32880:0:0:0:0:
329,192,32658,128,0,32880:0:0:0:0:
182,192,32880,128,0,33325:0:0:0:0:
109,192,32880,128,0,33325:0:0:0:0:
475,192,32880,128,0,33325:0:0:0:0:
36,192,32880,1,0,0:0:0:0:
329,192,33102,128,0,33547:0:0:0:0:
256,192,33102,1,0,0:0:0:0:
402,192,33325,128,0,33547:0:0:0:0:
36,192,33547,128,0,34658:0:0:0:0:
109,192,33547,128,0,34436:0:0:0:0:
256,192,33547,128,0,33991:0:0:0:0:
182,192,33547,1,0,0:0:0:0:
475,192,34213,128,0,34436:0:0:0:0:
329,192,34213,1,0,0:0:0:0:
256,192,34436,1,0,0:0:0:0:
402,192,34436,128,0,34658:0:0:0:0:
182,192,34658,1,0,0:0:0:0:
329,192,34658,128,0,34880:0:0:0:0:
256,192,34880,128,0,35325:0:0:0:0:
36,192,34880,128,0,35102:0:0:0:0:
109,192,34880,1,0,0:0:0:0:
182,192,35102,128,0,35325:0:0:0:0:
475,192,35325,128,0,35769:0:0:0:0:
109,192,35325,128,0,35769:0:0:0:0:
402,192,35325,128,0,35547:0:0:0:0:
329,192,35325,1,0,0:0:0:0:
182,192,35547,128,0,35769:0:0:0:0:
329,192,35769,128,0,36213:0:0:0:0:
256,192,35769,128,0,35991:0:0:0:0:
36,192,35769,128,0,35991:0:0:0:0:
402,192,35769,1,0,0:0:0:0:
182,192,35991,128,0,36436:0:0:0:0:
36,192,36213,128,0,36436:0:0:0:0:
256,192,36213,1,0,0:0:0:0:
329,192,36436,128,0,36658:0:0:0:0:
402,192,36436,128,0,36880:0:0:0:0:
109,192,36436,128,0,36658:0:0:0:0:
475,192,36436,1,0,0:0:0:0:
256,192,36658,128,0,37102:0:0:0:0:
109,192,36880,128,0,37102:0:0:0:0:
475,192,37102,128,0,37547:0:0:0:0:
402,192,37102,128,0,37325:0:0:0:0:
36,192,37102,1,0,0:0:0:0:
182,192,37102,128,0,37325:0:0:0:0:
329,192,37325,128,0,37769:0:0:0:0:
182,192,37547,128,0,37769:0:0:0:0:
109,192,37769,128,0,37991:0:0:0:0:
36,192,37769,128,0,38213:0:0:0:0:
475,192,37769,1,0,0:0:0:0:
256,192,37769,1,0,0:0:0:0:
402,192,37991,128,0,38436:0:0:0:0:
182,192,37991,1,0,0:0:0:0:
329,192,37991,128,0,38213:0:0:0:0:
256,192,38213,128,0,38436:0:0:0:0:
182,192,38436,1,0,0:0:0:0:
109,192,38436,128,0,38658:0:0:0:0:
475,192,38436,128,0,38880:0:0:0:0:
329,192,38658,128,0,38880:0:0:0:0:
36,192,38880,128,0,39325:0:0:0:0:
402,192,38880,128,0,39325:0:0:0:0:
182,192,38880,128,0,39102:0:0:0:0:
109,192,38880,1,0,0:0:0:0:
329,192,39102,128,0,39325:0:0:0:0:
182,192,39325,128,0,39769:0:0:0:0:
256,192,39325,128,0,39547:0:0:0:0:
475,192,39325,128,0,39547:0:0:0:0:
109,192,39325,1,0,0:0:0:0:
329,192,39547,128,0,39991:0:0:0:0:
475,192,39769,128,0,39991:0:0:0:0:
109,192,39991,128,0,40436:0:0:0:0:
36,192,39991,1,0,0:0:0:0:
182,192,39991,128,0,40213:0:0:0:0:
402,192,39991,128,0,40213:0:0:0:0:
256,192,40213,128,0,40658:0:0:0:0:
329,192,40213,1,0,0:0:0:0:
402,192,40436,128,0,40658:0:0:0:0:
36,192,40658,128,0,41769:0:0:0:0:
109,192,40658,128,0,41547:0:0:0:0:
182,192,40658,1,0,0:0:0:0:
329,192,40658,128,0,41102:0:0:0:0:
256,192,40880,128,0,41102:0:0:0:0:
402,192,41102,128,0,41547:0:0:0:0:
329,192,41325,128,0,41547:0:0:0:0:
256,192,41325,1,0,0:0:0:0:
475,192,41547,128,0,41991:0:0:0:0:
182,192,41547,1,0,0:0:0:0:
402,192,41769,128,0,41991:0:0:0:0:
109,192,41769,1,0,0:0:0:0:
256,192,41991,128,0,42213:0:0:0:0:
329,192,41991,128,0,42658:0:0:0:0:
36,192,41991,1,0,0:0:0:0:
182,192,41991,128,0,42658:0:0:0:0:
109,192,42213,128,0,42436:0:0:0:0:
402,192,42436,128,0,42658:0:0:0:0:
109,192,42658,128,0,42880:0:0:0:0:
329,192,42880,128,0,43325:0:0:0:0:
256,192,42880,128,0,43102:0:0:0:0:
36,192,42880,128,0,43102:0:0:0:0:
475,192,42880,1,0,0:0:0:0:
182,192,43102,128,0,43547:0:0:0:0:
36,192,43325,128,0,43547:0:0:0:0:
402,192,43547,128,0,43991:0:0:0:0:
475,192,43547,1,0,0:0:0:0:
329,192,43547,128,0,43769:0:0:0:0:
109,192,43547,128,0,43769:0:0:0:0:
256,192,43769,128,0,44213:0:0:0:0:
182,192,43769,1,0,0:0:0:0:
109,192,43991,128,0,44213:0:0:0:0:
475,192,44213,128,0,45325:0:0:0:0:
402,192,44213,128,0,45102:0:0:0:0:
329,192,44213,1,0,0:0:0:0:
182,192,44213,128,0,44658:0:0:0:0:
256,192,44436,128,0,44658:0:0:0:0:
109,192,44658,128,0,45102:0:0:0:0:
182,192,44880,128,0,45102:0:0:0:0:
256,192,44880,1,0,0:0:0:0:
36,192,45102,128,0,45547:0:0:0:0:
329,192,45102,1,0,0:0:0:0:
109,192,45325,128,0,45547:0:0:0:0:
402,192,45325,1,0,0:0:0:0:
256,192,45547,128,0,45769:0:0:0:0:
182,192,45547,128,0,46213:0:0:0:0:
475,192,45547,1,0,0:0:0:0:
329,192,45547,128,0,46213:0:0:0:0:
402,192,45769,128,0,45991:0:0:0:0:
109,192,45991,128,0,46213:0:0:0:0:
402,192,46213,128,0,46436:0:0:0:0:
182,192,46436,128,0,46880:0:0:0:0:
256,192,46436,128,0,46658:0:0:0:0:
475,192,46436,128,0,46658:0:0:0:0:
36,192,46436,1,0,0:0:0:0:
329,192,46658,128,0,47102:0:0:0:0:
475,192,46880,128,0,47102:0:0:0:0:
109,192,47102,128,0,47547:0:0:0:0:
36,192,47102,1,0,0:0:0:0:
182,192,47102,128,0,47325:0:0:0:0:
402,192,47102,128,0,47325:0:0:0:0:
256,192,47325,128,0,47769:0:0:0:0:
329,192,47325,1,0,0:0:0:0:
402,192,47547,128,0,47769:0:0:0:0:
36,192,47769,128,0,48880:0:0:0:0:
109,192,47769,128,0,48658:0:0:0:0:
182,192,47769,1,0,0:0:0:0:
329,192,47769,128,0,48213:0:0:0:0:
256,192,47991,128,0,48213:0:0:0:0:
402,192,48213,128,0,48658:0:0:0:0:
329,192,48436,128,0,48658:0:0:0:0:
256,192,48436,1,0,0:0:0:0:
475,192,48658,128,0,49102:0:0:0:0:
182,192,48658,1,0,0:0:0:0:
402,192,48880,128,0,49102:0:0:0:0:
109,192,48880,1,0,0:0:0:0:
182,192,49102,128,0,49769:0:0:0:0:
36,192,49102,1,0,0:0:0:0:
256,192,49102,128,0,49325:0:0:0:0:
329,192,49102,128,0,49769:0:0:0:0:
109,192,49325,128,0,49547:0:0:0:0:
402,192,49547,128,0,49769:0:0:0:0:
256,192,49769,128,0,49991:0:0:0:0:
109,192,49991,128,0,50213:0:0:0:0:
329,192,49991,128,0,50436:0:0:0:0:
475,192,49991,128,0,50436:0:0:0:0:
36,192,49991,1,0,0:0:0:0:
256,192,50213,128,0,50658:0:0:0:0:
109,192,50436,128,0,50658:0:0:0:0:
36,192,50658,128,0,51102:0:0:0:0:
182,192,50658,128,0,51102:0:0:0:0:
402,192,50658,128,0,50880:0:0:0:0:
475,192,50658,1,0,0:0:0:0:
256,192,50880,128,0,51325:0:0:0:0:
329,192,50880,1,0,0:0:0:0:
402,192,51102,128,0,51325:0:0:0:0:
36,192,51325,128,0,55325:0:0:0:0:
475,192,51325,128,0,55325:0:0:0:0:
329,192,51325,128,0,55325:0:0:0:0:
182,192,51325,128,0,55325:0:0:0:0:
