osu file format v14

[General]
AudioFilename: audio.mp3
AudioLeadIn: 0
PreviewTime: 117228
Countdown: 1
SampleSet: Soft
StackLeniency: 0.7
Mode: 0
LetterboxInBreaks: 0
WidescreenStoryboard: 0

[Editor]
DistanceSpacing: 1.5
BeatDivisor: 4
GridSize: 4
TimelineZoom: 2.3

[Metadata]
Title:Chocolate Adventure feat.Nanahira (Speed up ver.)
TitleUnicode:Chocolate Adventure feat. ななひら (Speed up ver.)
Artist:Neko Hacker
ArtistUnicode:Neko Hacker
Creator:Listle
Version:Choco~
Source:
Tags:
BeatmapID:1978124
BeatmapSetID:947090

[Difficulty]
HPDrainRate:5
CircleSize:4
OverallDifficulty:8.3
ApproachRate:9.6
SliderMultiplier:1.7
SliderTickRate:1

[Events]
//Background and Video events
0,0,"bandicam 2019-03-27 13-50-12-128.jpg",0,0
//Break Periods
2,54604,58413
//Storyboard Layer 0 (Background)
//Storyboard Layer 1 (Fail)
//Storyboard Layer 2 (Pass)
//Storyboard Layer 3 (Foreground)
//Storyboard Sound Samples

[TimingPoints]
193,282.352941176471,4,2,1,100,1,0
193,-100,4,2,1,60,0,0
5275,-76.9230769230769,4,2,2,60,0,0
5416,-76.9230769230769,4,2,2,5,0,0
5487,-76.9230769230769,4,2,2,60,0,0
5628,-76.9230769230769,4,2,2,5,0,0
5698,-76.9230769230769,4,2,2,60,0,0
6122,-100,4,2,2,60,0,0
6404,-76.9230769230769,4,2,2,60,0,0
6545,-76.9230769230769,4,2,2,5,0,0
6616,-76.9230769230769,4,2,2,60,0,0
6757,-76.9230769230769,4,2,2,5,0,0
6828,-76.9230769230769,4,2,2,60,0,0
7110,-100,4,2,5,60,0,0
8663,-100,4,2,5,100,0,0
8945,-100,4,2,2,60,0,0
9229,-100,4,2,2,60,0,0
10993,-100,4,2,2,5,0,0
11063,-100,4,2,2,60,0,0
12687,-100,4,2,2,5,0,0
12757,-100,4,2,2,60,0,0
13957,-100,4,2,2,5,0,0
14028,-100,4,2,2,60,0,0
14240,-100,4,2,2,5,0,0
14310,-100,4,2,2,60,0,0
14875,-100,4,2,2,60,0,0
18193,-100,4,2,2,5,0,0
18263,-100,4,2,2,60,0,0
18263,-83.3333333333333,4,2,2,60,0,0
18687,-83.3333333333333,4,2,2,60,0,0
18898,-83.3333333333333,4,2,2,5,0,0
18969,-83.3333333333333,4,2,2,60,0,0
23981,-83.3333333333333,4,2,2,5,0,0
24051,-83.3333333333333,4,2,2,60,0,0
24263,-83.3333333333333,4,2,2,5,0,0
24334,-83.3333333333333,4,2,2,60,0,0
24545,-83.3333333333333,4,2,2,5,0,0
24616,-83.3333333333333,4,2,2,60,0,0
27298,-83.3333333333333,4,2,1,60,0,0
30757,-83.3333333333333,4,2,2,5,0,0
30828,-83.3333333333333,4,2,2,30,0,0
31110,-83.3333333333333,4,2,2,40,0,0
31393,-83.3333333333333,4,2,2,60,0,0
35416,-83.3333333333333,4,2,2,5,0,0
35487,-83.3333333333333,4,2,2,60,0,0
35698,-83.3333333333333,4,2,2,5,0,0
35769,-83.3333333333333,4,2,2,60,0,0
36193,-83.3333333333333,4,2,2,80,0,1
44310,-83.3333333333333,4,2,2,5,0,1
44381,-83.3333333333333,4,2,2,80,0,1
45369,-83.3333333333333,4,2,2,60,0,0
49887,-200,4,2,2,30,0,0
50451,-83.3333333333333,4,2,2,60,0,0
51651,-83.3333333333333,4,2,2,5,0,0
51722,-83.3333333333333,4,2,2,60,0,0
54334,-83.3333333333333,4,2,2,5,0,0
54404,-83.3333333333333,4,2,2,60,0,0
58922,-83.3333333333333,4,2,2,60,0,0
59134,-83.3333333333333,4,2,2,5,0,0
59204,-83.3333333333333,4,2,2,60,0,0
60122,-83.3333333333333,4,2,2,5,0,0
60193,-83.3333333333333,4,2,2,60,0,0
60404,-83.3333333333333,4,2,2,5,0,0
60475,-83.3333333333333,4,2,2,60,0,0
60687,-83.3333333333333,4,2,2,5,0,0
60757,-83.3333333333333,4,2,2,60,0,0
61393,-83.3333333333333,4,2,2,5,0,0
61463,-83.3333333333333,4,2,2,60,0,0
61675,-83.3333333333333,4,2,2,5,0,0
61745,-83.3333333333333,4,2,2,60,0,0
72334,-83.3333333333333,4,2,2,80,0,1
81369,-83.3333333333333,4,2,2,5,0,1
81510,-83.3333333333333,4,2,2,60,0,0
90545,-83.3333333333333,4,2,2,60,0,0
90969,-83.3333333333333,4,2,2,5,0,0
91110,-83.3333333333333,4,2,2,60,0,0
91322,-83.3333333333333,4,2,2,5,0,0
91393,-83.3333333333333,4,2,2,60,0,0
91604,-83.3333333333333,4,2,2,5,0,0
91675,-83.3333333333333,4,2,2,60,0,0
92945,-83.3333333333333,4,2,2,5,0,0
93016,-83.3333333333333,4,2,2,60,0,0
96122,-83.3333333333333,4,2,2,5,0,0
96193,-83.3333333333333,4,2,2,60,0,0
97040,-66.6666666666667,4,2,2,60,0,0
97251,-66.6666666666667,4,2,2,5,0,0
97322,-83.3333333333333,4,2,2,60,0,0
98663,-83.3333333333333,4,2,2,5,0,0
98734,-83.3333333333333,4,2,2,60,0,0
99581,-83.3333333333333,4,2,2,60,0,0
106004,-83.3333333333333,4,2,2,5,0,0
106075,-83.3333333333333,4,2,2,60,0,0
108616,-83.3333333333333,4,2,3,60,0,0
113134,-83.3333333333333,4,2,2,60,0,0
113416,-83.3333333333333,4,2,2,60,0,0
117510,-83.3333333333333,4,2,2,60,0,1
128945,-66.6666666666667,4,2,2,60,0,1
129157,-66.6666666666667,4,2,2,5,0,1
129228,-66.6666666666667,4,2,2,60,0,1
129440,-66.6666666666667,4,2,2,5,0,1
129510,-66.6666666666667,4,2,2,60,0,1
130781,-83.3333333333333,4,2,2,60,0,1
132263,-83.3333333333333,4,2,2,5,0,1
132334,-83.3333333333333,4,2,2,60,0,0
141298,-83.3333333333333,4,2,2,5,0,0
141369,-83.3333333333333,4,2,2,60,0,0
142428,-83.3333333333333,4,2,2,5,0,0
142498,-83.3333333333333,4,2,2,60,0,0
143557,-83.3333333333333,4,2,2,5,0,0
143628,-83.3333333333333,4,2,2,60,0,0
144687,-83.3333333333333,4,2,2,5,0,0
144757,-83.3333333333333,4,2,2,60,0,0
145816,-83.3333333333333,4,2,2,5,0,0
145887,-83.3333333333333,4,2,2,60,0,0
146098,-83.3333333333333,4,2,2,5,0,0
146169,-83.3333333333333,4,2,2,60,0,0
146381,-83.3333333333333,4,2,2,5,0,0
146451,-83.3333333333333,4,2,2,60,0,0
147087,-83.3333333333333,4,2,2,5,0,0
147157,-83.3333333333333,4,2,2,60,0,0
148357,-83.3333333333333,4,2,2,5,0,0
148428,-83.3333333333333,4,2,2,60,0,0
148640,-83.3333333333333,4,2,2,5,0,0
148710,-83.3333333333333,4,2,2,60,0,0
149345,-83.3333333333333,4,2,2,5,0,0
149416,-83.3333333333333,4,2,2,60,0,0
152310,-83.3333333333333,4,2,2,5,0,0
152381,-83.3333333333333,4,2,2,60,0,0
152593,-83.3333333333333,4,2,2,5,0,0
152663,-83.3333333333333,4,2,2,60,0,0
154922,-100,4,2,2,40,0,0
159440,-100,4,2,2,5,0,0

[Colours]
Combo1 : 255,128,128
Combo2 : 255,128,192

[HitObjects]
446,168,193,6,0,L|467:62,1,85
351,22,475,1,2,0:0:0:0:
319,145,616,2,0,B|268:131|268:131|201:139|201:139|136:121,1,170
29,90,1040,1,2,0:0:0:0:
185,2,1181,2,0,B|236:16|236:16|303:8|303:8|368:26,1,170
482,127,1604,1,2,0:0:0:0:
343,225,1745,2,0,B|302:261|302:261|256:373,1,170
401,274,2169,2,0,P|415:208|397:172,1,85,2|0,0:0|0:0,0:0:0:0:
284,22,2451,6,0,B|285:65|260:86|260:86|274:104|274:104|239:140|254:198,1,170,0|2,0:0|0:0,0:0:0:0:
313,334,2875,2,0,P|326:231|320:146,1,170
214,34,3298,1,2,0:0:0:0:
90,151,3440,2,0,B|60:212|60:212|84:328,2,170,8|0|4,0:0|0:0|0:0,0:0:0:0:
90,151,4287,1,8,0:0:0:0:
31,37,4428,6,0,L|81:18,1,42.5,2|0,0:0|0:0,0:0:0:0:
196,47,4569,2,0,L|146:66,1,42.5,2|0,0:0|0:0,0:0:0:0:
90,151,4710,2,0,B|115:210|115:210|237:259,1,170,2|0,0:0|0:0,0:0:0:0:
490,358,5275,6,0,B|448:311|448:311|446:241,1,110.499994941712,8|0,0:0|0:0,0:0:0:0:
511,231,5487,2,0,P|459:191|386:226,1,110.499994941712,8|0,0:0|0:0,0:0:0:0:
370,256,5698,2,0,B|330:271|330:271|332:163,1,110.499994941712,8|0,0:0|0:0,0:0:0:0:
417,73,5981,5,2,0:0:0:0:
417,73,6051,1,2,0:0:0:0:
417,73,6122,2,0,P|437:25|472:-1,1,85,8|0,0:0|0:0,0:0:0:0:
331,123,6404,6,0,P|297:57|305:24,1,110.499994941712,8|0,0:0|0:0,0:0:0:0:
221,28,6616,2,0,P|164:50|107:36,1,110.499994941712,8|0,0:0|0:0,0:0:0:0:
147,124,6828,2,0,P|202:122|252:151,1,110.499994941712,8|0,0:0|0:0,0:0:0:0:
306,210,7110,5,8,0:0:0:0:
230,312,7251,1,8,0:0:0:0:
184,192,7393,1,8,0:0:0:0:
326,285,7534,1,8,0:0:0:0:
179,370,7675,1,8,0:0:0:0:
102,181,7816,1,8,0:0:0:0:
306,210,7957,1,0,0:0:0:0:
121,315,8098,5,8,0:0:0:0:
102,325,8168,1,8,0:0:0:0:
83,335,8239,1,8,0:0:0:0:
64,345,8309,1,8,0:0:0:0:
46,355,8380,1,8,0:0:0:0:
141,27,8663,5,4,0:0:0:0:
453,161,8945,5,2,0:0:0:0:
458,181,9015,1,0,0:0:0:0:
464,201,9086,1,2,0:0:0:0:
469,222,9156,1,0,0:0:0:0:
475,242,9228,6,0,P|479:291|469:344,1,85,4|2,0:0|0:0,0:0:0:0:
403,278,9440,1,0,0:0:0:0:
380,201,9510,2,0,B|376:153|376:153|398:92,1,85,8|0,0:0|0:0,0:0:0:0:
277,251,9793,6,0,B|281:299|281:299|259:360,1,85,0|2,0:0|0:0,0:0:0:0:
204,285,10004,1,0,0:0:0:0:
218,205,10075,2,0,P|219:127|197:88,1,85,8|0,0:0|0:0,0:0:0:0:
24,26,10357,2,0,P|23:104|45:143,1,85,0|2,0:0|0:0,0:0:0:0:
84,170,10569,1,0,0:0:0:0:
100,183,10640,1,8,0:0:0:0:
177,31,10781,6,0,B|237:12|237:12|324:30,1,127.5
401,58,11063,2,0,L|381:111,1,42.5,2|0,0:0|0:0,0:0:0:0:
283,175,11204,2,0,L|303:122,1,42.5,8|0,0:0|0:0,0:0:0:0:
427,180,11345,2,0,L|407:233,1,42.5,2|0,0:0|0:0,0:0:0:0:
336,325,11487,6,0,B|321:274|321:274|355:176,1,127.5,2|0,0:0|0:0,0:0:0:0:
397,276,11769,2,0,P|410:321|402:365,1,85,8|0,0:0|0:0,0:0:0:0:
192,366,12051,2,0,L|174:295,1,42.5,2|0,0:0|0:0,0:0:0:0:
152,220,12193,2,0,L|134:149,1,42.5,2|0,0:0|0:0,0:0:0:0:
115,75,12334,2,0,L|97:4,1,42.5,8|0,0:0|0:0,0:0:0:0:
25,134,12475,6,0,B|9:177|9:177|4:275,1,127.5,2|0,0:0|0:0,0:0:0:0:
32,339,12757,1,2,0:0:0:0:
47,353,12828,1,0,0:0:0:0:
63,365,12898,2,0,L|152:331,1,85,8|0,0:0|0:0,0:0:0:0:
419,221,13181,5,0,0:0:0:0:
123,250,13322,1,0,0:0:0:0:
314,340,13463,2,0,L|360:367,1,42.5,8|0,0:0|0:0,0:0:0:0:
346,254,13604,2,0,L|300:227,1,42.5,2|0,0:0|0:0,0:0:0:0:
213,280,13745,2,0,B|230:200|230:200|274:139,1,127.5,2|0,0:0|0:0,0:0:0:0:
343,170,14028,2,0,B|322:113|322:113|254:65,1,127.5,8|0,0:0|0:0,0:0:0:0:
194,30,14310,6,0,L|129:10,1,42.5,2|0,0:0|0:0,0:0:0:0:
35,68,14451,2,0,L|100:88,1,42.5,2|0,0:0|0:0,0:0:0:0:
203,105,14593,1,8,0:0:0:0:
147,309,14734,2,0,B|116:253|116:253|42:288|0:223,1,170,0|2,0:0|0:0,0:0:0:0:
73,191,15087,1,0,0:0:0:0:
148,191,15157,2,0,L|247:202,1,85,8|0,0:0|0:0,0:0:0:0:
383,358,15440,5,2,0:0:0:0:
398,343,15510,1,0,0:0:0:0:
410,326,15581,1,2,0:0:0:0:
416,305,15651,1,0,0:0:0:0:
418,284,15722,2,0,L|408:175,1,85,8|0,0:0|0:0,0:0:0:0:
499,6,16004,1,0,0:0:0:0:
504,218,16145,6,0,L|514:327,1,85,0|8,0:0|0:0,0:0:0:0:
322,203,16428,1,0,0:0:0:0:
421,15,16569,2,0,L|459:96,1,85
254,28,16851,1,8,0:0:0:0:
40,25,16993,6,0,B|91:54|91:54|134:39|134:39|203:75,1,170,0|2,0:0|0:0,0:0:0:0:
268,105,17345,1,0,0:0:0:0:
202,159,17416,2,0,L|121:117,1,85,8|2,0:0|0:0,0:0:0:0:
49,123,17628,1,0,0:0:0:0:
93,187,17698,2,0,L|174:229,1,85,2|2,0:0|0:0,0:0:0:0:
243,241,17910,1,0,0:0:0:0:
299,186,17981,2,0,P|344:132|327:48,1,127.5,8|0,0:0|0:0,0:0:0:0:
330,36,18263,5,0,0:0:0:0:
482,183,18404,1,0,0:0:0:0:
324,325,18545,1,8,0:0:0:0:
482,183,18687,2,0,L|501:16,1,152.999995330811
503,16,18969,1,0,0:0:0:0:
360,161,19110,1,8,0:0:0:0:
482,323,19251,2,0,B|426:369|426:369|397:287|397:287|366:252,1,203.999993774414
190,149,19675,1,8,0:0:0:0:
122,325,19816,6,0,B|230:309|230:309|334:326,1,203.999993774414,0|2,0:0|0:0,0:0:0:0:
393,342,20169,1,0,0:0:0:0:
417,348,20240,1,8,0:0:0:0:
501,220,20381,1,0,0:0:0:0:
298,245,20522,6,0,L|298:141,1,101.999996887207
444,1,20804,2,0,L|444:105,2,101.999996887207,8|0|0,0:0|0:0|0:0,0:0:0:0:
444,1,21228,1,0,0:0:0:0:
498,197,21369,1,8,0:0:0:0:
298,245,21510,2,0,P|223:211|238:98,1,203.999993774414
378,247,21934,2,0,P|384:309|367:365,1,101.999996887207,8|0,0:0|0:0,0:0:0:0:
290,163,22216,1,0,0:0:0:0:
412,72,22357,6,0,P|467:79|510:128,1,101.999996887207,0|8,0:0|0:0,0:0:0:0:
378,247,22640,1,0,0:0:0:0:
189,324,22781,2,0,B|156:349|156:349|145:184,1,203.999993774414,0|8,0:0|0:0,0:0:0:0:
136,34,23204,1,0,0:0:0:0:
32,146,23345,2,0,L|10:247,2,101.999996887207,0|0|8,0:0|0:0|0:0,0:0:0:0:
136,34,23769,6,0,P|197:62|272:25,1,152.999995330811
346,15,24051,2,0,B|376:76|376:76|367:179,1,152.999995330811,8|0,0:0|0:0,0:0:0:0:
313,215,24334,2,0,B|268:155|268:155|172:127,1,152.999995330811,8|0,0:0|0:0,0:0:0:0:
118,113,24616,2,0,L|114:173,2,50.9999984436036,2|0|8,0:0|0:0|0:0,0:0:0:0:
104,265,24898,1,0,0:0:0:0:
229,354,25040,6,0,L|229:219,1,101.999996887207
89,188,25322,2,0,P|39:218|29:282,1,101.999996887207,8|0,0:0|0:0,0:0:0:0:
142,355,25604,1,0,0:0:0:0:
78,161,25745,2,0,B|51:105|51:105|38:54,1,101.999996887207,0|8,0:0|0:0,0:0:0:0:
241,22,26028,2,0,P|301:52|240:169,1,203.999993774414
169,199,26451,1,8,0:0:0:0:
238,97,26593,1,0,0:0:0:0:
428,23,26734,6,0,L|483:8,1,50.9999984436036,2|0,0:0|0:0,0:0:0:0:
481,112,26875,2,0,B|461:162|461:162|516:218|480:315,1,203.999993774414,2|0,0:0|0:0,0:0:0:0:
348,380,27298,5,2,0:0:0:0:
415,241,27440,1,0,0:0:0:0:
263,259,27581,1,8,0:0:0:0:
447,346,27722,1,0,0:0:0:0:
342,171,27863,1,2,0:0:0:0:
251,353,28004,1,0,0:0:0:0:
415,241,28145,2,0,P|438:176|430:125,1,101.999996887207,8|0,0:0|0:0,0:0:0:0:
343,20,28428,5,2,0:0:0:0:
435,144,28569,1,0,0:0:0:0:
284,170,28710,1,8,0:0:0:0:
446,47,28851,1,0,0:0:0:0:
338,221,28993,2,2,P|268:246|215:141,1,203.999993774414,2|8,0:0|0:0,0:0:0:0:
259,20,29416,5,0,0:0:0:0:
284,170,29557,1,2,0:0:0:0:
139,120,29698,1,0,0:0:0:0:
339,78,29840,1,8,0:0:0:0:
183,209,29981,1,0,0:0:0:0:
140,9,30122,1,2,0:0:0:0:
284,170,30263,1,0,0:0:0:0:
91,236,30404,1,8,0:0:0:0:
284,170,30545,6,0,B|309:217|309:217|295:364,1,152.999995330811,4|0,0:0|0:0,0:0:0:0:
244,372,30828,1,2,0:0:0:0:
233,349,30898,1,0,0:0:0:0:
221,325,30969,2,0,L|221:262,3,50.9999984436036,2|0|2|0,0:0|0:0|0:0|0:0,0:0:0:0:
203,199,31251,2,0,L|203:123,3,50.9999984436036,2|0|2|0,0:0|0:0|0:0|0:0,0:0:0:0:
203,69,31534,1,2,0:0:0:0:
394,74,31675,6,0,B|445:110|445:110|472:281,1,203.999993774414,4|0,0:0|0:0,0:0:0:0:
362,361,32098,1,8,0:0:0:0:
249,256,32240,2,0,B|298:220|298:220|458:289,1,203.999993774414,4|0,0:0|0:0,0:0:0:0:
288,335,32663,1,8,0:0:0:0:
137,306,32804,6,0,B|86:270|86:270|59:99,1,203.999993774414,4|0,0:0|0:0,0:0:0:0:
169,19,33227,1,8,0:0:0:0:
282,124,33369,2,0,B|233:160|233:160|73:91,1,203.999993774414,4|0,0:0|0:0,0:0:0:0:
243,45,33792,1,8,0:0:0:0:
364,139,33934,6,0,B|377:195|377:195|354:288|354:288|373:338,1,203.999993774414,4|0,0:0|0:0,0:0:0:0:
300,200,34357,1,8,0:0:0:0:
438,286,34498,1,0,0:0:0:0:
453,122,34640,1,0,0:0:0:0:
438,286,34781,1,0,0:0:0:0:
289,353,34922,1,8,0:0:0:0:
300,200,35063,1,0,0:0:0:0:
491,367,35204,6,0,P|518:280|472:197,1,152.999995330811,2|0,0:0|0:0,0:0:0:0:
379,170,35487,2,0,P|350:108|390:5,1,152.999995330811,2|0,0:0|0:0,0:0:0:0:
453,122,35769,1,4,0:0:0:0:
325,259,35910,5,0,0:0:0:0:
182,111,36052,1,0,0:0:0:0:
368,28,36193,6,0,P|310:55|235:49,1,101.999996887207,0|2,0:0|0:0,0:0:0:0:
199,36,36404,1,0,0:0:0:0:
174,29,36475,1,2,0:0:0:0:
21,23,36616,2,0,L|8:133,1,101.999996887207,8|0,0:0|0:0,0:0:0:0:
90,253,36898,5,2,0:0:0:0:
90,253,36969,1,0,0:0:0:0:
90,253,37040,2,0,L|103:143,1,101.999996887207,2|8,0:0|0:0,0:0:0:0:
10,274,37322,1,0,0:0:0:0:
186,375,37463,5,0,0:0:0:0:
237,125,37604,1,0,0:0:0:0:
263,378,37745,1,8,0:0:0:0:
162,141,37887,2,0,L|194:250,1,101.999996887207
318,323,38169,1,0,0:0:0:0:
412,202,38310,1,8,0:0:0:0:
271,262,38451,6,0,B|289:187|289:187|329:151|329:151|349:54,1,203.999993774414,0|2,0:0|0:0,0:0:0:0:
356,3,38804,1,0,0:0:0:0:
280,19,38875,2,0,L|257:120,1,101.999996887207,8|0,0:0|0:0,0:0:0:0:
205,175,39087,1,0,0:0:0:0:
160,113,39157,2,0,L|183:12,1,101.999996887207,2|2,0:0|0:0,0:0:0:0:
105,14,39369,1,0,0:0:0:0:
97,38,39440,2,0,L|74:139,1,101.999996887207,8|0,0:0|0:0,0:0:0:0:
3,328,39722,5,0,0:0:0:0:
136,174,39863,1,0,0:0:0:0:
14,10,40004,1,8,0:0:0:0:
65,207,40145,2,0,P|123:249|215:162,1,203.999993774414
268,122,40710,6,0,B|296:159|297:216|265:208|263:282|322:350,1,203.999993774414,4|0,0:0|0:0,0:0:0:0:
451,339,41134,2,0,P|490:283|494:229,1,101.999996887207,8|0,0:0|0:0,0:0:0:0:
396,163,41416,2,0,P|357:219|353:273,1,101.999996887207,0|2,0:0|0:0,0:0:0:0:
427,239,41628,1,0,0:0:0:0:
472,178,41698,2,0,P|460:121|413:86,1,101.999996887207,8|0,0:0|0:0,0:0:0:0:
294,17,41981,5,0,0:0:0:0:
300,169,42122,1,0,0:0:0:0:
429,92,42263,1,8,0:0:0:0:
230,138,42404,2,0,P|228:198|364:212,1,203.999993774414
380,28,42828,1,8,0:0:0:0:
182,77,42969,2,0,P|154:129|272:207,1,203.999993774414
227,12,43393,1,8,0:0:0:0:
35,81,43534,5,0,0:0:0:0:
138,256,43675,1,0,0:0:0:0:
291,53,43816,1,0,0:0:0:0:
65,171,43957,1,8,0:0:0:0:
272,319,44098,2,0,P|291:264|243:145,1,152.999995330811
236,133,44381,5,0,0:0:0:0:
15,259,44522,1,8,0:0:0:0:
218,243,44663,1,0,0:0:0:0:
65,171,44804,2,0,P|41:125|153:102,1,203.999993774414,4|8,0:0|0:0,0:0:0:0:
162,113,45157,5,0,0:0:0:0:
170,137,45228,1,2,0:0:0:0:
169,162,45298,1,0,0:0:0:0:
162,186,45369,6,0,P|139:239|153:296,1,101.999996887207,4|2,0:0|0:0,0:0:0:0:
188,344,45581,1,0,0:0:0:0:
120,377,45651,2,0,P|49:383|10:355,1,101.999996887207,8|0,0:0|0:0,0:0:0:0:
52,221,45934,2,0,P|79:272|76:331,1,101.999996887207,0|2,0:0|0:0,0:0:0:0:
7,292,46145,1,0,0:0:0:0:
6,266,46216,1,8,0:0:0:0:
25,140,46357,6,0,P|64:53|189:74,1,203.999993774414,0|2,0:0|0:0,0:0:0:0:
227,89,46710,1,0,0:0:0:0:
245,107,46781,1,8,0:0:0:0:
225,206,46922,2,0,B|187:244|187:244|106:115,1,203.999993774414,0|2,0:0|0:0,0:0:0:0:
93,95,47275,1,0,0:0:0:0:
92,69,47345,1,8,0:0:0:0:
102,46,47416,1,0,0:0:0:0:
121,30,47486,1,2,0:0:0:0:
145,24,47557,1,0,0:0:0:0:
170,29,47628,6,0,P|229:45|284:26,1,101.999996887207,2|2,0:0|0:0,0:0:0:0:
338,5,47840,1,0,0:0:0:0:
397,52,47910,2,0,P|402:113|379:168,1,101.999996887207,8|0,0:0|0:0,0:0:0:0:
443,348,48193,6,0,P|438:287|461:232,1,101.999996887207,0|2,0:0|0:0,0:0:0:0:
492,185,48404,1,0,0:0:0:0:
504,162,48475,1,8,0:0:0:0:
330,102,48616,2,0,P|255:85|296:172,1,203.999993774414,0|2,0:0|0:0,0:0:0:0:
356,176,48969,1,0,0:0:0:0:
381,248,49040,2,0,P|378:310|358:348,1,101.999996887207,8|0,0:0|0:0,0:0:0:0:
209,369,49322,5,0,0:0:0:0:
133,236,49463,1,0,0:0:0:0:
285,229,49604,2,0,L|271:281,1,50.9999984436036,8|0,0:0|0:0,0:0:0:0:
208,197,49745,2,0,L|228:132,1,50.9999984436036,2|0,0:0|0:0,0:0:0:0:
297,103,49887,6,0,L|244:80,1,42.5,2|0,0:0|0:0,0:0:0:0:
369,24,50169,6,0,L|422:47,1,42.5,2|0,0:0|0:0,0:0:0:0:
493,167,50451,5,0,0:0:0:0:
452,315,50593,1,0,0:0:0:0:
346,204,50734,1,8,0:0:0:0:
493,167,50875,2,0,B|445:216|445:216|422:113|336:107,1,203.999993774414,0|2,0:0|0:0,0:0:0:0:
293,90,51228,1,0,0:0:0:0:
267,87,51298,1,8,0:0:0:0:
72,20,51440,6,0,B|27:70|27:70|13:189,1,152.999995330811
99,216,51722,2,0,L|110:110,2,101.999996887207,0|8|0,0:0|0:0|0:0,0:0:0:0:
23,348,52145,5,2,0:0:0:0:
174,375,52287,1,2,0:0:0:0:
313,311,52428,1,2,0:0:0:0:
313,311,52710,5,2,0:0:0:0:
162,284,52852,1,2,0:0:0:0:
23,348,52993,1,2,0:0:0:0:
45,196,53134,6,2,B|133:159|133:159|176:208|259:184,1,203.999993774414
308,189,53487,1,0,0:0:0:0:
368,235,53557,2,0,P|383:180|340:118,1,101.999996887207,8|0,0:0|0:0,0:0:0:0:
201,119,53840,2,0,P|193:59|207:22,1,101.999996887207
405,69,54122,2,0,P|468:89|463:20,1,152.999995330811,8|0,0:0|0:0,0:0:0:0:
314,20,54404,1,4,0:0:0:0:
40,357,58922,6,0,P|114:338|75:248,1,152.999995330811,2|0,0:0|0:0,0:0:0:0:
25,220,59204,2,0,L|14:114,1,101.999996887207,8|0,0:0|0:0,0:0:0:0:
197,25,59487,1,0,0:0:0:0:
297,202,59628,1,0,0:0:0:0:
135,77,59769,1,8,0:0:0:0:
329,16,59910,6,0,P|339:91|413:140,1,152.999995330811
476,203,60193,2,0,P|509:265|489:366,1,152.999995330811,8|0,0:0|0:0,0:0:0:0:
398,337,60475,2,0,P|435:280|352:262,1,152.999995330811,8|0,0:0|0:0,0:0:0:0:
305,300,60757,2,0,P|289:247|301:191,2,101.999996887207,0|8|0,0:0|0:0|0:0,0:0:0:0:
163,359,61181,6,0,B|84:372|84:372|3:336,1,152.999995330811
29,266,61463,2,0,P|37:201|129:149,1,152.999995330811,8|0,0:0|0:0,0:0:0:0:
104,237,61745,2,0,P|175:194|180:152,1,101.999996887207
214,31,62028,1,8,0:0:0:0:
352,94,62169,6,0,B|308:99|308:99|279:85|279:85|214:127|141:81,1,203.999993774414,4|0,0:0|0:0,0:0:0:0:
348,15,62593,2,0,P|410:37|437:87,1,101.999996887207,8|0,0:0|0:0,0:0:0:0:
360,200,62875,1,0,0:0:0:0:
481,363,63016,5,0,0:0:0:0:
503,160,63157,1,8,0:0:0:0:
407,339,63298,1,0,0:0:0:0:
291,169,63440,2,0,P|336:128|398:132,2,101.999996887207,0|0|8,0:0|0:0|0:0,0:0:0:0:
194,348,63863,5,0,0:0:0:0:
62,271,64004,1,0,0:0:0:0:
194,195,64145,1,0,0:0:0:0:
93,373,64287,1,8,0:0:0:0:
115,170,64428,5,0,0:0:0:0:
192,302,64569,1,0,0:0:0:0:
268,170,64710,1,0,0:0:0:0:
85,259,64851,1,8,0:0:0:0:
290,257,64993,1,0,0:0:0:0:
190,79,65134,1,0,0:0:0:0:
191,282,65275,1,0,0:0:0:0:
345,148,65416,6,0,L|451:115,1,101.999996887207,8|0,0:0|0:0,0:0:0:0:
308,43,65698,2,0,L|202:76,1,101.999996887207
64,120,65981,1,8,0:0:0:0:
211,159,66122,1,0,0:0:0:0:
173,10,66263,1,0,0:0:0:0:
112,204,66404,1,0,0:0:0:0:
311,164,66545,1,8,0:0:0:0:
173,10,66687,6,0,B|98:16|98:16|23:53,1,152.999995330811
123,87,66969,2,0,L|184:82,4,50.9999984436036,2|0|2|0|2,0:0|0:0|0:0|0:0|0:0,0:0:0:0:
327,75,67393,5,0,0:0:0:0:
408,66,67534,1,0,0:0:0:0:
489,57,67675,1,0,0:0:0:0:
449,256,67816,6,0,B|491:288|491:288|456:119,1,203.999993774414,4|0,0:0|0:0,0:0:0:0:
306,135,68240,1,2,0:0:0:0:
397,316,68381,2,0,B|326:316|326:316|278:336|278:336|187:336,1,203.999993774414,4|0,0:0|0:0,0:0:0:0:
81,235,68804,1,2,0:0:0:0:
284,242,68945,2,0,B|376:242|376:242|309:206|306:135,1,203.999993774414,4|0,0:0|0:0,0:0:0:0:
280,4,69369,1,2,0:0:0:0:
379,133,69510,2,0,P|438:185|475:87,1,203.999993774414,4|0,0:0|0:0,0:0:0:0:
357,13,69934,1,2,0:0:0:0:
223,87,70075,6,0,B|205:140|205:140|221:186|221:186|192:231|213:300,1,203.999993774414,4|0,0:0|0:0,0:0:0:0:
388,376,70498,1,8,0:0:0:0:
280,265,70640,2,0,P|286:217|337:180,1,101.999996887207
474,150,70922,1,0,0:0:0:0:
345,307,71063,1,8,0:0:0:0:
397,120,71204,2,0,B|382:171|411:203|411:203|395:233|395:233|438:262|426:336,1,203.999993774414
226,338,71628,6,0,P|163:322|213:228,1,203.999993774414,4|0,0:0|0:0,0:0:0:0:
216,156,72051,2,0,L|216:48,1,101.999996887207,4|0,0:0|0:0,0:0:0:0:
66,17,72334,6,0,B|44:69|44:69|147:101|112:220,1,203.999993774414,4|2,0:0|0:0,0:0:0:0:
98,253,72687,1,0,0:0:0:0:
22,254,72757,2,0,P|27:185|54:145,1,101.999996887207,8|0,0:0|0:0,0:0:0:0:
205,33,73040,6,0,P|264:54|320:42,1,101.999996887207,0|2,0:0|0:0,0:0:0:0:
372,22,73251,1,0,0:0:0:0:
436,63,73322,2,0,P|460:115|454:172,1,101.999996887207,8|0,0:0|0:0,0:0:0:0:
396,352,73604,5,0,0:0:0:0:
365,99,73745,1,0,0:0:0:0:
472,331,73887,1,8,0:0:0:0:
218,306,74028,2,0,B|151:306|151:306|114:329|114:329|10:330,1,203.999993774414
17,177,74451,1,8,0:0:0:0:
159,234,74593,6,0,B|225:234|225:234|262:210|262:210|366:209,1,203.999993774414,0|2,0:0|0:0,0:0:0:0:
424,243,74945,1,0,0:0:0:0:
470,304,75016,2,0,P|503:248|487:197,1,101.999996887207,8|0,0:0|0:0,0:0:0:0:
451,151,75228,1,0,0:0:0:0:
433,133,75298,2,0,P|405:80|415:37,1,101.999996887207,2|2,0:0|0:0,0:0:0:0:
481,76,75510,1,0,0:0:0:0:
500,92,75581,1,8,0:0:0:0:
366,183,75722,1,0,0:0:0:0:
211,301,75863,5,0,0:0:0:0:
280,56,76004,1,0,0:0:0:0:
457,238,76145,1,8,0:0:0:0:
231,115,76287,2,0,P|204:49|309:-15,1,203.999993774414
408,325,76851,6,0,B|351:325|351:325|313:301|313:301|202:301,1,203.999993774414,4|0,0:0|0:0,0:0:0:0:
149,347,77204,1,0,0:0:0:0:
84,305,77275,2,0,B|69:253|69:253|81:199,1,101.999996887207,8|0,0:0|0:0,0:0:0:0:
213,52,77557,1,0,0:0:0:0:
154,247,77698,1,0,0:0:0:0:
7,102,77840,1,8,0:0:0:0:
193,183,77981,1,0,0:0:0:0:
13,86,78122,5,0,0:0:0:0:
88,329,78263,1,0,0:0:0:0:
233,119,78404,1,8,0:0:0:0:
13,86,78545,2,0,B|95:64|95:64|133:30|133:30|224:8,1,203.999993774414
396,68,78969,1,8,0:0:0:0:
236,196,79110,2,0,P|178:172|212:43,1,203.999993774414
308,221,79534,6,0,P|268:264|220:269,1,101.999996887207,8|0,0:0|0:0,0:0:0:0:
232,117,79816,1,0,0:0:0:0:
372,175,79957,1,0,0:0:0:0:
412,322,80098,1,8,0:0:0:0:
227,270,80240,1,0,0:0:0:0:
428,113,80381,5,0,0:0:0:0:
227,270,80522,1,0,0:0:0:0:
466,182,80663,1,8,0:0:0:0:
257,35,80804,1,0,0:0:0:0:
291,314,80945,6,4,B|328:245|267:196|267:196|237:118|307:69|307:69|269:46,1,305.999990661621
341,148,81510,6,0,L|445:171,1,101.999996887207
507,364,81793,2,0,L|403:341,1,101.999996887207,8|0,0:0|0:0,0:0:0:0:
205,371,82075,1,0,0:0:0:0:
84,146,82216,1,0,0:0:0:0:
341,148,82357,1,8,0:0:0:0:
151,319,82498,1,0,0:0:0:0:
29,93,82640,6,0,P|87:71|154:114,1,101.999996887207
245,307,82922,2,0,P|187:329|120:286,1,101.999996887207,8|0,0:0|0:0,0:0:0:0:
249,83,83204,1,0,0:0:0:0:
191,257,83345,1,0,0:0:0:0:
189,31,83487,1,8,0:0:0:0:
268,240,83628,1,0,0:0:0:0:
410,66,83769,5,2,0:0:0:0:
410,66,83840,1,0,0:0:0:0:
410,66,83910,2,0,L|421:126,1,50.9999984436036,2|0,0:0|0:0,0:0:0:0:
276,157,84051,5,8,0:0:0:0:
276,157,84122,1,0,0:0:0:0:
276,157,84192,2,0,L|265:97,1,50.9999984436036,2|0,0:0|0:0,0:0:0:0:
370,185,84334,2,0,L|400:297,1,101.999996887207,2|0,0:0|0:0,0:0:0:0:
171,164,84616,2,0,L|141:52,1,101.999996887207,8|0,0:0|0:0,0:0:0:0:
342,17,84898,5,0,0:0:0:0:
488,160,85040,1,0,0:0:0:0:
288,199,85181,1,8,0:0:0:0:
441,65,85322,1,0,0:0:0:0:
499,260,85463,2,0,L|396:186,1,101.999996887207
416,200,86028,6,0,B|380:252|411:314,1,101.999996887207,4|0,0:0|0:0,0:0:0:0:
263,352,86310,2,8,B|294:297|267:237,1,101.999996887207,8|0,0:0|0:0,0:0:0:0:
469,254,86593,1,0,0:0:0:0:
207,296,86734,1,0,0:0:0:0:
277,40,86875,1,8,0:0:0:0:
349,294,87016,1,0,0:0:0:0:
211,79,87157,6,0,P|174:43|104:34,1,101.999996887207
264,246,87440,2,0,P|301:282|370:290,1,101.999996887207,8|0,0:0|0:0,0:0:0:0:
503,161,87722,5,2,0:0:0:0:
503,161,87793,1,0,0:0:0:0:
503,161,87863,2,0,L|437:118,1,50.9999984436036,2|0,0:0|0:0,0:0:0:0:
307,154,88004,5,8,0:0:0:0:
307,154,88075,1,0,0:0:0:0:
307,154,88145,2,0,L|373:197,1,50.9999984436036,2|0,0:0|0:0,0:0:0:0:
352,51,88287,2,0,L|246:15,1,101.999996887207,2|0,0:0|0:0,0:0:0:0:
85,207,88569,2,0,L|191:243,1,101.999996887207,8|0,0:0|0:0,0:0:0:0:
255,18,88851,2,0,L|154:67,1,101.999996887207
176,317,89133,2,0,L|276:267,1,101.999996887207,8|0,0:0|0:0,0:0:0:0:
368,308,89416,5,2,0:0:0:0:
414,121,89557,1,2,0:0:0:0:
255,18,89698,1,2,0:0:0:0:
107,140,89840,1,2,0:0:0:0:
176,317,89981,1,2,0:0:0:0:
312,166,90122,1,2,0:0:0:0:
296,145,90193,1,0,0:0:0:0:
280,125,90263,1,8,0:0:0:0:
40,103,90545,6,0,B|16:162|64:202|64:202|18:231|-2:321|75:351|123:343,1,305.999990661621,4|0,0:0|0:0,0:0:0:0:
105,265,91110,2,0,P|141:191|100:132,1,152.999995330811,2|0,0:0|0:0,0:0:0:0:
40,103,91393,2,0,P|88:65|175:94,1,152.999995330811,8|0,0:0|0:0,0:0:0:0:
221,146,91675,2,0,B|252:162|252:162|223:50|325:11,1,203.999993774414,2|8,0:0|0:0,0:0:0:0:
460,20,92098,5,2,0:0:0:0:
476,45,92168,1,0,0:0:0:0:
489,68,92240,2,0,L|501:129,3,50.9999984436036,2|0|2|0,0:0|0:0|0:0|0:0,0:0:0:0:
428,225,92522,2,0,L|416:164,3,50.9999984436036,8|0|2|0,0:0|0:0|0:0|0:0,0:0:0:0:
333,119,92804,2,0,P|333:181|303:240,1,101.999996887207,2|0,0:0|0:0,0:0:0:0:
242,209,93016,2,0,B|253:271|253:271|338:320,1,152.999995330811,2|0,0:0|0:0,0:0:0:0:
400,348,93298,1,0,0:0:0:0:
424,349,93369,6,0,P|463:295|417:220,2,152.999995330811,2|0|2,0:0|0:0|0:0,0:0:0:0:
272,373,93934,6,0,B|194:357|194:357|156:255,2,152.999995330811,2|0|2,0:0|0:0|0:0,0:0:0:0:
220,229,94498,2,0,P|166:213|109:336,1,203.999993774414,4|8,0:0|0:0,0:0:0:0:
168,288,94922,1,0,0:0:0:0:
40,203,95063,2,0,L|4:151,3,50.9999984436036,2|0|2|0,0:0|0:0|0:0|0:0,0:0:0:0:
57,41,95345,2,0,L|93:93,3,50.9999984436036,8|0|2|0,0:0|0:0|0:0|0:0,0:0:0:0:
197,150,95628,2,0,B|187:95|187:95|197:41,1,101.999996887207,2|0,0:0|0:0,0:0:0:0:
398,69,95910,2,0,B|349:117|349:117|222:93,1,152.999995330811,8|0,0:0|0:0,0:0:0:0:
275,23,96193,6,0,L|336:35,3,50.9999984436036,2|0|2|0,0:0|0:0|0:0|0:0,0:0:0:0:
452,16,96475,2,0,L|480:64,3,50.9999984436036,8|0|2|0,0:0|0:0|0:0|0:0,0:0:0:0:
487,187,96757,2,0,B|465:252|465:252|475:321,1,101.999996887207,2|0,0:0|0:0,0:0:0:0:
299,374,97040,2,0,B|325:310|325:310|304:172,1,191.250007295609,8|0,0:0|0:0,0:0:0:0:
346,123,97322,2,0,L|276:84,2,50.9999984436036,2|0|2,0:0|0:0|0:0,0:0:0:0:
207,186,97604,5,8,0:0:0:0:
399,253,97745,1,0,0:0:0:0:
484,66,97887,2,0,B|454:36|454:36|450:65|450:65|437:31|437:31|434:68|434:68|385:17|264:29,1,305.999990661621,4|2,0:0|0:0,0:0:0:0:
207,38,98381,1,0,0:0:0:0:
144,81,98451,2,0,P|77:91|13:23,1,152.999995330811,2|0,0:0|0:0,0:0:0:0:
96,15,98734,1,8,0:0:0:0:
7,198,98875,1,0,0:0:0:0:
205,153,99016,6,0,B|225:189|225:189|205:184|205:184|201:216|201:216|181:201|181:201|123:283|166:381,1,305.999990661621,4|0,0:0|0:0,0:0:0:0:
389,360,99581,6,0,P|421:298|423:257,1,101.999996887207,2|0,0:0|0:0,0:0:0:0:
221,290,99863,2,0,P|234:348|271:384,1,101.999996887207,8|0,0:0|0:0,0:0:0:0:
394,197,100145,2,0,P|343:165|292:165,1,101.999996887207
130,132,100428,2,0,P|89:83|90:7,1,101.999996887207,8|0,0:0|0:0,0:0:0:0:
255,38,100710,2,0,B|304:85|304:85|159:63,1,203.999993774414,0|8,0:0|0:0,0:0:0:0:
334,8,101134,2,0,B|392:76|392:76|326:192,1,203.999993774414,2|0,0:0|0:0,0:0:0:0:
500,123,101557,2,0,L|510:15,1,101.999996887207,8|0,0:0|0:0,0:0:0:0:
420,171,101840,5,0,0:0:0:0:
398,342,101981,1,0,0:0:0:0:
498,201,102122,1,8,0:0:0:0:
326,177,102263,1,0,0:0:0:0:
398,342,102404,6,0,L|441:284,2,67.9999979248048
366,231,102687,6,0,L|323:173,2,67.9999979248048,8|0|0,0:0|0:0|0:0,0:0:0:0:
294,321,102969,6,0,B|234:354|234:354|105:297,1,203.999993774414,0|8,0:0|0:0,0:0:0:0:
2,188,103393,2,0,P|39:125|14:0,1,203.999993774414
2,188,103816,1,8,0:0:0:0:
256,192,104098,5,0,0:0:0:0:
256,192,104381,1,8,0:0:0:0:
372,24,104522,1,0,0:0:0:0:
452,211,104663,1,0,0:0:0:0:
273,113,104804,1,0,0:0:0:0:
475,86,104945,1,8,0:0:0:0:
423,284,105087,1,0,0:0:0:0:
273,113,105228,6,0,L|209:25,2,101.999996887207,0|0|8,0:0|0:0|0:0,0:0:0:0:
346,246,105651,1,0,0:0:0:0:
255,370,105793,2,0,P|174:315|223:277,1,152.999995330811,2|0,0:0|0:0,0:0:0:0:
249,251,106075,2,0,B|201:216|201:216|153:224|153:224|118:177|50:183,1,203.999993774414,8|0,0:0|0:0,0:0:0:0:
31,340,106498,2,0,P|73:298|81:257,2,101.999996887207,0|8|0,0:0|0:0|0:0,0:0:0:0:
11,177,106922,5,0,0:0:0:0:
99,40,107063,1,0,0:0:0:0:
241,119,107204,1,8,0:0:0:0:
153,256,107345,1,0,0:0:0:0:
67,115,107487,6,0,P|26:68|27:11,1,101.999996887207,4|0,0:0|0:0,0:0:0:0:
68,109,107769,2,0,P|27:62|28:5,1,101.999996887207,4|0,0:0|0:0,0:0:0:0:
227,13,108193,5,0,0:0:0:0:
333,122,108334,1,0,0:0:0:0:
314,273,108475,1,0,0:0:0:0:
314,273,108898,5,8,0:0:0:0:
333,122,109463,5,8,0:0:0:0:
227,13,110028,5,8,0:0:0:0:
29,63,110593,5,8,0:0:0:0:
10,214,111158,5,8,0:0:0:0:
116,323,111723,5,8,0:0:0:0:
314,273,112287,5,8,0:0:0:0:
333,122,112710,5,8,0:0:0:0:
227,13,112993,6,0,L|221:137,1,101.999996887207
144,246,113275,1,0,0:0:0:0:
132,223,113345,1,0,0:0:0:0:
121,199,113416,6,0,P|118:144|138:99,1,101.999996887207,8|2,0:0|0:0,0:0:0:0:
128,25,113628,1,0,0:0:0:0:
65,67,113698,2,0,P|41:127|39:186,1,101.999996887207,2|2,0:0|0:0,0:0:0:0:
52,239,113910,1,0,0:0:0:0:
93,303,113981,2,0,P|147:322|207:290,1,101.999996887207,8|0,0:0|0:0,0:0:0:0:
267,178,114263,5,0,0:0:0:0:
379,348,114404,1,0,0:0:0:0:
462,162,114545,1,8,0:0:0:0:
293,279,114687,1,0,0:0:0:0:
293,279,114969,5,0,0:0:0:0:
402,107,115110,1,8,0:0:0:0:
193,38,115251,2,0,P|172:100|266:177,1,203.999993774414,0|2,0:0|0:0,0:0:0:0:
343,176,115604,1,0,0:0:0:0:
334,99,115675,2,0,P|294:75|241:114,1,101.999996887207,8|0,0:0|0:0,0:0:0:0:
163,225,115957,1,0,0:0:0:0:
18,175,116098,1,0,0:0:0:0:
78,33,116240,1,8,0:0:0:0:
86,236,116381,6,0,P|126:292|241:240,1,203.999993774414
211,50,116804,1,8,0:0:0:0:
163,225,116945,1,0,0:0:0:0:
341,179,117087,1,0,0:0:0:0:
164,129,117228,5,0,0:0:0:0:
89,96,117369,1,0,0:0:0:0:
13,64,117510,6,0,P|40:156|140:155,1,203.999993774414,4|2,0:0|0:0,0:0:0:0:
195,111,117863,1,0,0:0:0:0:
248,55,117934,2,0,P|300:30|356:27,1,101.999996887207,8|0,0:0|0:0,0:0:0:0:
485,83,118216,2,0,B|462:138|462:138|472:209,1,101.999996887207,0|2,0:0|0:0,0:0:0:0:
495,251,118428,1,0,0:0:0:0:
505,326,118498,2,0,P|463:363|412:372,1,101.999996887207,8|0,0:0|0:0,0:0:0:0:
228,331,118781,5,0,0:0:0:0:
429,299,118922,1,0,0:0:0:0:
229,256,119063,1,8,0:0:0:0:
365,104,119204,2,0,P|438:108|423:228,1,203.999993774414
302,150,119628,1,8,0:0:0:0:
212,26,119769,6,0,B|153:26|153:26|102:3|102:3|7:3,1,203.999993774414,0|2,0:0|0:0,0:0:0:0:
21,79,120122,1,0,0:0:0:0:
95,98,120193,2,0,L|207:98,1,101.999996887207,8|0,0:0|0:0,0:0:0:0:
270,78,120404,1,0,0:0:0:0:
294,71,120475,2,0,L|406:71,1,101.999996887207,2|0,0:0|0:0,0:0:0:0:
467,98,120687,1,0,0:0:0:0:
459,122,120757,6,0,P|446:177|459:238,1,101.999996887207,8|0,0:0|0:0,0:0:0:0:
374,354,121040,1,0,0:0:0:0:
375,150,121181,1,0,0:0:0:0:
470,330,121322,1,8,0:0:0:0:
314,198,121463,1,0,0:0:0:0:
112,363,121745,1,0,0:0:0:0:
112,363,122028,6,0,P|35:313|112:278,1,203.999993774414,4|2,0:0|0:0,0:0:0:0:
171,304,122381,1,0,0:0:0:0:
230,350,122451,2,0,P|285:369|335:367,1,101.999996887207,8|2,0:0|0:0,0:0:0:0:
402,349,122663,1,0,0:0:0:0:
391,325,122734,2,0,P|374:267|377:218,1,101.999996887207,2|0,0:0|0:0,0:0:0:0:
392,151,122945,1,0,0:0:0:0:
406,129,123016,2,0,P|434:99|514:97,1,101.999996887207,8|0,0:0|0:0,0:0:0:0:
320,111,123298,5,0,0:0:0:0:
488,227,123440,1,0,0:0:0:0:
498,23,123581,1,8,0:0:0:0:
294,40,123722,2,0,P|250:84|316:187,1,203.999993774414
488,227,124145,1,8,0:0:0:0:
383,366,124287,2,0,B|344:306|344:306|396:220|396:220|393:158,1,203.999993774414
389,35,124710,1,8,0:0:0:0:
279,141,124851,6,0,L|197:217,2,101.999996887207
389,35,125275,1,8,0:0:0:0:
239,64,125416,2,0,B|172:122|172:122|40:36,1,203.999993774414,0|2,0:0|0:0,0:0:0:0:
16,9,125769,1,0,0:0:0:0:
9,85,125840,2,0,P|18:152|12:194,1,101.999996887207,8|0,0:0|0:0,0:0:0:0:
21,338,126122,5,0,0:0:0:0:
89,146,126263,1,0,0:0:0:0:
227,295,126404,1,8,0:0:0:0:
307,108,126545,1,0,0:0:0:0:
87,240,126687,1,0,0:0:0:0:
315,353,126828,1,0,0:0:0:0:
229,113,126969,1,8,0:0:0:0:
342,281,127110,5,0,0:0:0:0:
453,110,127251,1,0,0:0:0:0:
260,182,127393,1,0,0:0:0:0:
419,308,127534,1,8,0:0:0:0:
298,83,127675,2,0,P|248:38|153:111,1,203.999993774414,0|2,0:0|0:0,0:0:0:0:
182,178,128028,1,0,0:0:0:0:
210,248,128098,2,0,P|219:311|206:352,1,101.999996887207,8|0,0:0|0:0,0:0:0:0:
55,363,128381,1,0,0:0:0:0:
208,346,128522,5,0,0:0:0:0:
296,296,128663,1,8,0:0:0:0:
385,245,128804,1,0,0:0:0:0:
467,72,128945,6,0,B|343:32|343:32|379:66|378:104,1,191.250007295609
336,178,129228,2,0,P|268:175|312:92,1,191.250007295609,8|0,0:0|0:0,0:0:0:0:
405,147,129510,2,0,B|454:198|454:198|481:259,1,127.500004863739,8|0,0:0|0:0,0:0:0:0:
487,326,129722,1,0,0:0:0:0:
472,354,129793,1,2,0:0:0:0:
346,100,129934,6,0,P|279:56|196:181,1,255.000009727478,8|0,0:0|0:0,0:0:0:0:
273,298,130357,2,0,B|340:313|340:313|264:127,1,255.000009727478,8|0,0:0|0:0,0:0:0:0:
212,249,130781,2,0,P|197:310|219:354,2,101.999996887207,0|8|0,0:0|0:0|0:0,0:0:0:0:
346,100,131204,1,0,0:0:0:0:
491,243,131345,6,0,B|471:177|471:177|492:116|492:116|472:34,1,203.999993774414,4|0,0:0|0:0,0:0:0:0:
407,241,131769,2,0,L|440:341,1,101.999996887207
285,265,132051,2,0,B|292:222|259:188|259:188|307:164|298:98,1,152.999995330811,8|0,0:0|0:0,0:0:0:0:
221,119,132334,6,0,P|188:161|188:187,2,50.9999984436036,2|0|2,0:0|0:0|0:0,0:0:0:0:
209,250,132616,2,0,P|147:275|91:251,1,101.999996887207,8|0,0:0|0:0,0:0:0:0:
25,169,132898,2,0,P|87:144|143:168,1,101.999996887207
209,250,133181,1,8,0:0:0:0:
77,328,133322,1,0,0:0:0:0:
119,151,133463,2,0,P|142:78|101:42,1,101.999996887207
90,238,133745,2,0,P|67:311|108:347,1,101.999996887207,8|0,0:0|0:0,0:0:0:0:
259,357,134028,6,0,L|281:302,1,50.9999984436036,2|0,0:0|0:0,0:0:0:0:
319,188,134169,1,2,0:0:0:0:
383,348,134310,2,0,B|429:366|429:366|500:356,1,101.999996887207,8|0,0:0|0:0,0:0:0:0:
401,203,134593,2,0,P|353:112|242:150,1,203.999993774414,0|8,0:0|0:0,0:0:0:0:
181,250,135016,1,0,0:0:0:0:
238,54,135157,6,0,P|352:37|450:105,1,203.999993774414,0|8,0:0|0:0,0:0:0:0:
489,218,135581,1,2,0:0:0:0:
391,335,135722,2,0,B|343:376|343:376|385:298|384:224,1,203.999993774414,0|8,0:0|0:0,0:0:0:0:
264,122,136145,1,0,0:0:0:0:
300,271,136287,2,0,P|283:328|251:371,1,101.999996887207
223,213,136569,2,0,P|240:156|272:113,1,101.999996887207,8|0,0:0|0:0,0:0:0:0:
204,316,136851,6,0,P|150:269|166:108,1,203.999993774414,0|8,0:0|0:0,0:0:0:0:
226,14,137275,1,0,0:0:0:0:
74,34,137416,2,0,L|29:72,2,50.9999984436036,2|0|2,0:0|0:0|0:0,0:0:0:0:
2,209,137698,1,8,0:0:0:0:
141,143,137840,1,0,0:0:0:0:
226,14,137981,6,0,P|280:61|264:222,1,203.999993774414,0|8,0:0|0:0,0:0:0:0:
204,316,138404,1,0,0:0:0:0:
356,296,138545,2,0,L|401:258,2,50.9999984436036,2|0|0,0:0|0:0|0:0,0:0:0:0:
428,121,138828,1,8,0:0:0:0:
289,187,138969,1,0,0:0:0:0:
356,296,139110,6,0,L|386:357,1,50.9999984436036,2|0,0:0|0:0,0:0:0:0:
479,358,139251,2,0,L|449:297,1,50.9999984436036,2|0,0:0|0:0,0:0:0:0:
402,194,139393,2,0,P|356:148|361:87,1,101.999996887207,8|0,0:0|0:0,0:0:0:0:
478,28,139675,6,0,L|514:68,1,50.9999984436036,2|0,0:0|0:0,0:0:0:0:
462,158,139816,2,0,L|426:118,1,50.9999984436036,2|0,0:0|0:0,0:0:0:0:
338,28,139957,2,0,P|283:12|225:39,1,101.999996887207,8|0,0:0|0:0,0:0:0:0:
207,214,140240,5,0,0:0:0:0:
288,84,140381,1,0,0:0:0:0:
135,91,140522,1,8,0:0:0:0:
317,182,140663,1,0,0:0:0:0:
199,15,140804,1,0,0:0:0:0:
86,243,140945,1,0,0:0:0:0:
342,254,141087,2,0,P|389:200|354:114,1,152.999995330811,8|0,0:0|0:0,0:0:0:0:
288,84,141369,6,0,L|248:124,3,50.9999984436036,2|0|2|0,0:0|0:0|0:0|0:0,0:0:0:0:
184,175,141651,2,0,L|115:162,3,50.9999984436036,8|0|2|0,0:0|0:0|0:0|0:0,0:0:0:0:
82,93,141934,1,2,0:0:0:0:
61,122,142004,1,0,0:0:0:0:
52,156,142075,1,2,0:0:0:0:
54,191,142145,1,0,0:0:0:0:
69,224,142216,2,0,P|101:287|79:377,1,152.999995330811,8|0,0:0|0:0,0:0:0:0:
28,300,142498,6,0,L|-2:249,3,50.9999984436036,2|0|2|0,0:0|0:0|0:0|0:0,0:0:0:0:
54,191,142781,2,0,L|109:161,3,50.9999984436036,8|0|2|0,0:0|0:0|0:0|0:0,0:0:0:0:
174,210,143063,1,2,0:0:0:0:
184,176,143133,1,0,0:0:0:0:
180,140,143204,1,2,0:0:0:0:
163,109,143274,1,0,0:0:0:0:
135,88,143345,2,0,P|172:32|260:33,1,152.999995330811,8|0,0:0|0:0,0:0:0:0:
330,68,143628,6,0,L|310:122,3,50.9999984436036,2|0|2|0,0:0|0:0|0:0|0:0,0:0:0:0:
301,202,143910,2,0,L|321:256,3,50.9999984436036,8|0|2|0,0:0|0:0|0:0|0:0,0:0:0:0:
278,328,144193,1,2,0:0:0:0:
313,333,144263,1,0,0:0:0:0:
347,325,144334,1,2,0:0:0:0:
376,305,144404,1,0,0:0:0:0:
396,276,144475,2,0,P|412:201|486:149,1,152.999995330811,8|0,0:0|0:0,0:0:0:0:
475,241,144757,6,0,L|485:298,3,50.9999984436036,2|0|2|0,0:0|0:0|0:0|0:0,0:0:0:0:
412,342,145040,2,0,L|374:302,3,50.9999984436036,8|0|2|0,0:0|0:0|0:0|0:0,0:0:0:0:
315,242,145322,1,2,0:0:0:0:
289,217,145392,1,0,0:0:0:0:
257,202,145463,1,2,0:0:0:0:
221,200,145533,1,0,0:0:0:0:
187,210,145604,2,0,P|131:230|36:197,1,152.999995330811,8|0,0:0|0:0,0:0:0:0:
33,100,145887,6,0,B|75:61|75:61|121:175,1,152.999995330811,4|0,0:0|0:0,0:0:0:0:
112,252,146169,2,0,P|100:324|178:377,1,152.999995330811,4|0,0:0|0:0,0:0:0:0:
254,354,146451,2,0,P|199:310|162:302,1,101.999996887207,4|0,0:0|0:0,0:0:0:0:
27,362,146734,1,8,0:0:0:0:
192,243,146875,2,0,P|119:172|47:211,1,152.999995330811
10,216,147157,5,0,0:0:0:0:
154,359,147298,1,8,0:0:0:0:
256,181,147440,1,0,0:0:0:0:
79,283,147581,1,0,0:0:0:0:
370,374,147863,1,8,0:0:0:0:
500,97,148145,6,0,B|471:52|471:52|364:10,1,152.999995330811,4|0,0:0|0:0,0:0:0:0:
310,42,148428,2,0,B|307:97|307:97|253:184,1,152.999995330811,4|0,0:0|0:0,0:0:0:0:
180,162,148710,2,0,L|234:72,1,101.999996887207,4|0,0:0|0:0,0:0:0:0:
407,182,148993,1,8,0:0:0:0:
227,220,149134,2,0,P|130:219|111:137,1,152.999995330811
89,103,149416,5,0,0:0:0:0:
283,163,149557,1,8,0:0:0:0:
124,290,149698,1,0,0:0:0:0:
213,105,149840,1,0,0:0:0:0:
504,14,150122,1,8,0:0:0:0:
488,319,150404,6,0,B|444:347|444:347|387:360,1,101.999996887207
248,312,150687,2,0,B|292:284|292:284|349:271,1,101.999996887207,8|0,0:0|0:0,0:0:0:0:
488,319,150969,1,0,0:0:0:0:
441,120,151110,1,0,0:0:0:0:
258,209,151251,1,8,0:0:0:0:
462,196,151393,2,0,P|516:108|446:43,1,203.999993774414
254,64,151816,6,0,P|195:58|158:30,1,101.999996887207,8|0,0:0|0:0,0:0:0:0:
333,48,152098,2,0,B|333:106|290:132|290:132|340:159|344:198,1,152.999995330811
392,211,152381,2,0,P|327:241|254:204,1,152.999995330811,8|0,0:0|0:0,0:0:0:0:
216,143,152663,5,0,0:0:0:0:
333,48,152804,1,0,0:0:0:0:
130,21,152945,1,8,0:0:0:0:
305,127,153087,1,0,0:0:0:0:
103,225,153228,1,0,0:0:0:0:
240,48,153369,1,0,0:0:0:0:
379,261,153510,1,8,0:0:0:0:
146,157,153651,6,0,P|64:157|47:277,1,203.999993774414,0|2,0:0|0:0,0:0:0:0:
83,320,154004,1,0,0:0:0:0:
149,358,154075,2,0,P|215:378|251:372,1,101.999996887207,8|0,0:0|0:0,0:0:0:0:
465,243,154357,5,0,0:0:0:0:
217,303,154498,1,0,0:0:0:0:
472,319,154640,1,8,0:0:0:0:
270,88,154781,1,0,0:0:0:0:
295,341,154922,1,4,0:0:0:0:
256,192,154993,12,0,159440,0:0:0:0:
