osu file format v14

[General]
AudioFilename: audio.mp3
AudioLeadIn: 0
PreviewTime: 18717
Countdown: 0
SampleSet: Normal
StackLeniency: 0
Mode: 1
LetterboxInBreaks: 0
WidescreenStoryboard: 1

[Editor]
DistanceSpacing: 1.2
BeatDivisor: 4
GridSize: 32
TimelineZoom: 1.4

[Metadata]
Title:0118 999 881 999 119 7253 (TV Size)
TitleUnicode:0118 999 881 999 119 7253 (TV Size)
Artist:Neil Hannon
ArtistUnicode:Neil Hannon
Creator:The Law
Version:Remember the new number!
Source:The IT Crowd
Tags:Series 1 Episode 2: New emergency number uk british comedy show sitcom english novelty
BeatmapID:4383763
BeatmapSetID:2091471

[Difficulty]
HPDrainRate:10
CircleSize:10
OverallDifficulty:5
ApproachRate:5
SliderMultiplier:1.4
SliderTickRate:1

[Events]
//Background and Video events
Video,40,"output.mp4"
0,0,"bg.jpg",0,60
//Break Periods
//Storyboard Layer 0 (Background)
//Storyboard Layer 1 (Fail)
//Storyboard Layer 2 (Pass)
//Storyboard Layer 3 (Foreground)
//Storyboard Layer 4 (Overlay)
//Storyboard Sound Samples

[TimingPoints]
5820,460.652591170825,4,1,0,70,1,0
5820,-100.192307692308,4,1,0,70,0,0
9505,458.015267175573,4,1,0,70,1,0
9505,-100.769230769231,4,1,0,70,0,8
11337,461.538461538462,4,1,0,70,1,0
11337,-99.9999999999999,4,1,0,70,0,0
18721,454.545454545455,4,1,0,70,1,1
18721,-101.538461538461,4,1,0,70,0,1
19630,461.538461538462,4,1,0,70,1,9
19630,-99.9999999999999,4,1,0,70,0,9
20553,461.538461538462,4,1,0,70,1,1
20553,-99.9999999999999,4,1,0,70,0,1
27937,444.444444444444,4,1,0,70,1,0
27937,-103.846153846154,4,1,0,70,0,0
29714,460.652591170825,4,1,0,70,1,1
29714,-100.192307692308,4,1,0,70,0,1
29944,-100.192307692308,4,1,0,70,0,0
31095,530.973451327434,4,1,0,70,1,8
31095,-86.9230769230769,4,1,0,70,0,8
31625,461.538461538462,4,1,0,70,1,1
31625,-66.6666666666667,4,1,0,70,0,1
40855,447.761194029851,4,1,0,70,1,0
40855,-68.0203045685279,4,1,0,70,0,0
42646,461.538461538462,4,1,0,60,1,1
42646,-99.9999999999999,4,1,0,60,0,1
42876,-99.9999999999999,4,1,0,60,0,0

[HitObjects]
256,192,5820,5,4,0:0:0:0:
256,192,6165,1,0,0:0:0:0:
256,192,6280,1,8,0:0:0:0:
256,192,6395,1,0,0:0:0:0:
256,192,6510,1,8,0:0:0:0:
256,192,6741,1,0,0:0:0:0:
256,192,6856,1,0,0:0:0:0:
256,192,7086,1,8,0:0:0:0:
256,192,7201,1,0,0:0:0:0:
256,192,7317,1,0,0:0:0:0:
256,192,7432,1,8,0:0:0:0:
256,192,7662,1,0,0:0:0:0:
256,192,7777,1,8,0:0:0:0:
256,192,8008,1,8,0:0:0:0:
256,192,8123,1,0,0:0:0:0:
256,192,8238,1,8,0:0:0:0:
256,192,8353,1,8,0:0:0:0:
256,192,8583,1,0,0:0:0:0:
256,192,8699,1,0,0:0:0:0:
256,192,8929,1,8,0:0:0:0:
256,192,9044,1,8,0:0:0:0:
256,192,9159,1,0,0:0:0:0:
256,192,9274,1,8,0:0:0:0:
256,192,9505,5,4,0:0:0:0:
256,192,9848,1,0,0:0:0:0:
256,192,9963,1,8,0:0:0:0:
256,192,10077,1,0,0:0:0:0:
256,192,10192,1,8,0:0:0:0:
256,192,10421,1,8,0:0:0:0:
256,192,10535,1,0,0:0:0:0:
256,192,10764,1,0,0:0:0:0:
256,192,10879,1,8,0:0:0:0:
256,192,10993,1,8,0:0:0:0:
256,192,11108,1,0,0:0:0:0:
256,192,11337,1,8,0:0:0:0:
256,192,11452,1,8,0:0:0:0:
256,192,11567,1,8,0:0:0:0:
256,192,11683,1,8,0:0:0:0:
256,192,11798,1,0,0:0:0:0:
256,192,12029,1,8,0:0:0:0:
256,192,12260,1,0,0:0:0:0:
256,192,12375,1,0,0:0:0:0:
256,192,12606,1,0,0:0:0:0:
256,192,12721,1,8,0:0:0:0:
256,192,12837,1,0,0:0:0:0:
256,192,12952,1,8,0:0:0:0:
256,192,13183,5,0,0:0:0:0:
256,192,13413,1,0,0:0:0:0:
256,192,13644,1,8,0:0:0:0:
256,192,13875,1,0,0:0:0:0:
256,192,13990,1,0,0:0:0:0:
256,192,14106,1,8,0:0:0:0:
256,192,14337,1,0,0:0:0:0:
256,192,14567,1,8,0:0:0:0:
256,192,14798,1,8,0:0:0:0:
256,192,15029,1,0,0:0:0:0:
256,192,15490,1,8,0:0:0:0:
256,192,15721,1,0,0:0:0:0:
256,192,15952,1,8,0:0:0:0:
256,192,16067,1,8,0:0:0:0:
256,192,16183,1,0,0:0:0:0:
256,192,16413,1,8,0:0:0:0:
256,192,16644,1,0,0:0:0:0:
256,192,16760,1,0,0:0:0:0:
256,192,16875,5,0,0:0:0:0:
256,192,17106,1,0,0:0:0:0:
256,192,17337,1,8,0:0:0:0:
256,192,17452,1,0,0:0:0:0:
256,192,17567,1,8,0:0:0:0:
256,192,17683,1,8,0:0:0:0:
256,192,17798,1,0,0:0:0:0:
256,192,18029,1,0,0:0:0:0:
256,192,18144,1,0,0:0:0:0:
256,192,18260,1,8,0:0:0:0:
256,192,18375,1,0,0:0:0:0:
256,192,18490,1,8,0:0:0:0:
120,360,18721,5,4,0:0:0:0:
132,360,19175,1,8,0:0:0:0:
256,192,19402,1,0,0:0:0:0:
256,192,19516,1,0,0:0:0:0:
148,360,19630,1,0,0:0:0:0:
160,360,19860,1,8,0:0:0:0:
256,192,19976,1,8,0:0:0:0:
256,192,20091,1,8,0:0:0:0:
256,192,20322,1,0,0:0:0:0:
176,360,20553,5,8,0:0:0:0:
256,192,20668,1,8,0:0:0:0:
188,360,20783,1,0,0:0:0:0:
256,192,21014,1,8,0:0:0:0:
204,360,21245,1,0,0:0:0:0:
256,192,21360,1,8,0:0:0:0:
256,192,21476,1,0,0:0:0:0:
256,192,21706,1,0,0:0:0:0:
256,192,21937,1,8,0:0:0:0:
256,192,22053,1,8,0:0:0:0:
256,192,22168,1,8,0:0:0:0:
220,360,22399,5,0,0:0:0:0:
256,192,22629,1,0,0:0:0:0:
256,192,22745,1,0,0:0:0:0:
232,360,22860,1,8,0:0:0:0:
256,192,23091,1,0,0:0:0:0:
256,192,23206,1,8,0:0:0:0:
248,360,23322,1,0,0:0:0:0:
256,192,23553,1,0,0:0:0:0:
264,360,23783,1,8,0:0:0:0:
256,192,23899,1,8,0:0:0:0:
256,192,24014,1,0,0:0:0:0:
256,192,24129,1,0,0:0:0:0:
276,360,24245,5,8,0:0:0:0:
256,192,24476,1,0,0:0:0:0:
256,192,24706,1,8,0:0:0:0:
292,360,25168,1,8,0:0:0:0:
256,192,25283,1,0,0:0:0:0:
308,360,25399,1,8,0:0:0:0:
256,192,25514,1,8,0:0:0:0:
256,192,25629,1,0,0:0:0:0:
320,360,25860,1,0,0:0:0:0:
256,192,25976,1,8,0:0:0:0:
256,192,26091,5,0,0:0:0:0:
336,360,26322,1,8,0:0:0:0:
256,192,26437,1,8,0:0:0:0:
256,192,26553,1,8,0:0:0:0:
256,192,26783,1,0,0:0:0:0:
352,360,27014,1,8,0:0:0:0:
256,192,27129,1,8,0:0:0:0:
352,360,27245,1,0,0:0:0:0:
256,192,27360,1,0,0:0:0:0:
364,360,27476,1,8,0:0:0:0:
256,192,27706,1,0,0:0:0:0:
376,360,27937,1,12,0:0:0:0:
392,360,29714,1,0,0:0:0:0:
120,360,31625,5,4,0:0:0:0:
132,360,32086,1,8,0:0:0:0:
256,192,32317,1,0,0:0:0:0:
256,192,32432,1,0,0:0:0:0:
148,360,32548,1,0,0:0:0:0:
160,360,32778,1,8,0:0:0:0:
256,192,32894,1,8,0:0:0:0:
256,192,33009,1,8,0:0:0:0:
256,192,33240,1,0,0:0:0:0:
176,360,33471,5,8,0:0:0:0:
256,192,33586,1,8,0:0:0:0:
188,360,33701,1,0,0:0:0:0:
256,192,33932,1,8,0:0:0:0:
204,360,34163,1,0,0:0:0:0:
256,192,34278,1,8,0:0:0:0:
256,192,34394,1,0,0:0:0:0:
256,192,34625,1,0,0:0:0:0:
256,192,34855,1,8,0:0:0:0:
256,192,34971,1,8,0:0:0:0:
256,192,35086,1,8,0:0:0:0:
220,360,35317,5,0,0:0:0:0:
256,192,35548,1,0,0:0:0:0:
256,192,35663,1,0,0:0:0:0:
232,360,35778,1,8,0:0:0:0:
256,192,36009,1,0,0:0:0:0:
256,192,36125,1,8,0:0:0:0:
248,360,36240,1,0,0:0:0:0:
256,192,36471,1,0,0:0:0:0:
264,360,36701,1,8,0:0:0:0:
256,192,36817,1,8,0:0:0:0:
256,192,36932,1,0,0:0:0:0:
256,192,37048,1,0,0:0:0:0:
276,360,37163,5,8,0:0:0:0:
256,192,37394,1,0,0:0:0:0:
256,192,37625,1,8,0:0:0:0:
292,360,38086,1,8,0:0:0:0:
256,192,38201,1,0,0:0:0:0:
308,360,38317,1,8,0:0:0:0:
256,192,38432,1,8,0:0:0:0:
256,192,38548,1,0,0:0:0:0:
320,360,38778,1,0,0:0:0:0:
256,192,38894,1,8,0:0:0:0:
256,192,39009,5,0,0:0:0:0:
336,360,39240,1,8,0:0:0:0:
256,192,39355,1,8,0:0:0:0:
256,192,39471,1,8,0:0:0:0:
256,192,39701,1,0,0:0:0:0:
352,360,39932,1,8,0:0:0:0:
256,192,40048,1,8,0:0:0:0:
352,360,40163,1,0,0:0:0:0:
256,192,40278,1,0,0:0:0:0:
364,360,40394,1,8,0:0:0:0:
256,192,40625,1,0,0:0:0:0:
376,360,40855,1,12,0:0:0:0:
328,328,42646,1,0,0:0:0:0:
