osu file format v14

[General]
AudioFilename: audio.mp3
AudioLeadIn: 0
PreviewTime: -1
Countdown: 1
SampleSet: None
StackLeniency: 0.7
Mode: 0
LetterboxInBreaks: 0
WidescreenStoryboard: 1

[Editor]
Bookmarks: 9649,36565,45537,63481,99369,108341,126285,135257,144229,153200,162172,180116,207032
DistanceSpacing: 1
BeatDivisor: 4
GridSize: 32
TimelineZoom: 1

[Metadata]
Title:Wow Wow
TitleUnicode:Wow Wow
Artist:Neil Cicierega
ArtistUnicode:Neil Cicierega
Creator:telimonster
Version:full distance snap
Source:
Tags:
BeatmapID:1289357
BeatmapSetID:610681

[Difficulty]
HPDrainRate:5
CircleSize:4
OverallDifficulty:5
ApproachRate:9
SliderMultiplier:2.5
SliderTickRate:1

[Events]
//Background and Video events
//Break Periods
//Storyboard Layer 0 (Background)
//Storyboard Layer 1 (Fail)
//Storyboard Layer 2 (Pass)
//Storyboard Layer 3 (Foreground)
//Storyboard Sound Samples

[TimingPoints]
9649.59697532079,560.747663551402,4,1,0,100,1,0

[HitObjects]
352,256,9649,6,0,L|288:320,1,62.5
246,288,9929,2,0,L|181:247,1,62.5
188,191,10210,2,0,L|202:111,1,62.5
256,105,10490,2,0,L|323:103,1,62.5
405,193,10911,6,0,L|294:257,1,125
234,253,11331,1,0,0:0:0:0:
175,229,11472,1,0,0:0:0:0:
83,65,11892,5,0,0:0:0:0:
207,71,12172,2,0,L|274:103,1,62.5
387,83,12593,5,0,0:0:0:0:
399,207,12873,1,0,0:0:0:0:
355,252,13014,1,0,0:0:0:0:
234,285,13294,1,0,0:0:0:0:
122,228,13574,1,0,0:0:0:0:
120,165,13715,1,0,0:0:0:0:
282,258,14135,5,0,0:0:0:0:
318,207,14275,1,0,0:0:0:0:
328,145,14415,6,0,P|268:99|177:103,1,125
108,148,14976,1,0,0:0:0:0:
77,202,15116,1,0,0:0:0:0:
101,259,15257,1,0,0:0:0:0:
217,304,15537,5,0,0:0:0:0:
262,261,15677,1,0,0:0:0:0:
252,199,15817,1,0,0:0:0:0:
272,139,15958,1,0,0:0:0:0:
229,93,16098,1,0,0:0:0:0:
433,86,16378,6,0,L|400:147,1,62.5
366,90,16658,1,0,0:0:0:0:
303,88,16799,6,0,L|256:150,1,62.5
228,87,17079,1,0,0:0:0:0:
165,90,17219,6,0,L|123:167,1,62.5
99,196,17500,5,0,0:0:0:0:
119,255,17640,1,0,0:0:0:0:
180,244,17780,1,0,0:0:0:0:
240,260,17920,1,0,0:0:0:0:
258,319,18060,5,0,0:0:0:0:
319,328,18200,1,0,0:0:0:0:
369,290,18341,1,0,0:0:0:0:
362,227,18481,1,0,0:0:0:0:
353,165,18621,6,0,L|308:115,1,62.5
264,160,18901,5,0,0:0:0:0:
208,189,19042,1,0,0:0:0:0:
188,134,19182,2,0,L|46:83,1,125
49,150,19602,1,0,0:0:0:0:
62,211,19743,1,0,0:0:0:0:
121,320,20023,1,0,0:0:0:0:
245,324,20303,1,0,0:0:0:0:
432,317,20724,6,0,L|429:235,1,62.5
401,198,21004,1,0,0:0:0:0:
338,200,21144,2,0,L|184:202,1,125
93,164,21705,5,0,0:0:0:0:
117,106,21845,1,0,0:0:0:0:
179,105,21986,1,0,0:0:0:0:
303,108,22266,1,0,0:0:0:0:
409,173,22546,1,0,0:0:0:0:
205,318,23107,5,0,0:0:0:0:
123,223,23387,1,0,0:0:0:0:
246,204,23668,5,0,0:0:0:0:
295,165,23808,1,0,0:0:0:0:
298,227,23948,1,0,0:0:0:0:
423,230,24229,5,0,0:0:0:0:
430,291,24369,1,0,0:0:0:0:
371,268,24509,1,0,0:0:0:0:
375,143,24789,5,0,0:0:0:0:
407,89,24929,1,0,0:0:0:0:
344,92,25070,1,0,0:0:0:0:
219,95,25350,1,0,0:0:0:0:
156,92,25490,1,0,0:0:0:0:
85,195,25771,5,0,0:0:0:0:
85,257,25911,1,0,0:0:0:0:
96,64,26191,2,0,L|160:64,1,62.5
192,128,26472,1,0,0:0:0:0:
224,64,26612,2,0,L|288:64,1,62.5
288,128,26892,1,0,0:0:0:0:
100,124,27313,5,0,0:0:0:0:
81,183,27453,1,0,0:0:0:0:
110,237,27593,1,0,0:0:0:0:
165,266,27733,6,0,L|209:205,2,62.5
285,299,28294,5,0,0:0:0:0:
332,259,28434,1,0,0:0:0:0:
330,196,28574,1,0,0:0:0:0:
282,154,28715,1,0,0:0:0:0:
192,66,28995,2,0,L|168:207,1,125
386,62,29836,1,0,0:0:0:0:
426,109,29976,1,0,0:0:0:0:
429,171,30116,1,0,0:0:0:0:
402,227,30257,1,0,0:0:0:0:
359,272,30397,1,0,0:0:0:0:
295,164,30677,5,0,0:0:0:0:
237,140,30817,1,0,0:0:0:0:
195,187,30958,1,0,0:0:0:0:
99,266,31238,1,0,0:0:0:0:
77,207,31378,1,0,0:0:0:0:
157,111,31658,1,0,0:0:0:0:
219,109,31799,1,0,0:0:0:0:
277,219,32079,1,0,0:0:0:0:
393,262,32359,5,0,0:0:0:0:
409,201,32500,1,0,0:0:0:0:
393,140,32640,1,0,0:0:0:0:
350,94,32780,1,0,0:0:0:0:
308,47,32920,1,0,0:0:0:0:
195,101,33200,5,0,0:0:0:0:
150,145,33341,1,0,0:0:0:0:
162,206,33481,1,0,0:0:0:0:
214,240,33621,1,0,0:0:0:0:
395,289,34042,5,0,0:0:0:0:
393,226,34182,1,0,0:0:0:0:
333,208,34322,1,0,0:0:0:0:
290,90,34602,5,0,0:0:0:0:
236,122,34743,1,0,0:0:0:0:
195,74,34883,1,0,0:0:0:0:
136,96,35023,1,0,0:0:0:0:
114,282,35443,5,0,0:0:0:0:
163,243,35584,1,0,0:0:0:0:
221,265,35724,1,0,0:0:0:0:
277,238,35864,1,0,0:0:0:0:
39,35,36565,1,0,0:0:0:0:
40,97,36705,1,0,0:0:0:0:
95,125,36845,1,0,0:0:0:0:
132,175,36986,1,0,0:0:0:0:
148,235,37126,1,0,0:0:0:0:
219,337,37406,5,0,0:0:0:0:
281,343,37546,1,0,0:0:0:0:
343,343,37686,1,0,0:0:0:0:
405,343,37827,1,0,0:0:0:0:
467,344,37967,1,0,0:0:0:0:
220,61,38808,1,0,0:0:0:0:
161,82,38948,1,0,0:0:0:0:
116,125,39088,1,0,0:0:0:0:
100,185,39229,1,0,0:0:0:0:
107,247,39369,1,0,0:0:0:0:
215,185,39649,5,0,0:0:0:0:
305,99,39929,5,0,0:0:0:0:
348,144,40070,1,0,0:0:0:0:
371,201,40210,1,0,0:0:0:0:
360,262,40350,1,0,0:0:0:0:
325,314,40490,1,0,0:0:0:0:
144,140,41051,5,0,0:0:0:0:
194,102,41191,1,0,0:0:0:0:
255,91,41331,1,0,0:0:0:0:
317,89,41472,1,0,0:0:0:0:
376,108,41612,1,0,0:0:0:0:
421,151,41752,1,0,0:0:0:0:
453,204,41892,1,0,0:0:0:0:
471,263,42032,1,0,0:0:0:0:
463,324,42172,1,0,0:0:0:0:
337,321,42453,1,0,0:0:0:0:
92,269,43014,5,0,0:0:0:0:
92,206,43154,1,0,0:0:0:0:
296,61,43715,5,0,0:0:0:0:
351,89,43855,1,0,0:0:0:0:
393,135,43995,1,0,0:0:0:0:
422,189,44135,1,0,0:0:0:0:
466,72,44415,1,0,0:0:0:0:
48,347,45537,2,0,L|132:219,1,125
37,145,46098,2,0,L|118:40,1,125
289,298,46799,5,0,0:0:0:0:
331,251,46939,1,0,0:0:0:0:
336,188,47079,1,0,0:0:0:0:
218,229,47359,1,0,0:0:0:0:
201,168,47500,1,0,0:0:0:0:
206,105,47640,1,0,0:0:0:0:
232,48,47780,6,0,L|396:50,1,125
456,125,48341,2,0,L|462:273,1,125
218,334,49042,5,0,0:0:0:0:
160,309,49182,1,0,0:0:0:0:
120,261,49322,1,0,0:0:0:0:
93,139,49602,1,0,0:0:0:0:
118,81,49743,1,0,0:0:0:0:
170,47,49883,1,0,0:0:0:0:
231,38,50023,6,0,L|373:41,1,125
456,115,50584,2,0,L|456:254,1,125
195,331,51285,5,0,0:0:0:0:
143,295,51425,1,0,0:0:0:0:
106,244,51565,1,0,0:0:0:0:
92,119,51845,1,0,0:0:0:0:
137,75,51986,1,0,0:0:0:0:
192,46,52126,1,0,0:0:0:0:
254,38,52266,6,0,L|379:36,1,125
462,128,52827,2,0,L|464:254,1,125
260,343,53387,5,0,0:0:0:0:
234,220,53668,1,0,0:0:0:0:
140,303,53948,1,0,0:0:0:0:
76,195,54229,1,0,0:0:0:0:
54,71,54509,2,0,L|422:165,1,375
448,284,55630,2,0,L|176:296,1,250
153,132,56472,5,0,0:0:0:0:
54,54,56752,2,0,L|303:355,1,375
461,343,57873,1,0,0:0:0:0:
361,267,58154,1,0,0:0:0:0:
466,200,58434,1,0,0:0:0:0:
379,109,58715,1,0,0:0:0:0:
474,28,58995,6,0,L|256:349,1,375
138,331,60116,2,0,L|138:74,1,250
480,36,61238,5,0,0:0:0:0:
419,278,61799,1,0,0:0:0:0:
275,73,62359,1,0,0:0:0:0:
116,266,62920,1,0,0:0:0:0:
262,63,63481,5,0,0:0:0:0:
323,54,63621,1,0,0:0:0:0:
384,62,63761,1,0,0:0:0:0:
432,100,63901,1,0,0:0:0:0:
460,156,64042,1,0,0:0:0:0:
452,280,64322,5,0,0:0:0:0:
391,296,64462,1,0,0:0:0:0:
330,310,64602,2,0,L|270:248,4,62.5
204,318,65443,1,0,0:0:0:0:
131,215,65724,5,0,0:0:0:0:
136,152,65864,1,0,0:0:0:0:
181,109,66004,1,0,0:0:0:0:
298,149,66285,1,0,0:0:0:0:
393,68,66565,5,0,0:0:0:0:
419,124,66705,1,0,0:0:0:0:
437,183,66845,2,0,L|368:186,4,62.5
432,308,67686,1,0,0:0:0:0:
306,312,67967,5,0,0:0:0:0:
243,312,68107,1,0,0:0:0:0:
181,304,68247,1,0,0:0:0:0:
123,280,68387,1,0,0:0:0:0:
99,221,68528,1,0,0:0:0:0:
121,98,68808,5,0,0:0:0:0:
178,72,68948,1,0,0:0:0:0:
240,72,69088,2,0,L|230:144,4,62.5
302,82,69789,1,0,0:0:0:0:
364,88,69929,1,0,0:0:0:0:
421,266,70350,5,0,0:0:0:0:
434,327,70490,1,0,0:0:0:0:
371,328,70630,1,0,0:0:0:0:
308,326,70771,1,0,0:0:0:0:
187,292,71051,1,0,0:0:0:0:
140,250,71191,1,0,0:0:0:0:
127,188,71331,1,0,0:0:0:0:
201,87,71612,1,0,0:0:0:0:
214,211,71892,6,0,L|307:203,1,62.5
318,160,72172,5,0,0:0:0:0:
377,140,72313,1,0,0:0:0:0:
434,165,72453,1,0,0:0:0:0:
479,281,72733,1,0,0:0:0:0:
354,296,73014,5,0,0:0:0:0:
291,296,73154,1,0,0:0:0:0:
228,292,73294,1,0,0:0:0:0:
129,215,73574,1,0,0:0:0:0:
167,95,73855,5,0,0:0:0:0:
227,78,73995,1,0,0:0:0:0:
289,76,74135,1,0,0:0:0:0:
350,84,74275,1,0,0:0:0:0:
405,112,74415,1,0,0:0:0:0:
431,234,74696,5,0,0:0:0:0:
384,275,74836,1,0,0:0:0:0:
259,288,75116,1,0,0:0:0:0:
196,285,75257,1,0,0:0:0:0:
112,192,75537,1,0,0:0:0:0:
274,97,75958,5,0,0:0:0:0:
333,75,76098,1,0,0:0:0:0:
373,122,76238,1,0,0:0:0:0:
413,169,76378,1,0,0:0:0:0:
386,225,76518,1,0,0:0:0:0:
205,277,76939,5,0,0:0:0:0:
152,243,77079,1,0,0:0:0:0:
131,183,77219,1,0,0:0:0:0:
155,125,77359,1,0,0:0:0:0:
207,89,77500,1,0,0:0:0:0:
329,110,77780,5,0,0:0:0:0:
386,134,77920,1,0,0:0:0:0:
404,193,78060,1,0,0:0:0:0:
383,251,78200,1,0,0:0:0:0:
322,233,78341,1,0,0:0:0:0:
311,294,78481,1,0,0:0:0:0:
123,295,78901,5,0,0:0:0:0:
103,235,79042,1,0,0:0:0:0:
87,174,79182,1,0,0:0:0:0:
118,120,79322,1,0,0:0:0:0:
305,105,79743,5,0,0:0:0:0:
401,182,80023,1,0,0:0:0:0:
404,244,80163,1,0,0:0:0:0:
371,297,80303,1,0,0:0:0:0:
274,217,80584,1,0,0:0:0:0:
263,155,80724,1,0,0:0:0:0:
89,84,81144,5,0,0:0:0:0:
86,146,81285,1,0,0:0:0:0:
86,208,81425,2,0,L|203:279,1,125
260,167,81986,1,0,0:0:0:0:
384,173,82266,1,0,0:0:0:0:
424,290,82546,5,0,0:0:0:0:
312,324,82827,1,0,0:0:0:0:
249,319,82967,1,0,0:0:0:0:
192,292,83107,1,0,0:0:0:0:
92,216,83387,5,0,0:0:0:0:
60,161,83528,1,0,0:0:0:0:
95,109,83668,1,0,0:0:0:0:
219,98,83948,1,0,0:0:0:0:
339,132,84229,1,0,0:0:0:0:
410,234,84509,5,0,0:0:0:0:
370,278,84649,1,0,0:0:0:0:
312,301,84789,1,0,0:0:0:0:
250,309,84929,1,0,0:0:0:0:
187,300,85070,1,0,0:0:0:0:
127,280,85210,1,0,0:0:0:0:
95,159,85490,5,0,0:0:0:0:
95,95,85630,1,0,0:0:0:0:
157,98,85771,1,0,0:0:0:0:
203,139,85911,1,0,0:0:0:0:
264,131,86051,1,0,0:0:0:0:
315,95,86191,1,0,0:0:0:0:
374,113,86331,1,0,0:0:0:0:
379,175,86472,1,0,0:0:0:0:
358,298,86752,1,0,0:0:0:0:
137,180,87313,6,0,L|179:119,1,62.5
234,138,87593,2,0,L|295:187,1,62.5
337,207,87873,1,0,0:0:0:0:
420,119,88154,5,0,0:0:0:0:
456,169,88294,1,0,0:0:0:0:
466,230,88434,1,0,0:0:0:0:
428,279,88574,1,0,0:0:0:0:
382,322,88715,1,0,0:0:0:0:
258,305,88995,1,0,0:0:0:0:
195,300,89135,1,0,0:0:0:0:
144,262,89275,1,0,0:0:0:0:
80,153,89556,1,0,0:0:0:0:
172,69,89836,1,0,0:0:0:0:
232,85,89976,6,0,L|323:88,2,62.5
87,205,90677,5,0,0:0:0:0:
207,239,90958,1,0,0:0:0:0:
331,246,91238,1,0,0:0:0:0:
354,188,91519,5,0,0:0:0:0:
304,150,91659,1,0,0:0:0:0:
361,126,91799,1,0,0:0:0:0:
411,162,91939,5,0,0:0:0:0:
332,332,92359,5,0,0:0:0:0:
208,312,92640,1,0,0:0:0:0:
129,215,92920,1,0,0:0:0:0:
204,115,93200,1,0,0:0:0:0:
324,149,93481,1,0,0:0:0:0:
258,255,93761,1,0,0:0:0:0:
137,219,94042,1,0,0:0:0:0:
113,161,94182,1,0,0:0:0:0:
118,98,94322,1,0,0:0:0:0:
236,136,94602,5,0,0:0:0:0:
297,138,94743,1,0,0:0:0:0:
359,140,94883,1,0,0:0:0:0:
440,234,95163,1,0,0:0:0:0:
414,291,95303,1,0,0:0:0:0:
226,291,95724,5,0,0:0:0:0:
170,262,95864,1,0,0:0:0:0:
119,225,96004,1,0,0:0:0:0:
109,163,96144,1,0,0:0:0:0:
121,101,96285,1,0,0:0:0:0:
174,68,96425,1,0,0:0:0:0:
351,128,96845,5,0,0:0:0:0:
398,169,96986,1,0,0:0:0:0:
373,226,97126,1,0,0:0:0:0:
310,229,97266,1,0,0:0:0:0:
257,195,97406,1,0,0:0:0:0:
199,218,97546,1,0,0:0:0:0:
198,280,97686,1,0,0:0:0:0:
96,206,97967,5,0,0:0:0:0:
92,143,98107,1,0,0:0:0:0:
137,99,98247,1,0,0:0:0:0:
198,86,98387,1,0,0:0:0:0:
259,99,98528,1,0,0:0:0:0:
300,145,98668,1,0,0:0:0:0:
356,119,98808,1,0,0:0:0:0:
413,144,98948,1,0,0:0:0:0:
405,205,99088,1,0,0:0:0:0:
351,237,99229,1,0,0:0:0:0:
235,252,99509,5,0,0:0:0:0:
164,225,99649,1,0,0:0:0:0:
109,195,99789,1,0,0:0:0:0:
120,133,99929,1,0,0:0:0:0:
181,121,100070,1,0,0:0:0:0:
241,135,100210,1,0,0:0:0:0:
288,175,100350,1,0,0:0:0:0:
288,175,100490,1,0,0:0:0:0:
367,77,100771,5,0,0:0:0:0:
442,175,101051,1,0,0:0:0:0:
424,235,101191,1,0,0:0:0:0:
370,266,101331,1,0,0:0:0:0:
318,301,101472,1,0,0:0:0:0:
141,266,101892,5,0,0:0:0:0:
103,216,102032,1,0,0:0:0:0:
115,154,102172,1,0,0:0:0:0:
133,93,102313,1,0,0:0:0:0:
181,54,102453,1,0,0:0:0:0:
243,55,102593,1,0,0:0:0:0:
416,126,103014,5,0,0:0:0:0:
386,242,103294,1,0,0:0:0:0:
332,273,103434,1,0,0:0:0:0:
269,277,103574,1,0,0:0:0:0:
207,262,103715,1,0,0:0:0:0:
114,170,103995,5,0,0:0:0:0:
138,82,104275,1,0,0:0:0:0:
199,89,104415,1,0,0:0:0:0:
323,103,104696,1,0,0:0:0:0:
420,180,104976,1,0,0:0:0:0:
203,55,105537,1,0,0:0:0:0:
108,136,105817,1,0,0:0:0:0:
150,253,106098,1,0,0:0:0:0:
290,129,106518,5,0,0:0:0:0:
353,107,106658,1,0,0:0:0:0:
376,165,106799,1,0,0:0:0:0:
396,288,107079,1,0,0:0:0:0:
337,309,107219,1,0,0:0:0:0:
91,259,107780,5,0,0:0:0:0:
84,134,108060,1,0,0:0:0:0:
177,50,108341,2,0,B|455:35|90:359|463:340,1,500
425,283,109602,1,0,0:0:0:0:
392,229,109743,1,0,0:0:0:0:
376,168,109883,1,0,0:0:0:0:
287,102,110163,5,0,0:0:0:0:
224,108,110303,1,0,0:0:0:0:
165,87,110443,1,0,0:0:0:0:
143,48,110584,2,0,P|341:237|205:343,1,500
184,295,111845,1,0,0:0:0:0:
137,252,111986,1,0,0:0:0:0:
130,189,112126,1,0,0:0:0:0:
233,119,112406,5,0,0:0:0:0:
286,86,112546,1,0,0:0:0:0:
340,56,112686,1,0,0:0:0:0:
402,60,112827,2,0,P|331:267|48:261,1,500
89,223,114088,1,0,0:0:0:0:
108,163,114229,1,0,0:0:0:0:
157,124,114369,1,0,0:0:0:0:
280,105,114649,1,0,0:0:0:0:
336,130,114789,1,0,0:0:0:0:
374,178,114929,1,0,0:0:0:0:
400,234,115070,2,0,L|239:291,1,125
161,244,115630,2,0,L|60:116,1,125
185,73,116191,2,0,L|333:60,1,125
416,127,116752,2,0,L|341:261,1,125
423,341,117313,6,0,B|196:274,1,187.5
217,230,117873,2,0,B|377:73,1,187.5
412,111,118434,1,0,0:0:0:0:
291,330,118995,1,0,0:0:0:0:
463,148,119556,6,0,P|236:105|66:296,1,500
189,316,120958,1,0,0:0:0:0:
311,291,121238,1,0,0:0:0:0:
422,235,121518,1,0,0:0:0:0:
450,113,121799,6,0,L|191:64,1,250
154,126,122500,1,0,0:0:0:0:
65,310,122920,2,0,L|326:313,1,250
363,272,123621,1,0,0:0:0:0:
179,309,124042,6,0,L|73:217,1,125
136,113,124602,2,0,L|287:57,1,125
378,76,125163,2,0,L|468:189,1,125
397,284,125724,2,0,L|253:323,1,125
153,294,126285,5,0,0:0:0:0:
452,68,127126,1,0,0:0:0:0:
452,130,127266,1,0,0:0:0:0:
360,107,127686,1,0,0:0:0:0:
360,169,127827,1,0,0:0:0:0:
452,331,128247,1,0,0:0:0:0:
326,331,128528,5,0,0:0:0:0:
69,332,129369,1,0,0:0:0:0:
69,269,129509,1,0,0:0:0:0:
193,202,129929,1,0,0:0:0:0:
189,264,130070,1,0,0:0:0:0:
364,329,130490,1,0,0:0:0:0:
455,242,130771,5,0,0:0:0:0:
131,51,131612,1,0,0:0:0:0:
129,113,131752,1,0,0:0:0:0:
307,54,132172,1,0,0:0:0:0:
305,116,132313,1,0,0:0:0:0:
127,55,132733,1,0,0:0:0:0:
70,166,133014,5,0,0:0:0:0:
98,287,133294,1,0,0:0:0:0:
218,285,133574,1,0,0:0:0:0:
342,275,133855,1,0,0:0:0:0:
466,270,134135,1,0,0:0:0:0:
351,320,134415,1,0,0:0:0:0:
424,218,134696,1,0,0:0:0:0:
401,340,134976,1,0,0:0:0:0:
275,343,135257,6,0,L|134:287,1,125
79,200,135817,1,0,0:0:0:0:
109,145,135958,1,0,0:0:0:0:
167,124,136098,1,0,0:0:0:0:
228,132,136238,1,0,0:0:0:0:
279,245,136518,6,0,L|350:255,1,62.5
388,213,136799,1,0,0:0:0:0:
357,158,136939,1,0,0:0:0:0:
317,109,137079,1,0,0:0:0:0:
129,95,137500,6,0,L|101:200,1,62.5
150,205,137780,1,0,0:0:0:0:
258,267,138060,1,0,0:0:0:0:
426,183,138481,6,0,L|384:117,1,62.5
330,123,138761,1,0,0:0:0:0:
301,178,138901,1,0,0:0:0:0:
338,228,139042,2,0,L|403:259,1,62.5
403,316,139322,5,0,0:0:0:0:
344,336,139462,1,0,0:0:0:0:
281,337,139602,1,0,0:0:0:0:
222,313,139743,1,0,0:0:0:0:
186,261,139883,1,0,0:0:0:0:
153,207,140023,1,0,0:0:0:0:
144,145,140163,1,0,0:0:0:0:
197,113,140303,1,0,0:0:0:0:
259,115,140443,1,0,0:0:0:0:
350,182,140584,2,0,L|311:237,1,62.5
215,155,141004,5,0,0:0:0:0:
220,214,141144,1,0,0:0:0:0:
251,268,141285,1,0,0:0:0:0:
295,311,141425,1,0,0:0:0:0:
408,275,141705,1,0,0:0:0:0:
319,186,141986,1,0,0:0:0:0:
199,150,142266,1,0,0:0:0:0:
138,164,142406,1,0,0:0:0:0:
110,285,142686,1,0,0:0:0:0:
229,321,142967,1,0,0:0:0:0:
353,306,143247,1,0,0:0:0:0:
276,134,143668,1,0,0:0:0:0:
156,98,143948,6,0,L|113:198,1,62.5
173,202,144229,2,0,L|316:249,1,125
382,155,144789,2,0,L|445:218,1,62.5
451,256,145070,1,0,0:0:0:0:
426,313,145210,2,0,L|296:346,1,125
245,325,145630,1,0,0:0:0:0:
190,293,145771,1,0,0:0:0:0:
149,245,145911,1,0,0:0:0:0:
138,183,146051,1,0,0:0:0:0:
287,68,146472,6,0,L|364:92,1,62.5
385,135,146752,2,0,L|333:171,1,62.5
294,219,147032,2,0,L|461:293,1,125
451,224,147453,1,0,0:0:0:0:
459,155,147593,2,0,L|393:87,1,62.5
358,85,147873,2,0,L|274:115,1,62.5
298,211,148294,5,0,0:0:0:0:
257,258,148434,1,0,0:0:0:0:
197,278,148574,1,0,0:0:0:0:
143,245,148715,2,0,L|196:164,1,62.5
217,145,148995,2,0,L|115:82,1,62.5
102,125,149275,1,0,0:0:0:0:
60,171,149415,1,0,0:0:0:0:
80,230,149556,2,0,L|181:265,1,62.5
252,303,149976,5,0,0:0:0:0:
313,292,150116,1,0,0:0:0:0:
349,240,150257,1,0,0:0:0:0:
340,178,150397,2,0,L|238:104,1,125
120,146,150958,5,0,0:0:0:0:
113,208,151098,1,0,0:0:0:0:
109,270,151238,2,0,L|212:300,1,62.5
281,234,151658,2,0,L|317:108,1,125
378,117,152079,6,0,L|416:327,1,187.5
348,301,152640,2,0,L|312:96,1,187.5
190,107,153341,5,0,0:0:0:0:
147,152,153481,1,0,0:0:0:0:
107,270,153761,1,0,0:0:0:0:
354,304,154322,6,0,L|372:197,1,62.5
372,180,154602,1,0,0:0:0:0:
351,120,154743,1,0,0:0:0:0:
236,170,155023,5,0,0:0:0:0:
174,178,155163,1,0,0:0:0:0:
159,238,155303,1,0,0:0:0:0:
161,300,155443,2,0,L|378:264,1,187.5
316,213,156004,5,0,0:0:0:0:
267,182,156144,1,0,0:0:0:0:
207,161,156285,1,0,0:0:0:0:
147,142,156425,1,0,0:0:0:0:
247,68,156705,5,0,0:0:0:0:
307,51,156845,1,0,0:0:0:0:
367,67,156986,1,0,0:0:0:0:
389,125,157126,1,0,0:0:0:0:
401,186,157266,1,0,0:0:0:0:
172,295,157967,5,0,0:0:0:0:
134,245,158107,1,0,0:0:0:0:
128,182,158247,1,0,0:0:0:0:
146,122,158387,1,0,0:0:0:0:
198,87,158528,1,0,0:0:0:0:
260,91,158668,2,0,L|339:124,1,62.5
70,154,159369,6,0,L|102:241,1,62.5
147,241,159649,1,0,0:0:0:0:
209,241,159789,1,0,0:0:0:0:
334,243,160070,5,0,0:0:0:0:
392,220,160210,2,0,L|396:135,1,62.5
351,112,160490,1,0,0:0:0:0:
289,99,160630,1,0,0:0:0:0:
163,94,160911,5,0,0:0:0:0:
105,118,161051,1,0,0:0:0:0:
111,180,161191,1,0,0:0:0:0:
141,234,161331,1,0,0:0:0:0:
202,245,161472,1,0,0:0:0:0:
264,245,161612,1,0,0:0:0:0:
324,229,161752,1,0,0:0:0:0:
339,168,161892,1,0,0:0:0:0:
317,109,162032,1,0,0:0:0:0:
367,71,162172,6,0,P|143:106|63:345,1,500
124,340,163434,1,0,0:0:0:0:
185,327,163574,1,0,0:0:0:0:
245,311,163715,1,0,0:0:0:0:
353,249,163995,5,0,0:0:0:0:
399,207,164135,1,0,0:0:0:0:
434,155,164275,1,0,0:0:0:0:
467,102,164415,2,0,P|219:93|30:257,1,500
153,289,165817,1,0,0:0:0:0:
278,294,166098,1,0,0:0:0:0:
400,317,166378,1,0,0:0:0:0:
42,204,167219,6,0,L|273:48,1,250
370,96,168060,1,0,0:0:0:0:
406,146,168200,1,0,0:0:0:0:
430,250,168481,1,0,0:0:0:0:
418,311,168621,1,0,0:0:0:0:
355,309,168761,1,0,0:0:0:0:
293,298,168901,2,0,P|131:300|83:84,1,375
176,65,170023,6,0,L|336:122,1,125
246,222,170584,2,0,L|406:279,1,125
451,62,171705,6,0,L|211:224,1,250
193,240,172406,1,0,0:0:0:0:
206,300,172546,1,0,0:0:0:0:
268,304,172686,1,0,0:0:0:0:
392,291,172967,5,0,0:0:0:0:
418,234,173107,1,0,0:0:0:0:
443,176,173247,1,0,0:0:0:0:
416,119,173387,2,0,P|140:109|63:326,1,500
115,307,174649,1,0,0:0:0:0:
175,321,174789,1,0,0:0:0:0:
236,329,174929,1,0,0:0:0:0:
360,319,175210,5,0,0:0:0:0:
412,285,175350,1,0,0:0:0:0:
443,231,175490,1,0,0:0:0:0:
466,173,175630,2,0,P|336:64|33:225,1,500
54,171,177873,6,0,L|151:297,1,125
180,155,178434,2,0,B|223:106|223:106|247:200,1,125
352,214,178995,2,0,L|269:331,1,125
183,235,179556,2,0,B|202:169|202:169|247:227,1,125
122,257,180116,5,0,0:0:0:0:
161,154,180397,1,0,0:0:0:0:
261,200,180677,1,0,0:0:0:0:
374,201,180958,1,0,0:0:0:0:
219,278,181378,5,0,0:0:0:0:
159,259,181518,1,0,0:0:0:0:
140,199,181658,1,0,0:0:0:0:
224,106,181939,5,0,0:0:0:0:
285,93,182079,1,0,0:0:0:0:
347,92,182219,1,0,0:0:0:0:
373,148,182359,5,0,0:0:0:0:
347,270,182640,1,0,0:0:0:0:
222,267,182920,1,0,0:0:0:0:
121,192,183200,1,0,0:0:0:0:
267,74,183621,5,0,0:0:0:0:
329,69,183761,1,0,0:0:0:0:
390,81,183901,1,0,0:0:0:0:
431,199,184182,5,0,0:0:0:0:
416,259,184322,1,0,0:0:0:0:
359,286,184462,1,0,0:0:0:0:
171,274,184883,6,0,B|153:193|153:193|98:235|98:235|97:142|97:142|176:138|176:138|219:181,1,375
91,131,186845,6,0,L|87:273,1,125
212,251,187406,2,0,L|211:108,1,125
336,127,187967,2,0,L|338:274,1,125
240,331,188528,2,0,L|99:326,1,125
68,210,189088,5,0,0:0:0:0:
132,102,189369,1,0,0:0:0:0:
254,125,189649,1,0,0:0:0:0:
267,249,189929,1,0,0:0:0:0:
66,78,191331,5,0,0:0:0:0:
191,77,191612,1,0,0:0:0:0:
309,116,191892,1,0,0:0:0:0:
326,239,192172,1,0,0:0:0:0:
54,333,193574,5,0,0:0:0:0:
179,326,193855,1,0,0:0:0:0:
301,301,194135,1,0,0:0:0:0:
399,224,194415,1,0,0:0:0:0:
424,101,194696,5,0,0:0:0:0:
300,85,194976,1,0,0:0:0:0:
307,210,195257,1,0,0:0:0:0:
226,305,195537,1,0,0:0:0:0:
165,195,195817,6,0,L|148:122,2,62.5
227,185,196238,1,0,0:0:0:0:
287,169,196378,2,0,L|270:96,2,62.5
349,165,196799,1,0,0:0:0:0:
409,150,196939,2,0,L|392:77,7,62.5
335,109,198060,5,0,0:0:0:0:
389,221,198341,1,0,0:0:0:0:
266,244,198621,1,0,0:0:0:0:
142,262,198901,1,0,0:0:0:0:
91,155,200303,5,0,0:0:0:0:
215,144,200584,1,0,0:0:0:0:
339,132,200864,1,0,0:0:0:0:
159,305,201425,6,0,L|99:180,1,125
229,176,201986,2,0,B|306:159|306:159|293:237|293:237|381:207,1,250
95,191,207032,1,0,0:0:0:0:
345,189,207593,1,0,0:0:0:0:
138,330,208154,2,0,L|418:62,1,375
