osu file format v14

[General]
AudioFilename: audio.mp3
AudioLeadIn: 0
PreviewTime: 11905
Countdown: 0
SampleSet: Soft
StackLeniency: 0.4
Mode: 0
LetterboxInBreaks: 0
WidescreenStoryboard: 0

[Editor]
Bookmarks: 4181,8058,11935,15812,19690,23567
DistanceSpacing: 1.6
BeatDivisor: 6
GridSize: 8
TimelineZoom: 1

[Metadata]
Title:Goat and a Pig
TitleUnicode:Goat and a Pig
Artist:Neil Cicierega
ArtistUnicode:Neil Cicierega
Creator:Aro
Version:True Love
Source:Gravity Falls
Tags:
BeatmapID:1829123
BeatmapSetID:875253

[Difficulty]
HPDrainRate:5
CircleSize:3.5
OverallDifficulty:8
ApproachRate:9
SliderMultiplier:2.8
SliderTickRate:1

[Events]
//Background and Video events
0,0,"goat_and_a_pig.png",0,0
//Break Periods
//Storyboard Layer 0 (Background)
//Storyboard Layer 1 (Fail)
//Storyboard Layer 2 (Pass)
//Storyboard Layer 3 (Foreground)
//Storyboard Sound Samples

[TimingPoints]
304,484.652665589661,4,2,0,45,1,0
11935,-133.333333333333,4,2,0,45,0,0
15812,-83.3333333333333,4,2,0,45,0,1
23567,-100,4,2,0,45,0,1
25505,-133.333333333333,4,2,0,45,0,0
27686,-100,4,2,0,25,0,0
27929,-100,4,2,0,15,0,0
28413,-100,4,2,0,5,0,0

[Colours]
Combo1 : 239,201,222
Combo2 : 224,192,156

[HitObjects]
107,53,304,6,0,L|199:44,1,93.3333333333333
277,10,627,2,0,P|285:55|269:98,1,93.3333333333333
348,153,1030,1,0,0:0:0:0:
324,158,1273,2,0,B|290:174|275:203|275:203|257:175|214:162,1,140
71,287,1757,2,0,P|126:246|194:249,1,140
288,337,2242,2,0,L|278:244,1,93.3333333333333
256,133,2565,2,0,P|268:163|264:130,2,93.3333333333333
279,245,3050,2,0,L|288:337,2,93.3333333333333
338,178,3535,5,0,0:0:0:0:
346,69,3696,1,0,0:0:0:0:
241,25,3858,1,0,0:0:0:0:
155,98,4019,1,0,0:0:0:0:
155,98,4181,6,0,L|174:293,1,186.666666666667
25,278,4665,2,0,P|96:278|131:385,1,186.666666666667
316,248,5150,2,0,P|246:261|232:373,1,186.666666666667
356,346,5635,1,0,0:0:0:0:
331,332,5796,1,0,0:0:0:0:
302,330,5958,1,0,0:0:0:0:
182,384,6119,6,0,L|163:198,1,186.666666666667
145,23,6604,1,0,0:0:0:0:
213,86,6927,5,0,0:0:0:0:
175,114,7089,1,0,0:0:0:0:
128,117,7250,1,0,0:0:0:0:
85,96,7412,1,0,0:0:0:0:
241,4,7573,1,0,0:0:0:0:
282,25,7735,1,0,0:0:0:0:
304,65,7896,1,0,0:0:0:0:
304,65,8058,6,0,L|288:157,1,93.3333333333333
225,215,8381,1,0,0:0:0:0:
355,206,8543,1,0,0:0:0:0:
294,265,8704,1,0,0:0:0:0:
424,256,8866,1,0,0:0:0:0:
216,330,9027,1,0,0:0:0:0:
225,213,9512,5,0,0:0:0:0:
181,142,9673,1,0,0:0:0:0:
146,216,9835,1,0,0:0:0:0:
258,138,9997,1,0,0:0:0:0:
328,261,10158,1,0,0:0:0:0:
148,72,10320,1,0,0:0:0:0:
183,292,10481,5,0,0:0:0:0:
302,73,10643,1,0,0:0:0:0:
346,306,10804,1,0,0:0:0:0:
138,54,10966,1,0,0:0:0:0:
114,329,11127,1,0,0:0:0:0:
303,53,11289,1,0,0:0:0:0:
356,326,11451,2,0,P|401:344|449:337,2,93.3333333333333
155,237,11935,6,0,P|87:228|32:269,1,140.000005340576
116,317,12420,1,0,0:0:0:0:
199,162,12662,1,0,0:0:0:0:
155,237,12904,2,0,P|223:246|278:205,1,140.000005340576
321,124,13389,1,0,0:0:0:0:
326,102,13631,6,0,P|373:84|428:102,1,105.000004005432
376,179,14116,1,0,0:0:0:0:
421,262,14358,2,0,P|353:271|298:230,1,140.000005340576
184,95,14843,1,0,0:0:0:0:
209,172,15166,1,0,0:0:0:0:
120,143,15328,1,0,0:0:0:0:
120,50,15489,1,0,0:0:0:0:
209,22,15651,1,0,0:0:0:0:
332,97,15812,5,0,0:0:0:0:
184,95,15974,1,0,0:0:0:0:
243,252,16135,1,0,0:0:0:0:
70,176,16297,5,0,0:0:0:0:
218,174,16459,1,0,0:0:0:0:
159,331,16620,1,0,0:0:0:0:
334,205,16782,5,0,0:0:0:0:
193,253,16944,1,0,0:0:0:0:
303,380,17105,1,0,0:0:0:0:
83,370,17266,6,0,P|74:308|126:259,1,111.999996582031
239,176,17589,1,0,0:0:0:0:
29,220,17751,2,0,P|71:185|125:186,1,111.999996582031
271,260,18074,1,0,0:0:0:0:
136,101,18236,2,0,P|186:121|210:171,1,111.999996582031
214,334,18559,1,0,0:0:0:0:
123,192,18720,5,0,0:0:0:0:
296,176,18882,1,0,0:0:0:0:
205,343,19043,1,0,0:0:0:0:
367,290,19205,6,0,L|501:319,2,111.999996582031
250,217,19690,5,0,0:0:0:0:
238,173,19851,1,0,0:0:0:0:
280,184,20013,1,0,0:0:0:0:
158,227,20174,5,0,0:0:0:0:
335,258,20335,1,0,0:0:0:0:
273,90,20497,1,0,0:0:0:0:
238,288,20659,1,0,0:0:0:0:
176,120,20821,1,0,0:0:0:0:
353,151,20982,1,0,0:0:0:0:
119,241,21144,5,0,0:0:0:0:
366,285,21305,1,0,0:0:0:0:
279,51,21467,1,0,0:0:0:0:
231,326,21629,1,0,0:0:0:0:
144,92,21791,1,0,0:0:0:0:
391,136,21952,1,0,0:0:0:0:
70,260,22113,5,0,0:0:0:0:
406,318,22274,1,0,0:0:0:0:
288,0,22436,1,0,0:0:0:0:
222,375,22598,1,0,0:0:0:0:
104,57,22760,1,0,0:0:0:0:
440,115,22921,1,0,0:0:0:0:
70,260,23082,5,0,0:0:0:0:
423,0,23244,1,0,0:0:0:0:
222,375,23405,1,0,0:0:0:0:
251,203,23567,6,0,L|235:307,2,93.3333333333333
37,106,24051,2,0,L|21:2,2,93.3333333333333
90,245,24536,5,0,0:0:0:0:
27,127,24697,1,0,0:0:0:0:
161,131,24859,1,0,0:0:0:0:
182,245,25021,5,0,0:0:0:0:
198,215,25182,1,0,0:0:0:0:
165,216,25344,1,0,0:0:0:0:
94,317,25505,6,0,B|178:359|263:317|263:317|348:275|432:317,1,350.000013351441
497,368,26475,2,0,P|466:305|464:236,1,140.000005340576
367,204,26959,2,0,P|390:157|436:135,1,105.000004005432
228,211,27444,5,0,0:0:0:0:
256,192,27505,12,0,30352,0:0:0:0:
