osu file format v14

[General]
AudioFilename: audio.mp3
AudioLeadIn: 0
PreviewTime: 213989
Countdown: 1
SampleSet: Soft
StackLeniency: 0.7
Mode: 0
LetterboxInBreaks: 0
WidescreenStoryboard: 1

[Editor]
Bookmarks: 39515,52147,58463,67936,93199,105831,118463,124778,145305,146884,170568,172147,184778,191094,210041,222673,228989,232147,235305,238463,241620,246357,247936,249515
DistanceSpacing: 1.5
BeatDivisor: 2
GridSize: 16
TimelineZoom: 0.8

[Metadata]
Title:Avril
TitleUnicode:Avril
Artist:Neil Cicierega
ArtistUnicode:Neil Cicierega
Creator:CeilingWaffle
Version:and you fall and you crawl and you break and you take what you get
Source:
Tags:
BeatmapID:1431354
BeatmapSetID:676750

[Difficulty]
HPDrainRate:6
CircleSize:4.5
OverallDifficulty:8
ApproachRate:8
SliderMultiplier:1.2
SliderTickRate:1

[Events]
//Background and Video events
0,0,"maxresdefault.jpg",0,0
//Break Periods
//Storyboard Layer 0 (Background)
//Storyboard Layer 1 (Fail)
//Storyboard Layer 2 (Pass)
//Storyboard Layer 3 (Foreground)
//Storyboard Sound Samples

[TimingPoints]
14252.4914412415,394.736842105263,4,2,0,100,1,0
52147,-100,4,2,0,100,0,1
58463,-100,4,2,0,100,0,0
118463,-100,4,2,0,100,0,1
124778,-100,4,2,0,100,0,0
184778,-100,4,2,0,100,0,1
191094,-100,4,2,0,100,0,0
210041,-100,4,2,0,100,0,1
249515,-100,4,2,0,100,0,0

[HitObjects]
323,192,210041,5,0,0:0:0:0:
256,124,210436,1,0,0:0:0:0:
188,192,210831,1,0,0:0:0:0:
256,259,211226,1,0,0:0:0:0:
329,204,211620,5,0,0:0:0:0:
268,118,212015,1,0,0:0:0:0:
182,179,212410,1,0,0:0:0:0:
243,265,212805,1,0,0:0:0:0:
243,265,213002,1,0,0:0:0:0:
333,220,213198,5,0,0:0:0:0:
284,114,213593,1,0,0:0:0:0:
178,163,213988,1,0,0:0:0:0:
227,269,214383,1,0,0:0:0:0:
334,237,214777,5,0,0:0:0:0:
301,113,215172,1,0,0:0:0:0:
177,146,215567,1,0,0:0:0:0:
210,270,215962,1,0,0:0:0:0:
210,270,216160,1,0,0:0:0:0:
332,255,216356,5,0,0:0:0:0:
179,128,216751,1,0,0:0:0:0:
319,115,217146,1,0,0:0:0:0:
192,268,217541,1,0,0:0:0:0:
326,275,217935,5,0,0:0:0:0:
185,108,218330,1,0,0:0:0:0:
339,121,218725,1,0,0:0:0:0:
172,262,219120,1,0,0:0:0:0:
172,262,219318,1,0,0:0:0:0:
315,295,219514,5,0,0:0:0:0:
195,87,219909,1,0,0:0:0:0:
359,130,220304,1,0,0:0:0:0:
151,251,220699,1,0,0:0:0:0:
301,315,221093,5,0,0:0:0:0:
210,67,221488,1,0,0:0:0:0:
379,145,221883,1,0,0:0:0:0:
210,67,222278,1,0,0:0:0:0:
382,150,222673,5,0,0:0:0:0:
382,150,222870,1,0,0:0:0:0:
307,319,223068,1,0,0:0:0:0:
307,319,223265,1,0,0:0:0:0:
197,168,223463,1,0,0:0:0:0:
197,168,223660,1,0,0:0:0:0:
396,183,223857,5,0,0:0:0:0:
396,183,224055,1,0,0:0:0:0:
274,334,224252,1,0,0:0:0:0:
274,334,224449,1,0,0:0:0:0:
203,152,224647,1,0,0:0:0:0:
203,152,224844,1,0,0:0:0:0:
400,221,225041,5,0,0:0:0:0:
400,221,225239,1,0,0:0:0:0:
235,341,225436,1,0,0:0:0:0:
235,341,225634,1,0,0:0:0:0:
163,225,225831,5,0,0:0:0:0:
133,195,226028,1,0,0:0:0:0:
324,157,226226,5,0,0:0:0:0:
324,198,226423,1,0,0:0:0:0:
115,111,226620,5,0,0:0:0:0:
144,83,226818,1,0,0:0:0:0:
193,300,227015,5,0,0:0:0:0:
152,299,227212,1,0,0:0:0:0:
237,134,227410,5,0,0:0:0:0:
266,164,227607,1,0,0:0:0:0:
65,263,227805,5,0,0:0:0:0:
65,221,228002,1,0,0:0:0:0:
262,319,228199,5,0,0:0:0:0:
232,348,228397,1,0,0:0:0:0:
142,167,228594,5,0,0:0:0:0:
184,168,228791,1,0,0:0:0:0:
163,225,228989,5,0,0:0:0:0:
324,157,229384,5,0,0:0:0:0:
115,111,229778,5,0,0:0:0:0:
193,300,230173,5,0,0:0:0:0:
237,134,230568,5,0,0:0:0:0:
65,263,230963,5,0,0:0:0:0:
262,319,231357,5,0,0:0:0:0:
142,167,231752,5,0,0:0:0:0:
184,168,232147,5,0,0:0:0:0:
142,167,232344,1,0,0:0:0:0:
232,348,232541,5,0,0:0:0:0:
262,319,232739,1,0,0:0:0:0:
65,221,232936,5,0,0:0:0:0:
65,263,233133,1,0,0:0:0:0:
266,164,233331,5,0,0:0:0:0:
237,134,233528,1,0,0:0:0:0:
152,299,233726,5,0,0:0:0:0:
193,300,233923,1,0,0:0:0:0:
144,83,234120,5,0,0:0:0:0:
115,111,234318,1,0,0:0:0:0:
324,198,234515,5,0,0:0:0:0:
133,195,234712,1,0,0:0:0:0:
324,157,234910,5,0,0:0:0:0:
163,225,235107,1,0,0:0:0:0:
377,239,235305,5,0,0:0:0:0:
203,159,235502,1,0,0:0:0:0:
305,290,235699,1,0,0:0:0:0:
241,141,235897,1,0,0:0:0:0:
230,281,236094,1,0,0:0:0:0:
275,152,236291,1,0,0:0:0:0:
188,233,236489,1,0,0:0:0:0:
290,178,236686,1,0,0:0:0:0:
190,179,236884,5,0,0:0:0:0:
344,272,237081,1,0,0:0:0:0:
221,146,237278,1,0,0:0:0:0:
265,293,237476,1,0,0:0:0:0:
260,144,237673,1,0,0:0:0:0:
204,260,237870,1,0,0:0:0:0:
286,164,238068,1,0,0:0:0:0:
184,205,238265,1,0,0:0:0:0:
290,192,238463,5,0,0:0:0:0:
80,128,238857,1,0,0:0:0:0:
320,192,239252,1,0,0:0:0:0:
112,256,239647,1,0,0:0:0:0:
352,192,240041,5,0,0:0:0:0:
144,128,240435,1,0,0:0:0:0:
384,192,240830,1,0,0:0:0:0:
176,256,241225,1,0,0:0:0:0:
301,192,241620,5,0,0:0:0:0:
160,174,241818,1,0,0:0:0:0:
296,228,242015,1,0,0:0:0:0:
186,100,242213,1,0,0:0:0:0:
261,255,242410,1,0,0:0:0:0:
268,57,242607,1,0,0:0:0:0:
210,252,242805,1,0,0:0:0:0:
374,84,243002,1,0,0:0:0:0:
168,208,243199,5,0,0:0:0:0:
302,209,243397,1,0,0:0:0:0:
166,136,243594,1,0,0:0:0:0:
282,244,243792,1,0,0:0:0:0:
221,72,243989,1,0,0:0:0:0:
236,258,244186,1,0,0:0:0:0:
321,60,244384,1,0,0:0:0:0:
186,235,244581,1,0,0:0:0:0:
418,129,244778,5,0,0:0:0:0:
207,65,244976,1,0,0:0:0:0:
447,129,245173,1,0,0:0:0:0:
239,193,245370,1,0,0:0:0:0:
479,129,245568,5,0,0:0:0:0:
271,65,245765,1,0,0:0:0:0:
511,129,245963,1,0,0:0:0:0:
303,193,246160,1,0,0:0:0:0:
187,129,246357,5,0,0:0:0:0:
398,65,246555,1,0,0:0:0:0:
158,129,246752,1,0,0:0:0:0:
366,193,246949,1,0,0:0:0:0:
126,129,247147,5,0,0:0:0:0:
334,65,247344,1,0,0:0:0:0:
94,129,247542,1,0,0:0:0:0:
302,193,247739,1,0,0:0:0:0:
137,182,247936,5,0,2:0:0:0:
314,71,248134,1,0,2:0:0:0:
182,320,248331,1,0,2:0:0:0:
416,233,248528,1,0,2:0:0:0:
83,130,248726,1,0,2:0:0:0:
402,48,248924,1,0,2:0:0:0:
82,337,249121,1,0,2:0:0:0:
464,336,249318,1,0,0:0:0:0:
32,80,249515,1,0,0:0:0:0:
