osu file format v14

[General]
AudioFilename: DESTINY.mp3
AudioLeadIn: 0
PreviewTime: 38621
Countdown: 0
SampleSet: Soft
StackLeniency: 0.6
Mode: 0
LetterboxInBreaks: 0
WidescreenStoryboard: 1

[Editor]
Bookmarks: 9285,23080,37971,52861,66876,80890,84394,87827,88703
DistanceSpacing: 1.3
BeatDivisor: 4
GridSize: 4
TimelineZoom: 2.599999

[Metadata]
Title:DESTINY
TitleUnicode:DESTINY
Artist:Negoto
ArtistUnicode:ねごと
Creator:ego_17
Version:Hard
Source:銀魂゜
Tags:tv size gintama゜ ending gintama 2015
BeatmapID:735050
BeatmapSetID:331892

[Difficulty]
HPDrainRate:7
CircleSize:4.5
OverallDifficulty:7
ApproachRate:8
SliderMultiplier:1.6
SliderTickRate:1

[Events]
//Background and Video events
0,0,"Gintama - 266 snapshot.jpg",0,0
//Break Periods
//Storyboard Layer 0 (Background)
//Storyboard Layer 1 (Fail)
//Storyboard Layer 2 (Pass)
//Storyboard Layer 3 (Foreground)
//Storyboard Sound Samples

[TimingPoints]
191,437.956204379562,4,1,0,70,1,0
9169,-100,4,2,0,85,0,0
21650,-100,4,2,0,41,0,0
21760,-100,4,2,0,85,0,0
22964,-100,4,2,0,70,0,0
38731,-100,4,2,0,85,0,1
66103,-100,4,2,0,60,0,1
66322,-100,4,2,0,70,0,1
66760,-100,4,2,0,85,0,1
68074,-100,4,2,0,85,0,0
80774,-100,4,1,0,40,0,0

[Colours]
Combo1 : 255,121,255
Combo2 : 126,143,150
Combo3 : 48,196,252
Combo4 : 196,185,140

[HitObjects]
88,136,1066,5,4,0:0:0:0:
116,44,1285,1,0,0:0:0:0:
184,112,1504,1,8,0:0:0:0:
260,192,1723,1,0,0:0:0:0:
260,192,1833,1,0,0:0:0:0:
260,192,1942,5,10,0:1:0:0:
260,192,2271,1,0,0:0:0:0:
368,288,2599,1,2,0:0:0:0:
368,288,2818,1,2,0:0:0:0:
256,188,3147,1,0,0:0:0:0:
256,336,3475,1,0,0:0:0:0:
164,308,3694,5,2,0:0:0:0:
352,264,4132,1,2,0:3:0:0:
164,232,4570,1,2,0:0:0:0:
352,192,5008,1,2,0:3:0:0:
164,80,5446,21,2,0:0:0:0:
256,192,5774,1,0,0:0:0:0:
348,84,6103,1,2,0:0:0:0:
348,84,6322,1,2,0:0:0:0:
256,192,6650,1,0,0:0:0:0:
164,304,6979,1,0,0:0:0:0:
256,328,7198,1,2,0:0:0:0:
396,196,7636,5,0,0:0:0:0:
340,116,7855,1,0,0:0:0:0:
256,52,8074,1,0,3:0:0:0:
256,52,8183,1,0,3:0:0:0:
256,152,8402,1,0,3:0:0:0:
256,152,8512,1,0,3:0:0:0:
168,116,8731,1,2,3:3:0:0:
116,196,8950,1,6,3:1:0:0:
204,236,9169,6,0,L|232:320,1,80,2|0,0:0|0:0,0:0:0:0:
323,338,9607,1,2,0:0:0:0:
296,246,9826,2,0,P|388:212|408:168,1,120
412,152,10263,1,2,0:0:0:0:
356,76,10482,1,0,0:0:0:0:
264,52,10701,21,2,0:0:0:0:
282,242,11139,1,0,3:0:0:0:
167,86,11577,1,2,0:0:0:0:
216,269,12015,1,0,3:0:0:0:
180,357,12234,1,2,0:0:0:0:
120,281,12453,1,0,0:0:0:0:
281,172,12891,5,0,0:0:0:0:
332,90,13110,1,2,0:0:0:0:
236,90,13329,1,2,0:0:0:0:
293,277,13767,1,0,3:0:0:0:
329,365,13986,1,2,0:0:0:0:
233,347,14205,1,0,0:0:0:0:
136,88,14643,5,2,0:0:0:0:
242,244,15081,1,2,0:0:0:0:
256,48,15519,1,2,0:0:0:0:
348,24,15738,1,0,0:0:0:0:
440,56,15957,22,0,L|440:148,1,80,2|0,0:0|0:0,0:0:0:0:
300,144,16395,2,0,L|300:228,1,80,0|0,3:0|0:0,0:0:0:0:
164,224,16833,2,0,P|208:280|264:300,1,120,0|2,3:0|0:0,0:0:0:0:
300,304,17271,1,2,0:0:0:0:
371,196,17490,1,2,0:0:0:0:
260,128,17709,6,0,P|272:84|312:52,1,80,0|0,3:0|0:0,0:0:0:0:
260,196,18147,2,0,P|248:240|208:272,1,80
132,240,18585,2,0,P|116:164|144:116,1,120,0|2,3:0|0:0,0:0:0:0:
172,100,19023,1,2,0:0:0:0:
260,196,19242,1,0,0:0:0:0:
345,100,19461,1,2,0:0:0:0:
432,268,19899,6,0,P|408:308|356:336,1,80,2|0,0:0|0:0,0:0:0:0:
290,298,20336,1,2,0:0:0:0:
80,268,20774,2,0,P|96:300|136:332,1,80,0|0,3:0|0:0,0:0:0:0:
222,298,21212,1,2,0:0:0:0:
260,132,21431,21,0,3:0:0:0:
260,132,21650,1,4,3:1:0:0:
256,324,22088,1,0,0:0:0:0:
336,148,22526,1,2,0:0:0:0:
256,200,22745,1,0,0:0:0:0:
176,144,22964,6,0,P|105:173|76:247,1,160,4|0,0:1|0:0,0:0:0:0:
256,176,23840,1,0,0:0:0:0:
392,128,24169,1,0,0:0:0:0:
456,256,24497,1,0,0:0:0:0:
456,256,24716,1,2,0:0:0:0:
320,120,25154,5,0,0:0:0:0:
268,304,25592,1,2,0:0:0:0:
224,116,26030,1,0,0:0:0:0:
136,152,26249,1,0,0:0:0:0:
68,220,26468,22,0,P|48:252|40:316,1,80,4|0,0:1|0:0,0:0:0:0:
224,348,27125,2,0,P|244:316|256:272,1,80,2|2,0:0|0:0,0:0:0:0:
252,178,28001,1,0,0:0:0:0:
255,275,28220,1,2,0:0:0:0:
378,211,28658,6,0,B|354:163|412:106|380:55,1,160,0|0,0:0|3:0,0:0:0:0:
254,123,29534,1,0,0:0:0:0:
126,55,29972,2,0,B|95:105|153:162|129:210,1,160,4|0,0:1|0:0,0:0:0:0:
68,299,30628,5,0,0:0:0:0:
68,299,30847,1,0,3:0:0:0:
257,299,31285,1,0,0:0:0:0:
340,236,31504,1,0,0:0:0:0:
340,236,31723,21,2,0:0:0:0:
256,104,32052,1,0,0:0:0:0:
172,236,32380,1,0,0:0:0:0:
172,236,32599,1,0,3:0:0:0:
256,48,33037,1,0,0:0:0:0:
345,113,33256,1,0,0:0:0:0:
345,113,33475,5,4,0:1:0:0:
257,245,33804,1,0,0:0:0:0:
169,113,34132,1,0,0:0:0:0:
169,113,34351,1,0,3:0:0:0:
256,300,34789,5,0,0:0:0:0:
256,300,35227,1,4,0:1:0:0:
404,348,35555,1,0,0:0:0:0:
365,199,35884,1,0,0:0:0:0:
365,199,36103,1,2,0:0:0:0:
389,0,36541,1,2,0:0:0:0:
252,148,36979,21,4,0:1:0:0:
252,148,37307,1,0,0:0:0:0:
252,148,37636,1,0,3:0:0:0:
113,267,38074,38,0,P|85:231|29:207,2,80
172,352,38731,1,4,0:1:0:0:
172,352,39169,1,2,0:0:0:0:
380,352,39607,1,2,0:0:0:0:
448,212,39935,1,0,0:0:0:0:
380,352,40263,1,2,0:0:0:0:
328,264,40482,21,2,0:0:0:0:
257,128,40811,1,2,0:0:0:0:
257,128,40920,1,0,0:0:0:0:
256,296,41139,1,2,0:0:0:0:
257,196,41358,1,2,0:0:0:0:
180,264,41577,1,0,0:0:0:0:
128,176,41796,1,2,0:0:0:0:
163,78,42015,1,0,0:0:0:0:
256,28,42234,5,2,0:0:0:0:
256,28,42672,1,2,0:0:0:0:
412,168,43110,1,2,0:0:0:0:
476,24,43439,1,0,0:0:0:0:
412,168,43767,1,2,0:0:0:0:
356,80,43986,5,2,0:0:0:0:
260,216,44315,1,2,0:0:0:0:
260,216,44424,1,0,0:0:0:0:
260,112,44643,1,2,0:0:0:0:
212,20,44862,1,0,3:0:0:0:
212,20,44972,1,2,3:2:0:0:
316,16,45191,1,0,3:0:0:0:
316,16,45300,2,0,P|360:24|408:72,1,80,2|0,3:2|3:0,0:0:0:0:
320,120,45738,22,0,L|342:205,1,80,2|0,0:0|0:0,0:0:0:0:
269,270,46176,2,0,L|243:173,1,80,2|0,0:0|0:0,0:0:0:0:
222,92,46614,1,2,0:0:0:0:
168,236,46942,1,0,0:0:0:0:
72,117,47271,1,2,0:0:0:0:
68,220,47490,5,2,0:0:0:0:
204,136,47818,1,2,0:0:0:0:
204,136,47928,1,0,0:0:0:0:
256,288,48147,1,2,0:0:0:0:
329,214,48366,2,0,L|417:270,1,80,2|0,0:0|0:0,0:0:0:0:
485,207,48804,2,0,L|405:155,1,80,2|0,0:0|0:0,0:0:0:0:
247,74,49242,1,4,0:1:0:0:
316,152,49461,5,2,0:0:0:0:
316,152,49570,1,0,0:0:0:0:
316,152,49680,2,0,L|316:256,2,80,2|0|2,0:0|0:0|0:0,0:0:0:0:
412,112,50336,1,0,0:0:0:0:
336,48,50555,1,0,0:0:0:0:
232,48,50774,1,0,0:0:0:0:
152,116,50993,21,2,3:0:0:0:
152,116,51103,1,0,3:0:0:0:
216,204,51322,1,2,0:0:0:0:
216,204,51431,1,0,3:0:0:0:
288,132,51650,1,2,0:0:0:0:
368,202,51869,1,2,3:0:0:0:
320,296,52088,1,0,3:0:0:0:
368,202,52307,1,2,3:0:0:0:
436,112,52526,1,0,3:0:0:0:
436,112,52636,1,0,3:0:0:0:
436,112,52745,5,4,3:1:0:0:
228,132,53183,1,2,0:0:0:0:
424,196,53621,2,0,P|460:248|452:316,2,120,2|0|2,0:0|0:0|0:0,0:0:0:0:
328,156,54497,5,2,0:0:0:0:
256,296,54826,2,0,L|256:228,1,40,2|0,0:0|0:0,0:0:0:0:
260,100,55154,1,2,0:0:0:0:
260,100,55373,1,2,0:0:0:0:
308,192,55592,1,0,0:0:0:0:
203,192,55811,2,0,P|168:168|156:104,1,80,2|0,0:0|0:0,0:0:0:0:
124,32,56249,21,2,0:0:0:0:
328,72,56687,1,2,0:0:0:0:
128,128,57125,2,0,P|92:180|100:248,2,120,2|0|2,0:0|0:0|0:0,0:0:0:0:
228,92,58001,5,2,0:0:0:0:
272,240,58329,2,0,L|272:172,1,40,2|0,0:0|0:0,0:0:0:0:
272,40,58658,1,2,0:0:0:0:
372,72,58877,1,0,3:0:0:0:
372,72,58986,1,2,3:2:0:0:
444,144,59205,1,0,3:0:0:0:
444,144,59315,2,0,P|460:192|448:244,1,80,2|0,3:2|0:0,0:0:0:0:
352,228,59753,6,0,L|352:144,1,80,2|0,0:0|0:0,0:0:0:0:
260,100,60190,2,0,L|260:180,1,80,2|0,0:0|0:0,0:0:0:0:
168,228,60628,1,2,0:0:0:0:
60,116,60957,1,0,0:0:0:0:
72,272,61285,2,0,P|140:336|212:336,1,160
304,304,61942,21,2,0:0:0:0:
227,235,62161,1,0,0:0:0:0:
212,132,62380,2,0,L|212:48,1,80,2|0,0:0|0:0,0:0:0:0:
296,113,62818,2,0,L|296:217,1,80,2|2,0:0|0:0,0:0:0:0:
380,132,63256,1,4,0:1:0:0:
292,320,63694,6,0,P|260:332|205:307,1,80,2|0,0:0|0:0,0:0:0:0:
136,256,64132,1,4,0:1:0:0:
104,156,64351,1,0,0:0:0:0:
163,72,64570,1,0,3:0:0:0:
256,120,64789,1,0,0:0:0:0:
259,15,65008,5,0,3:0:0:0:
256,120,65227,1,0,0:0:0:0:
349,68,65446,1,4,0:1:0:0:
410,151,65665,1,0,3:0:0:0:
410,151,65774,1,0,0:0:0:0:
410,151,65884,1,0,3:0:0:0:
384,250,66103,21,2,3:0:0:0:
344,282,66212,1,0,3:0:0:0:
300,308,66322,1,2,3:0:0:0:
248,316,66431,1,0,3:0:0:0:
196,308,66541,2,0,P|168:296|152:280,2,40,2|0|4,3:0|3:1|3:1,3:1:0:0:
256,192,66869,12,2,68074,0:0:0:0:
256,192,68512,5,2,0:0:0:0:
404,140,68840,2,0,L|448:108,1,40,2|0,0:0|0:0,0:0:0:0:
428,12,69169,1,2,0:0:0:0:
340,72,69388,2,0,L|256:132,1,80,2|0,0:0|0:0,0:0:0:0:
324,212,69826,2,0,L|280:296,1,80,2|0,0:0|0:0,0:0:0:0:
188,320,70263,5,2,0:0:0:0:
22,191,70701,2,0,P|36:248|76:272,1,80,2|0,0:0|0:0,0:0:0:0:
144,308,71139,1,2,0:0:0:0:
300,320,71468,1,0,0:0:0:0:
350,309,71577,2,0,P|392:280|404:240,1,80,0|2,0:0|0:0,0:0:0:0:
255,257,72015,21,2,0:0:0:0:
120,184,72344,2,0,L|81:157,1,40,2|0,0:0|0:0,0:0:0:0:
164,92,72672,1,2,0:0:0:0:
256,48,72891,1,0,3:0:0:0:
256,48,73001,1,2,3:2:0:0:
256,152,73220,1,0,3:0:0:0:
256,152,73329,1,2,3:2:0:0:
255,256,73548,1,0,3:0:0:0:
360,276,73767,6,2,L|452:244,1,80,2|2,3:2|0:0,0:0:0:0:
344,176,74205,2,0,L|412:116,1,80,2|0,0:0|0:0,0:0:0:0:
301,84,74643,1,2,0:0:0:0:
256,228,74972,1,0,0:0:0:0:
211,84,75300,2,0,P|150:133|129:209,1,160,0|0,0:0|0:0,0:0:0:0:
256,261,75957,5,2,0:0:0:0:
383,209,76176,2,0,P|362:133|300:83,1,160
256,181,76833,2,0,L|256:273,1,80,2|2,0:0|0:0,0:0:0:0:
256,364,77271,1,4,0:1:0:0:
156,148,77709,21,0,0:0:0:0:
96,232,77928,1,0,0:0:0:0:
256,364,78366,1,0,0:0:0:0:
356,176,78804,1,0,0:0:0:0:
256,364,79242,1,0,0:0:0:0:
156,176,79680,1,2,0:0:0:0:
84,104,79899,6,0,P|114:80|167:77,1,80,0|0,3:0|0:0,0:0:0:0:
252,84,80336,1,0,3:0:0:0:
252,192,80555,1,0,0:0:0:0:
252,192,80665,1,0,0:0:0:0:
252,192,80774,21,6,0:1:0:0:
252,192,81103,1,0,0:0:0:0:
354,83,81431,1,2,0:0:0:0:
354,83,81650,1,2,0:0:0:0:
256,188,81979,1,0,0:0:0:0:
256,336,82307,1,0,0:0:0:0:
348,308,82526,5,2,0:0:0:0:
160,264,82964,1,2,0:3:0:0:
348,232,83402,1,2,0:1:0:0:
160,192,83840,2,0,L|100:176,2,40,2|0|0,0:3|2:0|0:0,2:0:0:0:
348,80,84278,5,2,0:0:0:0:
256,192,84607,1,0,0:0:0:0:
164,84,84935,1,2,0:0:0:0:
164,84,85154,1,2,0:0:0:0:
256,192,85482,1,0,0:0:0:0:
348,304,85811,1,0,0:0:0:0:
256,328,86030,1,2,0:0:0:0:
116,196,86468,21,2,0:3:0:0:
172,116,86687,1,0,0:0:0:0:
257,60,86906,1,0,3:0:0:0:
256,47,87015,1,2,3:2:0:0:
264,148,87234,5,2,3:0:0:0:
264,164,87344,1,2,3:2:0:0:
265,180,87453,1,0,3:0:0:0:
266,196,87563,1,2,3:2:0:0:
267,212,87672,1,0,3:0:0:0:
268,228,87782,2,0,L|272:291,1,40,0|0,3:0|2:0,0:0:0:0:
