osu file format v14

[General]
AudioFilename: DESTINY.mp3
AudioLeadIn: 0
PreviewTime: 38621
Countdown: 0
SampleSet: Soft
StackLeniency: 0.6
Mode: 0
LetterboxInBreaks: 0
WidescreenStoryboard: 1

[Editor]
Bookmarks: 9285,23080,37971,52861,66876,80890,84394
DistanceSpacing: 1.1
BeatDivisor: 4
GridSize: 4
TimelineZoom: 1.6

[Metadata]
Title:DESTINY
TitleUnicode:DESTINY
Artist:Negoto
ArtistUnicode:ねごと
Creator:ego_17
Version:Normal
Source:銀魂゜
Tags:tv size gintama゜ ending gintama 2015
BeatmapID:735051
BeatmapSetID:331892

[Difficulty]
HPDrainRate:5
CircleSize:4.2
OverallDifficulty:5
ApproachRate:5.5
SliderMultiplier:1.4
SliderTickRate:1

[Events]
//Background and Video events
0,0,"Gintama - 266 snapshot.jpg",0,0
//Break Periods
//Storyboard Layer 0 (Background)
//Storyboard Layer 1 (Fail)
//Storyboard Layer 2 (Pass)
//Storyboard Layer 3 (Foreground)
//Storyboard Sound Samples

[TimingPoints]
191,437.956204379562,4,1,0,70,1,0
9169,-100,4,2,0,85,0,0
21650,-100,4,2,0,41,0,0
21760,-100,4,2,0,85,0,0
22964,-100,4,2,0,70,0,0
38731,-100,4,2,0,85,0,1
66103,-100,4,2,0,60,0,1
66322,-100,4,2,0,70,0,1
66760,-100,4,2,0,85,0,1
68074,-100,4,2,0,85,0,0
80774,-100,4,1,0,40,0,0
88220,-100,4,1,0,23,0,0
88658,-100,4,1,0,17,0,0
89096,-100,4,1,0,10,0,0

[Colours]
Combo1 : 255,121,255
Combo2 : 126,143,150
Combo3 : 48,196,252
Combo4 : 196,185,140

[HitObjects]
208,196,1066,6,0,L|239:279,2,70,4|0|8,0:0|0:0|0:0,2:0:0:0:
181,126,1723,1,0,0:0:0:0:
186,50,1942,6,0,P|213:31|301:39,2,105,2|0|2,0:0|0:0|0:0,2:0:0:0:
117,87,2818,2,0,P|84:91|27:157,2,105,2|0|0,0:0|0:0|0:0,2:0:0:0:
181,126,3694,5,2,0:0:0:0:
332,96,4132,1,2,0:3:0:0:
316,248,4570,2,0,P|304:297|219:343,1,140,2|2,0:0|0:3,2:0:0:0:
180,196,5446,22,0,P|198:139|298:102,1,140,2|0,0:0|0:0,2:0:0:0:
342,97,6103,1,2,0:0:0:0:
413,66,6322,2,0,P|465:58|521:87,2,105,2|0|0,0:0|0:0|0:0,2:0:0:0:
436,140,7198,6,0,P|444:212|394:259,1,140,2|0,0:0|0:0,2:0:0:0:
372,184,7855,1,0,0:0:0:0:
320,240,8074,2,0,P|256:260|169:226,1,140,0|0,3:0|3:0,2:0:0:0:
136,184,8731,1,2,3:3:0:0:
72,140,8950,6,0,P|59:177|111:258,1,140,6|2,3:1|0:0,2:0:0:0:
240,340,9826,1,2,0:0:0:0:
342,227,10263,1,2,0:0:0:0:
384,290,10482,1,0,0:0:0:0:
418,222,10701,1,2,0:0:0:0:
316,108,11139,22,0,P|256:80|192:108,1,140,0|2,3:0|0:0,0:0:0:0:
136,252,12015,1,0,3:0:0:0:
72,212,12234,1,0,0:0:0:0:
68,288,12453,2,0,P|124:328|200:296,1,140,2|0,0:0|0:0,0:0:0:0:
256,274,13110,5,2,0:0:0:0:
324,309,13329,2,0,P|388:328|444:288,1,140,2|0,0:0|3:0,0:0:0:0:
376,252,13986,1,0,0:0:0:0:
440,212,14205,1,2,0:0:0:0:
340,96,14643,2,0,P|292:52|212:32,2,140,2|2|2,0:0|0:0|0:0,0:0:0:0:
388,157,15738,1,0,0:0:0:0:
416,228,15957,1,2,0:0:0:0:
348,268,16176,6,0,L|348:352,1,70,0|0,0:0|3:0,0:0:0:0:
256,212,16833,2,0,L|256:104,2,105,0|2|2,3:0|0:0|0:0,0:0:0:0:
212,276,17709,1,0,3:0:0:0:
148,232,17928,22,0,P|112:256|92:284,2,70
164,156,18585,2,0,P|128:120|116:56,2,105,0|0|0,3:0|0:0|0:0,0:0:0:0:
224,104,19461,2,0,P|264:168|268:240,1,140,2|2,0:0|0:0,0:0:0:0:
298,303,20118,5,0,0:0:0:0:
344,240,20336,2,0,P|377:169|426:126,1,140,2|0,0:0|3:0,0:0:0:0:
495,99,20993,1,0,0:0:0:0:
432,52,21212,2,0,P|364:20|296:20,1,140,2|4,0:0|3:1,0:0:0:0:
204,140,22088,2,0,L|204:308,1,140,0|2,0:0|0:0,0:0:0:0:
352,324,22964,6,0,L|352:184,1,140,4|0,0:1|0:0,0:0:0:0:
396,36,23840,2,0,P|444:64|480:120,2,105
336,84,24716,1,2,0:0:0:0:
208,168,25154,2,0,P|132:148|72:88,2,140,0|2|0,0:0|0:0|0:0,0:0:0:0:
284,176,26249,1,0,0:0:0:0:
360,188,26468,22,0,P|436:208|496:268,1,140,4|0,0:1|0:0,0:0:0:0:
496,324,27125,1,2,0:0:0:0:
424,348,27344,2,0,L|264:340,1,140,2|0,0:0|0:0,0:0:0:0:
252,272,28001,5,0,0:0:0:0:
224,200,28220,1,2,0:0:0:0:
172,56,28658,2,0,P|88:60|16:44,2,140,0|0|0,0:0|3:0|0:0,0:0:0:0:
172,56,29972,2,0,P|184:140|236:192,1,140,4|0,0:1|0:0,0:0:0:0:
292,156,30628,5,0,0:0:0:0:
366,133,30847,2,0,P|405:200|405:276,1,140,0|0,3:0|0:0,0:0:0:0:
388,336,31504,1,0,0:0:0:0:
332,284,31723,2,0,P|280:276|224:312,2,105,2|0|0,0:0|0:0|0:0,0:0:0:0:
388,336,32599,1,0,3:0:0:0:
240,384,33037,22,0,P|184:368|164:340,1,70
120,308,33475,2,0,P|72:324|32:368,2,105,4|0|0,0:1|0:0|0:0,0:0:0:0:
196,288,34351,1,0,3:0:0:0:
348,260,34789,1,0,0:0:0:0:
464,160,35227,1,4,0:1:0:0:
148,32,36979,6,0,L|36:52,2,105,4|0|0,0:1|0:0|3:0,0:0:0:0:
246,146,38074,6,0,P|306:182|382:206,1,140
398,130,38731,1,4,0:1:0:0:
350,278,39169,1,2,0:0:0:0:
196,264,39607,2,0,P|160:208|160:144,2,105,2|0|2,0:0|0:0|0:0,0:0:0:0:
244,324,40482,5,2,0:0:0:0:
332,200,40920,1,0,0:0:0:0:
376,264,41139,1,2,0:0:0:0:
446,297,41358,1,2,0:0:0:0:
446,142,41796,2,0,L|446:70,1,70,2|0,0:0|0:0,0:0:0:0:
376,39,42234,21,2,0:0:0:0:
292,168,42672,1,2,0:0:0:0:
172,72,43110,2,0,P|136:40|76:8,2,105,2|0|2,0:0|0:0|0:0,0:0:0:0:
208,140,43986,5,2,0:0:0:0:
252,288,44424,2,0,L|252:360,2,70,0|2|2,0:0|0:0|0:0,0:0:0:0:
252,211,45081,1,0,0:0:0:0:
252,135,45300,1,2,0:0:0:0:
396,76,45738,6,0,P|428:148|396:224,1,140,2|2,0:0|0:0,0:0:0:0:
268,260,46614,2,0,P|264:316|288:372,2,105,2|0|2,0:0|0:0|0:0,0:0:0:0:
288,184,47490,22,0,P|296:116|252:48,1,140,2|0,0:0|0:0,0:0:0:0:
184,48,48147,1,2,0:0:0:0:
108,56,48366,2,0,P|68:72|44:120,1,70,2|0,0:0|0:0,0:0:0:0:
120,132,48804,2,0,L|68:200,1,70,2|0,0:0|0:0,0:0:0:0:
120,252,49242,1,4,0:1:0:0:
276,268,49680,6,0,P|348:312|428:288,1,140,2|2,0:0|0:0,0:0:0:0:
436,156,50555,1,0,0:0:0:0:
384,100,50774,1,2,0:0:0:0:
308,104,50993,1,2,3:0:0:0:
240,240,51431,6,0,P|168:284|88:260,1,140,2|2,0:0|3:0,0:0:0:0:
84,208,52088,1,0,3:0:0:0:
156,184,52307,2,0,L|190:115,1,70,2|0,3:0|3:0,0:0:0:0:
248,76,52745,21,4,3:1:0:0:
272,228,53183,1,2,0:0:0:0:
388,132,53621,2,0,P|428:84|476:56,2,105,2|0|2,0:0|0:0|0:0,0:0:0:0:
364,204,54497,5,2,0:0:0:0:
256,316,54935,1,0,0:0:0:0:
184,340,55154,1,2,0:0:0:0:
120,296,55373,1,2,0:0:0:0:
204,168,55811,2,0,L|212:96,1,70,2|0,0:0|0:0,0:0:0:0:
220,20,56249,5,2,0:0:0:0:
96,112,56687,1,2,0:0:0:0:
156,256,57125,2,0,P|104:292|52:296,2,105,2|0|2,0:0|0:0|0:0,0:0:0:0:
220,212,58001,21,2,0:0:0:0:
360,280,58439,2,0,P|388:304|428:316,2,70,0|2|0,0:0|0:0|3:0,0:0:0:0:
308,224,59096,1,0,0:0:0:0:
284,152,59315,1,2,3:2:0:0:
328,4,59753,6,0,P|388:72|397:138,1,140,2|2,0:0|0:0,0:0:0:0:
328,256,60628,2,0,P|268:276|212:264,2,105,2|0|0,0:0|0:0|0:0,0:0:0:0:
356,184,61504,6,0,P|300:124|232:112,1,140,0|2,0:0|0:0,0:0:0:0:
168,112,62161,1,0,0:0:0:0:
100,148,62380,1,2,0:0:0:0:
108,300,62818,2,0,P|140:320|184:324,1,70,2|2,0:0|0:0,0:0:0:0:
248,316,63256,1,4,0:1:0:0:
292,168,63694,22,0,P|344:112|416:100,1,140,2|4,0:0|0:1,0:0:0:0:
488,228,64570,1,0,3:0:0:0:
344,284,65008,1,0,3:0:0:0:
220,183,65446,6,0,P|145:170|80:204,1,140,2|4,0:0|0:1,0:0:0:0:
39,255,66103,1,0,3:0:0:0:
112,280,66322,2,0,L|146:349,1,70,2|0,3:0|3:0,0:0:0:0:
216,368,66760,5,4,3:1:0:0:
220,216,67198,1,2,0:0:0:0:
372,192,67636,2,0,P|432:216|460:268,2,105,2|0|2,0:0|0:0|0:0,0:0:0:0:
300,220,68512,21,2,0:0:0:0:
144,220,68950,1,0,0:0:0:0:
72,192,69169,1,2,0:0:0:0:
48,120,69388,1,2,0:0:0:0:
174,29,69826,2,0,L|250:1,1,70,2|0,0:0|0:0,0:0:0:0:
283,68,70263,6,0,L|283:228,1,140,2|2,0:0|0:0,0:0:0:0:
240,272,70920,1,0,0:0:0:0:
172,240,71139,1,2,0:0:0:0:
324,272,71577,2,0,P|360:260|400:228,1,70,0|2,0:0|0:0,0:0:0:0:
436,184,72015,6,0,P|444:116|390:66,1,140,2|0,0:0|0:0,0:0:0:0:
373,141,72672,1,2,0:0:0:0:
312,188,72891,2,0,L|253:252,1,70,0|0,3:0|0:0,0:0:0:0:
228,172,73329,2,0,L|152:192,1,70,2|0,3:2|3:0,0:0:0:0:
148,112,73767,22,0,P|88:148|100:236,1,140,2|2,3:2|0:0,0:0:0:0:
115,283,74424,1,0,0:0:0:0:
168,340,74643,2,0,P|120:360|58:337,2,105,2|0|0,0:0|0:0|0:0,0:0:0:0:
224,288,75519,1,0,0:0:0:0:
366,230,75957,6,0,P|398:254|430:258,2,70,2|0|0,0:0|0:0|0:0,0:0:0:0:
317,170,76614,1,0,0:0:0:0:
276,105,76833,1,2,0:0:0:0:
232,168,77052,2,0,P|184:216|96:220,1,140,2|0,0:0|0:0,0:0:0:0:
56,277,77709,6,0,P|100:329|196:345,2,140
36,201,78804,1,0,0:0:0:0:
55,125,79023,22,0,P|99:73|195:57,1,140
244,188,79899,2,0,L|244:280,2,70,0|0|0,3:0|0:0|3:0,0:0:0:0:
304,140,80555,1,0,0:0:0:0:
380,124,80774,6,0,P|424:152|460:224,2,105,6|0|2,0:0|0:0|0:0,2:0:0:0:
364,48,81650,2,0,P|424:56|480:96,2,105,2|0|0,0:0|0:0|0:0,2:0:0:0:
288,64,82526,21,2,0:0:0:0:
140,104,82964,1,2,0:3:0:0:
237,227,83402,2,0,P|207:283|137:307,1,140,2|2,0:0|0:3,2:0:0:0:
41,185,84278,6,0,P|77:124|168:111,1,140,2|0,0:0|0:0,2:0:0:0:
208,140,84935,1,2,0:0:0:0:
208,64,85154,2,0,P|248:36|332:40,2,105,2|0|0,0:0|0:0|0:0,2:0:0:0:
140,104,86030,6,0,P|104:128|80:224,1,140,2|0,0:0|0:0,2:0:0:0:
128,276,86687,1,0,0:0:0:0:
196,240,86906,2,0,B|247:230|297:256|297:256|323:198|374:178,1,210,0|0,3:0|3:0,2:0:0:0:
256,192,87782,12,0,89534,2:0:0:0:
