osu file format v14

[General]
AudioFilename: DESTINY.mp3
AudioLeadIn: 0
PreviewTime: 38621
Countdown: 0
SampleSet: Soft
StackLeniency: 0.6
Mode: 0
LetterboxInBreaks: 0
WidescreenStoryboard: 1

[Editor]
Bookmarks: 9285,23080,37971,52861,66876,80890,84394
DistanceSpacing: 1
BeatDivisor: 4
GridSize: 4
TimelineZoom: 1

[Metadata]
Title:DESTINY
TitleUnicode:DESTINY
Artist:Negoto
ArtistUnicode:ねごと
Creator:ego_17
Version:Easy
Source:銀魂゜
Tags:tv size gintama゜ ending gintama 2015
BeatmapID:735049
BeatmapSetID:331892

[Difficulty]
HPDrainRate:3
CircleSize:3
OverallDifficulty:3
ApproachRate:4
SliderMultiplier:1.2
SliderTickRate:1

[Events]
//Background and Video events
0,0,"Gintama - 266 snapshot.jpg",0,0
//Break Periods
//Storyboard Layer 0 (Background)
//Storyboard Layer 1 (Fail)
//Storyboard Layer 2 (Pass)
//Storyboard Layer 3 (Foreground)
//Storyboard Sound Samples

[TimingPoints]
191,437.956204379562,4,1,0,70,1,0
9169,-100,4,2,0,85,0,0
21650,-100,4,2,0,41,0,0
21760,-100,4,2,0,85,0,0
22964,-100,4,2,0,70,0,0
38731,-100,4,2,0,85,0,1
68074,-100,4,2,0,85,0,0
80774,-100,4,1,0,40,0,0
88220,-100,4,1,0,22,0,0
88658,-100,4,1,0,17,0,0
89096,-100,4,1,0,11,0,0

[Colours]
Combo1 : 255,121,255
Combo2 : 126,143,150
Combo3 : 48,196,252
Combo4 : 196,185,140

[HitObjects]
384,256,1066,6,0,L|288:172,1,120,4|8,0:0|0:0,2:0:0:0:
188,236,1942,2,0,L|92:148,2,120,2|0|2,0:1|0:0|0:0,2:0:0:0:
272,320,3256,1,2,0:3:0:0:
356,236,3694,2,0,L|460:144,1,120,2|2,0:0|0:3,2:0:0:0:
408,44,4570,2,0,P|345:44|280:96,1,120,2|2,0:0|0:3,2:0:0:0:
264,188,5446,6,0,L|264:336,2,120,2|0|2,0:0|0:0|0:0,2:0:0:0:
264,67,6760,1,2,0:3:0:0:
148,36,7198,1,2,0:0:0:0:
48,104,7636,2,0,P|72:192|88:216,1,120,0|0,0:0|3:0,2:0:0:0:
188,284,8512,1,0,3:0:0:0:
308,304,8950,6,0,P|417:253|457:125,1,240,6|2,3:1|0:0,2:0:0:0:
380,56,10263,1,2,0:0:0:0:
305,148,10701,2,0,P|249:172|189:160,1,120,2|0,0:0|3:0,0:0:0:0:
128,60,11577,2,0,P|87:104|72:172,1,120,2|0,0:0|3:0,0:0:0:0:
108,276,12453,22,0,P|156:312|229:318,1,120,2|0,0:0|0:0,0:0:0:0:
332,284,13329,1,2,0:0:0:0:
440,227,13767,1,0,3:0:0:0:
424,108,14205,1,2,0:0:0:0:
308,136,14643,2,0,P|312:60|348:16,2,120,2|2|2,0:0|0:0|0:0,0:0:0:0:
308,256,15957,5,2,0:0:0:0:
192,288,16395,1,0,3:0:0:0:
80,248,16833,2,0,P|56:196|72:116,1,120,0|2,3:0|0:0,0:0:0:0:
145,49,17709,2,0,B|185:73|157:129|213:165,1,120,0|0,3:0|0:0,0:0:0:0:
314,153,18585,2,0,B|355:128|327:72|367:48,1,120,0|2,3:0|0:0,0:0:0:0:
444,144,19461,6,0,B|476:256|444:320|444:320|360:348|244:288,1,360,2|0,0:0|3:0,0:0:0:0:
260,180,21212,2,0,L|260:56,1,120,2|4,0:0|3:1,0:0:0:0:
380,68,22088,1,0,0:0:0:0:
348,184,22526,1,2,0:0:0:0:
388,296,22964,22,0,B|328:324|272:292|272:292|212:328|136:288,1,240,4|0,0:1|0:0,0:0:0:0:
196,184,24278,1,0,0:0:0:0:
104,108,24716,1,2,0:0:0:0:
216,60,25154,2,0,P|272:28|336:32,2,120,0|2|0,0:0|0:0|0:0,0:0:0:0:
132,144,26468,6,0,P|108:200|128:268,1,120,4|0,0:1|0:0,0:0:0:0:
212,336,27344,2,0,P|296:352|352:336,1,120,2|0,0:0|0:0,0:0:0:0:
440,301,28220,1,2,0:0:0:0:
336,236,28658,2,0,P|284:212|252:144,2,120,0|0|0,0:0|3:0|0:0,0:0:0:0:
440,176,29972,6,0,L|440:52,1,120,4|0,0:1|0:0,0:0:0:0:
320,48,30847,2,0,B|260:60|260:60|188:44,1,120,0|0,3:0|0:0,0:0:0:0:
84,64,31723,2,0,L|84:188,1,120,2|0,0:0|0:0,0:0:0:0:
152,284,32599,1,0,3:0:0:0:
380,208,33475,22,0,P|388:264|380:340,1,120,4|0,0:1|0:0,0:0:0:0:
260,336,34351,1,0,3:0:0:0:
140,328,34789,2,0,P|135:268|148:204,1,120,0|4,0:0|0:1,0:0:0:0:
159,146,36979,6,0,P|192:92|239:66,2,90,4|0|0,0:1|0:0|3:0,0:0:0:0:
336,312,38731,6,0,P|404:292|444:240,2,120,4|2|2,0:1|0:0|0:0,0:0:0:0:
220,280,40045,1,0,0:0:0:0:
104,316,40482,2,0,P|136:192|234:158,1,240,2|2,0:0|0:0,0:0:0:0:
348,192,41796,5,2,0:0:0:0:
348,72,42234,2,0,P|416:92|456:144,2,120,2|2|2,0:0|0:0|0:0,0:0:0:0:
232,100,43548,1,0,0:0:0:0:
116,68,43986,2,0,P|150:191|255:219,1,240,2|2,0:0|0:0,0:0:0:0:
356,168,45300,21,2,0:0:0:0:
456,236,45738,2,0,P|418:275|332:285,2,120,2|2|2,0:0|0:0|0:0,0:0:0:0:
444,116,47052,1,0,0:0:0:0:
344,52,47490,2,0,B|292:84|292:84|272:168,1,120,2|0,0:0|0:0,0:0:0:0:
248,256,48366,2,0,B|232:312|232:312|178:349,1,120,2|2,0:0|0:0,0:0:0:0:
72,296,49242,1,4,0:1:0:0:
76,176,49680,6,0,B|92:24|260:40,1,240,2|0,0:0|0:0,0:0:0:0:
324,124,50993,2,0,L|408:220,1,120,2|2,3:0|0:0,0:0:0:0:
288,252,51869,2,0,L|288:332,2,60,2|0|2,3:0|3:0|3:0,0:0:0:0:
172,280,52745,6,0,P|104:260|64:208,2,120,4|2|2,3:1|0:0|0:0,0:0:0:0:
288,252,54059,1,0,0:0:0:0:
404,284,54497,2,0,P|372:160|276:128,1,240,2|2,0:0|0:0,0:0:0:0:
160,160,55811,21,2,0:0:0:0:
160,40,56249,2,0,P|92:60|52:112,2,120,2|2|2,0:0|0:0|0:0,0:0:0:0:
275,69,57563,1,0,0:0:0:0:
392,36,58001,2,0,P|358:159|258:191,1,240,2|0,0:0|3:0,0:0:0:0:
144,156,59315,1,2,3:2:0:0:
164,276,59753,6,0,P|131:326|60:348,2,120,2|2|2,0:0|0:0|0:0,0:0:0:0:
204,164,61066,1,0,0:0:0:0:
283,72,61504,2,0,P|343:64|403:90,1,120,0|2,0:0|0:0,0:0:0:0:
329,181,62380,2,0,P|385:203|428:255,1,120,2|2,0:0|0:0,0:0:0:0:
317,301,63256,1,4,0:1:0:0:
196,304,63694,6,0,B|127:209|47:241|11:129,1,240,2|0,0:0|3:0,0:0:0:0:
106,68,65008,2,0,P|143:115|211:138,1,120,0|4,3:0|0:1,0:0:0:0:
315,137,65884,2,0,P|368:114|405:66,1,120,0|2,3:0|3:0,0:0:0:0:
494,148,66760,22,0,B|466:240|306:248|314:328,1,240,4|2,3:1|0:0,0:0:0:0:
197,278,68074,1,0,0:0:0:0:
81,313,68512,2,0,P|113:189|216:156,1,240,2|2,0:0|0:0,0:0:0:0:
307,223,69826,5,2,0:0:0:0:
375,319,70263,2,0,P|303:343|251:323,2,120,2|2|2,0:0|0:0|0:0,0:0:0:0:
472,248,71577,1,0,0:0:0:0:
424,136,72015,2,0,B|397:102|305:90|233:142|337:242|225:254|145:262|125:210,1,360,2|2,0:0|3:2,0:0:0:0:
92,104,73767,6,0,P|64:60|0:36,2,120,2|2|2,3:2|0:0|0:0,0:0:0:0:
112,224,75081,1,0,0:0:0:0:
176,328,75519,2,0,B|208:336|208:336|256:320|256:320|300:332,1,120,0|2,0:0|0:0,0:0:0:0:
408,356,76395,2,0,P|412:256|408:236,1,120,0|2,0:0|0:0,0:0:0:0:
312,164,77271,1,4,0:1:0:0:
304,44,77709,22,0,P|368:20|444:20,2,120
260,156,79023,2,0,L|213:266,1,120,0|0,0:0|0:0,0:0:0:0:
93,283,79899,2,0,L|145:163,1,120,0|0,3:0|3:0,0:0:0:0:
192,64,80774,6,0,P|128:40|52:48,2,120,6|2|2,0:1|0:3|0:0,2:0:0:0:
272,152,82088,1,2,0:3:0:0:
356,64,82526,2,0,P|420:40|492:48,1,120,2|2,0:0|0:3,2:0:0:0:
472,164,83402,2,0,P|416:192|352:192,1,120,2|2,0:0|0:3,2:3:0:0:
256,260,84278,22,0,L|256:388,2,120,2|0|2,0:0|0:0|0:0,2:0:0:0:
256,140,85592,1,2,0:3:0:0:
256,20,86030,1,2,0:0:0:0:
136,40,86468,2,0,P|84:72|56:136,1,120,2|0,0:3|3:0,2:0:0:0:
36,240,87344,1,0,3:0:0:0:
256,192,87782,12,0,89534,2:0:0:0:
