osu file format v14

[General]
AudioFilename: DJSEVEN.mp3
AudioLeadIn: 0
PreviewTime: 98803
Countdown: 0
SampleSet: Soft
StackLeniency: 0.7
Mode: 0
LetterboxInBreaks: 0
EpilepsyWarning: 1
WidescreenStoryboard: 1

[Editor]
Bookmarks: 98952,105625,115238,131682,153625,175568
DistanceSpacing: 1
BeatDivisor: 8
GridSize: 4
TimelineZoom: 1.8

[Metadata]
Title:Charon (DJ SEVEN PnB Refix)
TitleUnicode:カロン (DJ SEVEN PnB Refix)
Artist:Negoto
ArtistUnicode:ねごと
Creator:VINXIS
Version:Secretpipe's Normal
Source:
Tags:Giralda Skystar Bonzi Asahina Momoko M_o_k_o_r_i Amamiya Yuko toybot byfar Cilvery Asphyxia deetz drum and bass edm dance dnb (W87ES) remix life goes on Liiraye secretpipe Kalamitous Storyboarder Sytarno
BeatmapID:985441
BeatmapSetID:344896

[Difficulty]
HPDrainRate:5
CircleSize:3
OverallDifficulty:4.5
ApproachRate:5
SliderMultiplier:1.1
SliderTickRate:1

[Events]
//Background and Video events
0,0,"51208945_p0.jpg",0,0
//Break Periods
2,90775,97603
2,123689,129968
//Storyboard Layer 0 (Background)
//Storyboard Layer 1 (Fail)
//Storyboard Layer 2 (Pass)
//Storyboard Layer 3 (Foreground)
//Storyboard Sound Samples

[TimingPoints]
61,342.857142857143,4,2,1,65,1,0
65889,-100,4,2,1,65,0,1
87832,-100,4,2,1,65,0,0
98718,-100,4,2,1,25,0,0
98804,-100,4,2,1,65,0,0
123404,-100,4,2,1,5,0,0
123489,-100,4,2,1,65,0,0
125988,-100,4,2,1,5,0,0
126232,-100,4,2,1,65,0,0
128889,-100,4,2,1,5,0,0
128975,-100,4,2,1,65,0,0
131375,-100,4,2,1,50,0,0
131718,-100,4,2,1,65,0,1
153489,-100,4,2,1,65,0,0
153661,-100,4,2,1,65,0,1
175603,-100,4,2,1,65,0,0

[Colours]
Combo1 : 162,94,94
Combo2 : 186,102,10
Combo3 : 45,134,116

[HitObjects]
409,90,22003,6,0,P|396:141|412:208,1,110,2|8,0:0|0:0,0:0:0:0:
455,295,22689,2,0,P|401:284|348:297,1,110,0|8,0:0|0:0,0:0:0:0:
252,350,23375,2,0,P|241:296|254:243,1,110,2|8,0:0|0:0,0:0:0:0:
304,145,24061,2,0,P|250:134|197:147,1,110,0|8,0:0|0:0,0:0:0:0:
172,40,24746,6,0,P|251:23|331:41,2,165,2|0|8,0:0|0:0|0:0,0:0:0:0:
89,110,26118,2,0,L|81:274,1,165,2|0,0:0|0:0,0:0:0:0:
174,332,26975,2,0,L|177:264,1,55,2|8,0:0|0:0,0:0:0:0:
184,167,27489,6,0,P|237:154|290:165,1,110,6|8,0:0|0:0,0:0:0:0:
384,222,28175,2,0,P|377:168|383:109,1,110,0|8,0:0|0:0,0:0:0:0:
487,82,28861,2,0,P|469:165|489:248,1,165,2|0,0:0|0:0,0:0:0:0:
442,342,29718,2,0,P|410:344|379:342,1,55,2|8,0:0|0:0,0:0:0:0:
289,292,30232,6,0,L|286:173,1,110,2|8,0:0|0:0,0:0:0:0:
200,112,30918,2,0,L|202:221,1,110,0|8,0:0|0:0,0:0:0:0:
187,331,31603,2,0,L|15:317,2,165,2|0|8,0:0|0:0|0:0,0:0:0:0:
289,292,32975,6,0,P|348:288|396:252,1,110,6|8,0:0|0:0,0:0:0:0:
412,152,33661,2,0,P|400:98|363:58,1,110,0|8,0:0|0:0,0:0:0:0:
256,32,34346,1,2,0:0:0:0:
156,80,34689,1,8,0:0:0:0:
88,168,35032,2,0,P|58:163|25:164,2,55,0|2|8,0:0|0:0|0:0,0:0:0:0:
196,184,35718,5,2,0:0:0:0:
268,100,36061,1,8,0:0:0:0:
376,80,36403,2,0,P|381:57|376:12,2,55,0|2|8,0:0|0:0|0:0,0:0:0:0:
342,184,37089,1,2,0:0:0:0:
409,271,37432,1,8,0:0:0:0:
299,284,37775,2,0,B|262:284|262:284|230:293|230:293|187:293,1,110,2|8,0:0|0:0,0:0:0:0:
80,285,38461,6,0,P|86:214|79:152,1,110,2|8,0:0|0:0,0:0:0:0:
30,78,39146,2,0,P|82:63|135:77,1,110,0|8,0:0|0:0,0:0:0:0:
228,136,39832,2,0,P|280:150|333:136,1,110,2|8,0:0|0:0,0:0:0:0:
419,67,40518,1,0,0:0:0:0:
438,175,40861,1,8,0:0:0:0:
349,239,41203,6,0,P|296:254|243:242,1,110,2|8,0:0|0:0,0:0:0:0:
144,195,41889,1,0,0:0:0:0:
188,100,42232,1,8,0:0:0:0:
288,143,42575,1,2,0:0:0:0:
243,242,42918,1,0,0:0:0:0:
203,344,43261,2,0,L|136:352,2,55,8|2|8,0:0|0:0|0:0,0:0:0:0:
312,324,43946,5,2,0:0:0:0:
352,220,44289,1,8,0:0:0:0:
376,112,44632,2,0,P|334:76|281:64,1,110,0|8,0:0|0:0,0:0:0:0:
172,72,45318,2,0,P|136:113|124:166,1,110,2|8,0:0|0:0,0:0:0:0:
120,276,46003,1,0,0:0:0:0:
216,220,46346,1,8,0:0:0:0:
312,168,46689,6,0,P|308:104|312:52,1,110,2|8,0:0|0:0,0:0:0:0:
409,108,47375,2,0,P|412:162|408:217,1,110,0|8,0:0|0:0,0:0:0:0:
393,327,48061,1,2,0:0:0:0:
302,264,48403,2,0,B|194:212|195:302|74:251,1,220,8|8,0:0|0:0,0:0:0:0:
146,163,49432,5,2,0:0:0:0:
248,123,49775,1,8,0:0:0:0:
212,18,50118,1,0,0:0:0:0:
108,54,50461,1,8,0:0:0:0:
146,163,50803,2,0,P|168:213|196:260,1,110,2|8,0:0|0:0,0:0:0:0:
253,354,51489,1,0,0:0:0:0:
354,311,51832,1,8,0:0:0:0:
300,219,52175,6,0,P|277:169|247:122,2,110,2|8|0,0:0|0:0|0:0,0:0:0:0:
354,311,53203,1,8,0:0:0:0:
418,222,53546,1,0,0:0:0:0:
357,129,53889,1,0,0:0:0:0:
300,219,54232,6,0,P|256:249|188:253,2,110,8|8|2,0:0|0:0|0:0,0:0:0:0:
357,129,55261,1,0,0:0:0:0:
278,51,55603,2,0,L|154:47,1,110,8|2,0:0|0:0,0:0:0:0:
110,141,56289,2,0,L|219:137,1,110,0|0,0:0|0:0,0:0:0:0:
289,222,56975,2,0,B|296:268|296:268|288:298|288:298|293:342,1,110,0|8,0:0|0:0,0:0:0:0:
398,355,57661,6,0,B|392:305|392:305|404:260|404:260|379:133,1,220,2|8,0:0|0:0,0:0:0:0:
332,40,58689,2,0,B|286:43|257:72|257:72|227:49|170:60,1,165,2|2,0:0|0:0,0:0:0:0:
14,41,59718,1,8,0:0:0:0:
85,125,60061,1,8,0:0:0:0:
31,220,60403,5,2,0:0:0:0:
136,250,60746,1,0,0:0:0:0:
242,224,61089,2,0,P|301:218|358:216,1,110,8|2,0:0|0:0,0:0:0:0:
412,308,61775,2,0,P|353:314|296:316,1,110,0|0,0:0|0:0,0:0:0:0:
192,328,62461,1,0,0:0:0:0:
116,247,62803,1,8,0:0:0:0:
256,192,63146,12,0,64518,0:0:0:0:
384,152,65546,5,0,0:0:0:0:
440,248,65889,6,0,P|384:264|328:248,1,110,6|8,0:0|0:0,0:0:0:0:
232,212,66575,2,0,P|178:200|126:215,1,110,0|8,0:0|0:0,0:0:0:0:
91,110,67261,2,0,P|178:89|258:106,1,165,2|0,0:0|0:0,0:0:0:0:
326,182,68118,2,0,L|334:254,1,55,2|8,0:0|0:0,0:0:0:0:
440,256,68632,6,0,L|427:143,1,110,2|8,0:0|0:0,0:0:0:0:
368,52,69318,2,0,P|324:56|244:48,1,110,0|0,0:0|0:0,0:0:0:0:
148,59,70003,1,2,0:0:0:0:
121,166,70346,1,8,0:0:0:0:
216,223,70689,1,0,0:0:0:0:
299,150,71032,1,8,0:0:0:0:
321,257,71375,6,0,L|326:380,1,110,2|8,0:0|0:0,0:0:0:0:
416,304,72061,2,0,L|411:194,1,110,0|8,0:0|0:0,0:0:0:0:
394,85,72746,1,2,0:0:0:0:
292,41,73089,1,8,0:0:0:0:
197,97,73432,2,0,L|185:237,1,110,0|8,0:0|0:0,0:0:0:0:
291,244,74118,6,0,L|282:353,1,110,2|8,0:0|0:0,0:0:0:0:
187,297,74803,1,0,0:0:0:0:
94,236,75146,1,8,0:0:0:0:
70,344,75489,2,0,P|19:331|-3:301,2,82.5,2|2|2,0:0|0:0|0:0,0:0:0:0:
124,349,76175,1,8,0:0:0:0:
233,344,76518,1,8,0:0:0:0:
342,337,76861,6,0,P|356:289|337:223,1,110,2|8,0:0|0:0,0:0:0:0:
244,181,77546,2,0,P|191:167|138:181,1,110,0|8,0:0|0:0,0:0:0:0:
45,239,78232,2,0,P|30:186|44:133,1,110,2|8,0:0|0:0,0:0:0:0:
123,56,78918,1,0,0:0:0:0:
232,46,79261,1,8,0:0:0:0:
340,72,79603,6,0,L|336:196,1,110,2|8,0:0|0:0,0:0:0:0:
320,292,80289,2,0,P|256:304|192:284,1,110,0|8,0:0|0:0,0:0:0:0:
104,288,80975,2,0,P|93:320|88:348,2,55,2|0|8,0:0|0:0|0:0,0:0:0:0:
52,192,81661,2,0,P|20:193|-8:204,2,55,0|0|8,0:0|0:0|0:0,0:0:0:0:
162,189,82346,6,0,P|216:176|292:179,1,110,2|8,0:0|0:0,0:0:0:0:
341,259,83032,2,0,P|287:271|232:272,1,110,0|8,0:0|0:0,0:0:0:0:
123,287,83718,1,2,0:0:0:0:
162,188,84061,1,8,0:0:0:0:
52,192,84403,1,0,0:0:0:0:
94,90,84746,1,8,0:0:0:0:
203,82,85089,6,0,B|311:134|310:44|431:95,1,220,6|2,0:0|0:3,0:0:0:0:
506,153,86118,1,8,0:0:0:0:
404,195,86461,2,0,P|356:183|296:203,1,110,2|0,0:0|0:0,0:0:0:0:
209,263,87146,2,0,L|211:339,2,55,8|2|8,0:0|0:0|0:0,0:0:0:0:
256,192,87832,12,0,90575,0:0:0:0:
358,240,98803,6,0,L|346:111,1,110,6|8,0:0|0:0,0:0:0:0:
258,192,99489,2,0,L|247:82,1,110,0|8,0:0|0:0,0:0:0:0:
147,37,100175,2,0,L|157:146,1,110,2|8,0:0|0:0,0:0:0:0:
161,256,100861,2,0,P|142:275|110:289,2,55,0|2|8,0:0|0:0|0:0,0:0:0:0:
252,194,101546,6,0,P|308:185|364:196,1,110,2|8,0:0|0:0,0:0:0:0:
455,249,102232,2,0,P|464:195|455:141,1,110,0|8,0:0|0:0,0:0:0:0:
377,66,102918,2,0,P|323:56|269:65,1,110,2|8,0:0|0:0,0:0:0:0:
162,92,103603,1,2,0:0:0:0:
242,166,103946,1,8,0:0:0:0:
140,208,104289,6,0,L|143:338,1,110,2|8,0:0|0:0,0:0:0:0:
48,260,104975,2,0,L|45:150,1,110,0|8,0:0|0:0,0:0:0:0:
68,42,105661,2,0,B|176:-10|175:80|296:29,1,220,0|0,0:0|0:0,0:0:0:0:
389,15,106689,1,8,0:0:0:0:
483,71,107032,6,0,P|492:124|482:178,1,110,2|8,0:0|0:0,0:0:0:0:
454,285,107718,1,0,0:0:0:0:
353,330,108061,1,8,0:0:0:0:
356,220,108403,2,0,P|302:210|248:220,1,110,2|0,0:0|0:0,0:0:0:0:
148,268,109089,6,0,B|124:212|156:164|156:164|112:128|135:63,1,220,8|6,0:0|0:0,0:0:0:0:
232,12,110118,1,8,0:0:0:0:
336,52,110461,2,0,P|356:108|344:164,1,110,2|8,0:0|0:0,0:0:0:0:
304,256,111146,2,0,P|295:309|315:360,2,110,2|8|0,0:0|0:0|0:0,0:0:0:0:
347,156,112175,1,8,0:0:0:0:
377,43,112518,6,0,B|311:31|272:68|272:68|196:68,1,165,2|0,0:0|0:0,0:0:0:0:
164,62,113203,1,0,0:0:0:0:
56,96,113546,2,0,B|71:207|71:207|46:276,1,165,8|2,0:0|0:0,0:0:0:0:
27,305,114232,1,8,0:0:0:0:
136,297,114575,2,0,L|101:394,2,82.5,2|0|0,0:0|0:0|0:0,0:0:0:0:
158,246,115261,6,0,P|174:193|193:141,1,110,6|8,0:0|0:0,0:0:0:0:
300,119,115946,2,0,P|283:171|264:223,1,110,0|8,0:0|0:0,0:0:0:0:
230,328,116632,2,0,B|225:334|194:322|159:298|158:246|158:246|122:291|60:289|12:255|14:185,1,330,0|8,0:0|0:0,0:0:0:0:
54,83,118003,6,0,P|114:74|174:85,1,110,2|8,0:0|0:0,0:0:0:0:
255,139,118689,2,0,P|309:146|363:137,1,110,2|8,0:0|0:0,0:0:0:0:
417,233,119375,2,0,P|309:250|200:236,1,220,6|8,0:0|0:0,0:0:0:0:
94,203,120403,1,8,0:0:0:0:
256,192,120746,12,6,123489,0:0:0:0:
257,190,131375,5,6,0:0:0:0:
161,244,131718,6,0,P|149:192|166:128,1,110,2|8,0:0|0:0,0:0:0:0:
248,69,132403,2,0,P|300:57|364:74,1,110,0|8,0:0|0:0,0:0:0:0:
439,138,133089,1,2,0:0:0:0:
339,185,133432,1,8,0:0:0:0:
243,239,133775,2,0,P|263:265|291:283,2,55,0|2|8,0:0|0:0|0:0,0:0:0:0:
163,161,134461,6,0,P|106:168|41:163,1,110,2|8,0:0|0:0,0:0:0:0:
11,63,135146,2,0,P|68:56|133:61,1,110,0|8,0:0|0:0,0:0:0:0:
228,78,135832,2,0,B|264:96|301:83|301:83|324:64|364:52|396:56|440:88,1,220,2|0,0:0|0:0,0:0:0:0:
503,170,136861,6,0,P|514:223|502:276,1,110,8|2,0:0|0:0,0:0:0:0:
406,330,137546,2,0,P|394:276|406:223,1,110,8|0,0:0|0:0,0:0:0:0:
416,113,138232,2,0,P|362:100|309:112,1,110,8|2,0:0|0:0,0:0:0:0:
209,159,138918,2,0,P|197:212|209:265,1,110,8|0,0:0|0:0,0:0:0:0:
257,364,139603,1,8,0:0:0:0:
314,270,139946,6,0,P|374:235|401:306,2,165,2|0|8,0:0|0:0|0:0,0:0:0:0:
257,364,141318,2,0,P|202:358|141:356,1,110,2|0,0:0|0:0,0:0:0:0:
88,262,142003,2,0,P|142:256|197:253,1,110,8|8,0:0|0:0,0:0:0:0:
299,296,142689,6,0,B|318:234|284:192|284:192|298:134|382:125,1,220,2|0,0:0|0:0,0:0:0:0:
474,111,143718,1,8,0:0:0:0:
406,28,144061,2,0,P|355:26|296:49,1,110,2|8,0:0|0:0,0:0:0:0:
198,87,144746,2,0,P|192:55|198:24,2,55,0|2|8,0:0|0:0|0:0,0:0:0:0:
211,196,145432,6,0,P|179:202|148:196,2,55,2|0|8,0:0|0:0|0:0,0:0:0:0:
321,196,146118,2,0,P|327:228|321:259,2,55,0|0|8,0:0|0:0|0:0,0:0:0:0:
308,86,146803,2,0,L|418:80,1,110,2|8,0:0|0:0,0:0:0:0:
479,171,147489,1,0,0:0:0:0:
449,276,147832,1,8,0:0:0:0:
400,374,148175,6,0,L|291:339,1,110,2|8,0:0|0:0,0:0:0:0:
345,242,148861,2,0,P|339:184|311:137,1,110,0|8,0:0|0:0,0:0:0:0:
399,70,149546,2,0,P|445:152|453:247,2,165,2|0|8,0:0|0:0|0:0,0:0:0:0:
294,34,150918,6,0,P|240:22|187:34,1,110,2|8,0:0|0:0,0:0:0:0:
100,101,151603,2,0,P|88:155|100:208,1,110,0|8,0:0|0:0,0:0:0:0:
170,291,152289,2,0,P|223:302|276:290,1,110,2|0,0:0|0:0,0:0:0:0:
386,288,152975,2,0,L|392:361,2,55,8|2|8,0:0|0:0|0:0,0:0:0:0:
342,187,153661,6,0,B|234:135|235:225|114:174,1,220,6|0,0:0|0:0,0:0:0:0:
33,124,154689,1,8,0:0:0:0:
130,72,155032,2,0,B|213:107|213:36|298:77,1,165,2|0,0:0|0:0,0:0:0:0:
387,123,155889,2,0,L|390:204,1,55,10|8,0:0|1:2,0:0:0:0:
387,288,156403,6,0,L|258:283,1,110,6|8,0:0|0:0,0:0:0:0:
305,177,157089,2,0,L|176:172,1,110,0|8,0:0|0:0,0:0:0:0:
137,78,157775,2,0,L|309:84,2,165,2|0|8,0:0|0:0|0:0,0:0:0:0:
35,119,159146,6,0,P|26:181|39:241,1,110,6|8,0:0|0:0,0:0:0:0:
112,305,159832,2,0,P|173:314|233:301,1,110,0|8,1:0|0:0,0:0:0:0:
299,229,160518,2,0,P|307:174|297:120,1,110,2|8,0:0|0:0,0:0:0:0:
238,27,161203,1,0,1:0:0:0:
190,125,161546,1,8,0:0:0:0:
132,218,161889,6,0,P|81:143|101:63,2,165,6|0|8,1:2|0:0|0:0,0:0:0:0:
239,244,163261,2,0,L|348:247,1,110,2|0,0:0|0:0,0:0:0:0:
458,256,163946,2,0,P|460:291|451:332,2,55,8|2|8,0:0|0:0|0:0,0:0:0:0:
428,148,164632,6,0,L|312:144,1,110,6|8,0:0|0:0,0:0:0:0:
224,88,165318,2,0,P|214:141|222:196,1,110,0|8,0:0|0:0,0:0:0:0:
112,212,166003,2,0,P|102:130|117:49,2,165,2|0|8,0:0|0:0|0:0,0:0:0:0:
164,308,167375,6,0,B|243:341|242:274|323:313,2,165,2|0|8,0:0|0:0|0:0,0:0:0:0:
80,240,168746,2,0,P|72:156|192:136,1,220,2|0,0:0|0:0,0:0:0:0:
284,176,169775,1,8,0:0:0:0:
383,227,170118,6,0,P|392:168|372:108,1,110,2|8,0:0|0:0,0:0:0:0:
234,39,170975,2,0,P|204:34|174:44,1,55,0|8,0:0|0:0,0:0:0:0:
132,140,171489,2,0,P|211:119|293:133,2,165,2|0|8,0:0|0:0|0:0,0:0:0:0:
35,194,172861,6,0,P|27:252|35:308,1,110,2|8,0:0|0:0,0:0:0:0:
130,248,173546,2,0,P|138:190|130:134,1,110,0|8,0:0|0:0,0:0:0:0:
237,109,174232,2,0,P|257:188|243:270,2,165,2|2|8,0:0|0:0|0:3,0:0:0:0:
256,192,175603,12,2,178346,0:0:0:0:
296,240,179718,6,0,P|401:261|459:235,2,165,2|0|8,0:0|0:0|0:0,0:0:0:0:
203,180,181089,6,0,L|213:68,1,110,2|8,0:0|0:0,0:0:0:0:
104,91,181775,2,0,L|94:200,1,110,0|8,0:0|0:0,0:0:0:0:
84,310,182461,2,0,P|130:331|247:332,1,165,2|0,0:0|0:0,0:0:0:0:
344,290,183318,2,0,L|404:285,1,55,2|8,0:0|0:0,0:0:0:0:
494,230,183832,6,0,L|492:110,1,110,2|8,0:0|0:0,0:0:0:0:
394,172,184518,2,0,L|392:52,1,110,0|8,0:0|0:0,0:0:0:0:
292,109,185203,1,2,0:0:0:0:
197,51,185546,1,0,0:0:0:0:
105,112,185889,2,0,L|109:172,2,55,8|2|8,0:0|0:0|0:0,0:0:0:0:
197,51,186575,6,0,P|254:62|311:87,1,110,6|8,0:0|0:0,0:0:0:0:
304,192,187261,2,0,P|253:212|199:222,1,110,0|8,0:0|0:0,0:0:0:0:
93,191,187946,2,0,P|81:258|83:364,2,165,2|0|8,0:0|0:0|0:0,0:0:0:0:
172,114,189318,6,0,L|285:129,1,110,2|8,0:0|0:0,0:0:0:0:
281,238,190003,2,0,L|168:253,1,110,0|8,0:0|0:0,0:0:0:0:
212,355,190689,2,0,L|376:376,2,165,2|0|8,0:0|0:0|0:0,0:0:0:0:
270,261,192061,6,0,P|270:216|266:142,1,110,2|8,0:0|0:0,0:0:0:0:
167,198,192746,2,0,P|167:153|171:79,1,110,0|8,0:0|0:0,0:0:0:0:
274,52,193432,2,0,L|443:51,1,165,2|0,0:0|0:0,0:0:0:0:
473,212,194461,1,8,0:0:0:0:
375,161,194803,6,0,L|368:282,1,110,2|8,0:0|0:0,0:0:0:0:
270,221,195489,2,0,L|263:342,1,110,0|8,0:0|0:0,0:0:0:0:
159,366,196175,5,2,0:0:0:0:
71,299,196518,1,0,0:0:0:0:
135,209,196861,2,0,L|143:146,2,55,8|2|8,0:0|0:0|0:0,0:0:0:0:
25,195,197546,5,6,0:0:0:0:
