osu file format v14

[General]
AudioFilename: DJSEVEN.mp3
AudioLeadIn: 0
PreviewTime: 98803
Countdown: 0
SampleSet: Soft
StackLeniency: 0.7
Mode: 0
LetterboxInBreaks: 0
EpilepsyWarning: 1
WidescreenStoryboard: 1

[Editor]
Bookmarks: 98952,115238,153625,175568
DistanceSpacing: 1.2
BeatDivisor: 4
GridSize: 4
TimelineZoom: 3.1

[Metadata]
Title:Charon (DJ SEVEN PnB Refix)
TitleUnicode:カロン (DJ SEVEN PnB Refix)
Artist:Negoto
ArtistUnicode:ねごと
Creator:VINXIS
Version:Liiraye's Hard
Source:
Tags:Giralda Skystar Bonzi Asahina Momoko M_o_k_o_r_i Amamiya Yuko toybot byfar Cilvery Asphyxia deetz drum and bass edm dance dnb (W87ES) remix life goes on Liiraye secretpipe Kalamitous Storyboarder Sytarno
BeatmapID:985226
BeatmapSetID:344896

[Difficulty]
HPDrainRate:5
CircleSize:4
OverallDifficulty:6.5
ApproachRate:8
SliderMultiplier:1.4
SliderTickRate:1

[Events]
//Background and Video events
0,0,"51208945_p0.jpg",0,0
//Break Periods
2,88032,98054
//Storyboard Layer 0 (Background)
//Storyboard Layer 1 (Fail)
//Storyboard Layer 2 (Pass)
//Storyboard Layer 3 (Foreground)
//Storyboard Sound Samples

[TimingPoints]
61,342.857142857143,4,2,1,65,1,0
65546,-66.6666666666667,4,2,1,65,0,0
65889,-100,4,2,1,65,0,1
84918,-88.4955752212389,4,2,1,65,0,1
85946,-100,4,2,1,65,0,1
87832,-100,4,2,1,65,0,0
98718,-100,4,2,1,25,0,0
98804,-100,4,2,1,65,0,0
123404,-100,4,2,1,5,0,0
123489,-100,4,2,1,65,0,0
125988,-100,4,2,1,5,0,0
126232,-100,4,2,1,65,0,0
128889,-100,4,2,1,5,0,0
128975,-100,4,2,1,65,0,0
131375,-83.3333333333333,4,2,1,50,0,0
131718,-76.9230769230769,4,2,1,65,0,1
131889,-100,4,2,1,65,0,1
153489,-100,4,2,1,65,0,0
153661,-100,4,2,1,65,0,1
175603,-100,4,2,1,65,0,0

[Colours]
Combo1 : 162,94,94
Combo2 : 186,102,10
Combo3 : 45,134,116

[HitObjects]
239,142,22004,6,0,P|259:113|287:92,1,70,2|0,0:0|0:0,0:0:0:0:
356,140,22346,2,0,L|371:222,1,70,8|0,0:0|0:0,0:0:0:0:
309,268,22689,1,0,0:0:0:0:
363,331,22861,1,2,0:0:0:0:
280,345,23032,1,8,0:0:0:0:
126,301,23375,6,0,P|115:267|109:233,1,70,2|0,0:0|0:0,0:0:0:0:
133,152,23718,1,8,0:0:0:0:
210,119,23889,2,0,L|228:80,2,35,0|0|0,0:0|0:0|0:0,0:0:0:0:
282,164,24232,1,2,0:0:0:0:
255,243,24403,1,8,0:0:0:0:
398,43,24746,5,2,0:0:0:0:
388,126,24918,1,0,0:0:0:0:
343,196,25089,2,0,L|282:164,2,70,8|0|0,0:0|0:0|0:0,0:0:0:0:
427,206,25603,1,2,0:0:0:0:
505,235,25775,1,8,0:0:0:0:
397,354,26118,6,0,P|440:362|484:359,1,70,2|0,0:0|0:0,0:0:0:0:
323,328,26461,2,0,P|266:324|228:334,1,70,8|0,0:0|0:0,0:0:0:0:
173,352,26804,1,0,0:0:0:0:
119,257,26975,1,2,0:0:0:0:
80,273,27061,1,0,0:0:0:0:
41,259,27146,2,0,L|22:206,2,35,8|0|0,0:0|0:0|0:0,0:0:0:0:
103,169,27489,6,0,P|103:134|101:99,1,70,6|0,0:0|0:0,0:0:0:0:
19,32,27832,2,0,P|16:66|17:101,1,70,8|0,0:0|0:0,0:0:0:0:
136,27,28175,1,0,0:0:0:0:
195,153,28346,1,2,0:0:0:0:
265,31,28518,1,8,0:0:0:0:
410,192,28861,6,0,P|375:198|342:209,1,70,2|0,0:0|0:0,0:0:0:0:
347,292,29204,2,0,P|319:311|284:323,1,70,8|0,0:0|0:0,0:0:0:0:
206,293,29546,1,0,0:0:0:0:
122,300,29718,2,0,P|101:335|95:357,2,35,2|0|8,0:0|0:0|0:0,0:0:0:0:
234,122,30232,5,2,0:0:0:0:
336,167,30404,1,0,0:0:0:0:
380,64,30575,1,8,0:0:0:0:
279,18,30746,1,0,0:0:0:0:
45,38,31089,1,2,0:0:0:0:
141,81,31261,1,8,0:0:0:0:
56,142,31432,1,0,0:0:0:0:
60,226,31604,6,0,L|59:309,1,70,2|0,0:0|0:0,0:0:0:0:
142,287,31946,2,0,L|153:218,1,70,8|0,0:0|0:0,0:0:0:0:
229,180,32289,1,0,0:0:0:0:
223,95,32461,1,2,0:0:0:0:
166,33,32632,1,8,0:0:0:0:
88,37,32804,1,0,0:0:0:0:
88,37,32889,1,8,0:0:0:0:
88,37,32975,6,0,P|36:45|2:56,1,70,6|0,0:0|0:0,0:0:0:0:
35,158,33318,2,0,B|44:209|44:209|32:253,1,70,8|0,0:0|0:0,0:0:0:0:
78,301,33661,1,0,0:0:0:0:
158,324,33832,1,0,0:0:0:0:
237,296,34004,2,0,L|394:318,1,140,8|2,0:0|0:0,0:0:0:0:
425,247,34518,5,0,0:0:0:0:
405,165,34689,2,0,B|366:158|366:158|316:141,1,70,8|0,0:0|0:0,0:0:0:0:
282,83,35032,1,0,0:0:0:0:
234,158,35204,2,0,P|212:216|211:227,1,70,2|8,0:0|0:0,0:0:0:0:
296,221,35546,1,0,0:0:0:0:
305,76,35718,6,0,L|249:33,1,70,2|0,0:0|0:0,0:0:0:0:
166,77,36061,1,8,0:0:0:0:
85,52,36232,1,0,0:0:0:0:
57,130,36404,2,0,L|50:213,1,70,0|2,0:0|0:0,0:0:0:0:
122,286,36746,2,0,P|141:257|151:224,1,70,8|0,0:0|0:0,0:0:0:0:
218,173,37089,5,2,0:0:0:0:
300,191,37261,2,0,L|317:155,2,35,0|0|8,0:0|0:0|0:0,0:0:0:0:
278,273,37604,1,0,0:0:0:0:
421,229,37775,2,0,P|419:194|411:159,1,70,2|2,0:0|0:0,0:0:0:0:
278,273,38118,2,0,P|279:307|287:342,1,70,8|0,0:0|0:0,0:0:0:0:
485,348,38461,6,0,B|464:332|435:329|435:329|408:308|408:308|378:303|360:278,1,140,2|8,0:0|0:0,0:0:0:0:
322,210,38975,1,0,0:0:0:0:
299,129,39146,1,0,0:0:0:0:
299,129,39318,2,0,L|303:47,1,70,2|8,0:0|0:0,0:0:0:0:
425,143,39661,2,0,B|437:161|458:169|458:169|410:160|389:190|342:172,1,140,0|0,0:0|0:0,0:0:0:0:
284,209,40175,6,0,P|250:258|245:271,1,70,8|0,0:0|0:0,0:0:0:0:
292,338,40518,2,0,P|326:349|361:349,2,70,0|2|8,0:0|0:0|0:0,0:0:0:0:
83,183,41204,6,0,P|131:164|220:174,1,140,2|8,0:0|0:0,0:0:0:0:
289,215,41718,1,0,0:0:0:0:
372,224,41889,1,0,0:0:0:0:
448,188,42061,1,2,0:0:0:0:
401,118,42232,2,0,P|392:84|391:47,1,70,8|0,0:0|0:0,0:0:0:0:
302,112,42575,6,0,L|288:215,1,105,2|2,0:0|0:0,0:0:0:0:
300,256,42918,2,0,P|325:300|333:324,1,70,0|2,0:0|0:0,0:0:0:0:
184,353,43261,2,0,P|212:332|245:321,1,70,8|2,0:0|0:0,0:0:0:0:
409,286,43604,1,8,0:0:0:0:
422,253,43689,1,0,0:0:0:0:
429,219,43775,1,0,0:0:0:0:
429,184,43861,1,0,0:0:0:0:
422,150,43946,6,0,P|411:116|397:84,1,70,2|0,0:0|0:0,0:0:0:0:
316,110,44289,1,8,0:0:0:0:
234,92,44461,1,0,0:0:0:0:
152,110,44632,2,0,P|147:145|151:179,1,70,0|2,0:0|0:0,0:0:0:0:
198,249,44975,1,8,0:0:0:0:
282,247,45146,2,0,B|279:220|262:195|262:195|294:212|324:213|367:190,1,140,0|0,0:0|0:0,0:0:0:0:
419,161,45661,6,0,P|465:213|478:281,1,140,8|0,0:0|0:0,0:0:0:0:
412,333,46175,1,2,0:0:0:0:
309,256,46346,2,0,L|313:214,2,35,8|0|0,0:0|0:0|0:0,0:0:0:0:
172,295,46689,6,0,B|129:240|129:240|45:189,1,140,2|8,0:0|0:0,0:0:0:0:
45,122,47204,1,0,0:0:0:0:
79,45,47375,2,0,P|114:27|147:24,2,70,0|2|8,0:0|0:0|0:0,0:0:0:0:
125,114,47889,2,0,P|194:127|261:111,1,140,0|0,0:0|0:0,0:0:0:0:
339,77,48404,6,0,P|373:71|408:74,1,70,8|0,0:0|0:0,0:0:0:0:
432,155,48746,2,0,L|443:251,1,70,2|2,0:0|0:0,0:0:0:0:
384,287,49089,1,8,0:0:0:0:
348,298,49174,1,0,0:0:0:0:
310,291,49260,1,0,0:0:0:0:
280,268,49346,1,0,0:0:0:0:
264,233,49432,6,0,P|261:196|270:144,2,70,2|0|8,0:0|0:0|0:0,0:0:0:0:
194,279,49946,1,0,0:0:0:0:
109,278,50118,2,0,B|88:279|65:264|59:238|71:215|71:215|99:201|114:168,1,140,0|8,0:0|0:0,0:0:0:0:
114,97,50632,2,0,B|92:95|69:102|52:114|38:134|38:134|8:125|6:76,1,140,0|0,0:0|0:0,0:0:0:0:
56,26,51146,6,0,L|138:20,1,70,8|0,0:0|0:0,0:0:0:0:
192,72,51489,1,0,0:0:0:0:
275,60,51661,2,0,L|376:175,1,140,2|0,0:0|0:0,0:0:0:0:
411,243,52175,6,0,P|383:205|270:215,1,140,2|8,0:0|0:0,0:0:0:0:
249,266,52689,1,0,0:0:0:0:
175,224,52861,1,0,0:0:0:0:
249,266,53032,1,2,0:0:0:0:
172,304,53204,2,0,P|137:300|103:306,1,70,8|0,0:0|0:0,0:0:0:0:
38,175,53546,5,0,0:0:0:0:
95,112,53718,1,0,0:0:0:0:
95,112,53804,1,2,0:0:0:0:
95,112,53889,2,0,L|93:59,2,35,0|0|2,0:0|0:0|0:0,0:0:0:0:
179,117,54232,2,0,P|240:97|267:77,1,70,8|2,0:0|0:0,0:0:0:0:
361,171,54575,2,0,P|326:170|292:180,1,70,8|0,0:0|0:0,0:0:0:0:
292,180,54918,6,0,L|287:260,1,70,2|0,0:0|0:0,0:0:0:0:
436,217,55261,2,0,L|441:147,1,70,0|2,0:0|0:0,0:0:0:0:
387,82,55604,2,0,B|364:68|327:72|327:72|316:55|316:55|269:65|234:36,1,140,8|2,0:0|0:0,0:0:0:0:
174,47,56118,1,0,0:0:0:0:
114,119,56289,5,0,0:0:0:0:
176,182,56461,1,2,0:0:0:0:
176,215,56546,1,0,0:0:0:0:
169,251,56632,2,0,P|147:297|141:306,2,35,0|0|2,0:0|0:0|0:0,0:0:0:0:
233,343,56975,2,0,P|259:283|330:238,1,140,0|8,0:0|0:0,0:0:0:0:
400,262,57489,1,0,0:0:0:0:
397,131,57661,6,0,P|419:83|460:34,2,105,2|2|2,0:0|0:0|0:0,0:0:0:0:
325,87,58346,2,0,P|258:66|190:77,1,140,8|2,0:0|0:0,0:0:0:0:
116,118,58861,2,0,L|108:187,1,70,0|0,0:0|0:0,0:0:0:0:
161,252,59204,5,2,0:0:0:0:
291,244,59375,1,0,0:0:0:0:
291,244,59461,1,2,0:0:0:0:
291,244,59546,2,0,L|298:291,2,35,0|2|8,0:0|0:0|0:0,0:0:0:0:
222,194,59889,1,2,0:0:0:0:
257,117,60061,2,0,P|307:99|372:119,1,105,8|0,0:0|0:0,0:0:0:0:
390,134,60404,6,0,L|410:252,2,105,2|2|2,0:0|0:0|0:0,0:0:0:0:
472,147,61089,1,8,0:0:0:0:
327,280,61432,2,0,L|343:366,2,70,2|0|0,0:0|0:0|0:0,0:0:0:0:
272,166,61946,5,2,0:0:0:0:
328,57,62117,1,0,0:0:0:0:
328,57,62203,1,0,0:0:0:0:
328,57,62289,2,0,P|256:51|177:28,1,140,2|0,0:0|0:0,0:0:0:0:
108,53,62804,1,8,0:0:0:0:
62,214,63146,6,0,P|114:212|165:220,2,105,2|2|2,0:0|0:0|0:0,0:0:0:0:
84,307,63832,2,0,P|123:341|171:361,1,105,0|0,0:0|0:0,0:0:0:0:
171,361,64175,1,2,0:0:0:0:
288,338,64346,1,0,0:0:0:0:
270,226,64518,6,0,P|253:148|325:231,1,280,0|0,0:0|0:0,0:0:0:0:
401,84,65546,6,0,P|305:39|208:76,1,210.000008010865,0|6,0:0|0:0,0:0:0:0:
151,131,66061,1,0,0:0:0:0:
180,292,66232,1,8,0:0:0:0:
260,263,66404,1,0,0:0:0:0:
195,196,66575,2,0,L|125:204,1,70,0|0,0:0|0:0,0:0:0:0:
52,161,66918,1,8,0:0:0:0:
32,280,67089,2,0,L|50:347,1,70,0|2,0:0|0:0,0:0:0:0:
189,361,67432,6,0,P|187:326|179:291,1,70,0|8,0:0|0:0,0:0:0:0:
158,138,67775,2,0,P|225:152|274:201,1,140,0|2,0:0|0:0,0:0:0:0:
300,281,68289,1,8,0:0:0:0:
424,257,68461,1,0,0:0:0:0:
388,181,68632,6,0,P|383:144|386:91,1,70,2|0,0:0|0:0,0:0:0:0:
295,61,68975,2,0,P|295:95|290:130,2,70,8|0|0,0:0|0:0|0:0,0:0:0:0:
217,28,69489,1,2,0:0:0:0:
137,54,69661,2,0,P|116:121|113:191,1,140,0|2,0:0|0:0,0:0:0:0:
60,257,70175,6,0,L|47:289,2,35,0|0|8,0:0|0:0|0:0,0:0:0:0:
195,207,70518,1,0,0:0:0:0:
195,207,70604,1,0,0:0:0:0:
195,207,70689,2,0,L|212:155,2,35,0|0|2,0:0|0:0|0:0,0:0:0:0:
231,284,71032,2,0,L|317:301,1,70,8|0,0:0|0:0,0:0:0:0:
376,215,71375,6,0,L|293:218,1,70,2|0,0:0|0:0,0:0:0:0:
264,143,71718,2,0,P|259:104|260:47,1,70,8|0,0:0|0:0,0:0:0:0:
375,33,72061,2,0,P|373:67|369:102,1,70,0|0,0:0|0:0,0:0:0:0:
178,121,72404,2,0,P|135:112|41:45,2,140,8|2|8,0:0|0:0|0:0,0:0:0:0:
208,199,73261,6,0,P|210:235|205:276,2,70,0|0|2,0:0|0:0|0:0,0:0:0:0:
61,155,73775,2,0,P|45:222|48:292,1,140,8|2,0:0|0:0,0:0:0:0:
48,292,74289,5,0,0:0:0:0:
131,309,74461,2,0,B|164:323|182:343|182:343|204:339|204:339|229:365|270:361,1,140,8|0,0:0|0:0,0:0:0:0:
334,337,74975,1,2,0:0:0:0:
388,273,75146,2,0,L|401:181,1,70,8|0,0:0|0:0,0:0:0:0:
285,143,75489,6,0,L|300:39,2,105,2|2|2,0:0|0:0|0:0,0:0:0:0:
269,225,76175,1,8,0:0:0:0:
206,169,76346,1,2,0:0:0:0:
222,85,76518,1,8,0:0:0:0:
383,62,76689,2,0,L|429:32,2,35,8|8|2,0:0|0:0|0:0,0:0:0:0:
367,143,77032,6,0,P|370:178|377:212,1,70,0|8,0:0|0:0,0:0:0:0:
440,267,77375,1,0,0:0:0:0:
456,349,77546,2,0,P|402:306|327:303,1,140,0|8,0:0|0:0,0:0:0:0:
214,312,78061,2,0,P|196:272|184:221,1,70,0|2,0:0|0:0,0:0:0:0:
291,136,78404,6,0,P|261:155|227:164,1,70,0|8,0:0|0:0,0:0:0:0:
201,75,78746,2,0,P|132:64|63:69,1,140,0|2,0:0|0:0,0:0:0:0:
35,149,79261,1,8,0:0:0:0:
69,225,79432,2,0,L|74:311,1,70,0|2,0:0|0:0,0:0:0:0:
145,337,79775,5,0,0:0:0:0:
211,285,79946,2,0,P|253:278|296:280,2,70,8|0|0,0:0|0:0|0:0,0:0:0:0:
157,219,80461,1,0,0:0:0:0:
221,165,80632,2,0,P|232:116|226:16,1,140,8|2,0:0|0:0,0:0:0:0:
151,61,81146,6,0,L|101:77,2,35,0|0|8,0:0|0:0|0:0,0:0:0:0:
312,91,81489,2,0,L|345:80,2,35,0|2|0,0:0|0:0|0:0,0:0:0:0:
302,174,81832,1,0,0:0:0:0:
368,225,82004,1,8,0:0:0:0:
334,302,82175,1,0,0:0:0:0:
259,342,82346,6,0,P|328:328|394:348,1,140,2|8,0:0|0:0,0:0:0:0:
442,279,82861,2,0,L|449:203,1,70,0|0,0:0|0:0,0:0:0:0:
347,137,83204,2,0,L|353:206,1,70,2|8,0:0|0:0,0:0:0:0:
458,131,83546,2,0,P|476:88|479:56,1,70,0|2,0:0|0:0,0:0:0:0:
356,54,83889,6,0,P|322:42|289:33,1,70,0|8,0:0|0:0,0:0:0:0:
180,132,84232,2,0,P|213:123|246:109,1,70,0|0,0:0|0:0,0:0:0:0:
119,61,84575,2,0,P|89:99|76:134,1,70,0|8,0:0|0:0,0:0:0:0:
173,214,84918,6,0,B|239:204|271:293|192:334|147:285|147:285|136:313|136:313|93:283|57:312,1,316.400000965576,0|0,0:0|0:0,0:0:0:0:
81,143,85946,2,0,P|85:108|93:74,1,70,2|8,0:0|0:0,0:0:0:0:
213,97,86289,1,0,0:0:0:0:
314,52,86461,6,0,L|428:56,2,105,2|2|0,0:0|0:0|0:0,0:0:0:0:
356,133,87146,1,8,0:0:0:0:
274,155,87318,1,2,0:0:0:0:
213,97,87489,2,0,L|134:103,1,70,8|0,0:0|0:0,0:0:0:0:
8,110,87832,5,6,0:0:0:0:
251,155,98804,5,6,0:0:0:0:
251,155,99146,2,0,L|333:189,1,70,8|0,0:0|0:0,0:0:0:0:
399,173,99489,1,0,0:0:0:0:
461,229,99661,2,0,L|449:298,1,70,2|8,0:0|0:0,0:0:0:0:
267,315,100004,6,0,P|198:306|132:329,2,140,0|0|0,0:0|0:0|0:0,0:0:0:0:
346,341,100861,2,0,L|357:271,1,70,0|2,0:0|0:0,0:0:0:0:
274,168,101204,2,0,L|285:237,1,70,8|0,0:0|0:0,0:0:0:0:
400,161,101546,6,0,P|400:108|337:34,1,140,2|8,0:0|0:0,0:0:0:0:
269,69,102061,1,0,0:0:0:0:
190,40,102232,2,0,L|99:32,1,70,0|2,0:0|0:0,0:0:0:0:
65,97,102575,1,8,0:0:0:0:
222,160,102746,1,0,0:0:0:0:
141,187,102918,6,0,P|135:152|146:119,1,70,0|2,0:0|0:0,0:0:0:0:
222,160,103261,2,0,P|232:193|227:227,1,70,8|0,0:0|0:0,0:0:0:0:
184,299,103604,2,0,L|350:326,1,140,2|8,0:0|0:0,0:0:0:0:
403,297,104118,1,0,0:0:0:0:
403,297,104204,1,0,0:0:0:0:
403,297,104289,6,0,P|409:254|405:214,1,70,2|0,0:0|0:0,0:0:0:0:
341,175,104632,1,8,0:0:0:0:
387,72,104804,2,0,P|420:52|449:40,2,70,0|0|2,0:0|0:0|0:0,0:0:0:0:
306,97,105318,1,8,0:0:0:0:
247,157,105489,2,0,P|236:190|233:225,1,70,0|0,0:0|0:0,0:0:0:0:
159,328,105832,6,0,P|157:293|149:259,1,70,2|0,0:0|0:0,0:0:0:0:
103,188,106175,1,0,0:0:0:0:
135,110,106346,2,0,B|158:91|163:56|163:56|183:62|183:62|208:29|258:40,1,140,0|8,0:0|0:0,0:0:0:0:
421,173,107032,6,0,L|351:184,1,70,2|0,0:0|0:0,0:0:0:0:
271,249,107375,2,0,L|416:265,1,140,8|0,0:0|0:0,0:0:0:0:
366,336,107889,1,2,0:0:0:0:
272,176,108061,2,0,L|258:98,1,70,8|0,0:0|0:0,0:0:0:0:
140,131,108404,6,0,P|123:83|124:14,2,105,2|2|2,0:0|0:0|0:0,0:0:0:0:
316,73,109089,2,0,P|283:60|248:57,1,70,8|0,0:0|0:0,0:0:0:0:
194,189,109432,1,8,0:0:0:0:
222,268,109604,1,0,0:0:0:0:
222,268,109689,1,0,0:0:0:0:
221,267,109775,6,0,P|233:300|238:335,1,70,6|0,0:0|0:0,0:0:0:0:
113,293,110118,2,0,P|101:260|96:225,1,70,8|0,0:0|0:0,0:0:0:0:
194,189,110461,2,0,P|227:180|259:166,1,70,2|0,0:0|0:0,0:0:0:0:
408,182,110804,2,0,P|374:191|343:207,1,70,8|0,0:0|0:0,0:0:0:0:
433,340,111146,6,0,P|448:302|451:265,1,70,2|0,0:0|0:0,0:0:0:0:
343,207,111489,2,0,P|328:169|325:132,1,70,8|0,0:0|0:0,0:0:0:0:
429,93,111832,2,0,P|355:25|252:47,1,210,0|0,0:0|0:0,0:0:0:0:
195,104,112518,6,0,P|133:125|73:89,1,140,2|8,0:0|0:0,0:0:0:0:
142,41,113032,1,0,0:0:0:0:
200,183,113204,2,0,P|204:221|205:260,1,70,0|2,0:0|0:0,0:0:0:0:
125,335,113546,2,0,P|121:303|120:265,1,70,8|0,0:0|0:0,0:0:0:0:
288,236,113889,5,0,0:0:0:0:
357,188,114061,2,2,P|373:157|383:123,2,70,2|8|0,0:0|0:0|0:0,0:0:0:0:
421,263,114575,2,2,P|401:292|389:324,1,70,2|2,0:0|0:0,0:0:0:0:
306,340,114918,1,8,0:0:0:0:
197,222,115089,1,0,0:0:0:0:
217,141,115261,6,0,L|285:124,1,70,6|0,0:0|0:0,0:0:0:0:
334,56,115604,2,0,P|368:59|402:69,2,70,8|0|0,0:0|0:0|0:0,0:0:0:0:
255,26,116118,1,2,0:0:0:0:
182,68,116289,1,8,0:0:0:0:
101,186,116461,6,0,P|83:119|99:52,1,140,0|2,0:0|0:0,0:0:0:0:
182,68,116975,1,8,0:0:0:0:
257,104,117146,2,0,P|272:171|254:238,1,140,0|2,0:0|0:0,0:0:0:0:
327,332,117661,2,0,L|342:242,1,70,8|0,0:0|0:0,0:0:0:0:
469,167,118004,6,0,L|442:307,1,140,2|8,0:0|0:0,0:0:0:0:
384,195,118518,1,0,0:0:0:0:
323,135,118689,2,0,P|266:120|219:126,2,105,2|2|2,0:0|0:0|0:0,0:0:0:0:
279,207,119375,5,6,0:0:0:0:
199,231,119546,1,0,0:0:0:0:
199,231,119632,1,2,0:0:0:0:
199,231,119718,2,0,L|189:273,2,35,0|0|2,0:0|0:0|0:0,0:0:0:0:
131,180,120061,2,0,P|96:179|62:188,1,70,8|2,0:0|0:0,0:0:0:0:
125,97,120404,2,0,P|159:97|193:88,1,70,8|0,0:0|0:0,0:0:0:0:
320,63,120746,6,0,P|452:135|286:135,1,420,6|2,0:0|0:0,0:0:0:0:
197,51,122118,6,0,L|120:46,1,70,6|2,0:0|0:0,0:0:0:0:
86,130,122461,2,0,L|167:142,2,70,8|2|8,0:0|0:0|0:0,0:0:0:0:
46,119,122889,2,0,P|33:152|29:187,1,70,8|8,0:0|0:0,0:0:0:0:
35,229,123146,1,8,0:0:0:0:
180,313,123489,6,0,L|293:311,1,105,6|6,0:0|0:0,0:0:0:0:
404,270,124004,1,6,0:0:0:0:
404,270,124175,2,0,P|381:224|288:199,1,140,8|2,0:0|0:0,0:0:0:0:
213,52,124861,6,0,P|201:84|196:119,1,70,6|0,0:0|0:0,0:0:0:0:
211,202,125204,1,8,0:0:0:0:
314,116,125375,2,0,L|312:76,2,35,0|0|2,0:0|0:0|0:0,0:0:0:0:
347,193,125718,1,0,0:0:0:0:
413,141,125889,2,0,L|416:71,1,70,8|0,0:0|0:0,0:0:0:0:
463,242,126232,6,0,P|415:291|347:287,1,140,6|0,0:0|0:0,0:0:0:0:
271,250,126746,1,6,0:0:0:0:
206,308,126918,1,2,0:0:0:0:
58,228,127261,2,0,P|120:202|182:230,1,140,8|6,0:0|0:0,0:0:0:0:
121,288,127775,5,0,1:0:0:0:
45,137,127946,2,0,L|39:67,1,70,8|4,0:0|0:0,0:0:0:0:
72,40,128204,2,0,L|125:16,2,35,0|8|0,0:0|1:2|1:0,0:0:0:0:
153,132,128546,1,0,0:0:0:0:
185,159,128632,2,0,P|238:173|306:138,1,105,2|0,1:0|0:0,0:0:0:0:
313,133,128975,6,0,P|341:89|343:37,2,105,6|6|6,0:0|0:0|0:0,0:0:0:0:
246,69,129661,1,8,0:0:0:0:
217,250,130004,2,0,P|222:318|269:368,1,140,8|8,0:0|0:0,0:0:0:0:
88,332,130518,5,2,0:0:0:0:
88,332,130604,1,2,0:0:0:0:
88,332,130689,1,8,0:0:0:0:
38,246,130861,2,0,L|28:189,2,35,2|2|10,0:0|0:0|0:0,0:0:0:0:
66,133,131204,1,0,0:0:0:0:
159,179,131375,6,0,P|186:233|162:290,1,125.999996154785,6|0,0:0|0:0,0:0:0:0:
162,289,131718,6,0,P|207:284|252:291,1,90.9999958343508,2|0,0:0|0:0,0:0:0:0:
328,325,132061,1,8,0:0:0:0:
411,313,132232,1,0,0:0:0:0:
456,157,132404,2,0,P|393:174|358:255,1,140,0|8,0:0|0:0,0:0:0:0:
288,189,132918,2,0,P|277:155|258:117,1,70,0|2,0:0|0:0,0:0:0:0:
207,55,133261,6,0,L|180:119,1,70,0|8,0:0|0:0,0:0:0:0:
352,119,133604,2,0,L|325:54,1,70,0|0,0:0|0:0,0:0:0:0:
201,209,133946,1,2,0:0:0:0:
119,189,134118,1,8,0:0:0:0:
78,309,134289,1,0,0:0:0:0:
159,292,134461,6,0,P|194:289|229:292,1,70,2|0,0:0|0:0,0:0:0:0:
297,343,134804,1,8,0:0:0:0:
378,324,134975,1,0,0:0:0:0:
436,264,135146,2,0,P|441:229|438:194,1,70,0|2,0:0|0:0,0:0:0:0:
330,76,135489,2,0,P|301:138|301:208,1,140,8|2,0:0|0:0,0:0:0:0:
235,261,136004,5,0,0:0:0:0:
235,261,136089,1,0,0:0:0:0:
235,261,136175,1,8,0:0:0:0:
216,179,136346,1,0,0:0:0:0:
216,179,136432,1,0,0:0:0:0:
216,179,136518,2,0,L|152:172,2,35,0|0|2,0:0|0:0|0:0,0:0:0:0:
227,95,136861,2,0,L|95:84,1,105,8|0,0:0|0:0,0:0:0:0:
79,86,137204,6,0,P|85:121|84:156,1,70,2|0,0:0|0:0,0:0:0:0:
29,285,137546,2,0,P|27:250|33:215,1,70,8|0,0:0|0:0,0:0:0:0:
181,175,137889,2,0,P|215:174|250:177,1,70,0|2,0:0|0:0,0:0:0:0:
280,292,138232,2,0,P|245:292|210:289,1,70,8|0,0:0|0:0,0:0:0:0:
250,177,138575,6,0,P|254:133|250:101,1,70,2|0,0:0|0:0,0:0:0:0:
350,37,138918,2,0,P|347:71|351:106,1,70,8|0,0:0|0:0,0:0:0:0:
483,171,139261,2,0,P|461:142|426:121,1,70,0|2,0:0|0:0,0:0:0:0:
386,226,139604,2,0,P|369:289|288:319,1,140,8|2,0:0|0:0,0:0:0:0:
237,271,140118,5,0,0:0:0:0:
163,310,140289,1,8,0:0:0:0:
90,201,140461,2,0,L|85:165,2,35,0|0|0,0:0|0:0|0:0,0:0:0:0:
168,230,140804,1,2,0:0:0:0:
235,180,140975,2,0,L|316:167,1,70,8|0,0:0|0:0,0:0:0:0:
373,92,141318,6,0,L|249:76,2,105,2|2|2,0:0|0:0|0:0,0:0:0:0:
441,140,142004,1,8,0:0:0:0:
379,240,142175,1,2,0:0:0:0:
379,240,142261,1,0,0:0:0:0:
378,239,142346,2,0,P|390:273|396:307,1,70,8|0,0:0|0:0,0:0:0:0:
313,289,142689,5,2,0:0:0:0:
233,261,142861,1,0,0:0:0:0:
284,195,143032,2,0,P|292:154|302:115,1,70,8|0,0:0|0:0,0:0:0:0:
320,45,143375,2,0,P|285:85|177:93,1,140,0|8,0:0|0:0,0:0:0:0:
137,48,143889,6,0,P|99:130|115:198,2,140,0|0|0,0:0|0:0|0:0,0:0:0:0:
202,101,144746,1,0,0:0:0:0:
185,183,144918,2,0,L|192:256,1,70,2|8,0:0|0:0,0:0:0:0:
381,243,145261,1,0,0:0:0:0:
424,172,145432,6,0,P|424:137|419:102,1,70,2|0,0:0|0:0,0:0:0:0:
268,138,145775,2,0,P|309:137|344:123,1,70,8|0,0:0|0:0,0:0:0:0:
349,44,146118,1,0,0:0:0:0:
202,101,146289,1,0,0:0:0:0:
136,47,146461,2,0,B|110:64|101:89|101:89|83:95|83:95|93:137|69:178,1,140,8|2,0:0|0:0,0:0:0:0:
39,293,146975,6,0,L|32:344,2,35,0|0|8,0:0|0:0|0:0,0:0:0:0:
114,242,147318,1,0,0:0:0:0:
114,242,147404,1,0,0:0:0:0:
114,242,147489,2,0,P|174:229|213:237,1,70,0|2,0:0|0:0,0:0:0:0:
212,259,147746,2,0,P|261:274|318:276,1,105,0|0,0:0|0:0,0:0:0:0:
469,183,148175,6,0,P|402:168|333:179,1,140,2|8,0:0|0:0,0:0:0:0:
249,144,148689,1,0,0:0:0:0:
315,80,148861,2,0,P|251:53|180:79,1,140,0|8,0:0|0:0,0:0:0:0:
109,123,149375,1,0,0:0:0:0:
164,194,149546,6,0,L|178:295,1,70,2|0,0:0|0:0,0:0:0:0:
132,344,149889,1,8,0:0:0:0:
281,335,150061,2,0,L|263:196,1,140,0|2,0:0|0:0,0:0:0:0:
326,130,150575,1,8,0:0:0:0:
395,191,150746,6,0,P|363:44|232:118,1,350,0|0,0:0|0:0,0:0:0:0:
232,118,151775,1,2,0:0:0:0:
180,193,151946,2,0,P|164:248|161:280,1,70,8|0,0:0|0:0,0:0:0:0:
238,310,152289,6,0,L|357:326,2,105,2|2|2,0:0|0:0|0:0,0:0:0:0:
281,229,152975,2,0,L|350:237,1,70,8|2,0:0|0:0,0:0:0:0:
453,107,153318,1,8,0:0:0:0:
482,182,153489,1,8,0:0:0:0:
482,182,153575,1,8,0:0:0:0:
482,181,153661,6,0,P|480:216|470:250,1,70,6|0,0:0|0:0,0:0:0:0:
362,160,154004,2,0,P|363:125|373:91,1,70,8|0,0:0|0:0,0:0:0:0:
284,106,154346,2,0,L|125:115,1,140,0|8,0:0|0:0,0:0:0:0:
70,168,154861,2,0,P|53:102|84:42,2,140,0|0|0,0:0|0:0|0:0,0:0:0:0:
149,215,155718,5,0,0:0:0:0:
239,205,155889,2,0,P|273:210|307:220,1,70,10|8,0:0|1:2,0:0:0:0:
376,279,156232,1,0,1:2:0:0:
440,215,156404,6,0,P|437:146|391:95,1,140,6|8,0:0|0:0,0:0:0:0:
327,29,156918,1,0,0:2:0:0:
240,56,157089,2,0,L|224:134,1,70,0|2,0:0|0:2,0:0:0:0:
188,207,157432,2,0,P|234:156|302:150,1,140,8|2,0:0|0:0,0:0:0:0:
360,220,157946,5,0,0:0:0:0:
360,220,158032,1,0,0:0:0:0:
360,220,158118,1,8,0:0:0:0:
290,278,158289,1,0,0:0:0:0:
290,278,158375,1,8,0:0:0:0:
290,278,158461,2,0,L|288:323,2,35,0|0|2,0:0|0:0|0:0,0:0:0:0:
203,306,158804,2,0,P|168:314|133:317,1,70,8|0,0:0|0:0,0:0:0:0:
53,212,159146,6,0,P|87:204|122:201,1,70,6|0,0:0|0:0,0:0:0:0:
265,162,159489,2,0,P|271:127|271:92,1,70,8|0,0:0|0:0,0:0:0:0:
171,33,159832,2,0,P|170:67|176:102,1,70,0|0,1:0|1:0,0:0:0:0:
357,84,160175,2,0,P|406:82|449:89,1,70,8|0,0:0|0:0,0:0:0:0:
468,203,160518,6,0,P|470:238|466:274,1,70,2|0,0:0|0:0,0:0:0:0:
293,232,160861,2,0,P|325:217|359:210,1,70,8|0,0:0|0:0,0:0:0:0:
331,60,161204,2,0,P|341:95|345:127,1,70,0|2,1:0|1:2,0:0:0:0:
240,171,161546,2,0,P|229:135|225:103,1,70,8|0,0:0|0:0,0:0:0:0:
109,39,161889,6,0,P|123:72|129:106,1,70,6|0,1:2|0:0,0:0:0:0:
88,187,162232,1,8,0:2:0:0:
162,240,162404,2,0,L|220:254,2,35,0|0|2,0:0|0:0|0:2,0:0:0:0:
119,320,162746,1,2,0:0:0:0:
257,333,162918,2,0,P|266:297|267:255,1,70,8|0,0:0|0:2,0:0:0:0:
369,173,163261,6,0,P|358:224|358:276,2,105,2|2|2,0:0|0:0|0:0,0:0:0:0:
445,222,163946,1,8,0:0:0:0:
440,313,164118,1,2,0:0:0:0:
277,197,164289,2,0,P|279:159|291:109,1,70,8|0,0:0|0:0,0:0:0:0:
348,72,164632,6,0,P|287:103|218:97,1,140,6|8,0:0|0:0,0:0:0:0:
134,62,165146,2,0,P|66:71|31:129,1,140,0|0,0:0|0:0,0:0:0:0:
83,204,165661,2,0,P|107:179|118:146,1,70,8|0,0:0|0:0,0:0:0:0:
118,287,166004,6,0,P|172:242|200:178,1,140,2|8,0:0|0:0,0:0:0:0:
282,141,166518,2,0,P|331:148|408:210,1,140,0|2,0:0|0:0,0:0:0:0:
463,268,167032,1,8,0:0:0:0:
392,325,167204,1,0,0:0:0:0:
305,292,167375,6,0,P|236:284|167:296,1,140,2|8,0:0|0:0,0:0:0:0:
88,251,167889,2,0,P|71:194|72:92,2,140,0|2|0,0:0|0:0|0:0,0:0:0:0:
173,221,168746,6,0,P|179:186|176:151,1,70,2|0,0:0|0:0,0:0:0:0:
146,65,169089,1,8,0:0:0:0:
235,81,169261,1,0,0:0:0:0:
235,81,169346,1,0,0:0:0:0:
234,81,169432,2,0,P|265:64|298:52,1,70,0|2,0:0|0:0,0:0:0:0:
384,80,169775,1,8,0:0:0:0:
400,112,169860,1,0,0:0:0:0:
410,145,169946,1,0,0:0:0:0:
413,180,170032,1,0,0:0:0:0:
411,215,170118,6,0,P|395:283|407:351,1,140,2|8,0:0|0:0,0:0:0:0:
323,315,170632,1,0,0:0:0:0:
234,337,170804,2,0,B|203:307|212:262|212:262|181:237|181:237|195:189|149:150,1,210,0|0,0:0|0:0,0:0:0:0:
64,157,171489,6,0,P|129:139|163:72,1,140,2|8,0:0|0:0,0:0:0:0:
71,64,172004,1,0,0:0:0:0:
249,72,172175,2,0,L|263:148,1,70,0|2,0:0|0:0,0:0:0:0:
351,215,172518,2,0,L|363:146,1,70,8|0,0:0|0:0,0:0:0:0:
249,71,172861,6,0,P|208:128|199:197,1,140,2|8,0:0|0:0,0:0:0:0:
270,254,173375,1,0,0:0:0:0:
199,311,173546,2,0,B|163:340|139:346|139:346|175:341|193:347|193:347|257:367|306:332,1,210,0|0,0:0|0:0,0:0:0:0:
360,310,174232,6,0,P|376:255|375:186,2,105,2|2|2,0:0|0:0|0:0,0:0:0:0:
270,254,174918,1,8,0:0:0:0:
294,166,175089,1,2,0:0:0:0:
203,152,175261,1,8,0:3:0:0:
168,152,175346,1,8,0:3:0:0:
134,158,175432,1,4,0:3:0:0:
101,169,175518,1,4,0:3:0:0:
70,187,175603,1,6,0:0:0:0:
256,192,175775,12,2,178346,0:0:0:0:
