osu file format v14

[General]
AudioFilename: DJSEVEN.mp3
AudioLeadIn: 0
PreviewTime: 98803
Countdown: 0
SampleSet: Soft
StackLeniency: 0.3
Mode: 0
LetterboxInBreaks: 0
EpilepsyWarning: 1
WidescreenStoryboard: 1

[Editor]
Bookmarks: 197546
DistanceSpacing: 1.3
BeatDivisor: 8
GridSize: 4
TimelineZoom: 1.6

[Metadata]
Title:Charon (DJ SEVEN PnB Refix)
TitleUnicode:カロン (DJ SEVEN PnB Refix)
Artist:Negoto
ArtistUnicode:ねごと
Creator:VINXIS
Version:Easy
Source:
Tags:Giralda Skystar Bonzi Asahina Momoko M_o_k_o_r_i Amamiya Yuko toybot byfar Cilvery Asphyxia deetz drum and bass edm dance dnb (W87ES) remix life goes on Liiraye secretpipe Kalamitous Storyboarder Sytarno
BeatmapID:995079
BeatmapSetID:344896

[Difficulty]
HPDrainRate:2
CircleSize:2
OverallDifficulty:2
ApproachRate:3
SliderMultiplier:0.799999999999999
SliderTickRate:1

[Events]
//Background and Video events
0,0,"51208945_p0.jpg",0,0
//Break Periods
2,90775,95992
//Storyboard Layer 0 (Background)
//Storyboard Layer 1 (Fail)
//Storyboard Layer 2 (Pass)
//Storyboard Layer 3 (Foreground)
//Storyboard Sound Samples

[TimingPoints]
61,342.857142857143,4,2,1,60,1,0
61,-100,4,2,1,60,0,0
22003,-100,4,2,1,60,0,0
37775,-100,4,2,1,60,0,0
38461,-100,4,2,1,60,0,0
42575,-100,4,2,1,60,0,0
43261,-100,4,2,1,60,0,0
53546,-100,4,2,1,60,0,0
54918,-100,4,2,1,60,0,0
65546,-100,4,2,1,60,0,0
65889,-100,4,2,1,60,0,1
70346,-100,4,2,1,60,0,1
70518,-100,4,2,1,60,0,1
70689,-100,4,2,1,60,0,1
70861,-100,4,2,1,60,0,1
71032,-100,4,2,1,60,0,1
71375,-100,4,2,1,60,0,1
87832,-100,4,2,1,60,0,0
97432,-100,4,2,1,60,0,0
97946,-100,4,2,1,60,0,0
98118,-100,4,2,1,60,0,0
98803,-100,4,2,1,60,0,0
99146,-100,4,2,1,60,0,0
105489,-100,4,2,1,60,0,0
106946,-100,4,2,1,60,0,0
108403,-100,4,2,1,60,0,0
109603,-100,4,2,1,60,0,0
110461,-100,4,2,1,60,0,0
111146,-100,4,2,1,60,0,0
118689,-100,4,2,1,60,0,0
118946,-100,4,2,1,60,0,0
119203,-100,4,2,1,60,0,0
120575,-100,4,2,1,60,0,0
120746,-100,4,2,1,60,0,0
121775,-100,4,2,1,60,0,0
123146,-100,4,2,1,60,0,0
123489,-100,4,2,1,60,0,0
124175,-100,4,2,1,60,0,0
125889,-100,4,2,1,60,0,0
126232,-100,4,2,1,60,0,0
127603,-100,4,2,1,60,0,0
128975,-100,4,2,1,60,0,0
129661,-100,4,2,1,60,0,0
130003,-100,4,2,1,60,0,0
130689,-100,4,2,1,60,0,0
131375,-100,4,2,1,60,0,0
131718,-100,4,2,1,60,0,1
152289,-100,4,2,1,60,0,1
154003,-100,4,2,1,60,0,1
174232,-100,4,2,1,60,0,1
175603,-100,4,2,1,60,0,0

[Colours]
Combo1 : 162,94,94
Combo2 : 186,102,10
Combo3 : 45,134,116

[HitObjects]
196,288,22003,6,0,P|233:302|272:301,1,79.9999999999999,2|8,0:0|0:0,0:0:0:0:
420,154,23032,1,8,0:0:0:0:
347,81,23375,2,0,B|308:74|308:74|267:76,1,79.9999999999999,2|8,0:0|0:0,0:0:0:0:
95,193,24403,1,8,0:0:0:0:
32,111,24746,6,0,L|37:25,1,79.9999999999999,2|8,0:0|0:0,0:0:0:0:
243,6,25775,1,8,0:0:0:0:
318,78,26118,2,0,L|322:157,1,79.9999999999999,2|8,0:0|0:0,0:0:0:0:
177,308,27146,1,8,0:0:0:0:
275,273,27489,6,0,P|314:271|354:270,1,79.9999999999999,6|8,0:0|0:0,0:0:0:0:
188,145,28518,1,8,0:0:0:0:
97,197,28861,2,0,P|83:159|85:120,1,79.9999999999999,2|8,0:0|0:0,0:0:0:0:
293,113,29889,1,8,0:0:0:0:
364,37,30232,6,0,L|445:46,1,79.9999999999999,2|8,0:0|0:0,0:0:0:0:
474,251,31261,1,8,0:0:0:0:
391,187,31603,2,0,L|372:268,1,79.9999999999999,2|8,0:0|0:0,0:0:0:0:
277,307,32289,2,0,L|258:229,1,79.9999999999999,0|8,0:0|0:0,0:0:0:0:
224,128,32975,6,0,P|185:125|145:128,1,79.9999999999999,6|8,0:0|0:0,0:0:0:0:
136,336,34003,1,8,0:0:0:0:
217,271,34346,2,0,L|297:280,2,79.9999999999999,2|8|0,0:0|0:0|0:0,0:0:0:0:
135,336,35375,1,8,0:0:0:0:
79,248,35718,6,0,L|68:153,1,79.9999999999999,2|8,0:0|0:0,0:0:0:0:
222,26,36746,1,8,0:0:0:0:
305,86,37089,2,0,P|344:86|384:83,2,79.9999999999999,2|8|2,0:0|0:0|0:0,0:0:0:0:
222,26,38118,1,8,0:0:0:0:
210,129,38461,6,0,L|215:213,1,79.9999999999999,2|8,0:0|0:0,0:0:0:0:
376,340,39489,1,8,0:0:0:0:
414,243,39832,2,0,P|375:234|336:241,2,79.9999999999999,2|8|0,0:0|0:0|0:0,0:0:0:0:
376,340,40861,1,8,0:0:0:0:
272,344,41203,6,0,L|192:343,1,79.9999999999999,2|8,0:0|0:0,0:0:0:0:
85,163,42232,1,8,0:0:0:0:
157,88,42575,2,0,L|321:97,1,160,2|8,0:0|0:0,0:0:0:0:
419,109,43603,1,8,0:0:0:0:
351,189,43946,6,0,P|346:228|347:268,1,79.9999999999999,2|8,0:0|0:0,0:0:0:0:
162,363,44975,1,8,0:0:0:0:
104,274,45318,2,0,P|65:270|25:275,2,79.9999999999999,2|8|0,0:0|0:0|0:0,0:0:0:0:
162,363,46346,1,8,0:0:0:0:
210,270,46689,6,0,L|214:182,1,79.9999999999999,2|8,0:0|0:0,0:0:0:0:
374,57,47718,1,8,0:0:0:0:
271,38,48061,2,0,L|186:36,2,79.9999999999999,2|8|2,0:0|0:0|0:0,0:0:0:0:
374,57,49089,1,8,0:0:0:0:
472,91,49432,6,0,L|480:178,1,79.9999999999999,2|8,0:0|0:0,0:0:0:0:
274,207,50461,1,8,0:0:0:0:
298,106,50803,2,0,P|258:104|220:117,2,79.9999999999999,2|8|0,0:0|0:0|0:0,0:0:0:0:
274,207,51832,1,8,0:0:0:0:
263,310,52175,6,0,P|225:301|191:271,1,79.9999999999999,2|8,0:0|0:0,0:0:0:0:
189,170,52861,2,0,P|151:179|117:209,1,79.9999999999999,0|8,0:0|0:0,0:0:0:0:
17,224,53546,2,0,L|18:59,1,160,0|8,0:0|0:0,0:0:0:0:
120,87,54575,1,8,0:0:0:0:
206,29,54918,6,0,L|292:37,2,79.9999999999999,2|0|8,0:0|0:0|0:0,0:0:0:0:
157,231,56289,2,0,L|71:239,2,79.9999999999999,0|0|0,0:0|0:0|0:0,0:0:0:0:
261,242,57318,1,8,0:0:0:0:
363,226,57661,6,0,L|362:135,1,79.9999999999999,2|0,0:0|0:0,0:0:0:0:
360,41,58346,2,0,P|397:23|500:73,1,160,8|0,0:0|0:0,0:0:0:0:
506,276,59718,2,0,L|502:355,1,79.9999999999999,8|8,0:0|0:0,0:0:0:0:
404,319,60403,6,0,L|411:150,1,160,2|8,0:0|0:0,0:0:0:0:
350,73,61432,2,0,P|312:63|272:63,1,79.9999999999999,2|0,0:0|0:0,0:0:0:0:
189,124,62118,2,0,P|151:135|111:135,1,79.9999999999999,0|0,0:0|0:0,0:0:0:0:
36,63,62803,1,8,0:0:0:0:
1,161,63146,6,0,L|-2:251,1,79.9999999999999,2|0,0:0|0:0,0:0:0:0:
67,320,63832,2,0,L|163:309,1,79.9999999999999,0|2,0:0|0:0,0:0:0:0:
248,289,64518,6,0,B|336:277|336:277|348:232|348:232|457:213,1,240,0|0,0:0|0:0,0:0:0:0:
507,126,65889,6,0,P|457:99|351:75,1,160,6|0,0:0|0:0,0:0:0:0:
254,57,66918,1,8,0:0:0:0:
295,152,67261,2,0,L|299:237,1,79.9999999999999,2|8,0:0|0:0,0:0:0:0:
200,266,67946,2,0,L|196:186,1,79.9999999999999,0|8,0:0|0:0,0:0:0:0:
92,185,68632,6,0,L|8:186,1,79.9999999999999,2|8,0:0|0:0,0:0:0:0:
8,81,69318,2,0,L|12:-8,1,79.9999999999999,0|0,0:0|0:0,0:0:0:0:
108,38,70003,2,0,P|163:16|222:24,2,120,2|0|8,0:0|0:0|0:0,0:0:0:0:
177,115,71375,6,0,P|231:123|263:112,1,79.9999999999999,2|8,0:0|0:0,0:0:0:0:
324,39,72061,2,0,P|378:31|410:42,1,79.9999999999999,0|8,0:0|0:0,0:0:0:0:
430,137,72746,2,0,P|438:191|427:223,1,79.9999999999999,2|8,0:0|0:0,0:0:0:0:
354,285,73432,2,0,P|346:339|357:371,1,79.9999999999999,0|8,0:0|0:0,0:0:0:0:
249,347,74118,6,0,L|80:338,1,160,2|0,0:0|0:0,0:0:0:0:
102,235,75146,1,8,0:0:0:0:
205,238,75489,2,0,L|364:246,1,160,2|8,0:0|0:0,0:0:0:0:
467,249,76518,1,8,0:0:0:0:
498,149,76861,6,0,L|332:141,1,160,2|0,0:0|0:0,0:0:0:0:
290,48,77889,1,8,0:0:0:0:
228,133,78232,2,0,L|224:213,1,79.9999999999999,2|8,0:0|0:0,0:0:0:0:
326,233,78918,2,0,L|322:313,1,79.9999999999999,0|8,0:0|0:0,0:0:0:0:
218,318,79603,6,0,L|126:321,1,79.9999999999999,2|8,0:0|0:0,0:0:0:0:
85,230,80289,2,0,L|82:150,1,79.9999999999999,0|8,0:0|0:0,0:0:0:0:
183,174,80975,2,0,L|179:54,2,120,2|0|8,0:0|0:0|0:0,0:0:0:0:
284,196,82346,6,0,P|347:200|445:192,1,160,2|0,0:0|0:0,0:0:0:0:
448,88,83375,1,8,0:0:0:0:
351,49,83718,2,0,P|288:53|190:45,1,160,2|0,0:0|0:0,0:0:0:0:
89,25,84746,1,8,0:0:0:0:
122,123,85089,6,0,L|111:217,1,79.9999999999999,6|8,0:0|0:0,0:0:0:0:
214,223,85775,2,0,L|223:302,1,79.9999999999999,2|8,0:3|0:0,0:0:0:0:
315,351,86461,2,0,P|354:352|394:349,2,79.9999999999999,2|0|8,0:0|0:0|0:0,0:0:0:0:
353,254,87489,1,8,0:0:0:0:
256,192,87832,12,2,90575,0:0:0:0:
281,101,97432,6,0,P|344:97|445:130,1,160,0|0,0:0|0:0,0:0:0:0:
501,206,98461,1,0,0:0:0:0:
449,296,98803,6,0,L|442:385,1,79.9999999999999,6|8,0:0|0:0,0:0:0:0:
338,368,99489,2,0,L|344:288,1,79.9999999999999,0|8,0:0|0:0,0:0:0:0:
360,187,100175,2,0,P|322:195|282:188,2,79.9999999999999,2|8|0,0:0|0:0|0:0,0:0:0:0:
425,105,101203,1,8,0:0:0:0:
465,200,101546,6,0,L|469:283,1,79.9999999999999,2|8,0:0|0:0,0:0:0:0:
378,332,102232,2,0,L|374:249,1,79.9999999999999,0|8,0:0|0:0,0:0:0:0:
346,150,102918,2,0,P|268:141|191:164,1,160,0|2,0:0|0:0,0:0:0:0:
140,255,103946,1,8,0:0:0:0:
90,163,104289,6,0,L|86:81,2,79.9999999999999,2|8|0,0:0|0:0|0:0,0:0:0:0:
140,255,105318,1,8,0:0:0:0:
228,308,105661,2,0,L|326:306,2,79.9999999999999,0|0|0,0:0|0:0|0:0,0:0:0:0:
140,255,106689,1,8,0:0:0:0:
211,178,107032,6,0,L|269:119,1,79.9999999999999,2|8,0:0|0:0,0:0:0:0:
339,46,107718,2,0,L|395:103,1,79.9999999999999,0|8,0:0|0:0,0:0:0:0:
464,180,108403,2,0,L|460:265,2,79.9999999999999,2|0|8,0:0|0:0|0:0,0:0:0:0:
361,200,109432,1,8,0:0:0:0:
280,265,109775,6,0,P|241:274|201:275,1,79.9999999999999,6|8,0:0|0:0,0:0:0:0:
126,202,110461,2,0,P|86:203|47:212,1,79.9999999999999,2|8,0:0|0:0,0:0:0:0:
25,314,111146,1,2,0:0:0:0:
230,345,111832,1,0,0:0:0:0:
236,137,112518,6,0,L|245:48,1,79.9999999999999,2|8,0:0|0:0,0:0:0:0:
338,100,113203,2,0,L|329:179,1,79.9999999999999,0|8,0:0|0:0,0:0:0:0:
316,283,113889,1,0,0:0:0:0:
468,138,114575,2,0,L|479:43,1,79.9999999999999,2|8,0:0|0:0,0:0:0:0:
369,40,115261,6,0,B|293:40|293:40|266:62|266:62|215:64,1,160,6|0,0:0|0:0,0:0:0:0:
112,65,116289,1,8,0:0:0:0:
173,148,116632,2,0,P|181:186|176:226,1,79.9999999999999,0|8,0:0|0:0,0:0:0:0:
85,278,117318,2,0,P|80:238|88:199,1,79.9999999999999,0|8,0:0|0:0,0:0:0:0:
101,96,118003,6,0,L|18:102,1,79.9999999999999,2|8,0:0|0:0,0:0:0:0:
223,151,119032,1,8,0:0:0:0:
270,58,119375,2,0,L|435:70,1,160,6|8,0:0|0:0,0:0:0:0:
494,151,120403,1,8,0:0:0:0:
445,243,120746,6,0,P|361:267|258:172,1,240,6|2,0:0|0:0,0:0:0:0:
233,70,122118,2,0,B|190:90|162:135|162:135|111:153|23:124,1,240,6|8,0:0|0:0,0:0:0:0:
29,227,123489,6,0,P|83:337|192:380,1,240,6|2,0:0|0:0,0:0:0:0:
287,360,124861,2,0,B|397:319|397:319|386:197,1,240,6|8,0:0|0:0,0:0:0:0:
347,100,126232,6,0,L|99:125,1,240,6|0,0:0|0:0,0:0:0:0:
166,210,127603,2,0,B|46:223|46:223|120:318,1,240,6|2,0:0|1:0,0:0:0:0:
219,287,128975,6,0,B|321:336|321:336|313:209,1,240,6|8,0:0|0:0,0:0:0:0:
231,146,130346,2,0,L|138:149,2,79.9999999999999,8|8|10,0:0|0:0|0:0,0:0:0:0:
335,143,131375,1,6,0:0:0:0:
432,107,131718,6,0,L|429:186,1,79.9999999999999,2|8,0:0|0:0,0:0:0:0:
335,143,132403,2,0,L|337:57,1,79.9999999999999,0|8,0:0|0:0,0:0:0:0:
246,14,133089,2,0,P|207:12|167:18,1,79.9999999999999,2|8,0:0|0:0,0:0:0:0:
165,123,133775,2,0,P|125:125|85:119,1,79.9999999999999,0|8,0:0|0:0,0:0:0:0:
5,185,134461,6,0,L|9:279,1,79.9999999999999,2|8,0:0|0:0,0:0:0:0:
13,368,135146,2,0,L|107:364,1,79.9999999999999,0|8,0:0|0:0,0:0:0:0:
196,349,135832,2,0,P|212:291|201:233,2,120,2|0|8,0:0|0:0|0:0,0:0:0:0:
300,348,137203,6,0,P|316:312|320:273,1,79.9999999999999,2|8,0:0|0:0,0:0:0:0:
304,170,137889,2,0,P|299:130|283:94,1,79.9999999999999,0|8,0:0|0:0,0:0:0:0:
178,94,138575,2,0,P|161:130|157:169,1,79.9999999999999,2|8,0:0|0:0,0:0:0:0:
174,273,139261,2,0,P|178:312|194:348,1,79.9999999999999,0|8,0:0|0:0,0:0:0:0:
275,283,139946,6,0,L|436:284,1,160,2|0,0:0|0:0,0:0:0:0:
426,179,140975,1,8,0:0:0:0:
321,179,141318,2,0,L|160:180,1,160,2|8,0:0|0:0,0:0:0:0:
56,179,142346,1,8,0:0:0:0:
21,277,142689,6,0,L|101:281,1,79.9999999999999,2|8,0:0|0:0,0:0:0:0:
144,377,143375,2,0,L|224:381,1,79.9999999999999,0|8,0:0|0:0,0:0:0:0:
272,289,144060,2,0,L|276:209,1,79.9999999999999,2|8,0:0|0:0,0:0:0:0:
174,189,144746,2,0,L|178:109,1,79.9999999999999,0|8,0:0|0:0,0:0:0:0:
282,104,145432,6,0,L|374:101,1,79.9999999999999,2|8,0:0|0:0,0:0:0:0:
415,192,146118,2,0,L|418:272,1,79.9999999999999,0|8,0:0|0:0,0:0:0:0:
317,248,146803,2,0,L|321:368,2,120,2|0|8,0:0|0:0|0:0,0:0:0:0:
223,202,148175,6,0,L|228:23,1,160,2|0,0:0|0:0,0:0:0:0:
124,44,149203,1,8,0:0:0:0:
59,125,149546,2,0,L|64:284,1,160,2|0,0:0|0:0,0:0:0:0:
157,330,150575,1,8,0:0:0:0:
216,244,150918,6,0,P|254:235|294:237,1,79.9999999999999,2|8,0:0|0:0,0:0:0:0:
368,310,151603,2,0,P|406:319|446:317,1,79.9999999999999,0|8,0:0|0:0,0:0:0:0:
458,213,152289,2,0,L|460:121,2,79.9999999999999,2|0|8,0:0|0:0|0:0,0:0:0:0:
363,168,153318,1,8,0:0:0:0:
267,125,153661,6,0,L|264:220,1,79.9999999999999,6|8,0:0|0:0,0:0:0:0:
171,250,154346,2,0,L|168:345,1,79.9999999999999,0|8,0:0|0:0,0:0:0:0:
266,370,155032,2,0,P|305:372|345:366,1,79.9999999999999,2|8,0:0|0:0,0:0:0:0:
347,261,155718,2,0,P|387:259|427:265,1,79.9999999999999,0|8,0:0|1:2,0:0:0:0:
507,199,156404,6,0,L|503:105,1,79.9999999999999,6|8,0:0|0:0,0:0:0:0:
499,16,157089,2,0,L|405:20,1,79.9999999999999,0|8,0:0|0:0,0:0:0:0:
316,35,157775,2,0,P|300:93|311:151,2,120,2|0|8,0:0|0:0|0:0,0:0:0:0:
212,36,159146,6,0,P|196:72|192:111,1,79.9999999999999,6|8,0:0|0:0,0:0:0:0:
208,214,159832,2,0,P|213:254|229:290,1,79.9999999999999,0|8,1:0|0:0,0:0:0:0:
128,316,160518,2,0,P|111:280|107:241,1,79.9999999999999,2|8,0:0|0:0,0:0:0:0:
57,148,161204,2,0,P|61:109|77:73,1,79.9999999999999,0|8,1:0|0:0,0:0:0:0:
181,81,161889,6,0,L|340:81,1,160,6|2,1:2|0:2,0:0:0:0:
445,82,162918,1,8,0:0:0:0:
460,184,163261,2,0,L|465:264,2,79.9999999999999,2|0|8,0:0|0:0|0:0,0:0:0:0:
357,202,164289,1,8,0:0:0:0:
252,196,164632,6,0,L|172:192,1,79.9999999999999,6|8,0:0|0:0,0:0:0:0:
118,102,165318,2,0,L|38:98,1,79.9999999999999,0|8,0:0|0:0,0:0:0:0:
27,201,166003,2,0,L|23:281,1,79.9999999999999,2|8,0:0|0:0,0:0:0:0:
120,317,166689,2,0,L|124:237,1,79.9999999999999,0|8,0:0|0:0,0:0:0:0:
132,133,167375,6,0,L|211:130,1,79.9999999999999,2|8,0:0|0:0,0:0:0:0:
316,127,168060,2,0,L|319:207,1,79.9999999999999,0|8,0:0|0:0,0:0:0:0:
418,239,168746,2,0,L|414:119,2,120,2|0|8,0:0|0:0|0:0,0:0:0:0:
318,206,170118,6,0,L|313:385,1,160,2|0,0:0|0:0,0:0:0:0:
417,345,171146,1,8,0:0:0:0:
417,345,171489,2,0,L|412:186,1,160,2|0,0:0|0:0,0:0:0:0:
384,84,172518,1,8,0:0:0:0:
295,139,172861,6,0,P|257:148|217:146,1,79.9999999999999,2|8,0:0|0:0,0:0:0:0:
144,74,173546,2,0,P|105:64|65:66,1,79.9999999999999,0|8,0:0|0:0,0:0:0:0:
54,171,174232,2,0,L|52:263,2,79.9999999999999,2|0|8,0:0|0:0|0:0,0:0:0:0:
149,216,175261,1,8,0:3:0:0:
171,113,175603,6,0,P|210:112|250:118,1,79.9999999999999,6|8,0:0|0:0,0:0:0:0:
246,327,176632,1,8,0:0:0:0:
317,251,176975,2,0,L|321:170,1,79.9999999999999,2|8,0:0|0:0,0:0:0:0:
116,210,178003,1,8,0:0:0:0:
72,115,178346,6,0,P|111:108|150:113,1,79.9999999999999,2|8,0:0|0:0,0:0:0:0:
335,210,179375,1,8,0:0:0:0:
427,162,179718,2,0,L|432:245,1,79.9999999999999,2|8,0:0|0:0,0:0:0:0:
223,231,180746,1,8,0:0:0:0:
179,136,181089,6,0,L|262:131,1,79.9999999999999,2|8,0:0|0:0,0:0:0:0:
61,64,182118,1,8,0:0:0:0:
7,154,182461,2,0,P|4:193|11:233,1,79.9999999999999,2|8,0:0|0:0,0:0:0:0:
218,223,183489,1,8,0:0:0:0:
134,285,183832,6,0,L|137:370,1,79.9999999999999,2|8,0:0|0:0,0:0:0:0:
344,352,184861,1,8,0:0:0:0:
409,271,185203,2,0,L|412:178,2,79.9999999999999,2|0|8,0:0|0:0|0:0,0:0:0:0:
344,352,186232,1,8,0:0:0:0:
277,271,186575,6,0,P|237:272|197:266,1,79.9999999999999,6|8,0:0|0:0,0:0:0:0:
202,58,187604,1,8,0:0:0:0:
131,134,187947,2,0,L|127:215,1,79.9999999999999,2|8,0:0|0:0,0:0:0:0:
332,175,188975,1,8,0:0:0:0:
376,270,189318,6,0,P|336:276|297:271,1,79.9999999999999,2|8,0:0|0:0,0:0:0:0:
113,175,190347,1,8,0:0:0:0:
21,223,190690,2,0,L|16:140,1,79.9999999999999,2|8,0:0|0:0,0:0:0:0:
225,154,191718,1,8,0:0:0:0:
269,249,192061,6,0,L|186:254,1,79.9999999999999,2|8,0:0|0:0,0:0:0:0:
387,321,193090,1,8,0:0:0:0:
440,231,193433,2,0,P|443:191|436:151,1,79.9999999999999,2|8,0:0|0:0,0:0:0:0:
230,162,194461,1,8,0:0:0:0:
314,100,194804,6,0,L|311:15,1,79.9999999999999,2|8,0:0|0:0,0:0:0:0:
104,33,195833,1,8,0:0:0:0:
39,114,196175,2,0,L|36:207,2,79.9999999999999,2|0|8,0:0|0:0|0:0,0:0:0:0:
104,33,197203,1,8,0:0:0:0:
182,101,197546,5,6,0:0:0:0:
