osu file format v14

[General]
AudioFilename: DJSEVEN.mp3
AudioLeadIn: 0
PreviewTime: 98803
Countdown: 0
SampleSet: Soft
StackLeniency: 0.3
Mode: 0
LetterboxInBreaks: 0
EpilepsyWarning: 1
WidescreenStoryboard: 1

[Editor]
Bookmarks: 61,32975,54918,65889,76861,87832,97432,131718,142689,153661,164632,175603,219489
DistanceSpacing: 0.5
BeatDivisor: 4
GridSize: 4
TimelineZoom: 1.6

[Metadata]
Title:Charon (DJ SEVEN PnB Refix)
TitleUnicode:カロン (DJ SEVEN PnB Refix)
Artist:Negoto
ArtistUnicode:ねごと
Creator:VINXIS
Version:deetz' Insane
Source:
Tags:Giralda Skystar Bonzi Asahina Momoko M_o_k_o_r_i Amamiya Yuko toybot byfar Cilvery Asphyxia deetz drum and bass edm dance dnb (W87ES) remix life goes on Liiraye secretpipe Kalamitous Storyboarder Sytarno
BeatmapID:925877
BeatmapSetID:344896

[Difficulty]
HPDrainRate:5
CircleSize:4
OverallDifficulty:7
ApproachRate:9
SliderMultiplier:1.7
SliderTickRate:1

[Events]
//Background and Video events
0,0,"51208945_p0.jpg",0,0
//Break Periods
2,88032,98203
//Storyboard Layer 0 (Background)
//Storyboard Layer 1 (Fail)
//Storyboard Layer 2 (Pass)
//Storyboard Layer 3 (Foreground)
//Storyboard Sound Samples

[TimingPoints]
61,342.857142857143,4,2,1,60,1,0
22003,-100,4,2,1,60,0,0
32975,-111.111111111111,4,2,1,60,0,0
65546,-133.333333333333,4,2,1,60,0,0
65889,-90.9090909090909,4,2,1,60,0,1
71032,-166.666666666667,4,2,1,60,0,0
71375,-90.9090909090909,4,2,1,60,0,1
76518,-133.333333333333,4,2,1,60,0,1
76861,-90.9090909090909,4,2,1,60,0,1
87832,-90.9090909090909,4,2,1,60,0,0
98803,-111.111111111111,4,2,1,60,0,0
109432,-133.333333333333,4,2,1,60,0,0
109775,-100,4,2,1,60,0,0
120746,-90.9090909090909,4,2,1,60,0,0
131375,-133.333333333333,4,2,1,60,0,0
131718,-90.9090909090909,4,2,1,60,0,1
136861,-166.666666666667,4,2,1,60,0,0
137203,-90.9090909090909,4,2,1,60,0,1
142346,-90.9090909090909,4,2,1,60,0,1
142689,-90.9090909090909,4,2,1,60,0,1
158803,-166.666666666667,4,2,1,60,0,0
159146,-90.9090909090909,4,2,1,60,0,1
164461,-90.9090909090909,4,2,1,60,0,0
164632,-90.9090909090909,4,2,1,60,0,1
175603,-100,4,2,1,60,0,0

[Colours]
Combo1 : 162,94,94
Combo2 : 186,102,10
Combo3 : 45,134,116

[HitObjects]
204,360,61,5,2,0:0:0:0:
224,276,232,1,0,0:0:0:0:
116,232,403,2,0,L|132:340,1,85,8|0,0:0|0:0,0:0:0:0:
128,316,918,5,2,0:0:0:0:
308,296,1089,1,8,0:0:0:0:
308,296,1432,5,2,0:0:0:0:
288,212,1603,1,0,0:0:0:0:
396,168,1774,2,0,L|380:276,1,85,8|0,0:0|0:0,0:0:0:0:
384,252,2289,5,2,0:0:0:0:
208,236,2461,1,8,0:0:0:0:
208,236,2803,5,2,0:0:0:0:
228,152,2974,1,0,0:0:0:0:
120,108,3146,2,0,L|136:216,1,85,8|0,0:0|0:0,0:0:0:0:
132,192,3661,5,2,0:0:0:0:
312,172,3832,1,8,0:0:0:0:
312,172,4174,5,2,0:0:0:0:
292,88,4345,1,0,0:0:0:0:
400,44,4518,2,0,L|384:152,1,85,8|0,0:0|0:0,0:0:0:0:
388,128,5032,5,2,0:0:0:0:
464,260,5203,1,8,0:0:0:0:
464,260,5546,5,2,0:0:0:0:
392,216,5718,1,0,0:0:0:0:
316,292,5889,2,0,L|212:304,1,85,8|0,0:0|0:0,0:0:0:0:
232,304,6403,5,2,0:0:0:0:
83,250,6575,1,8,0:0:0:0:
83,250,6918,5,2,0:0:0:0:
155,206,7090,1,0,0:0:0:0:
231,282,7261,2,0,L|335:294,1,85,8|0,0:0|0:0,0:0:0:0:
316,292,7775,5,2,0:0:0:0:
463,240,7946,1,8,0:0:0:0:
463,240,8289,5,2,0:0:0:0:
391,196,8461,1,0,0:0:0:0:
315,272,8632,2,0,L|211:284,1,85,8|0,0:0|0:0,0:0:0:0:
230,281,9146,5,2,0:0:0:0:
82,230,9318,1,8,0:0:0:0:
82,230,9661,5,2,0:0:0:0:
154,186,9833,1,0,0:0:0:0:
230,262,10004,2,0,L|334:274,1,85,8|0,0:0|0:0,0:0:0:0:
314,271,10518,5,2,0:0:0:0:
404,148,10689,2,0,L|408:256,1,85,8|0,0:0|0:0,0:0:0:0:
292,160,11032,5,2,0:0:0:0:
208,152,11203,1,0,0:0:0:0:
216,68,11375,1,8,0:0:0:0:
204,184,11546,6,0,B|192:304|192:304|136:364,1,170,0|2,0:0|0:0,0:0:0:0:
288,244,12061,1,8,0:0:0:0:
304,264,12403,5,2,0:0:0:0:
388,244,12575,1,0,0:0:0:0:
412,324,12746,1,8,0:0:0:0:
384,208,12918,6,0,B|372:88|372:88|316:28,1,170,0|2,0:0|0:0,0:0:0:0:
468,148,13433,1,8,0:0:0:0:
468,148,13775,5,2,0:0:0:0:
472,240,13946,1,0,0:0:0:0:
380,244,14118,1,8,0:0:0:0:
496,264,14289,6,0,L|288:248,1,170,0|2,0:0|0:0,0:0:0:0:
472,124,14803,1,8,0:0:0:0:
468,108,15146,5,2,0:0:0:0:
392,52,15318,1,0,0:0:0:0:
340,128,15489,1,8,0:0:0:0:
412,36,15661,6,0,L|216:32,1,170,0|2,0:0|0:0,0:0:0:0:
416,184,16175,1,8,0:0:0:0:
444,176,16518,5,2,0:0:0:0:
344,156,16689,1,0,0:0:0:0:
328,256,16861,1,8,0:0:0:0:
264,112,17032,6,0,B|252:224|252:224|216:272,1,170,0|2,0:0|0:0,0:0:0:0:
152,76,17546,1,8,0:0:0:0:
152,76,17889,5,2,0:0:0:0:
252,56,18060,1,0,0:0:0:0:
268,156,18232,1,8,0:0:0:0:
332,12,18403,6,0,B|344:124|344:124|380:172,1,170,0|2,0:0|0:0,0:0:0:0:
490,29,18918,1,8,0:0:0:0:
490,29,19261,5,2,0:0:0:0:
490,139,19432,1,0,0:0:0:0:
379,138,19603,1,8,0:0:0:0:
501,171,19775,6,0,L|305:159,1,170,0|2,0:0|0:0,0:0:0:0:
486,257,20289,1,8,0:0:0:0:
486,257,20632,5,2,0:0:0:0:
369,340,20803,1,0,0:0:0:0:
480,343,20975,5,8,0:0:0:0:
358,254,21146,1,0,0:0:0:0:
264,351,21318,5,8,0:3:0:0:
226,331,21403,1,8,0:3:0:0:
184,323,21489,1,4,0:3:0:0:
142,326,21575,1,4,0:3:0:0:
102,340,21661,2,8,L|80:288,3,42.5,8|8|8|8,0:3|0:3|0:3|0:3,0:3:0:0:
13,280,22003,6,0,P|27:226|26:168,1,85,2|0,0:0|0:0,0:0:0:0:
12,95,22346,1,8,0:0:0:0:
116,168,22518,2,0,B|195:190|195:190|287:162,1,170,0|2,0:0|0:0,0:0:0:0:
373,271,23032,2,0,L|282:264,1,85,8|0,0:0|0:0,0:0:0:0:
478,236,23375,6,0,B|487:280|487:280|467:334,1,85,2|0,0:0|0:0,0:0:0:0:
441,346,23632,1,0,0:0:0:0:
441,346,23718,1,8,0:0:0:0:
324,295,23889,2,0,L|122:307,1,170,0|2,0:0|0:0,0:0:0:0:
287,132,24403,2,0,P|299:175|294:231,1,85,8|0,0:0|0:0,0:0:0:0:
128,141,24746,6,0,P|127:98|138:57,1,85,2|0,0:0|0:0,0:0:0:0:
239,39,25089,1,8,0:0:0:0:
353,95,25261,2,0,P|370:163|358:282,1,170,0|2,0:0|0:0,0:0:0:0:
299,375,25775,2,0,P|289:316|294:281,1,85,8|0,0:0|0:0,0:0:0:0:
442,164,26118,6,0,P|443:206|439:249,1,85,2|0,0:0|0:0,0:0:0:0:
450,289,26375,1,0,0:0:0:0:
450,289,26461,1,8,0:0:0:0:
291,291,26632,2,0,P|216:319|114:309,1,170,0|2,0:0|0:0,0:0:0:0:
243,139,27146,2,0,P|247:198|239:232,1,85,8|0,0:0|0:0,0:0:0:0:
100,59,27489,6,0,P|94:101|101:142,1,85,6|0,0:0|0:0,0:0:0:0:
158,216,27832,1,8,0:0:0:0:
66,304,28003,2,0,B|118:321|118:321|250:304,1,170,0|2,0:0|0:0,0:0:0:0:
391,362,28518,2,0,L|295:358,1,85,8|0,0:0|0:0,0:0:0:0:
388,250,28861,6,0,L|484:246,1,85,2|0,0:0|0:0,0:0:0:0:
506,272,29118,1,0,0:0:0:0:
506,272,29203,1,8,0:0:0:0:
437,138,29375,2,0,B|395:171|395:171|252:172,1,170,0|2,0:0|0:0,0:0:0:0:
194,279,29889,2,0,L|289:273,1,85,8|0,0:0|0:0,0:0:0:0:
94,209,30232,6,0,L|109:297,1,85,2|0,0:0|0:0,0:0:0:0:
132,327,30489,1,0,0:0:0:0:
132,327,30575,1,8,0:0:0:0:
196,109,30746,2,0,L|193:282,1,170,0|2,0:0|0:0,0:0:0:0:
291,189,31261,2,0,L|277:283,1,85,8|0,0:0|0:0,0:0:0:0:
469,215,31603,6,0,L|456:130,1,85,2|0,0:0|0:0,0:0:0:0:
474,91,31861,1,0,0:0:0:0:
474,91,31946,1,8,0:0:0:0:
371,137,32118,1,0,0:0:0:0:
275,60,32289,2,0,L|264:157,1,85,0|2,0:0|0:0,0:0:0:0:
130,247,32632,5,8,0:0:0:0:
300,321,32803,1,0,0:0:0:0:
257,315,32888,1,8,0:0:0:0:
219,333,32975,6,0,P|166:353|117:348,1,76.4999976654053,6|0,0:0|0:0,0:0:0:0:
301,237,33318,2,0,P|350:249|417:283,1,114.749996498108,8|0,0:0|0:0,0:0:0:0:
415,294,33661,1,0,0:0:0:0:
495,173,33832,2,0,P|452:187|413:191,1,76.4999976654053,0|8,0:0|0:0,0:0:0:0:
324,139,34175,6,0,P|317:102|321:64,1,76.4999976654053,0|2,0:0|0:0,0:0:0:0:
225,174,34518,2,0,P|229:211|221:249,1,76.4999976654053,0|8,0:0|0:0,0:0:0:0:
127,300,34861,1,0,0:0:0:0:
127,300,35032,1,0,0:0:0:0:
314,349,35203,6,0,L|220:328,1,76.4999976654053,2|8,0:0|0:0,0:0:0:0:
393,245,35546,1,0,0:0:0:0:
399,271,35632,1,0,0:0:0:0:
406,296,35718,5,2,0:0:0:0:
497,299,35889,1,0,0:0:0:0:
499,206,36061,1,8,0:0:0:0:
499,206,36232,1,0,0:0:0:0:
481,340,36403,5,0,0:0:0:0:
465,187,36575,2,0,P|427:181|392:164,1,76.4999976654053,2|8,0:0|0:0,0:0:0:0:
227,224,36918,6,0,P|277:204|303:202,1,76.4999976654053,0|2,0:0|0:0,0:0:0:0:
150,113,37261,2,0,P|187:118|222:135,1,76.4999976654053,0|8,0:0|0:0,0:0:0:0:
257,45,37603,1,0,0:0:0:0:
79,153,37775,6,0,P|29:173|3:175,1,76.4999976654053,2|2,0:0|0:0,0:0:0:0:
132,263,38118,2,0,P|205:266|257:297,1,114.749996498108,8|0,0:0|0:0,0:0:0:0:
252,300,38461,5,2,0:0:0:0:
341,257,38632,1,0,0:0:0:0:
424,309,38803,1,8,0:0:0:0:
424,309,38975,1,0,0:0:0:0:
320,229,39146,5,0,0:0:0:0:
449,146,39318,2,0,L|456:222,1,76.4999976654053,2|8,0:0|0:0,0:0:0:0:
302,209,39661,6,0,L|214:204,1,76.4999976654053,0|2,0:0|0:0,0:0:0:0:
131,123,40003,2,0,L|219:118,1,76.4999976654053,0|8,0:0|0:0,0:0:0:0:
199,218,40346,1,0,0:0:0:0:
230,108,40518,1,0,0:0:0:0:
123,242,40689,6,0,L|143:331,1,76.4999976654053,2|8,0:0|0:0,0:0:0:0:
15,182,41032,1,0,0:0:0:0:
21,208,41118,1,0,0:0:0:0:
38,227,41203,6,0,P|76:230|181:188,2,152.999995330811,2|8|0,0:0|0:0|0:0,0:0:0:0:
212,278,42061,1,2,0:0:0:0:
318,237,42232,2,0,B|330:275|330:275|322:320,1,76.4999976654053,8|0,0:0|0:0,0:0:0:0:
434,349,42575,6,0,P|431:298|435:274,1,76.4999976654053,2|0,0:0|0:0,0:0:0:0:
453,239,42832,2,0,P|456:188|452:164,1,76.4999976654053,2|0,0:0|0:0,0:0:0:0:
422,138,43089,1,2,0:0:0:0:
500,69,43261,5,8,0:0:0:0:
339,117,43432,1,2,0:0:0:0:
470,62,43603,6,0,L|384:51,1,76.4999976654053,8|0,0:0|0:0,0:0:0:0:
283,17,43861,1,0,0:0:0:0:
257,31,43946,6,0,P|251:100|254:121,1,76.4999976654053,2|0,0:0|0:0,0:0:0:0:
163,180,44289,2,0,P|164:141|157:104,1,76.4999976654053,8|0,0:0|0:0,0:0:0:0:
267,124,44632,1,0,0:0:0:0:
267,238,44803,2,0,P|260:275|261:313,1,76.4999976654053,2|8,0:0|0:0,0:0:0:0:
383,248,45146,6,0,P|384:209|377:172,1,76.4999976654053,0|2,0:0|0:0,0:0:0:0:
334,27,45489,1,0,0:0:0:0:
349,49,45575,1,0,0:0:0:0:
370,65,45661,2,0,P|408:73|447:68,1,76.4999976654053,8|0,0:0|0:0,0:0:0:0:
304,132,46003,1,0,0:0:0:0:
474,55,46175,6,0,P|467:92|468:130,1,76.4999976654053,2|8,0:0|0:0,0:0:0:0:
503,240,46518,1,0,0:0:0:0:
496,277,46603,1,0,0:0:0:0:
472,307,46689,6,0,P|407:325|382:324,1,76.4999976654053,2|0,0:0|0:0,0:0:0:0:
310,277,47032,1,8,0:0:0:0:
224,327,47203,1,0,0:0:0:0:
125,235,47375,1,0,0:0:0:0:
34,353,47546,2,0,P|72:338|118:330,1,76.4999976654053,2|8,0:0|0:0,0:0:0:0:
231,269,47889,6,0,P|193:261|158:247,1,76.4999976654053,0|2,0:0|0:0,0:0:0:0:
315,328,48232,2,0,P|353:313|399:305,1,76.4999976654053,0|8,0:0|0:0,0:0:0:0:
473,340,48575,1,0,0:0:0:0:
502,144,48746,6,0,P|464:136|429:122,1,76.4999976654053,2|2,0:0|0:0,0:0:0:0:
499,47,49089,1,8,0:0:0:0:
357,157,49261,1,0,0:0:0:0:
335,126,49346,1,0,0:0:0:0:
299,111,49432,6,0,P|261:118|226:132,1,76.4999976654053,2|0,0:0|0:0,0:0:0:0:
152,73,49775,1,8,0:0:0:0:
152,73,49946,1,0,0:0:0:0:
78,161,50118,2,0,P|89:204|92:258,1,76.4999976654053,0|2,0:0|0:0,0:0:0:0:
44,305,50461,1,8,0:0:0:0:
232,291,50632,6,0,P|194:273|166:238,1,76.4999976654053,0|2,0:0|0:0,0:0:0:0:
311,237,50975,2,0,P|293:198|294:153,1,76.4999976654053,0|8,0:0|0:0,0:0:0:0:
340,86,51318,1,0,0:0:0:0:
340,86,51489,1,0,0:0:0:0:
406,247,51661,6,0,P|417:206|446:172,1,76.4999976654053,2|8,0:0|0:0,0:0:0:0:
507,338,52003,1,0,0:0:0:0:
495,302,52089,1,0,0:0:0:0:
463,283,52175,6,0,P|421:279|312:309,2,152.999995330811,2|8|0,0:0|0:0|0:0,0:0:0:0:
295,215,53032,1,2,0:0:0:0:
379,128,53203,2,0,P|386:172|382:203,1,76.4999976654053,8|0,0:0|0:0,0:0:0:0:
268,235,53546,6,0,L|160:222,1,76.4999976654053
167,255,53803,2,0,L|59:268,1,76.4999976654053,2|0,0:0|0:0,0:0:0:0:
60,240,54061,1,2,0:0:0:0:
176,142,54232,5,8,0:0:0:0:
176,142,54403,1,2,0:0:0:0:
206,323,54575,2,0,L|280:304,1,76.4999976654053,8|0,0:0|0:0,0:0:0:0:
348,186,54832,1,0,0:0:0:0:
384,191,54918,6,0,L|394:291,1,76.4999976654053,2|0,0:0|0:0,0:0:0:0:
417,295,55175,2,0,B|457:299|457:299|522:273,1,76.4999976654053,2|0,0:0|0:0,0:0:0:0:
507,320,55432,1,2,0:0:0:0:
317,372,55603,1,8,0:0:0:0:
300,348,55946,6,0,B|249:325|249:325|139:340,1,152.999995330811,2|0,0:0|0:0,0:0:0:0:
313,262,56461,1,2,0:0:0:0:
225,171,56632,1,0,0:0:0:0:
223,209,56717,1,0,0:0:0:0:
234,245,56803,1,2,0:0:0:0:
392,233,56975,1,0,0:0:0:0:
392,233,57061,2,0,L|501:214,1,76.4999976654053,2|2,0:0|0:0,0:0:0:0:
502,236,57318,1,8,0:0:0:0:
446,122,57489,1,0,0:0:0:0:
500,267,57661,6,0,L|379:259,2,114.749996498108,2|2|2,0:0|0:0|0:0,0:0:0:0:
324,308,58346,1,8,0:0:0:0:
341,320,58689,5,2,0:0:0:0:
228,295,58861,2,0,L|74:320,1,152.999995330811,0|2,0:0|0:0,0:0:0:0:
191,204,59375,2,0,L|128:194,2,38.2499988327027,0|2|0,0:0|0:0|0:0,0:0:0:0:
225,186,59632,1,2,0:0:0:0:
257,166,59718,5,8,0:0:0:0:
326,301,59889,1,2,0:0:0:0:
175,296,60061,1,8,0:0:0:0:
193,306,60403,6,0,L|70:326,2,114.749996498108,2|2|2,0:0|0:0|0:0,0:0:0:0:
35,232,61089,1,8,0:0:0:0:
35,232,61175,2,0,L|123:238,1,76.4999976654053,2|0,0:0|0:0,0:0:0:0:
138,209,61432,2,0,L|241:197,1,76.4999976654053,2|0,0:0|0:0,0:0:0:0:
307,263,61775,5,0,0:0:0:0:
386,142,61946,2,0,L|405:224,1,76.4999976654053,2|0,0:0|0:0,0:0:0:0:
441,221,62203,1,0,0:0:0:0:
478,226,62289,1,2,0:0:0:0:
370,335,62461,5,0,0:0:0:0:
370,335,62546,2,0,L|287:351,1,76.4999976654053,2|2,0:0|0:0,0:0:0:0:
263,327,62803,2,0,L|178:331,1,76.4999976654053,8|0,0:0|0:0,0:0:0:0:
279,250,63146,6,0,L|161:254,2,114.749996498108,2|2|2,0:0|0:0|0:0,0:0:0:0:
363,174,63832,2,0,B|385:213|385:213|373:289,1,114.749996498108,0|0,0:0|0:0,0:0:0:0:
406,302,64175,2,0,L|486:291,1,76.4999976654053,2|0,0:0|0:0,0:0:0:0:
276,358,64518,5,0,0:0:0:0:
276,358,64689,2,0,L|196:347,1,76.4999976654053,2|0,0:0|0:0,0:0:0:0:
262,172,65032,1,2,0:0:0:0:
267,209,65117,1,0,0:0:0:0:
273,247,65203,1,0,0:0:0:0:
158,193,65375,1,2,0:0:0:0:
274,77,65546,6,0,L|261:173,1,95.6250036478044,0|0,0:0|0:0,0:0:0:0:
348,188,65889,6,0,L|457:176,1,93.5000028533936,6|0,0:0|0:0,0:0:0:0:
253,280,66232,2,0,L|144:268,1,93.5000028533936,8|0,0:0|0:0,0:0:0:0:
342,160,66575,2,0,L|495:143,1,140.25000428009,0|0,0:0|0:0,0:0:0:0:
494,124,66918,1,8,0:0:0:0:
459,261,67089,6,0,L|353:245,1,93.5000028533936,0|2,0:0|0:0,0:0:0:0:
211,101,67432,2,0,L|303:87,1,93.5000028533936,0|8,0:0|0:0,0:0:0:0:
135,217,67775,1,0,0:0:0:0:
102,212,67860,1,0,0:0:0:0:
70,208,67946,1,0,0:0:0:0:
14,283,68118,1,2,0:0:0:0:
3,132,68289,1,8,0:0:0:0:
3,301,68461,1,0,0:0:0:0:
22,113,68632,6,0,B|123:125|123:125|163:101,1,140.25000428009,2|0,0:0|0:0,0:0:0:0:
172,88,68975,1,8,0:0:0:0:
271,138,69146,1,0,0:0:0:0:
152,218,69318,2,0,L|36:233,1,93.5000028533936,0|2,0:0|0:0,0:0:0:0:
297,165,69661,6,0,B|390:204|399:115|502:173,2,187.000005706787,0|2|8,0:0|0:0|0:0,0:0:0:0:
441,242,70518,1,0,0:0:0:0:
441,242,70603,1,0,0:0:0:0:
441,242,70689,2,0,P|453:298|443:335,1,93.5000028533936,0|2,0:0|0:0,0:0:0:0:
352,340,71032,6,0,P|283:333|266:336,1,76.4999976654053,8|0,0:0|0:0,0:0:0:0:
260,351,71375,6,0,P|263:295|251:236,1,93.5000028533936,2|0,0:0|0:0,0:0:0:0:
25,289,71718,6,0,B|96:318|96:318|176:294,1,140.25000428009,8|0,0:0|0:0,0:0:0:0:
180,294,72061,2,0,P|177:238|189:179,1,93.5000028533936,0|0,0:0|0:0,0:0:0:0:
311,95,72403,6,0,P|342:143|330:232,1,140.25000428009,8|0,0:0|0:0,0:0:0:0:
324,244,72746,2,0,L|420:231,1,93.5000028533936,2|0,0:0|0:0,0:0:0:0:
310,349,73089,6,0,L|137:347,1,140.25000428009,8|0,0:0|0:0,0:0:0:0:
149,335,73432,2,0,L|40:351,1,93.5000028533936,0|2,0:0|0:0,0:0:0:0:
177,251,73775,6,0,P|130:224|84:132,1,140.25000428009,8|0,0:0|0:0,0:0:0:0:
93,129,74118,2,0,P|97:58|88:37,1,93.5000028533936,2|0,0:0|0:0,0:0:0:0:
317,106,74461,2,0,L|219:89,1,93.5000028533936,8|0,0:0|0:0,0:0:0:0:
213,120,74718,1,0,0:0:0:0:
202,150,74803,1,0,0:0:0:0:
369,40,74975,1,2,0:0:0:0:
430,201,75146,2,0,L|441:104,1,93.5000028533936,8|0,0:0|0:0,0:0:0:0:
283,210,75489,6,0,L|299:354,2,140.25000428009,2|2|2,0:0|0:0|0:0,0:0:0:0:
371,297,76175,1,8,0:0:0:0:
211,295,76346,1,2,0:0:0:0:
385,313,76518,1,8,0:0:0:0:
198,288,76689,1,8,0:0:0:0:
198,288,76775,1,8,0:0:0:0:
198,288,76861,6,0,L|186:394,1,93.5000028533936,2|0,0:0|0:0,0:0:0:0:
67,287,77203,2,0,L|56:194,1,93.5000028533936,8|0,0:0|0:0,0:0:0:0:
296,188,77546,2,0,P|214:194|133:158,1,140.25000428009,0|0,0:0|0:0,0:0:0:0:
149,154,77889,1,8,0:0:0:0:
198,288,78061,6,0,P|255:275|301:281,1,93.5000028533936,0|2,0:0|0:0,0:0:0:0:
461,246,78403,2,0,P|414:248|369:236,1,93.5000028533936,0|8,0:0|0:0,0:0:0:0:
412,96,78746,1,0,0:0:0:0:
417,128,78831,1,0,0:0:0:0:
407,159,78917,1,0,0:0:0:0:
305,117,79089,1,2,0:0:0:0:
495,130,79261,1,8,0:0:0:0:
305,97,79432,1,0,0:0:0:0:
502,157,79603,6,0,B|514:258|514:258|490:298,1,140.25000428009,2|0,0:0|0:0,0:0:0:0:
461,324,79946,1,8,0:0:0:0:
385,225,80118,1,0,0:0:0:0:
238,271,80289,2,0,L|246:364,1,93.5000028533936,0|0,0:0|0:0,0:0:0:0:
378,203,80632,6,0,B|285:242|276:153|173:211,2,187.000005706787,8|2|8,0:0|0:0|0:0,0:0:0:0:
247,67,81489,1,0,0:0:0:0:
219,84,81575,1,2,0:0:0:0:
186,91,81661,2,0,P|106:82|69:63,1,93.5000028533936
17,130,82003,2,0,P|18:176|9:223,1,93.5000028533936,8|0,0:0|0:0,0:0:0:0:
108,350,82346,6,0,B|146:261|146:261|105:169,1,187.000005706787,2|8,0:0|0:0,0:0:0:0:
23,308,82861,1,0,0:0:0:0:
218,330,83032,2,0,P|279:312|329:310,1,93.5000028533936,0|2,0:0|0:0,0:0:0:0:
409,359,83375,1,8,0:0:0:0:
493,204,83546,1,0,0:0:0:0:
503,235,83632,1,0,0:0:0:0:
497,267,83718,6,0,P|450:261|406:246,1,93.5000028533936,2|0,0:0|0:0,0:0:0:0:
348,149,84061,1,8,0:0:0:0:
241,239,84232,2,0,L|257:336,1,93.5000028533936,0|0,0:0|0:0,0:0:0:0:
136,249,84575,2,0,L|151:156,1,93.5000028533936,0|8,0:0|0:0,0:0:0:0:
276,346,84918,1,0,0:0:0:0:
81,364,85089,6,0,L|35:178,2,187.000005706787,6|8|2,0:0|0:0|0:3,0:0:0:0:
151,156,85946,1,2,0:0:0:0:
151,156,86032,1,0,0:0:0:0:
151,156,86118,1,8,0:0:0:0:
305,260,86289,1,0,0:0:0:0:
193,333,86461,6,0,L|208:240,1,93.5000028533936,2|0,0:0|0:0,0:0:0:0:
227,227,86718,2,0,B|225:153|225:153|250:82,1,140.25000428009,2|0,0:0|0:0,0:0:0:0:
309,169,87146,5,8,0:0:0:0:
147,137,87318,1,2,0:0:0:0:
337,167,87489,6,0,L|388:116,2,46.7500014266968,8|0|0,0:0|0:0|0:0,0:0:0:0:
123,223,87832,1,6,0:0:0:0:
79,106,98803,6,0,P|92:146|88:239,1,114.749996498108,6|0,0:0|0:0,0:0:0:0:
82,242,99146,1,8,0:0:0:0:
171,137,99318,2,0,P|169:99|179:61,1,76.4999976654053,0|0,0:0|0:0,0:0:0:0:
310,163,99661,2,0,P|278:182|239:193,1,76.4999976654053,2|8,0:0|0:0,0:0:0:0:
264,30,100003,2,0,P|296:47|325:75,1,76.4999976654053,0|2,0:0|0:0,0:0:0:0:
458,122,100346,2,0,P|425:139|396:167,1,76.4999976654053,0|8,0:0|0:0,0:0:0:0:
366,260,100689,1,0,0:0:0:0:
269,181,100861,1,0,0:0:0:0:
382,347,101032,6,0,L|294:340,1,76.4999976654053,2|8,0:0|0:0,0:0:0:0:
489,358,101375,1,0,0:0:0:0:
475,334,101461,1,0,0:0:0:0:
468,308,101546,6,0,P|457:257|459:185,1,114.749996498108,2|0,0:0|0:0,0:0:0:0:
467,178,101889,1,8,0:0:0:0:
361,131,102061,2,0,P|368:180|362:215,1,76.4999976654053,0|0,0:0|0:0,0:0:0:0:
265,213,102403,2,0,P|261:250|268:288,1,76.4999976654053,2|8,0:0|0:0,0:0:0:0:
157,140,102746,2,0,P|164:189|158:224,1,76.4999976654053,0|0,0:0|0:0,0:0:0:0:
61,222,103089,2,0,P|57:259|64:297,1,76.4999976654053,2|8,0:0|0:0,0:0:0:0:
146,340,103432,1,0,0:0:0:0:
280,268,103603,6,0,P|321:274|370:279,1,76.4999976654053,2|0,0:0|0:0,0:0:0:0:
418,355,103946,2,0,P|364:356|272:367,1,114.749996498108,8|0,0:0|0:0,0:0:0:0:
285,368,104289,6,0,L|197:357,1,76.4999976654053,2|0,0:0|0:0,0:0:0:0:
145,281,104632,1,8,0:0:0:0:
31,297,104803,6,0,L|50:376,1,76.4999976654053,0|0,0:0|0:0,0:0:0:0:
142,247,105146,2,0,L|161:168,1,76.4999976654053,2|8,0:0|0:0,0:0:0:0:
57,97,105489,2,0,L|76:176,1,76.4999976654053,0|0,0:0|0:0,0:0:0:0:
232,214,105832,2,0,L|311:191,1,76.4999976654053,2|0,0:0|0:0,0:0:0:0:
180,288,106175,1,0,0:0:0:0:
78,257,106346,1,0,0:0:0:0:
206,366,106518,6,0,L|293:338,1,76.4999976654053,0|8,0:0|0:0,0:0:0:0:
451,260,106861,1,0,0:0:0:0:
424,267,106947,1,0,0:0:0:0:
397,267,107032,6,0,P|344:264|275:243,1,114.749996498108,2|0,0:0|0:0,0:0:0:0:
275,231,107375,2,0,L|256:155,1,76.4999976654053,8|0,0:0|0:0,0:0:0:0:
175,255,107718,2,0,L|156:331,1,76.4999976654053,0|2,0:0|0:0,0:0:0:0:
74,228,108061,1,8,0:0:0:0:
130,347,108232,1,0,0:0:0:0:
47,231,108403,6,0,L|32:104,2,114.749996498108,2|2|2,0:0|0:0|0:0,0:0:0:0:
197,165,109089,2,0,L|115:158,1,76.4999976654053,8|0,0:0|0:0,0:0:0:0:
254,94,109432,6,0,L|338:87,1,63.7500024318696,8|0,0:0|0:0,0:0:0:0:
407,161,109689,1,0,0:0:0:0:
435,150,109775,6,0,P|441:94|436:60,1,85,6|0,0:0|0:0,0:0:0:0:
320,194,110118,2,0,P|316:259|337:368,1,170,8|2,0:0|0:0,0:0:0:0:
219,313,110632,1,0,0:0:0:0:
358,369,110803,2,0,P|409:362|450:351,1,85,8|0,0:0|0:0,0:0:0:0:
197,293,111146,6,0,P|155:282|113:277,1,85,2|0,0:0|0:0,0:0:0:0:
215,174,111489,2,0,P|270:185|379:145,1,170,8|0,0:0|0:0,0:0:0:0:
441,323,112003,6,0,L|409:213,1,85,2|8,0:0|0:0,0:0:0:0:
466,161,112346,1,0,0:0:0:0:
365,356,112518,6,0,L|312:173,1,170,2|8,0:0|0:0,0:0:0:0:
443,239,113032,1,0,0:0:0:0:
332,164,113203,2,0,L|228:182,1,85,0|2,0:0|0:0,0:0:0:0:
419,86,113546,2,0,L|315:68,1,85,8|0,0:0|0:0,0:0:0:0:
473,182,113889,5,0,0:0:0:0:
499,48,114061,1,2,0:0:0:0:
470,213,114232,2,0,L|491:304,1,85,8|0,0:0|0:0,0:0:0:0:
362,161,114575,6,0,L|349:265,1,85,2|2,0:0|0:0,0:0:0:0:
277,74,114918,2,0,L|229:167,1,85,8|0,0:0|0:0,0:0:0:0:
131,218,115261,5,6,0:0:0:0:
177,355,115432,1,0,0:0:0:0:
39,311,115603,2,0,L|43:209,1,85,8|0,0:0|0:0,0:0:0:0:
212,162,115946,2,0,L|125:193,1,85,0|2,0:0|0:0,0:0:0:0:
27,67,116289,5,8,0:0:0:0:
150,100,116461,1,0,0:0:0:0:
265,47,116632,2,0,L|365:63,1,85,0|2,0:0|0:0,0:0:0:0:
441,43,116975,1,8,0:0:0:0:
303,155,117146,2,0,L|219:168,1,85,0|0,0:0|0:0,0:0:0:0:
372,225,117489,1,2,0:0:0:0:
198,200,117661,2,0,L|70:191,1,127.5,8|0,0:0|0:0,0:0:0:0:
56,206,118003,6,0,P|55:255|50:300,1,85,2|0,0:0|0:0,0:0:0:0:
155,368,118346,2,0,P|150:325|150:283,1,85,8|0,0:0|0:0,0:0:0:0:
350,318,118689,2,0,L|251:321,1,85,2|0,0:0|0:0,0:0:0:0:
233,291,118946,2,0,P|234:250|232:232,1,42.5,2|8,0:0|0:0,0:0:0:0:
390,187,119203,1,2,0:0:0:0:
285,99,119375,6,0,P|294:161|310:230,2,127.5,6|2|2,0:0|0:0|0:0,0:0:0:0:
183,45,120061,1,8,0:0:0:0:
182,74,120146,1,8,0:0:0:0:
177,103,120232,1,2,0:0:0:0:
80,181,120403,2,0,L|159:177,1,42.5,8|0,0:0|0:0,0:0:0:0:
218,195,120575,1,0,0:0:0:0:
218,195,120661,1,0,0:0:0:0:
218,195,120746,6,0,B|213:264|213:264|243:346,2,140.25000428009,6|6|6,0:0|0:0|0:0,0:0:0:0:
145,333,121432,1,8,0:0:0:0:
122,349,121775,6,0,P|90:353|27:336,1,93.5000028533936,2|0,0:0|0:0,0:0:0:0:
237,330,122118,1,6,0:0:0:0:
89,264,122289,2,0,P|61:246|24:192,1,93.5000028533936,2|8,0:0|0:0,0:0:0:0:
16,104,122632,1,2,0:0:0:0:
118,177,122803,1,8,0:0:0:0:
118,177,122889,2,0,P|108:146|114:81,1,93.5000028533936,8|8,0:0|0:0,0:0:0:0:
146,52,123146,1,8,0:0:0:0:
236,129,123318,1,0,0:0:0:0:
236,129,123403,1,0,0:0:0:0:
236,129,123489,6,0,B|292:115|292:115|375:142,2,140.25000428009,6|6|6,0:0|0:0|0:0,0:0:0:0:
423,68,124175,1,8,0:0:0:0:
456,80,124518,6,0,L|470:179,1,93.5000028533936,2|0,0:0|0:0,0:0:0:0:
507,258,124861,1,6,0:0:0:0:
354,151,125032,2,0,L|340:250,1,93.5000028533936,0|8,0:0|0:0,0:0:0:0:
257,286,125375,1,0,0:0:0:0:
257,286,125461,1,0,0:0:0:0:
257,286,125546,1,2,0:0:0:0:
356,122,125718,1,0,0:0:0:0:
439,284,125889,1,8,0:0:0:0:
442,258,126232,6,0,B|354:246|354:246|300:209,2,140.25000428009,6|6|6,0:0|0:0|0:0,0:0:0:0:
244,299,126918,1,2,0:0:0:0:
244,299,127003,2,0,L|128:285,1,93.5000028533936,2|0,0:0|0:0,0:0:0:0:
134,305,127261,2,0,P|148:192|133:161,1,140.25000428009,8|0,0:0|0:0,0:0:0:0:
121,144,127603,5,6,0:0:0:0:
153,152,127688,1,2,0:0:0:0:
185,151,127774,1,0,1:0:0:0:
216,141,127860,1,0,1:0:0:0:
240,118,127946,2,0,L|228:62,2,46.7500014266968,8|0|4,0:0|0:0|0:0,0:0:0:0:
332,97,128289,5,8,1:2:0:0:
332,97,128375,2,0,L|314:204,1,93.5000028533936,0|0,1:0|0:0,0:0:0:0:
353,217,128632,1,2,1:0:0:0:
223,264,128803,1,0,0:0:0:0:
372,321,128975,6,0,B|455:310|455:310|506:342,2,140.25000428009,6|6|6,0:0|0:0|0:0,0:0:0:0:
498,224,129661,1,8,0:0:0:0:
473,216,130003,6,0,P|459:154|459:122,1,93.5000028533936,8|0,0:0|0:0,0:0:0:0:
363,51,130346,2,0,P|360:97|348:142,1,93.5000028533936,8|2,0:0|0:0,0:0:0:0:
324,165,130603,1,2,0:0:0:0:
291,169,130689,2,0,L|197:168,1,93.5000028533936,8|2,0:0|0:0,0:0:0:0:
159,195,130946,1,2,0:0:0:0:
140,238,131032,1,10,0:0:0:0:
14,163,131203,1,0,0:0:0:0:
133,332,131375,6,0,P|85:336|38:342,1,95.6250036478044,6|0,0:0|0:0,0:0:0:0:
5,270,131718,6,0,P|-9:203|-10:171,1,93.5000028533936,2|0,0:0|0:0,0:0:0:0:
233,237,132061,2,0,P|184:239|114:234,1,93.5000028533936,8|0,0:0|0:0,0:0:0:0:
255,91,132403,2,0,P|346:85|409:101,1,140.25000428009,0|0,0:0|0:0,0:0:0:0:
408,113,132746,1,8,0:0:0:0:
352,261,132918,6,0,P|342:215|338:168,1,93.5000028533936,0|2,0:0|0:0,0:0:0:0:
231,236,133261,2,0,P|227:283|219:329,1,93.5000028533936,0|8,0:0|0:0,0:0:0:0:
105,244,133603,1,0,0:0:0:0:
100,211,133688,1,0,0:0:0:0:
96,179,133774,1,0,0:0:0:0:
20,112,133946,1,2,0:0:0:0:
189,112,134117,1,8,0:0:0:0:
5,88,134289,1,0,0:0:0:0:
194,135,134461,6,0,B|239:149|239:149|330:120,1,140.25000428009,2|0,0:0|0:0,0:0:0:0:
349,111,134803,1,8,0:0:0:0:
288,254,134975,1,0,0:0:0:0:
420,182,135146,2,0,L|517:167,1,93.5000028533936,0|2,0:0|0:0,0:0:0:0:
262,237,135489,2,0,B|202:225|202:225|140:249|140:249|81:238,2,187.000005706787,8|2|8,0:0|0:0|0:0,0:0:0:0:
58,163,136346,1,0,0:0:0:0:
58,163,136431,1,0,0:0:0:0:
58,163,136517,2,0,B|46:115|46:115|56:70,1,93.5000028533936,0|2,0:0|0:0,0:0:0:0:
234,32,136861,6,0,P|206:61|173:74,1,76.4999976654053,8|0,0:0|0:0,0:0:0:0:
150,81,137203,6,0,P|210:102|249:160,1,93.5000028533936,2|0,0:0|0:0,0:0:0:0:
468,90,137546,6,0,B|411:113|411:113|318:87,1,140.25000428009,8|0,0:0|0:0,0:0:0:0:
315,104,137889,2,0,L|294:202,1,93.5000028533936,0|2,0:0|0:0,0:0:0:0:
425,344,138232,6,0,P|425:284|338:254,1,140.25000428009,8|0,0:0|0:0,0:0:0:0:
341,262,138575,2,0,P|288:277|246:260,1,93.5000028533936,2|0,0:0|0:0,0:0:0:0:
134,355,138918,6,0,B|143:186,1,140.25000428009,8|0,0:0|0:0,0:0:0:0:
127,196,139261,2,0,L|225:176,1,93.5000028533936,0|2,0:0|0:0,0:0:0:0:
57,72,139603,6,0,L|200:88,1,140.25000428009,8|0,0:0|0:0,0:0:0:0:
218,79,139946,2,0,L|315:53,1,93.5000028533936,2|0,0:0|0:0,0:0:0:0:
470,222,140289,6,0,L|379:197,1,93.5000028533936,8|0,0:0|0:0,0:0:0:0:
366,167,140546,1,0,0:0:0:0:
353,136,140632,1,0,0:0:0:0:
333,274,140803,1,2,0:0:0:0:
197,234,140975,2,0,L|186:347,1,93.5000028533936,8|0,0:0|0:0,0:0:0:0:
66,138,141318,6,0,L|90:281,2,140.25000428009,2|2|2,0:0|0:0|0:0,0:0:0:0:
16,319,142003,1,8,0:0:0:0:
167,285,142175,1,2,0:0:0:0:
5,338,142346,5,8,0:0:0:0:
247,333,142518,1,0,0:0:0:0:
247,333,142603,1,0,0:0:0:0:
247,333,142689,6,0,P|259:283|248:238,1,93.5000028533936,2|0,0:0|0:0,0:0:0:0:
390,112,143032,2,0,P|378:162|389:207,1,93.5000028533936,8|0,0:0|0:0,0:0:0:0:
481,314,143375,2,0,P|420:297|325:316,1,140.25000428009,0|0,0:0|0:0,0:0:0:0:
329,324,143718,1,8,0:0:0:0:
386,202,143889,6,0,P|340:214|290:206,1,93.5000028533936,0|2,0:0|0:0,0:0:0:0:
161,288,144232,2,0,B|145:244|145:244|148:187,1,93.5000028533936,0|8,0:0|0:0,0:0:0:0:
235,88,144575,1,0,0:0:0:0:
230,120,144660,1,0,0:0:0:0:
226,152,144746,1,0,0:0:0:0:
149,84,144918,1,2,0:0:0:0:
309,51,145089,1,8,0:0:0:0:
120,73,145261,1,0,0:0:0:0:
331,74,145432,6,0,P|377:69|428:75,1,93.5000028533936,2|0,0:0|0:0,0:0:0:0:
390,277,145775,1,8,0:0:0:0:
342,196,145946,1,0,0:0:0:0:
487,244,146118,2,0,P|480:289|474:349,1,93.5000028533936,0|0,0:0|0:0,0:0:0:0:
295,317,146461,2,0,B|235:307|235:307|179:326|179:326|68:308,1,187.000005706787,8|2,0:0|0:0,0:0:0:0:
275,182,146975,1,0,0:0:0:0:
275,182,147061,1,0,0:0:0:0:
275,182,147146,1,8,0:0:0:0:
98,99,147318,1,0,0:0:0:0:
98,99,147403,1,0,0:0:0:0:
98,99,147489,2,0,B|87:145|87:145|110:211,1,93.5000028533936
161,268,147832,2,0,L|263:264,1,93.5000028533936,8|0,0:0|0:0,0:0:0:0:
29,318,148175,6,0,B|67:355|67:355|202:350,1,187.000005706787,2|8,0:0|0:0,0:0:0:0:
281,237,148689,1,0,0:0:0:0:
454,320,148861,2,0,L|334:313,1,93.5000028533936,0|2,0:0|0:0,0:0:0:0:
266,158,149203,1,8,0:0:0:0:
139,277,149375,1,0,0:0:0:0:
171,283,149461,1,0,0:0:0:0:
203,287,149547,6,0,L|187:183,1,93.5000028533936,2|0,0:0|0:0,0:0:0:0:
336,317,149889,1,8,0:0:0:0:
172,362,150061,1,0,0:0:0:0:
365,315,150232,1,0,0:0:0:0:
365,315,150318,1,0,0:0:0:0:
365,315,150403,1,2,0:0:0:0:
281,162,150575,2,0,L|297:257,1,93.5000028533936,8|0,0:0|0:0,0:0:0:0:
439,373,150918,6,0,B|452:313|452:313|434:258|434:258|446:161,2,187.000005706787,2|8|0,0:0|0:0|0:0,0:0:0:0:
347,353,151775,1,2,0:0:0:0:
255,333,151946,2,0,L|128:302,1,93.5000028533936,8|0,0:0|0:0,0:0:0:0:
56,307,152289,2,0,P|122:294|205:266,2,140.25000428009,2|2|2,0:0|0:0|0:0,0:0:0:0:
120,190,152975,1,8,0:0:0:0:
29,312,153146,1,2,0:0:0:0:
101,171,153318,5,8,0:0:0:0:
167,343,153489,1,8,0:0:0:0:
167,343,153575,1,8,0:0:0:0:
167,343,153661,6,0,P|222:333|265:314,1,93.5000028533936,6|0,0:0|0:0,0:0:0:0:
369,206,154003,2,0,P|325:189|279:181,1,93.5000028533936,8|0,0:0|0:0,0:0:0:0:
356,336,154346,2,0,P|419:342|500:329,1,140.25000428009
505,309,154689,1,8,0:0:0:0:
361,373,154861,6,0,P|307:362|251:362,1,93.5000028533936,0|2,0:0|0:0,0:0:0:0:
122,242,155203,2,0,P|125:297|139:351,1,93.5000028533936,0|8,0:0|0:0,0:0:0:0:
261,226,155546,1,0,0:0:0:0:
266,193,155631,1,0,0:0:0:0:
270,161,155717,1,0,0:0:0:0:
346,94,155889,1,10,0:0:0:0:
177,94,156060,1,8,1:2:0:0:
361,70,156232,1,0,1:2:0:0:
145,112,156403,6,0,B|58:122|58:122|-7:72,1,140.25000428009,6|0,0:0|0:0,0:0:0:0:
2,71,156746,1,8,0:0:0:0:
55,201,156918,1,0,0:2:0:0:
205,190,157089,2,0,P|258:182|296:169,1,93.5000028533936,0|2,0:0|0:2,0:0:0:0:
39,234,157432,2,0,P|100:248|214:333,2,187.000005706787,8|2|8,0:0|0:0|0:0,0:0:0:0:
270,270,158289,1,0,0:0:0:0:
270,270,158375,1,8,0:0:0:0:
270,270,158461,2,0,P|323:276|363:274,1,93.5000028533936,0|2,0:0|0:0,0:0:0:0:
474,183,158803,6,0,P|443:178|392:181,1,76.4999976654053,8|0,0:0|0:0,0:0:0:0:
378,192,159146,6,0,P|375:142|357:93,1,93.5000028533936,6|0,0:0|0:0,0:0:0:0:
257,196,159489,2,0,P|236:278|240:343,1,140.25000428009,8|0,0:0|0:0,0:0:0:0:
260,343,159832,2,0,P|308:344|356:329,1,93.5000028533936,0|0,1:0|1:0,0:0:0:0:
158,211,160175,6,0,P|103:207|21:256,1,140.25000428009,8|0,0:0|0:0,0:0:0:0:
17,265,160518,2,0,P|22:326|41:354,1,93.5000028533936,2|0,0:0|0:0,0:0:0:0:
193,121,160861,6,0,P|197:57|106:23,1,140.25000428009,8|0,0:0|0:0,0:0:0:0:
116,20,161203,2,0,P|69:50|56:95,1,93.5000028533936,0|2,1:0|1:2,0:0:0:0:
179,205,161546,6,0,B|233:197|233:197|260:177|260:177|332:166,1,140.25000428009,8|0,0:0|1:2,0:0:0:0:
331,181,161889,2,0,L|345:295,1,93.5000028533936,6|0,1:2|0:0,0:0:0:0:
469,170,162232,2,0,L|483:56,1,93.5000028533936,8|0,0:2|0:0,0:0:0:0:
450,63,162489,1,0,0:0:0:0:
418,52,162575,1,2,0:2:0:0:
454,247,162746,1,2,0:0:0:0:
311,169,162918,2,0,L|325:283,1,93.5000028533936,8|0,0:0|0:2,0:0:0:0:
230,104,163261,6,0,B|217:202|217:202|183:235,2,140.25000428009,2|2|2,0:0|0:0|0:0,0:0:0:0:
245,285,163946,1,8,0:0:0:0:
136,159,164118,1,2,0:0:0:0:
269,303,164289,2,0,P|315:299|360:287,1,93.5000028533936,8|0,0:0|0:0,0:0:0:0:
414,188,164546,1,0,0:0:0:0:
449,195,164632,6,0,B|481:281|481:281|460:373,1,187.000005706787,6|8,0:0|0:0,0:0:0:0:
310,338,165146,2,0,P|264:326|218:322,1,93.5000028533936,0|0,0:0|0:0,0:0:0:0:
194,212,165489,2,0,P|148:223|102:227,1,93.5000028533936,0|8,0:0|0:0,0:0:0:0:
250,99,165832,1,0,0:0:0:0:
93,204,166003,6,0,P|47:192|1:188,1,93.5000028533936,2|0,0:0|0:0,0:0:0:0:
265,250,166346,2,0,P|328:244|467:205,1,187.000005706787,8|0,0:0|0:0,0:0:0:0:
363,332,166861,1,2,0:0:0:0:
198,304,167032,2,0,P|150:293|78:297,1,93.5000028533936,8|0,0:0|0:0,0:0:0:0:
142,179,167375,6,0,P|111:254|-2:263,1,187.000005706787,2|8,0:0|0:0,0:0:0:0:
107,92,167889,2,0,P|195:103|220:116,1,93.5000028533936
323,174,168232,2,0,P|278:186|231:186,1,93.5000028533936,2|8,0:0|0:0,0:0:0:0:
347,81,168575,1,0,0:0:0:0:
218,210,168746,6,0,P|138:200|20:219,1,187.000005706787,2|8,0:0|0:0,0:0:0:0:
271,111,169261,1,0,0:0:0:0:
375,242,169432,2,0,P|358:198|353:150,1,93.5000028533936,0|2,0:0|0:0,0:0:0:0:
482,169,169775,2,0,P|493:246|477:333,1,140.25000428009,8|0,0:0|0:0,0:0:0:0:
493,339,170118,6,0,B|403:317|403:317|282:354,1,187.000005706787,2|8,0:0|0:0,0:0:0:0:
352,244,170632,1,0,0:0:0:0:
289,353,170803,2,0,P|246:348|157:345,1,93.5000028533936,0|0,0:0|0:0,0:0:0:0:
19,286,171146,2,0,P|94:277|162:253,1,140.25000428009,8|0,0:0|0:0,0:0:0:0:
183,239,171489,2,0,B|165:115|165:115|199:50,2,187.000005706787,2|8|0,0:0|0:0|0:0,0:0:0:0:
83,97,172346,1,2,0:0:0:0:
252,131,172518,2,0,L|357:113,1,93.5000028533936,8|0,0:0|0:0,0:0:0:0:
483,242,172861,6,0,B|391:261|391:261|300:200,1,187.000005706787,2|8,0:0|0:0,0:0:0:0:
431,335,173375,1,0,0:0:0:0:
292,215,173546,2,0,P|249:224|197:245,1,93.5000028533936,0|2,0:0|0:0,0:0:0:0:
55,121,173889,2,0,P|101:133|150:151,1,93.5000028533936,8|0,0:0|0:0,0:0:0:0:
171,129,174146,1,0,0:0:0:0:
196,108,174232,2,0,P|264:106|348:84,2,140.25000428009,2|2|2,0:0|0:0|0:0,0:0:0:0:
343,181,174918,5,8,0:0:0:0:
252,21,175089,1,2,0:0:0:0:
448,40,175261,1,8,0:3:0:0:
444,77,175346,1,8,0:3:0:0:
441,114,175432,1,4,0:3:0:0:
438,151,175518,1,4,0:3:0:0:
435,189,175603,6,0,L|463:273,1,85,6|0,0:0|0:0,0:0:0:0:
353,215,175946,1,8,0:0:0:0:
476,299,176118,2,0,B|391:284|391:284|299:315,1,170,0|2,0:0|0:0,0:0:0:0:
221,242,176632,1,8,0:0:0:0:
194,251,176975,6,0,B|212:293|212:293|210:351,1,85,2|0,0:0|0:0,0:0:0:0:
116,308,177318,1,8,0:0:0:0:
212,359,177489,2,0,B|297:344|297:344|389:375,1,170,0|2,0:0|0:0,0:0:0:0:
455,270,178003,1,8,0:0:0:0:
485,285,178346,6,0,B|500:325|500:325|498:370,1,85,2|0,0:0|0:0,0:0:0:0:
359,278,178689,1,8,0:0:0:0:
498,198,178861,2,0,B|409:193|409:193|329:158,1,170,0|2,0:0|0:0,0:0:0:0:
236,244,179375,1,8,0:0:0:0:
214,257,179718,6,0,B|199:297|199:297|201:342,1,85,2|0,0:0|0:0,0:0:0:0:
340,250,180061,1,8,0:0:0:0:
201,170,180233,2,0,B|290:165|290:165|370:130,1,170,0|2,0:0|0:0,0:0:0:0:
463,216,180747,1,8,0:0:0:0:
483,200,181089,6,0,L|489:289,1,85,2|0,0:0|0:0,0:0:0:0:
372,226,181432,1,8,0:0:0:0:
505,308,181603,2,0,P|443:300|328:351,1,170,0|2,0:0|0:0,0:0:0:0:
233,284,182118,1,8,0:0:0:0:
214,266,182461,6,0,P|217:224|205:174,1,85,2|0,0:0|0:0,0:0:0:0:
112,232,182804,1,8,0:0:0:0:
186,156,182975,2,0,P|254:169|375:118,1,170,0|2,0:0|0:0,0:0:0:0:
432,231,183489,1,8,0:0:0:0:
451,243,183832,6,0,P|465:184|461:155,1,85,2|0,0:0|0:0,0:0:0:0:
347,250,184175,1,8,0:0:0:0:
493,344,184346,2,0,P|434:329|302:360,1,170,0|2,0:0|0:0,0:0:0:0:
230,254,184861,1,8,0:0:0:0:
204,243,185203,6,0,P|180:186|182:138,1,85,2|0,0:0|0:0,0:0:0:0:
158,141,185461,2,0,L|270:118,1,85,2|0,0:0|0:0,0:0:0:0:
253,96,185718,1,2,0:0:0:0:
389,125,185889,5,8,0:0:0:0:
304,20,186061,1,2,0:0:0:0:
309,165,186232,1,8,0:0:0:0:
309,165,186575,6,0,L|421:188,1,85,6|0,0:0|0:0,0:0:0:0:
464,110,186918,1,8,0:0:0:0:
424,200,187089,2,0,L|222:215,1,170,0|2,0:0|0:0,0:0:0:0:
204,136,187603,1,8,0:0:0:0:
199,164,187946,6,0,L|87:187,1,85,2|0,0:0|0:0,0:0:0:0:
37,115,188289,1,8,0:0:0:0:
84,199,188460,2,0,L|286:214,1,170,0|2,0:0|0:0,0:0:0:0:
343,155,188974,1,8,0:0:0:0:
360,172,189318,6,0,L|352:264,1,85,2|0,0:0|0:0,0:0:0:0:
432,320,189661,1,8,0:0:0:0:
337,357,189832,2,0,L|151:346,1,170,0|2,0:0|0:0,0:0:0:0:
65,339,190346,1,8,0:0:0:0:
88,318,190689,6,0,L|96:226,1,85,2|0,0:0|0:0,0:0:0:0:
16,170,191032,1,8,0:0:0:0:
111,133,191203,2,0,L|297:144,1,170,0|2,0:0|0:0,0:0:0:0:
383,151,191717,1,8,0:0:0:0:
403,161,192061,6,0,L|415:254,1,85,2|0,0:0|0:0,0:0:0:0:
485,290,192403,1,8,0:0:0:0:
402,267,192575,2,0,L|211:268,1,170,0|2,0:0|0:0,0:0:0:0:
192,192,193089,1,8,0:0:0:0:
166,202,193432,6,0,L|154:295,1,85,2|0,0:0|0:0,0:0:0:0:
84,331,193774,1,8,0:0:0:0:
167,308,193946,2,0,L|358:309,1,170,0|2,0:0|0:0,0:0:0:0:
397,369,194461,1,8,0:0:0:0:
420,359,194803,6,0,L|425:272,1,85,2|0,0:0|0:0,0:0:0:0:
465,199,195146,1,8,0:0:0:0:
407,135,195318,2,0,L|222:116,1,170,0|2,0:0|0:0,0:0:0:0:
160,69,195832,2,0,L|154:165,1,85,8|0,0:0|0:0,0:0:0:0:
54,154,196175,6,0,L|79:268,1,85,2|0,0:0|0:0,0:0:0:0:
66,266,196432,2,0,L|181:247,1,85,2|0,0:0|0:0,0:0:0:0:
159,280,196689,1,0,0:0:0:0:
232,209,196861,5,8,0:0:0:0:
392,280,197032,1,2,0:0:0:0:
251,294,197203,5,8,0:0:0:0:
400,200,197375,1,8,0:0:0:0:
400,200,197461,1,8,0:0:0:0:
400,200,197546,1,6,0:0:0:0:
256,192,197632,12,0,201661,0:0:0:0:
