osu file format v14

[General]
AudioFilename: DJSEVEN.mp3
AudioLeadIn: 0
PreviewTime: 98803
Countdown: 0
SampleSet: Soft
StackLeniency: 0.3
Mode: 0
LetterboxInBreaks: 0
EpilepsyWarning: 1
WidescreenStoryboard: 1

[Editor]
Bookmarks: 61,65889,76861,87832,97432,131718,142689,153661,164632,175603,219489
DistanceSpacing: 0.2
BeatDivisor: 4
GridSize: 4
TimelineZoom: 1.8

[Metadata]
Title:Charon (DJ SEVEN PnB Refix)
TitleUnicode:カロン (DJ SEVEN PnB Refix)
Artist:Negoto
ArtistUnicode:ねごと
Creator:VINXIS
Version:Mega Collab
Source:
Tags:Giralda Skystar Bonzi Asahina Momoko M_o_k_o_r_i Amamiya Yuko toybot byfar Cilvery Asphyxia deetz drum and bass edm dance dnb (W87ES) remix life goes on Liiraye secretpipe Kalamitous Storyboarder Sytarno
BeatmapID:761792
BeatmapSetID:344896

[Difficulty]
HPDrainRate:6
CircleSize:4
OverallDifficulty:8
ApproachRate:9
SliderMultiplier:1.8
SliderTickRate:1

[Events]
//Background and Video events
0,0,"51208945_p0.jpg",0,0
//Break Periods
2,89403,96832
//Storyboard Layer 0 (Background)
//Storyboard Layer 1 (Fail)
//Storyboard Layer 2 (Pass)
//Storyboard Layer 3 (Foreground)
Sprite,Foreground,CentreLeft,"sb\z1.png",503,48 S,0,0,,0,0.5 F,0,61,261,0,1 MY,7,61,461,48,80 C,0,21803,22003,255,255,255,0,0,0 C,0,32775,32975,0,0,0,255,255,255 MY,6,65489,65889,80,48 F,0,65689,65889,1,0
Sprite,Foreground,CentreLeft,"sb\z2.png",518,112 S,0,0,,0,0.5 F,0,61,261,0,1 MY,7,61,461,112,80 C,0,21803,22003,255,255,255,0,0,0 C,0,32775,32975,0,0,0,255,255,255 MY,6,65489,65889,80,112 F,0,65689,65889,1,0
Sprite,Foreground,CentreLeft,"sb\z3.png",524,48 S,0,0,,0,0.5 F,0,61,261,0,1 MY,7,61,461,48,80 C,0,21803,22003,255,255,255,0,0,0 C,0,32775,32975,0,0,0,255,255,255 MY,6,65489,65889,80,48 F,0,65689,65889,1,0
Sprite,Foreground,CentreLeft,"sb\z4.png",542,112 S,0,0,,0,0.5 F,0,61,261,0,1 MY,7,61,461,112,80 C,0,21803,22003,255,255,255,0,0,0 C,0,32775,32975,0,0,0,255,255,255 MY,6,65489,65889,80,112 F,0,65689,65889,1,0
Sprite,Foreground,CentreLeft,"sb\z2.png",556,48 S,0,0,,0,0.5 F,0,61,261,0,1 MY,7,61,461,48,80 C,0,21803,22003,255,255,255,0,0,0 C,0,32775,32975,0,0,0,255,255,255 MY,6,65489,65889,80,48 F,0,65689,65889,1,0
Sprite,Foreground,CentreLeft,"sb\z5.png",563,112 S,0,0,,0,0.5 F,0,61,261,0,1 MY,7,61,461,112,80 C,0,21803,22003,255,255,255,0,0,0 C,0,32775,32975,0,0,0,255,255,255 MY,6,65489,65889,80,112 F,0,65689,65889,1,0
Sprite,Foreground,CentreLeft,"sb\z6.png",518,48 S,0,0,,0,0.5 F,0,65889,66089,0,1 MY,7,65889,66289,48,80 MY,6,76461,76861,80,48 F,0,76661,76861,1,0
Sprite,Foreground,CentreLeft,"sb\z7.png",532,112 S,0,0,,0,0.5 F,0,65889,66089,0,1 MY,7,65889,66289,112,80 MY,6,76461,76861,80,112 F,0,76661,76861,1,0
Sprite,Foreground,CentreLeft,"sb\z8.png",546,48 S,0,0,,0,0.5 F,0,65889,66089,0,1 MY,7,65889,66289,48,80 MY,6,76461,76861,80,48 F,0,76661,76861,1,0
Sprite,Foreground,CentreLeft,"sb\z9.png",559,112 S,0,0,,0,0.5 F,0,65889,66089,0,1 MY,7,65889,66289,112,80 MY,6,76461,76861,80,112 F,0,76661,76861,1,0
Sprite,Foreground,CentreLeft,"sb\z10.png",570,48 S,0,0,,0,0.5 F,0,65889,66089,0,1 MY,7,65889,66289,48,80 MY,6,76461,76861,80,48 F,0,76661,76861,1,0
Sprite,Foreground,CentreLeft,"sb\z5.png",501,48 S,0,0,,0,0.5 F,0,76861,77061,0,1 MY,7,76861,77261,48,80 MY,6,87432,87832,80,48 F,0,87632,87832,1,0
Sprite,Foreground,CentreLeft,"sb\z11.png",514,112 S,0,0,,0,0.5 F,0,76861,77061,0,1 MY,7,76861,77261,112,80 MY,6,87432,87832,80,112 F,0,87632,87832,1,0
Sprite,Foreground,CentreLeft,"sb\z12.png",526,48 S,0,0,,0,0.5 F,0,76861,77061,0,1 MY,7,76861,77261,48,80 MY,6,87432,87832,80,48 F,0,87632,87832,1,0
Sprite,Foreground,CentreLeft,"sb\z13.png",537,112 S,0,0,,0,0.5 F,0,76861,77061,0,1 MY,7,76861,77261,112,80 MY,6,87432,87832,80,112 F,0,87632,87832,1,0
Sprite,Foreground,CentreLeft,"sb\z14.png",547,48 S,0,0,,0,0.5 F,0,76861,77061,0,1 MY,7,76861,77261,48,80 MY,6,87432,87832,80,48 F,0,87632,87832,1,0
Sprite,Foreground,CentreLeft,"sb\z15.png",555,112 S,0,0,,0,0.5 F,0,76861,77061,0,1 MY,7,76861,77261,112,80 MY,6,87432,87832,80,112 F,0,87632,87832,1,0
Sprite,Foreground,CentreLeft,"sb\z16.png",567,48 S,0,0,,0,0.5 F,0,76861,77061,0,1 MY,7,76861,77261,48,80 MY,6,87432,87832,80,48 F,0,87632,87832,1,0
Sprite,Foreground,CentreLeft,"sb\z14.png",507,48 S,0,0,,0,0.5 F,0,97432,97632,0,1 MY,7,97432,97832,48,80 C,0,97946,98146,255,255,255,0,0,0 C,0,98803,99003,0,0,0,255,255,255 MY,6,131318,131718,80,48 F,0,131518,131718,1,0
Sprite,Foreground,CentreLeft,"sb\z7.png",515,112 S,0,0,,0,0.5 F,0,97432,97632,0,1 MY,7,97432,97832,112,80 C,0,97946,98146,255,255,255,0,0,0 C,0,98803,99003,0,0,0,255,255,255 MY,6,131318,131718,80,112 F,0,131518,131718,1,0
Sprite,Foreground,CentreLeft,"sb\z12.png",529,48 S,0,0,,0,0.5 F,0,97432,97632,0,1 MY,7,97432,97832,48,80 C,0,97946,98146,255,255,255,0,0,0 C,0,98803,99003,0,0,0,255,255,255 MY,6,131318,131718,80,48 F,0,131518,131718,1,0
Sprite,Foreground,CentreLeft,"sb\z17.png",540,112 S,0,0,,0,0.5 F,0,97432,97632,0,1 MY,7,97432,97832,112,80 C,0,97946,98146,255,255,255,0,0,0 C,0,98803,99003,0,0,0,255,255,255 MY,6,131318,131718,80,112 F,0,131518,131718,1,0
Sprite,Foreground,CentreLeft,"sb\z7.png",554,48 S,0,0,,0,0.5 F,0,97432,97632,0,1 MY,7,97432,97832,48,80 C,0,97946,98146,255,255,255,0,0,0 C,0,98803,99003,0,0,0,255,255,255 MY,6,131318,131718,80,48 F,0,131518,131718,1,0
Sprite,Foreground,CentreLeft,"sb\z14.png",568,112 S,0,0,,0,0.5 F,0,97432,97632,0,1 MY,7,97432,97832,112,80 C,0,97946,98146,255,255,255,0,0,0 C,0,98803,99003,0,0,0,255,255,255 MY,6,131318,131718,80,112 F,0,131518,131718,1,0
Sprite,Foreground,CentreLeft,"sb\z17.png",523,48 S,0,0,,0,0.5 F,0,131718,131918,0,1 MY,7,131718,132118,48,80 MY,6,142289,142689,80,48 F,0,142489,142689,1,0
Sprite,Foreground,CentreLeft,"sb\z12.png",537,112 S,0,0,,0,0.5 F,0,131718,131918,0,1 MY,7,131718,132118,112,80 MY,6,142289,142689,80,112 F,0,142489,142689,1,0
Sprite,Foreground,CentreLeft,"sb\z18.png",548,48 S,0,0,,0,0.5 F,0,131718,131918,0,1 MY,7,131718,132118,48,80 MY,6,142289,142689,80,48 F,0,142489,142689,1,0
Sprite,Foreground,CentreLeft,"sb\z15.png",556,112 S,0,0,,0,0.5 F,0,131718,131918,0,1 MY,7,131718,132118,112,80 MY,6,142289,142689,80,112 F,0,142489,142689,1,0
Sprite,Foreground,CentreLeft,"sb\z16.png",568,48 S,0,0,,0,0.5 F,0,131718,131918,0,1 MY,7,131718,132118,48,80 MY,6,142289,142689,80,48 F,0,142489,142689,1,0
Sprite,Foreground,CentreLeft,"sb\z19.png",393,48 S,0,0,,0,0.5 F,0,142689,142889,0,1 MY,7,142689,143089,48,80 MY,6,153261,153661,80,48 F,0,153461,153661,1,0
Sprite,Foreground,CentreLeft,"sb\z13.png",408,112 S,0,0,,0,0.5 F,0,142689,142889,0,1 MY,7,142689,143089,112,80 MY,6,153261,153661,80,112 F,0,153461,153661,1,0
Sprite,Foreground,CentreLeft,"sb\z15.png",418,48 S,0,0,,0,0.5 F,0,142689,142889,0,1 MY,7,142689,143089,48,80 MY,6,153261,153661,80,48 F,0,153461,153661,1,0
Sprite,Foreground,CentreLeft,"sb\z20.png",430,112 S,0,0,,0,0.5 F,0,142689,142889,0,1 MY,7,142689,143089,112,80 MY,6,153261,153661,80,112 F,0,153461,153661,1,0
Sprite,Foreground,CentreLeft,"sb\z10.png",444,48 S,0,0,,0,0.5 F,0,142689,142889,0,1 MY,7,142689,143089,48,80 MY,6,153261,153661,80,48 F,0,153461,153661,1,0
Sprite,Foreground,CentreLeft,"sb\z8.png",450,112 S,0,0,,0,0.5 F,0,142689,142889,0,1 MY,7,142689,143089,112,80 MY,6,153261,153661,80,112 F,0,153461,153661,1,0
Sprite,Foreground,CentreLeft,"sb\z15.png",463,48 S,0,0,,0,0.5 F,0,142689,142889,0,1 MY,7,142689,143089,48,80 MY,6,153261,153661,80,48 F,0,153461,153661,1,0
Sprite,Foreground,CentreLeft,"sb\z21.png",475,112 S,0,0,,0,0.5 F,0,142689,142889,0,1 MY,7,142689,143089,112,80 MY,6,153261,153661,80,112 F,0,153461,153661,1,0
Sprite,Foreground,CentreLeft,"sb\z7.png",502,48 S,0,0,,0,0.5 F,0,142689,142889,0,1 MY,7,142689,143089,48,80 MY,6,153261,153661,80,48 F,0,153461,153661,1,0
Sprite,Foreground,CentreLeft,"sb\z22.png",516,112 S,0,0,,0,0.5 F,0,142689,142889,0,1 MY,7,142689,143089,112,80 MY,6,153261,153661,80,112 F,0,153461,153661,1,0
Sprite,Foreground,CentreLeft,"sb\z7.png",536,48 S,0,0,,0,0.5 F,0,142689,142889,0,1 MY,7,142689,143089,48,80 MY,6,153261,153661,80,48 F,0,153461,153661,1,0
Sprite,Foreground,CentreLeft,"sb\z11.png",550,112 S,0,0,,0,0.5 F,0,142689,142889,0,1 MY,7,142689,143089,112,80 MY,6,153261,153661,80,112 F,0,153461,153661,1,0
Sprite,Foreground,CentreLeft,"sb\z7.png",562,48 S,0,0,,0,0.5 F,0,142689,142889,0,1 MY,7,142689,143089,48,80 MY,6,153261,153661,80,48 F,0,153461,153661,1,0
Sprite,Foreground,CentreLeft,"sb\z23.png",505,48 S,0,0,,0,0.5 F,0,153661,153861,0,1 MY,7,153661,154061,48,80 MY,6,164232,164632,80,48 F,0,164432,164632,1,0
Sprite,Foreground,CentreLeft,"sb\z10.png",520,112 S,0,0,,0,0.5 F,0,153661,153861,0,1 MY,7,153661,154061,112,80 MY,6,164232,164632,80,112 F,0,164432,164632,1,0
Sprite,Foreground,CentreLeft,"sb\z24.png",526,48 S,0,0,,0,0.5 F,0,153661,153861,0,1 MY,7,153661,154061,48,80 MY,6,164232,164632,80,48 F,0,164432,164632,1,0
Sprite,Foreground,CentreLeft,"sb\z25.png",532,112 S,0,0,,0,0.5 F,0,153661,153861,0,1 MY,7,153661,154061,112,80 MY,6,164232,164632,80,112 F,0,164432,164632,1,0
Sprite,Foreground,CentreLeft,"sb\z26.png",543,48 S,0,0,,0,0.5 F,0,153661,153861,0,1 MY,7,153661,154061,48,80 MY,6,164232,164632,80,48 F,0,164432,164632,1,0
Sprite,Foreground,CentreLeft,"sb\z16.png",556,112 S,0,0,,0,0.5 F,0,153661,153861,0,1 MY,7,153661,154061,112,80 MY,6,164232,164632,80,112 F,0,164432,164632,1,0
Sprite,Foreground,CentreLeft,"sb\z12.png",564,48 S,0,0,,0,0.5 F,0,153661,153861,0,1 MY,7,153661,154061,48,80 MY,6,164232,164632,80,48 F,0,164432,164632,1,0
Sprite,Foreground,CentreLeft,"sb\z19.png",483,48 S,0,0,,0,0.5 F,0,164632,164832,0,1 MY,7,164632,165032,48,80 MY,6,175203,175603,80,48 F,0,175403,175603,1,0
Sprite,Foreground,CentreLeft,"sb\z13.png",498,112 S,0,0,,0,0.5 F,0,164632,164832,0,1 MY,7,164632,165032,112,80 MY,6,175203,175603,80,112 F,0,175403,175603,1,0
Sprite,Foreground,CentreLeft,"sb\z27.png",508,48 S,0,0,,0,0.5 F,0,164632,164832,0,1 MY,7,164632,165032,48,80 MY,6,175203,175603,80,48 F,0,175403,175603,1,0
Sprite,Foreground,CentreLeft,"sb\z20.png",522,112 S,0,0,,0,0.5 F,0,164632,164832,0,1 MY,7,164632,165032,112,80 MY,6,175203,175603,80,112 F,0,175403,175603,1,0
Sprite,Foreground,CentreLeft,"sb\z12.png",536,48 S,0,0,,0,0.5 F,0,164632,164832,0,1 MY,7,164632,165032,48,80 MY,6,175203,175603,80,48 F,0,175403,175603,1,0
Sprite,Foreground,CentreLeft,"sb\z28.png",547,112 S,0,0,,0,0.5 F,0,164632,164832,0,1 MY,7,164632,165032,112,80 MY,6,175203,175603,80,112 F,0,175403,175603,1,0
Sprite,Foreground,CentreLeft,"sb\z10.png",558,48 S,0,0,,0,0.5 F,0,164632,164832,0,1 MY,7,164632,165032,48,80 MY,6,175203,175603,80,48 F,0,175403,175603,1,0
Sprite,Foreground,CentreLeft,"sb\z15.png",564,112 S,0,0,,0,0.5 F,0,164632,164832,0,1 MY,7,164632,165032,112,80 MY,6,175203,175603,80,112 F,0,175403,175603,1,0
Sprite,Foreground,CentreLeft,"sb\z29.png",501,48 S,0,0,,0,0.5 C,0,175603,,0,0,0 F,0,175603,175803,0,1 MY,7,175603,176003,48,80 C,0,197146,197546,0,0,0,255,255,255 MY,6,219089,219489,80,48 F,0,219289,219489,1,0
Sprite,Foreground,CentreLeft,"sb\z10.png",517,112 S,0,0,,0,0.5 C,0,175603,,0,0,0 F,0,175603,175803,0,1 MY,7,175603,176003,112,80 C,0,197146,197546,0,0,0,255,255,255 MY,6,219089,219489,80,112 F,0,219289,219489,1,0
Sprite,Foreground,CentreLeft,"sb\z16.png",523,48 S,0,0,,0,0.5 C,0,175603,,0,0,0 F,0,175603,175803,0,1 MY,7,175603,176003,48,80 C,0,197146,197546,0,0,0,255,255,255 MY,6,219089,219489,80,48 F,0,219289,219489,1,0
Sprite,Foreground,CentreLeft,"sb\z15.png",532,112 S,0,0,,0,0.5 C,0,175603,,0,0,0 F,0,175603,175803,0,1 MY,7,175603,176003,112,80 C,0,197146,197546,0,0,0,255,255,255 MY,6,219089,219489,80,112 F,0,219289,219489,1,0
Sprite,Foreground,CentreLeft,"sb\z24.png",544,48 S,0,0,,0,0.5 C,0,175603,,0,0,0 F,0,175603,175803,0,1 MY,7,175603,176003,48,80 C,0,197146,197546,0,0,0,255,255,255 MY,6,219089,219489,80,48 F,0,219289,219489,1,0
Sprite,Foreground,CentreLeft,"sb\z30.png",550,112 S,0,0,,0,0.5 C,0,175603,,0,0,0 F,0,175603,175803,0,1 MY,7,175603,176003,112,80 C,0,197146,197546,0,0,0,255,255,255 MY,6,219089,219489,80,112 F,0,219289,219489,1,0
Sprite,Foreground,CentreLeft,"sb\z15.png",564,48 S,0,0,,0,0.5 C,0,175603,,0,0,0 F,0,175603,175803,0,1 MY,7,175603,176003,48,80 C,0,197146,197546,0,0,0,255,255,255 MY,6,219089,219489,80,48 F,0,219289,219489,1,0
//Storyboard Sound Samples

[TimingPoints]
61,342.857142857143,4,2,1,60,1,0
61,-125,4,2,1,60,0,0
22003,-111.111111111111,4,2,1,60,0,0
37775,-90.9090909090908,4,2,1,60,0,0
38461,-111.111111111111,4,2,1,60,0,0
42575,-90.9090909090908,4,2,1,60,0,0
43261,-111.111111111111,4,2,1,60,0,0
48746,-90.9090909090908,4,2,1,60,0,0
49432,-111.111111111111,4,2,1,60,0,0
53546,-90.9090909090908,4,2,1,60,0,0
54918,-100,4,2,1,60,0,0
65546,-142.857142857143,4,2,1,60,0,0
65889,-90.9090909090909,4,2,1,60,0,1
70003,-80,4,2,1,60,0,1
71032,-200,4,2,1,60,0,1
71375,-90.9090909090909,4,2,1,60,0,1
87832,-117.647058823529,4,2,1,60,0,0
97432,-100,4,2,1,60,0,0
97946,-66.6666666666667,4,2,1,60,0,0
98118,-111.111111111111,4,2,1,60,0,0
98803,-83.3333333333333,4,2,1,60,0,0
99146,-111.111111111111,4,2,1,60,0,0
105489,-125,4,2,1,60,0,0
106946,-111.111111111111,4,2,1,60,0,0
108403,-90.9090909090909,4,2,1,60,0,0
109603,-90.9090909090909,4,2,1,60,0,0
110461,-125,4,2,1,60,0,0
111146,-111.111111111111,4,2,1,60,0,0
118946,-99.9999999999999,4,2,1,60,0,0
119203,-83.3333333333333,4,2,1,60,0,0
120575,-71.4285714285714,4,2,1,60,0,0
120746,-90.9090909090909,4,2,1,60,0,0
121775,-66.6666666666667,4,2,1,60,0,0
122118,-66.6666666666667,4,2,1,60,0,0
123146,-66.6666666666667,4,2,1,60,0,0
123489,-90.9090909090909,4,2,1,60,0,0
124518,-66.6666666666667,4,2,1,60,0,0
124861,-90.9090909090909,4,2,1,60,0,0
125889,-83.3333333333333,4,2,1,60,0,0
126232,-66.6666666666667,4,2,1,60,0,0
126918,-100,4,2,1,60,0,0
127261,-57.1428571428571,4,2,1,60,0,0
127603,-90.9090909090909,4,2,1,60,0,0
128032,-80,4,2,1,60,0,0
128632,-66.6666666666667,4,2,1,60,0,0
128975,-76.9230769230769,4,2,1,60,0,0
129661,-90.9090909090909,4,2,1,60,0,0
130003,-66.6666666666667,4,2,1,60,0,0
130346,-90.9090909090909,4,2,1,60,0,0
131375,-76.9230769230769,4,2,1,60,0,0
131718,-90.9090909090909,4,2,1,60,0,1
152289,-71.4285714285714,4,2,1,60,0,1
154003,-100,4,2,1,60,0,1
174232,-71.4285714285714,4,2,1,60,0,1
175603,-100,4,2,1,60,0,0

[Colours]
Combo1 : 162,94,94
Combo2 : 186,102,10
Combo3 : 45,134,116

[HitObjects]
272,288,61,6,0,P|307:292|343:289,1,72,2|0,0:0|0:0,0:0:0:0:
361,90,403,1,8,0:0:0:0:
373,266,575,2,0,L|363:113,1,144,0|2,0:0|0:0,0:0:0:0:
265,266,1089,2,0,L|269:337,1,72,8|0,0:0|0:0,0:0:0:0:
298,183,1432,6,0,P|262:178|227:184,1,72,2|0,0:0|0:0,0:0:0:0:
136,267,1775,1,8,0:0:0:0:
227,184,1946,2,0,L|220:35,1,144,0|2,0:0|0:0,0:0:0:0:
134,127,2461,1,8,0:0:0:0:
142,105,2803,6,0,P|177:100|213:103,1,72,2|0,0:0|0:0,0:0:0:0:
230,303,3145,1,8,0:0:0:0:
242,127,3318,2,0,L|232:279,1,144,0|2,0:0|0:0,0:0:0:0:
134,127,3831,2,0,L|138:55,1,72,8|0,0:0|0:0,0:0:0:0:
167,210,4174,6,0,P|131:214|96:208,1,72,2|0,0:0|0:0,0:0:0:0:
9,130,4517,1,8,0:0:0:0:
96,209,4689,2,0,L|89:358,1,144,0|2,0:0|0:0,0:0:0:0:
212,308,5203,1,8,0:0:0:0:
212,308,5546,6,0,P|247:312|283:308,1,72,2|0,0:0|0:0,0:0:0:0:
300,109,5889,1,8,0:0:0:0:
312,285,6061,2,0,L|302:141,1,144,0|2,0:0|0:0,0:0:0:0:
204,285,6575,2,0,L|208:356,1,72,8|0,0:0|0:0,0:0:0:0:
237,202,6918,6,0,P|201:196|166:202,1,72,2|0,0:0|0:0,0:0:0:0:
86,300,7261,1,8,0:0:0:0:
166,203,7432,2,0,L|159:59,1,144,0|2,0:0|0:0,0:0:0:0:
73,146,7946,1,8,0:0:0:0:
73,146,8289,6,0,L|149:149,1,72,2|0,0:0|0:0,0:0:0:0:
5,214,8632,1,8,0:0:0:0:
5,214,8803,1,0,0:0:0:0:
152,365,9146,1,2,0:0:0:0:
82,307,9318,2,0,L|85:235,1,72,8|0,0:0|0:0,0:0:0:0:
244,280,9661,6,0,L|316:278,2,72,2|0|8,0:0|0:0|0:0,0:0:0:0:
170,196,10175,2,0,P|158:125|173:55,1,144,0|2,0:0|0:0,0:0:0:0:
99,200,10689,2,0,L|170:197,1,72,8|0,0:0|0:0,0:0:0:0:
296,191,11032,6,0,P|284:120|299:50,1,144,2|8,0:0|0:0,0:0:0:0:
417,41,11546,1,0,0:0:0:0:
417,41,11632,1,0,0:0:0:0:
417,41,11718,1,0,0:0:0:0:
488,126,11889,1,2,0:0:0:0:
427,202,12061,2,0,L|432:294,1,72,8|0,0:0|0:0,0:0:0:0:
344,359,12403,5,2,0:0:0:0:
344,359,12489,1,0,0:0:0:0:
344,359,12575,1,0,0:0:0:0:
327,234,12746,1,8,0:0:0:0:
249,350,12918,1,0,0:0:0:0:
249,350,13003,1,0,0:0:0:0:
249,350,13089,1,0,0:0:0:0:
233,234,13261,1,2,0:0:0:0:
138,350,13432,2,0,L|142:260,1,72,8|0,0:0|0:0,0:0:0:0:
159,122,13775,6,0,P|194:116|229:123,1,72,2|0,0:0|0:0,0:0:0:0:
348,230,14118,1,8,0:0:0:0:
233,234,14289,1,0,0:0:0:0:
233,234,14375,1,0,0:0:0:0:
233,234,14461,1,0,0:0:0:0:
293,323,14632,1,2,0:0:0:0:
348,230,14803,1,8,0:0:0:0:
430,309,14975,1,0,0:0:0:0:
468,221,15146,6,0,L|463:149,1,72,2|0,0:0|0:0,0:0:0:0:
343,158,15489,1,8,0:0:0:0:
228,203,15661,2,0,L|80:209,1,144,0|2,0:0|0:0,0:0:0:0:
348,230,16175,2,0,L|343:158,1,72,8|0,0:0|0:0,0:0:0:0:
240,65,16518,6,0,P|216:132|227:202,1,144,2|8,0:0|0:0,0:0:0:0:
288,296,17032,1,0,0:0:0:0:
288,296,17118,1,0,0:0:0:0:
288,296,17203,1,0,0:0:0:0:
189,283,17375,1,2,0:0:0:0:
348,230,17546,2,0,L|440:233,1,72,8|0,0:0|0:0,0:0:0:0:
306,117,17889,5,2,0:0:0:0:
306,117,17975,1,0,0:0:0:0:
306,117,18061,1,0,0:0:0:0:
451,73,18232,1,8,0:0:0:0:
306,31,18403,1,0,0:0:0:0:
306,31,18489,1,0,0:0:0:0:
306,31,18575,1,0,0:0:0:0:
451,73,18746,1,2,0:0:0:0:
379,76,18918,2,0,L|451:73,1,72,8|0,0:0|0:0,0:0:0:0:
293,108,19261,6,0,P|291:144|292:186,1,72,2|0,0:0|0:0,0:0:0:0:
307,326,19603,1,8,0:0:0:0:
230,284,19775,1,0,0:0:0:0:
230,284,19861,1,0,0:0:0:0:
230,284,19946,1,0,0:0:0:0:
158,346,20118,1,2,0:0:0:0:
137,192,20289,1,8,0:0:0:0:
292,180,20461,1,0,0:0:0:0:
361,111,20632,6,0,L|358:39,1,72,2|0,0:0|0:0,0:0:0:0:
426,212,20975,1,8,0:0:0:0:
349,306,21146,2,0,P|314:309|278:305,1,72,0|0,0:0|0:0,0:0:0:0:
252,279,21403,1,0,0:0:0:0:
227,251,21489,2,0,L|232:186,1,36,2|0,0:0|0:0,0:0:0:0:
174,85,21661,1,0,0:0:0:0:
183,54,21746,1,0,0:0:0:0:
205,30,21832,1,0,0:0:0:0:
235,17,21918,1,0,0:0:0:0:
271,17,22003,6,0,P|309:28|349:21,1,80.9999975280763,2|0,0:0|0:0,0:0:0:0:
434,81,22346,1,8,0:0:0:0:
434,81,22518,1,0,0:0:0:0:
190,252,22861,1,2,0:0:0:0:
276,194,23032,2,0,P|284:154|279:114,1,80.9999975280763,8|0,0:0|0:0,0:0:0:0:
184,284,23375,6,0,L|277:289,1,80.9999975280763,2|0,0:0|0:0,0:0:0:0:
114,353,23718,1,8,0:0:0:0:
114,353,23889,1,0,0:0:0:0:
114,38,24232,1,2,0:0:0:0:
174,95,24403,2,0,L|179:176,1,80.9999975280763,8|0,0:0|0:0,0:0:0:0:
136,247,24746,6,0,P|174:258|214:252,1,80.9999975280763,2|0,0:0|0:0,0:0:0:0:
37,289,25089,1,8,0:0:0:0:
37,289,25261,1,0,0:0:0:0:
323,262,25603,1,2,0:0:0:0:
382,117,25775,2,0,P|389:156|381:196,1,80.9999975280763,8|0,0:0|0:0,0:0:0:0:
206,72,26118,6,0,L|297:66,1,80.9999975280763,2|0,0:0|0:0,0:0:0:0:
463,57,26461,1,8,0:0:0:0:
463,57,26632,1,0,0:0:0:0:
167,231,26975,1,2,0:0:0:0:
39,244,27146,1,8,0:0:0:0:
28,105,27318,1,0,0:0:0:0:
153,87,27489,6,0,P|191:75|231:81,1,80.9999975280763,6|0,0:0|0:0,0:0:0:0:
103,176,27832,1,8,0:0:0:0:
103,176,28003,1,0,0:0:0:0:
353,301,28346,1,2,0:0:0:0:
249,285,28518,1,8,0:0:0:0:
204,180,28689,1,0,0:0:0:0:
310,129,28861,6,0,L|304:209,1,80.9999975280763,2|0,0:0|0:0,0:0:0:0:
415,79,29203,1,8,0:0:0:0:
415,79,29375,1,0,0:0:0:0:
209,221,29718,1,2,0:0:0:0:
345,213,29889,1,8,0:0:0:0:
347,351,30061,1,0,0:0:0:0:
249,295,30232,6,0,P|210:306|171:299,1,80.9999975280763,2|0,0:0|0:0,0:0:0:0:
66,358,30575,1,8,0:0:0:0:
66,358,30746,1,0,0:0:0:0:
339,126,31089,1,2,0:0:0:0:
422,190,31261,1,8,0:0:0:0:
332,230,31432,1,0,0:0:0:0:
373,319,31603,6,0,P|334:326|294:321,1,80.9999975280763,2|0,0:0|0:0,0:0:0:0:
465,351,31946,1,8,0:0:0:0:
465,351,32118,1,0,0:0:0:0:
133,164,32461,1,2,0:0:0:0:
74,249,32632,2,0,P|73:289|89:326,1,80.9999975280763,8|0,0:0|0:0,0:0:0:0:
170,320,32889,1,8,0:0:0:0:
170,320,32975,6,0,L|81:327,1,80.9999975280763,6|0,0:0|0:0,0:0:0:0:
228,376,33318,1,8,0:0:0:0:
255,277,33489,1,0,0:0:0:0:
339,326,33661,1,0,0:0:0:0:
339,326,33832,2,0,L|429:319,1,80.9999975280763,2|8,0:0|0:0,0:0:0:0:
437,136,34175,6,0,P|432:196|438:230,1,80.9999975280763,0|2,0:0|0:0,0:0:0:0:
335,142,34518,2,0,P|280:167|213:244,1,161.999995056153
293,47,35032,2,0,P|243:12|211:0,1,80.9999975280763,0|2,0:0|0:0,0:0:0:0:
141,67,35375,1,8,0:0:0:0:
13,18,35546,1,0,0:0:0:0:
13,18,35632,1,0,0:0:0:0:
13,18,35718,6,0,L|20:102,1,80.9999975280763,2|0,0:0|0:0,0:0:0:0:
157,90,36061,2,0,L|150:174,1,80.9999975280763,8|0,0:0|0:0,0:0:0:0:
140,287,36403,1,0,0:0:0:0:
227,229,36575,2,0,P|277:222|385:244,1,161.999995056153,2|0,0:0|0:0,0:0:0:0:
439,322,37089,5,2,0:0:0:0:
437,151,37261,2,0,P|443:111|462:75,1,80.9999975280763,0|8,0:0|0:0,0:0:0:0:
385,244,37603,1,0,0:0:0:0:
309,161,37775,6,0,L|204:152,1,99.0000030212403,0|2,0:0|0:0,0:0:0:0:
120,236,38118,2,0,P|186:267|260:263,1,148.50000453186,8|0,0:0|0:0,0:0:0:0:
210,152,38461,6,0,L|113:143,1,80.9999975280763,2|0,0:0|0:0,0:0:0:0:
260,263,38803,2,0,L|341:270,1,80.9999975280763,8|0,0:0|0:0,0:0:0:0:
412,112,39146,1,0,0:0:0:0:
316,168,39318,1,2,0:0:0:0:
416,224,39489,1,8,0:0:0:0:
316,168,39661,6,0,P|310:127|310:87,1,80.9999975280763,0|2,0:0|0:0,0:0:0:0:
214,263,40003,2,0,L|219:101,1,161.999995056153
123,168,40518,2,0,P|128:127|128:87,1,80.9999975280763,0|2,0:0|0:0,0:0:0:0:
160,11,40861,1,0,0:0:0:0:
160,11,41203,6,0,L|273:28,1,80.9999975280763,2|0,0:0|0:0,0:0:0:0:
432,73,41546,2,0,L|319:90,1,80.9999975280763,8|0,0:0|0:0,0:0:0:0:
351,85,42061,1,2,0:0:0:0:
160,11,42232,2,0,L|273:28,1,80.9999975280763,8|0,0:0|0:0,0:0:0:0:
131,211,42575,6,0,P|121:163|140:117,1,99.0000030212403,2|0,0:0|0:0,0:0:0:0:
267,117,42832,2,0,P|286:163|277:211,1,99.0000030212403,2|0,0:0|0:0,0:0:0:0:
204,170,43089,1,2,0:0:0:0:
399,237,43261,1,8,0:0:0:0:
199,283,43432,1,2,0:0:0:0:
434,166,43603,1,8,0:0:0:0:
463,193,43689,1,0,0:0:0:0:
476,231,43775,1,0,0:0:0:0:
468,270,43861,1,0,0:0:0:0:
446,303,43946,6,0,L|470:388,1,80.9999975280763,2|0,0:0|0:0,0:0:0:0:
297,356,44289,1,8,0:0:0:0:
333,266,44461,1,0,0:0:0:0:
282,186,44632,2,0,L|277:104,1,80.9999975280763,0|2,0:0|0:0,0:0:0:0:
269,15,44975,1,8,0:0:0:0:
188,67,45146,6,0,P|183:127|189:161,1,80.9999975280763,0|2,0:0|0:0,0:0:0:0:
398,4,45489,2,0,P|343:29|276:106,1,161.999995056153
415,221,46003,2,0,P|365:186|333:174,1,80.9999975280763,0|2,0:0|0:0,0:0:0:0:
418,313,46346,1,8,0:0:0:0:
510,278,46518,1,0,0:0:0:0:
510,278,46603,1,0,0:0:0:0:
510,278,46689,6,0,L|497:111,1,161.999995056153,2|8,0:0|0:0,0:0:0:0:
393,81,47203,1,0,0:0:0:0:
324,183,47375,2,0,P|361:197|401:203,1,80.9999975280763,0|2,0:0|0:0,0:0:0:0:
233,100,47718,1,8,0:0:0:0:
233,100,47889,6,0,P|241:44|265:6,1,80.9999975280763,0|2,0:0|0:0,0:0:0:0:
164,165,48232,2,0,P|120:130|99:91,1,80.9999975280763,0|8,0:0|0:0,0:0:0:0:
97,16,48575,1,0,0:0:0:0:
11,86,48746,6,0,L|7:197,1,99.0000030212403,0|2,0:0|0:0,0:0:0:0:
97,351,49089,2,0,P|107:294|90:200,1,148.50000453186,8|0,0:0|0:0,0:0:0:0:
7,184,49432,6,0,L|3:295,1,80.9999975280763,2|0,0:0|0:0,0:0:0:0:
108,112,49775,2,0,L|105:31,1,80.9999975280763,8|0,0:0|0:0,0:0:0:0:
173,203,50118,1,0,0:0:0:0:
264,149,50289,1,2,0:0:0:0:
267,254,50461,1,8,0:0:0:0:
264,149,50632,6,0,L|345:148,1,80.9999975280763,0|2,0:0|0:0,0:0:0:0:
489,228,50975,2,0,L|362:229,1,121.499996292114
367,229,51318,1,0,0:0:0:0:
275,333,51489,2,0,P|264:279|271:238,1,80.9999975280763,0|2,0:0|0:0,0:0:0:0:
374,236,51832,1,8,0:0:0:0:
318,69,52003,1,0,0:0:0:0:
318,69,52089,1,0,0:0:0:0:
318,69,52175,6,0,L|429:83,2,80.9999975280763,2|0|8,0:0|0:0|0:0,0:0:0:0:
223,46,52689,1,0,0:0:0:0:
222,337,53032,5,2,0:0:0:0:
319,337,53204,2,0,L|405:337,1,80.9999975280763,2|0,0:0|0:0,0:0:0:0:
128,355,53546,6,0,P|202:349|244:316,1,99.0000030212403,2|0,0:0|0:0,0:0:0:0:
177,146,53803,2,0,P|168:195|180:242,1,99.0000030212403,2|0,0:0|0:0,0:0:0:0:
282,253,54061,1,2,0:0:0:0:
275,61,54232,1,8,0:0:0:0:
437,23,54403,1,2,0:0:0:0:
457,158,54575,1,8,0:0:0:0:
326,159,54746,1,0,0:0:0:0:
326,159,54831,1,0,0:0:0:0:
326,159,54918,6,0,P|352:113|363:77,1,90,2|0,0:0|0:0,0:0:0:0:
150,72,55175,2,0,L|264:61,1,90,2|0,0:0|0:0,0:0:0:0:
275,61,55432,1,2,0:0:0:0:
181,160,55603,1,8,0:0:0:0:
181,160,55946,2,0,L|185:315,1,135,2|0,0:0|0:0,0:0:0:0:
188,318,56289,5,0,0:0:0:0:
363,260,56461,1,2,0:0:0:0:
265,185,56632,1,0,0:0:0:0:
265,185,56718,1,0,0:0:0:0:
265,185,56803,2,0,L|267:280,1,90,2|0,0:0|0:0,0:0:0:0:
266,274,57061,1,2,0:0:0:0:
296,90,57232,1,2,0:0:0:0:
296,90,57318,1,8,0:0:0:0:
168,139,57489,1,0,0:0:0:0:
359,140,57661,6,0,P|373:97|367:53,1,90,2|0,0:0|0:0,0:0:0:0:
301,5,57918,2,0,L|188:10,1,90,2|0,0:0|0:0,0:0:0:0:
211,8,58175,1,2,0:0:0:0:
232,188,58346,2,0,P|246:145|240:101,1,90,8|0,0:0|0:0,0:0:0:0:
332,243,58689,1,2,0:0:0:0:
332,243,58861,1,0,0:0:0:0:
342,253,59203,5,2,0:0:0:0:
342,253,59289,1,0,0:0:0:0:
342,253,59375,2,0,L|348:189,1,45,0|0,0:0|0:0,0:0:0:0:
175,208,59546,2,0,L|180:253,1,45,2|2,0:0|0:0,0:0:0:0:
261,168,59718,1,8,0:0:0:0:
76,253,59889,1,2,0:0:0:0:
90,62,60061,1,8,0:0:0:0:
90,62,60403,6,0,L|88:166,1,90,2|0,0:0|0:0,0:0:0:0:
137,136,60661,2,0,L|136:226,1,90,2|0,0:0|0:0,0:0:0:0:
181,204,60918,2,0,L|179:308,1,90,2|8,0:0|0:0,0:0:0:0:
180,319,61175,1,2,0:0:0:0:
354,98,61432,1,2,0:0:0:0:
271,146,61603,1,0,0:0:0:0:
273,49,61775,5,0,0:0:0:0:
417,42,61946,1,2,0:0:0:0:
435,83,62031,1,0,0:0:0:0:
431,127,62117,1,0,0:0:0:0:
404,163,62203,1,0,0:0:0:0:
363,181,62288,1,2,0:0:0:0:
359,343,62461,1,0,0:0:0:0:
359,343,62546,1,2,0:0:0:0:
206,323,62718,1,2,0:0:0:0:
205,323,62803,2,0,P|229:260|218:194,1,135,8|0,0:0|0:0,0:0:0:0:
199,170,63146,6,0,P|241:182|285:176,1,90,2|0,0:0|0:0,0:0:0:0:
335,98,63403,2,0,P|292:85|248:91,1,90,2|0,0:0|0:0,0:0:0:0:
371,189,63661,1,2,0:0:0:0:
139,114,63832,2,0,P|119:176|148:235,1,135,8|0,0:0|0:0,0:0:0:0:
148,235,64175,1,2,0:0:0:0:
0,210,64346,1,0,0:0:0:0:
13,367,64518,5,0,0:0:0:0:
82,272,64689,1,2,0:0:0:0:
111,305,64775,1,0,0:0:0:0:
154,316,64861,1,0,0:0:0:0:
196,302,64946,1,0,0:0:0:0:
223,267,65032,2,0,L|228:223,1,45,2|0,0:0|0:0,0:0:0:0:
248,112,65203,1,0,0:0:0:0:
148,235,65375,1,2,0:0:0:0:
301,274,65546,2,0,P|333:261|297:259,1,94.499997116089,0|0,0:0|0:0,0:0:0:0:
308,268,65889,6,0,P|260:291|205:276,1,99.0000030212403,6|0,0:0|0:0,0:0:0:0:
160,67,66232,2,0,P|208:44|263:59,1,99.0000030212403,8|0,0:0|0:0,0:0:0:0:
176,208,66575,2,0,L|8:200,1,148.50000453186
8,184,66918,1,8,0:0:0:0:
112,285,67089,2,0,P|132:328|120:380,1,99.0000030212403,0|2,0:0|0:0,0:0:0:0:
8,184,67432,2,0,L|16:72,1,99.0000030212403,0|8,0:0|0:0,0:0:0:0:
306,177,67775,6,0,P|218:221|150:185,1,148.50000453186,0|0,0:0|0:0,0:0:0:0:
164,192,68118,1,2,0:0:0:0:
251,51,68289,2,0,L|383:63,1,99.0000030212403,8|0,0:0|0:0,0:0:0:0:
20,198,68632,6,0,B|56:212|91:194|91:194|126:177|164:191,1,148.50000453186,2|0,0:0|0:0,0:0:0:0:
175,207,68975,1,8,0:0:0:0:
44,100,69146,1,0,0:0:0:0:
258,149,69318,2,0,L|250:45,1,99.0000030212403,0|2,0:0|0:0,0:0:0:0:
124,272,69661,2,0,P|104:316|128:380,1,99.0000030212403
494,232,70003,6,0,P|446:184|334:200,1,168.75,2|0,0:0|0:0,0:0:0:0:
286,240,70346,2,0,L|210:236,1,56.25,8|0,0:0|0:0,0:0:0:0:
32,56,70518,6,0,P|12:116|104:144,1,168.75,2|0,0:0|0:0,0:0:0:0:
156,104,70861,2,0,P|164:76|152:32,1,56.25,2|0,0:0|0:0,0:0:0:0:
430,186,71032,6,0,P|405:197|357:187,1,67.5,8|0,0:0|0:0,0:0:0:0:
350,188,71375,6,0,P|395:169|458:183,1,99.0000030212403,2|0,0:0|0:0,0:0:0:0:
204,352,71718,2,0,L|88:344,1,99.0000030212403,8|0,0:0|0:0,0:0:0:0:
240,80,72061,2,0,P|272:124|236:228,1,148.50000453186
240,232,72403,5,8,0:0:0:0:
64,140,72575,1,0,0:0:0:0:
120,328,72746,2,0,L|132:192,1,99.0000030212403,2|0,0:0|0:0,0:0:0:0:
72,40,73089,2,0,P|48:84|60:144,1,99.0000030212403,8|0,0:0|0:0,0:0:0:0:
244,188,73432,2,0,P|268:144|256:84,1,99.0000030212403,0|2,0:0|0:0,0:0:0:0:
172,264,73775,6,0,B|208:248|248:264|248:264|288:280|320:264,1,148.50000453186,8|0,0:0|0:0,0:0:0:0:
336,248,74118,1,2,0:0:0:0:
160,156,74289,1,0,0:0:0:0:
212,332,74461,2,0,P|188:344|144:340,1,49.5000015106202,8|0,0:0|0:0,0:0:0:0:
36,272,74632,2,0,L|88:280,1,49.5000015106202,0|0,0:0|0:0,0:0:0:0:
160,156,74803,1,0,0:0:0:0:
80,364,74975,1,2,0:0:0:0:
4,202,75146,2,0,L|12:86,1,99.0000030212403,8|0,0:0|0:0,0:0:0:0:
336,248,75489,6,0,P|296:276|236:266,1,99.0000030212403,2|0,0:0|0:0,0:0:0:0:
216,156,75746,2,0,P|256:128|316:138,1,99.0000030212403,2|0,0:0|0:0,0:0:0:0:
276,200,76003,1,2,0:0:0:0:
176,338,76175,6,0,L|126:331,1,49.5000015106202,8|0,0:0|0:0,0:0:0:0:
4,202,76346,1,2,0:0:0:0:
32,246,76432,1,0,0:0:0:0:
82,232,76518,2,0,P|90:208|82:168,1,49.5000015106202,8|0,0:0|0:0,0:0:0:0:
7,0,76689,2,0,P|-1:24|11:68,1,49.5000015106202,8|8,0:0|0:0,0:0:0:0:
51,113,76861,5,2,0:0:0:0:
129,108,77032,1,0,0:0:0:0:
202,77,77204,1,8,0:0:0:0:
183,154,77375,1,0,0:0:0:0:
193,232,77546,1,0,0:0:0:0:
366,136,77718,6,0,L|264:130,1,99.0000030212403,2|8,0:0|0:0,0:0:0:0:
267,130,78061,1,0,0:0:0:0:
449,149,78232,5,2,0:0:0:0:
420,75,78403,1,0,0:0:0:0:
395,210,78575,1,8,0:0:0:0:
430,355,78746,5,0,0:0:0:0:
469,285,78918,1,0,0:0:0:0:
420,222,79089,1,2,0:0:0:0:
343,241,79261,1,8,0:0:0:0:
256,349,79432,5,0,0:0:0:0:
256,349,79518,1,0,0:0:0:0:
256,349,79603,2,0,L|130:351,1,99.0000030212403,2|0,0:0|0:0,0:0:0:0:
41,319,79946,1,8,0:0:0:0:
131,181,80118,2,0,L|122:271,2,49.5000015106202,0|0|0,0:0|0:0|0:0,0:0:0:0:
157,350,80461,5,0,0:0:0:0:
50,193,80632,1,8,0:0:0:0:
199,53,80803,1,0,0:0:0:0:
35,40,80975,6,0,B|64:57|64:57|79:120,1,99.0000030212403,2|0,0:0|0:0,0:0:0:0:
79,120,81232,1,0,0:0:0:0:
79,120,81318,1,8,0:0:0:0:
261,237,81489,1,0,0:0:0:0:
243,213,81575,2,0,L|117:223,1,99.0000030212403,2|0,0:0|0:0,0:0:0:0:
69,230,81832,1,2,0:0:0:0:
302,53,82003,1,8,0:0:0:0:
302,53,82089,2,0,B|272:70|272:70|257:133,1,99.0000030212403,2|0,0:0|0:0,0:0:0:0:
243,213,82346,5,2,0:0:0:0:
199,53,82518,1,0,0:0:0:0:
343,122,82689,2,0,L|452:121,1,99.0000030212403,8|0,0:0|0:0,0:0:0:0:
460,123,82946,1,2,0:0:0:0:
256,125,83118,5,0,0:0:0:0:
256,125,83203,1,2,0:0:0:0:
460,123,83375,1,8,0:0:0:0:
334,293,83546,6,0,L|327:220,1,49.5000015106202,0|0,0:0|0:0,0:0:0:0:
325,204,83718,1,2,0:0:0:0:
454,287,83889,1,0,0:0:0:0:
441,365,84061,1,8,0:0:0:0:
243,229,84232,5,0,0:0:0:0:
243,229,84318,2,0,L|120:247,1,99.0000030212403,2|0,0:0|0:0,0:0:0:0:
115,247,84575,2,0,L|121:186,1,49.5000015106202,0|0,0:0|0:0,0:0:0:0:
133,121,84746,1,8,0:0:0:0:
206,317,84918,6,0,L|201:366,1,49.5000015106202,0|0,0:0|0:0,0:0:0:0:
201,366,85089,1,6,0:0:0:0:
268,157,85261,5,0,0:0:0:0:
415,319,85432,1,8,0:0:0:0:
201,366,85603,1,0,0:0:0:0:
327,214,85775,5,2,0:3:0:0:
261,5,85946,5,2,0:0:0:0:
327,214,86118,1,8,0:0:0:0:
474,52,86289,1,0,0:0:0:0:
247,84,86461,5,2,0:0:0:0:
402,186,86632,1,0,0:0:0:0:
402,186,86718,1,2,0:0:0:0:
412,0,86889,1,0,0:0:0:0:
412,0,86974,1,2,0:0:0:0:
227,169,87146,5,8,0:0:0:0:
150,192,87318,1,8,0:0:0:0:
165,114,87489,1,8,0:0:0:0:
307,181,87661,6,0,L|297:244,1,49.5000015106202,0|0,0:0|0:0,0:0:0:0:
274,371,87832,1,6,0:0:0:0:
256,192,87918,12,2,89203,0:0:0:0:
100,136,97432,6,0,P|136:184|136:240,1,90,2|0,0:0|0:0,0:0:0:0:
310,114,97689,2,0,P|282:167|292:222,1,90,2|0,0:0|0:0,0:0:0:0:
199,69,97946,2,0,L|206:148,1,67.5000025749208,2|0,0:0|0:0,0:0:0:0:
220,264,98118,5,8,0:0:0:0:
376,188,98289,1,2,0:0:0:0:
376,188,98375,1,0,0:0:0:0:
376,188,98461,2,0,L|440:176,1,40.4999987640381,8|0,0:0|0:0,0:0:0:0:
464,280,98632,2,0,L|424:273,1,40.4999987640381,2|2,0:0|0:0,0:0:0:0:
240,136,98803,6,0,B|295:127|295:127|338:101|338:101|393:91,1,161.999995056153,6|0,0:0|0:0,0:0:0:0:
393,91,99146,2,0,P|395:55|404:8,1,80.9999975280763,8|0,0:0|0:0,0:0:0:0:
348,196,99489,1,0,0:0:0:0:
240,136,99661,2,0,P|247:183|250:216,1,80.9999975280763,2|8,0:0|0:0,0:0:0:0:
213,325,100003,1,0,0:0:0:0:
352,344,100175,6,0,P|284:300|204:336,1,161.999995056153,2|8,0:0|0:0,0:0:0:0:
372,248,100689,1,0,0:0:0:0:
372,248,100775,1,0,0:0:0:0:
372,248,100861,2,0,P|384:204|372:144,1,80.9999975280763,0|2,0:0|0:0,0:0:0:0:
344,96,101203,1,8,0:0:0:0:
64,224,101546,6,0,B|120:232|172:188|172:188|149:217|160:260,1,161.999995056153,2|8,0:0|0:0,0:0:0:0:
276,240,102061,2,0,L|204:236,1,40.4999987640381,0|0,0:0|0:0,0:0:0:0:
64,224,102232,1,0,0:0:0:0:
220,84,102403,6,0,P|243:116|247:156,1,80.9999975280763,2|8,0:0|0:0,0:0:0:0:
208,320,102746,1,0,0:0:0:0:
64,224,102918,5,0,0:0:0:0:
88,136,103089,2,0,P|127:132|164:148,1,80.9999975280763,2|8,0:0|0:0,0:0:0:0:
289,272,103432,1,0,0:0:0:0:
344,208,103603,2,0,P|284:188|204:276,1,161.999995056153,2|8,0:0|0:0,0:0:0:0:
284,352,104118,1,0,0:0:0:0:
284,352,104203,1,0,0:0:0:0:
284,352,104289,6,0,L|289:272,1,80.9999975280763,2|0,0:0|0:0,0:0:0:0:
264,72,104632,1,8,0:0:0:0:
336,120,104803,1,0,0:0:0:0:
342,34,104975,1,0,0:0:0:0:
258,158,105146,6,0,P|196:176|152:176,1,80.9999975280763,2|8,0:0|0:0,0:0:0:0:
180,88,105489,1,0,0:0:0:0:
304,256,105661,5,0,0:0:0:0:
376,212,105832,2,0,B|452:196|436:264|524:240,1,144,2|0,0:0|0:0,0:0:0:0:
304,256,106346,2,0,L|228:264,1,72,0|0,0:0|0:0,0:0:0:0:
412,136,106689,2,0,L|424:44,1,72,8|0,0:0|0:0,0:0:0:0:
421,64,106946,1,0,0:0:0:0:
421,64,107032,5,2,0:0:0:0:
266,339,107375,2,0,L|347:328,1,80.9999975280763,8|0,0:0|0:0,0:0:0:0:
464,232,107718,2,0,B|432:224|432:224|384:252,1,80.9999975280763,0|2,0:0|0:0,0:0:0:0:
390,248,107975,1,0,0:0:0:0:
390,248,108061,6,0,L|384:188,1,40.4999987640381,8|0,0:0|0:0,0:0:0:0:
376,128,108232,1,0,0:0:0:0:
445,339,108403,6,0,P|393:334|337:327,1,99.0000030212403,2|0,0:0|0:0,0:0:0:0:
120,336,108661,2,0,P|168:340|218:346,1,99.0000030212403,2|0,0:0|0:0,0:0:0:0:
284,228,108918,2,0,P|280:259|278:277,1,49.5000015106202,2|0,0:0|0:0,0:0:0:0:
212,152,109089,6,0,P|202:210|194:263,1,99.0000030212403,8|0,0:0|0:0,0:0:0:0:
196,249,109346,1,0,0:0:0:0:
196,249,109432,2,0,L|112:260,1,49.5000015106202,8|0,0:0|0:0,0:0:0:0:
132,88,109603,2,0,L|82:82,1,49.5000015106202,0|0,0:0|0:0,0:0:0:0:
0,190,109775,5,6,0:0:0:0:
0,190,109946,1,0,0:0:0:0:
136,170,110118,2,0,L|30:184,1,99.0000030212403,8|0,0:0|0:0,0:0:0:0:
227,121,110461,6,0,P|240:184|230:224,1,72,2|0,0:0|0:0,0:0:0:0:
92,301,110803,2,0,P|140:258|179:246,1,72,8|0,0:0|0:0,0:0:0:0:
403,277,111146,6,0,B|316:256|336:324|250:304,1,161.999995056153,2|8,0:0|0:0,0:0:0:0:
266,184,111661,2,0,L|276:224,1,40.4999987640381,0|0,0:0|0:0,0:0:0:0:
377,356,111832,1,0,0:0:0:0:
472,136,112003,6,0,P|461:179|456:224,1,80.9999975280763,2|8,0:0|0:0,0:0:0:0:
379,366,112346,1,0,0:0:0:0:
364,192,112518,6,0,P|360:110|352:12,1,161.999995056153,2|8,0:0|0:0,0:0:0:0:
180,136,113032,1,0,0:0:0:0:
180,136,113118,1,0,0:0:0:0:
180,136,113203,2,0,P|216:156|284:144,1,80.9999975280763,0|2,0:0|0:0,0:0:0:0:
292,24,113546,2,0,P|256:4|188:16,1,80.9999975280763,8|0,0:0|0:0,0:0:0:0:
80,100,113889,5,0,0:0:0:0:
236,80,114061,1,2,0:0:0:0:
236,80,114232,2,0,L|144:92,1,80.9999975280763,8|0,0:0|0:0,0:0:0:0:
0,110,114575,5,2,0:0:0:0:
92,8,114746,2,0,L|84:72,1,40.4999987640381,2|0,0:0|0:0,0:0:0:0:
64,204,114918,1,8,0:0:0:0:
8,24,115089,1,0,0:0:0:0:
156,184,115261,6,0,B|248:192|216:136|316:144,1,161.999995056153,6|8,0:0|0:0,0:0:0:0:
176,104,115775,1,0,0:0:0:0:
288,223,115946,1,0,0:0:0:0:
308,143,116118,5,2,0:0:0:0:
156,184,116289,1,8,0:0:0:0:
284,303,116461,2,0,L|288:223,1,80.9999975280763,0|0,0:0|0:0,0:0:0:0:
292,60,116803,1,2,0:0:0:0:
292,60,116889,1,0,0:0:0:0:
292,60,116975,1,8,0:0:0:0:
157,167,117146,6,0,B|190:184|225:170|225:170|266:127|324:147,1,161.999995056153,0|2,0:0|0:0,0:0:0:0:
472,176,117661,2,0,L|368:188,1,80.9999975280763,8|2,0:0|0:0,0:0:0:0:
176,252,118003,5,2,0:0:0:0:
248,356,118175,1,0,0:0:0:0:
248,356,118261,1,0,0:0:0:0:
248,356,118346,2,0,B|260:320|260:320|252:260,1,80.9999975280763,8|0,0:0|0:0,0:0:0:0:
92,247,118689,2,0,B|73:286|73:286|72:324,1,80.9999975280763,2|0,0:0|0:0,0:0:0:0:
164,313,118946,1,2,0:0:0:0:
167,296,119032,6,0,L|175:251,1,45,0|0,0:0|0:0,0:0:0:0:
208,80,119203,1,2,0:0:0:0:
80,140,119375,6,0,B|168:120|144:192|244:168,2,161.999995056153,6|2|2,0:0|0:0|0:0,0:0:0:0:
189,30,120061,6,0,P|201:53|207:79,1,53.9999983520508,8|8,0:0|0:0,0:0:0:0:
430,164,120232,1,2,0:0:0:0:
429,171,120318,1,0,0:0:0:0:
427,176,120404,6,0,P|412:198|393:217,1,53.9999983520508,8|0,0:0|0:0,0:0:0:0:
325,60,120575,1,0,0:0:0:0:
327,66,120661,1,0,0:0:0:0:
328,71,120746,6,0,P|308:140|268:172,1,99.0000030212403,6|0,0:0|0:0,0:0:0:0:
496,232,121003,2,0,P|427:252|394:292,1,99.0000030212403,6|0,0:0|0:0,0:0:0:0:
336,228,121261,2,0,L|384:172,1,49.5000015106202,6|0,0:0|0:0,0:0:0:0:
484,56,121432,5,8,0:0:0:0:
484,56,121775,2,0,B|420:4|352:32|352:32|404:36|424:76,1,202.500007724762,2|0,0:0|0:0,0:0:0:0:
312,104,122118,6,0,P|280:115|246:114,1,67.5000025749208,6|0,0:0|0:0,0:0:0:0:
115,167,122289,2,0,P|146:155|180:156,1,67.5000025749208,2|0,0:0|0:0,0:0:0:0:
271,39,122461,6,0,P|237:38|206:26,1,67.5000025749208,8|0,0:0|0:0,0:0:0:0:
156,232,122632,2,0,P|189:232|220:244,1,67.5000025749208,2|0,0:0|0:0,0:0:0:0:
324,315,122803,5,8,0:0:0:0:
320,300,122889,2,0,L|304:228,1,67.5000025749208,8|0,0:0|0:0,0:0:0:0:
291,160,123061,1,8,0:0:0:0:
347,109,123146,6,0,B|391:61|391:61|367:229,1,202.500007724762,8|0,0:0|0:0,0:0:0:0:
305,234,123489,6,0,P|253:226|217:162,1,99.0000030212403,6|0,0:0|0:0,0:0:0:0:
233,366,123746,2,0,P|265:324|339:325,1,99.0000030212403,6|0,0:0|0:0,0:0:0:0:
174,261,124003,2,0,P|178:286|164:317,1,49.5000015106202,6|0,0:0|0:0,0:0:0:0:
95,369,124175,5,8,0:0:0:0:
95,369,124518,2,0,L|79:145,1,202.500007724762,2|0,0:0|0:0,0:0:0:0:
40,101,124861,6,0,P|62:90|87:88,1,49.5000015106202,6|0,0:0|0:0,0:0:0:0:
299,237,125032,2,0,B|204:244|250:176|138:190,1,148.50000453186,0|0,0:0|0:0,0:0:0:0:
164,188,125375,6,0,P|171:221|167:265,1,49.5000015106202,0|0,0:0|0:0,0:0:0:0:
287,157,125546,2,0,P|287:132|293:108,1,49.5000015106202,2|0,0:0|0:0,0:0:0:0:
211,65,125718,1,0,0:0:0:0:
239,313,125889,6,0,L|243:365,6,26.9999991760254,8|0|0|0|0|0|0,0:0|0:0|0:0|0:0|0:0|0:0|0:0,0:0:0:0:
171,237,126232,6,0,B|223:213|223:213|311:240,1,135.000005149842,6|0,0:0|0:0,0:0:0:0:
507,259,126489,2,0,B|455:283|455:283|367:256,1,135.000005149842,6|0,0:0|0:0,0:0:0:0:
344,104,126746,2,0,L|353:170,1,67.5000025749208,6|0,0:0|0:0,0:0:0:0:
380,337,126918,5,2,0:0:0:0:
311,307,127003,2,0,P|338:271|407:268,1,90,2|0,0:0|0:0,0:0:0:0:
507,259,127261,6,0,B|562:303|510:367|446:359|427:319|427:319|403:339|379:336,1,236.250002253056,8|0,0:0|0:0,0:0:0:0:
360,184,127603,6,0,P|384:183|408:188,1,49.5000015106202,6|2,0:0|0:0,0:0:0:0:
512,120,127775,2,0,P|487:125|463:124,1,49.5000015106202,0|0,1:0|1:0,0:0:0:0:
344,28,127946,1,8,0:0:0:0:
348,16,128032,1,0,0:0:0:0:
352,4,128118,6,0,P|386:51|376:112,1,112.5,6|8,0:0|1:2,0:0:0:0:
388,282,128375,2,0,P|354:235|364:174,1,112.5,0|0,1:0|0:0,0:0:0:0:
380,102,128632,6,0,B|420:156|420:156|268:124,1,202.500007724762,2|0,1:0|0:0,0:0:0:0:
128,76,128975,6,0,B|184:88|184:88|252:56,1,116.999994644165,6|0,0:0|0:0,0:0:0:0:
243,230,129232,2,0,B|248:170|248:170|287:128,1,116.999994644165,6|0,0:0|0:0,0:0:0:0:
97,219,129489,2,0,L|144:184,1,58.4999973220826,6|0,0:0|0:0,0:0:0:0:
320,52,129661,5,8,0:0:0:0:
320,52,130003,2,0,B|296:28|288:-4|288:-4|224:80|288:140,1,202.500007724762,8|0,0:0|0:0,0:0:0:0:
370,181,130346,6,0,L|378:114,1,49.5000015106202,8|0,0:0|0:0,0:0:0:0:
159,72,130518,1,2,0:0:0:0:
161,86,130604,1,2,0:0:0:0:
163,100,130690,2,0,L|169:150,1,49.5000015106202,8|0,0:0|0:0,0:0:0:0:
319,327,130861,6,0,P|322:302|316:278,1,49.5000015106202,2|2,0:0|0:0,0:0:0:0:
194,290,131032,2,0,P|190:314|196:338,1,49.5000015106202,10|0,0:0|0:0,0:0:0:0:
376,132,131203,1,0,0:0:0:0:
281,208,131375,6,0,B|373:181|356:260|465:232,1,175.499991966248,6|0,0:0|0:0,0:0:0:0:
449,236,131718,6,0,L|440:110,1,99.0000030212403,2|0,0:0|0:0,0:0:0:0:
166,281,132061,2,0,L|158:379,1,99.0000030212403,8|0,0:0|0:0,0:0:0:0:
322,146,132403,2,0,P|267:118|176:155,1,148.50000453186,0|0,0:0|0:0,0:0:0:0:
167,156,132746,1,8,0:0:0:0:
34,263,132918,6,0,P|3:224|4:173,1,99.0000030212403,0|2,0:0|0:0,0:0:0:0:
242,269,133261,2,0,P|237:317|203:352,1,99.0000030212403,0|8,0:0|0:0,0:0:0:0:
75,200,133603,2,0,L|86:44,1,148.50000453186,0|0,0:0|0:0,0:0:0:0:
87,27,133946,1,2,0:0:0:0:
205,38,134118,2,0,L|343:47,1,99.0000030212403,8|0,0:0|0:0,0:0:0:0:
462,164,134461,6,0,P|426:203|324:191,1,148.50000453186,2|0,0:0|0:0,0:0:0:0:
316,185,134803,1,8,0:0:0:0:
372,58,134975,1,0,0:0:0:0:
412,286,135146,2,0,L|429:391,1,99.0000030212403,0|2,0:0|0:0,0:0:0:0:
462,164,135489,1,8,0:0:0:0:
299,272,135661,2,0,L|237:265,1,49.5000015106202,0|0,0:0|0:0,0:0:0:0:
441,148,135832,6,0,P|370:138|316:185,1,148.50000453186,2|0,0:0|0:0,0:0:0:0:
298,271,136175,2,0,L|293:321,1,49.5000015106202,8|0,0:0|0:0,0:0:0:0:
315,185,136346,6,0,P|280:122|210:108,1,148.50000453186,0|0,0:0|0:0,0:0:0:0:
185,112,136689,1,2,0:0:0:0:
336,66,136861,2,0,L|440:35,1,99.0000030212403,8|0,0:0|0:0,0:0:0:0:
213,282,137203,6,0,P|164:290|119:272,1,99.0000030212403,2|0,0:0|0:0,0:0:0:0:
347,76,137546,2,0,L|453:54,1,99.0000030212403,8|0,0:0|0:0,0:0:0:0:
219,263,137889,2,0,P|170:267|126:245,1,99.0000030212403,0|2,0:0|0:0,0:0:0:0:
70,75,138232,2,0,L|33:244,1,148.50000453186,8|0,0:0|0:0,0:0:0:0:
31,243,138575,5,2,0:0:0:0:
75,61,138746,1,0,0:0:0:0:
0,326,138918,2,0,P|41:331|102:305,1,99.0000030212403,8|0,0:0|0:0,0:0:0:0:
276,203,139261,2,0,P|230:184|181:188,1,99.0000030212403,0|2,0:0|0:0,0:0:0:0:
327,322,139603,2,0,L|443:309,1,99.0000030212403,8|0,0:0|0:0,0:0:0:0:
329,55,139946,6,0,P|331:122|359:159,1,99.0000030212403,2|0,0:0|0:0,0:0:0:0:
216,268,140289,1,8,0:0:0:0:
409,88,140461,2,0,P|430:73|471:62,1,49.5000015106202,0|0,0:0|0:0,0:0:0:0:
480,63,140632,1,0,0:0:0:0:
251,121,140803,5,2,0:0:0:0:
85,217,140975,1,8,0:0:0:0:
120,22,141146,1,0,0:0:0:0:
201,183,141318,6,8,B|195:207|204:231|204:231|188:211|163:203,1,99.0000030212403,2|0,0:0|0:0,0:0:0:0:
87,174,141575,2,0,B|66:191|42:195|42:195|66:199|85:217,1,99.0000030212403,2|0,0:0|0:0,0:0:0:0:
91,298,141832,2,0,P|116:288|158:288,1,49.5000015106202,2|0,0:0|0:0,0:0:0:0:
382,320,142003,1,8,0:0:0:0:
335,317,142088,1,0,0:0:0:0:
298,287,142174,1,2,0:0:0:0:
286,241,142260,1,0,0:0:0:0:
278,193,142345,5,8,0:0:0:0:
282,144,142432,1,0,0:0:0:0:
311,106,142518,1,0,0:0:0:0:
356,92,142603,1,0,0:0:0:0:
403,98,142689,5,2,0:0:0:0:
278,193,142861,1,0,0:0:0:0:
196,48,143032,1,8,0:0:0:0:
94,141,143203,1,0,0:0:0:0:
118,142,143288,1,0,0:0:0:0:
143,143,143374,1,0,0:0:0:0:
168,144,143460,1,0,0:0:0:0:
192,145,143545,1,2,0:0:0:0:
2,143,143718,2,0,L|9:251,1,99.0000030212403,8|0,0:0|0:0,0:0:0:0:
216,274,144061,5,2,0:0:0:0:
99,276,144232,1,0,0:0:0:0:
192,145,144403,1,8,0:0:0:0:
192,145,144576,1,0,0:0:0:0:
216,146,144661,1,0,0:0:0:0:
241,147,144747,1,0,0:0:0:0:
266,148,144833,1,0,0:0:0:0:
290,149,144918,1,2,0:0:0:0:
400,135,145089,2,0,L|393:36,1,99.0000030212403,8|0,0:0|0:0,0:0:0:0:
284,232,145432,5,2,0:0:0:0:
148,145,145603,1,0,0:0:0:0:
303,55,145775,1,8,0:0:0:0:
311,252,145946,1,0,0:0:0:0:
310,276,146031,1,0,0:0:0:0:
309,301,146117,1,0,0:0:0:0:
308,326,146203,1,0,0:0:0:0:
307,350,146288,1,2,0:0:0:0:
191,195,146461,1,8,0:0:0:0:
191,195,146632,1,0,0:0:0:0:
190,220,146718,1,0,0:0:0:0:
189,244,146803,5,2,0:0:0:0:
307,350,146975,1,0,0:0:0:0:
430,257,147146,1,8,0:0:0:0:
315,154,147318,1,0,0:0:0:0:
315,154,147489,1,0,0:0:0:0:
314,178,147574,1,0,0:0:0:0:
313,203,147660,1,2,0:0:0:0:
312,228,147746,1,0,0:0:0:0:
311,252,147831,1,8,0:0:0:0:
428,331,148003,1,0,0:0:0:0:
219,333,148175,6,0,P|169:334|125:312,1,99.0000030212403,2|0,0:0|0:0,0:0:0:0:
293,51,148518,2,0,P|342:49|386:71,1,99.0000030212403,8|0,0:0|0:0,0:0:0:0:
449,178,148861,1,0,0:0:0:0:
251,134,149032,1,2,0:0:0:0:
338,241,149203,2,0,L|345:349,1,99.0000030212403,8|0,0:0|0:0,0:0:0:0:
150,151,149546,6,0,L|156:52,1,99.0000030212403,2|0,0:0|0:0,0:0:0:0:
453,130,149889,2,0,B|430:136|430:136|345:128,1,99.0000030212403,8|0,0:0|0:0,0:0:0:0:
338,134,150146,1,0,0:0:0:0:
320,139,150232,1,0,0:0:0:0:
227,55,150403,1,2,0:0:0:0:
92,193,150575,2,0,L|202:205,1,99.0000030212403,8|0,0:0|0:0,0:0:0:0:
290,253,150918,5,2,0:0:0:0:
160,109,151089,1,0,0:0:0:0:
88,316,151261,1,8,0:0:0:0:
187,228,151432,1,0,0:0:0:0:
187,228,151518,1,0,0:0:0:0:
187,228,151603,2,0,L|196:294,1,49.5000015106202,0|0,0:0|0:0,0:0:0:0:
270,347,151775,2,0,L|279:281,1,49.5000015106202,2|0,0:0|0:0,0:0:0:0:
348,195,151946,1,8,0:0:0:0:
411,314,152118,1,0,0:0:0:0:
419,152,152289,6,0,P|349:110|283:154,1,125.999996154785,2|0,0:0|0:0,0:0:0:0:
187,228,152546,2,0,P|234:267|294:258,1,125.999996154785,2|0,0:0|0:0,0:0:0:0:
348,195,152803,1,2,0:0:0:0:
422,279,152975,2,0,L|492:286,1,62.9999980773926,8|0,0:0|0:0,0:0:0:0:
324,330,153146,1,2,0:0:0:0:
292,326,153231,1,0,0:0:0:0:
261,323,153317,1,8,0:0:0:0:
222,141,153489,1,8,0:0:0:0:
190,137,153574,1,8,0:0:0:0:
159,134,153660,1,6,0:0:0:0:
52,192,153832,5,0,0:0:0:0:
130,51,154003,2,0,P|150:79|158:135,1,90,8|0,0:0|0:0,0:0:0:0:
142,221,154261,1,8,0:0:0:0:
142,221,154346,2,0,L|194:229,1,45,0|0,0:0|0:0,0:0:0:0:
422,279,154518,1,10,0:0:0:0:
304,364,154689,6,0,B|288:326|288:326|300:266,1,90,8|0,0:0|0:0,0:0:0:0:
297,278,154946,1,0,0:0:0:0:
297,278,155032,1,2,0:0:0:0:
452,148,155203,1,0,0:0:0:0:
416,364,155375,5,8,0:0:0:0:
422,279,155546,1,0,0:0:0:0:
492,324,155718,1,0,0:0:0:0:
232,224,155889,5,10,0:0:0:0:
312,196,156061,1,8,1:2:0:0:
220,372,156232,5,0,1:2:0:0:
220,372,156318,1,0,1:2:0:0:
220,372,156403,2,0,P|164:328|92:336,1,135,6|0,0:0|0:0,0:0:0:0:
80,344,156746,1,8,0:0:0:0:
4,148,156918,5,0,0:2:0:0:
36,120,157003,1,0,0:0:0:0:
44,76,157089,1,0,0:0:0:0:
84,96,157175,1,0,0:0:0:0:
128,92,157261,1,2,0:2:0:0:
232,224,157432,1,8,0:0:0:0:
280,40,157603,1,0,0:0:0:0:
336,228,157775,6,0,B|356:116|356:116|292:152,1,180,2|8,0:0|0:0,0:0:0:0:
112,176,158289,1,0,0:0:0:0:
104,180,158375,1,8,0:0:0:0:
96,184,158461,2,0,L|188:196,1,90,0|2,0:0|0:0,0:0:0:0:
396,308,158803,2,0,L|303:321,1,90,8|0,0:0|0:0,0:0:0:0:
260,316,159061,1,0,0:0:0:0:
260,316,159146,6,0,L|452:332,2,180,6|8|0,0:0|0:0|1:0,0:0:0:0:
0,372,160003,1,0,1:0:0:0:
180,264,160175,2,0,B|164:304|164:304|176:356,1,90,8|0,0:0|0:0,0:0:0:0:
0,372,160518,6,0,B|24:296|24:296|4:192,1,180,2|8,0:0|0:0,0:0:0:0:
100,56,161032,1,0,0:0:0:0:
176,88,161203,2,0,L|80:80,1,90,0|2,1:0|1:2,0:0:0:0:
5,197,161546,1,8,0:0:0:0:
180,264,161718,1,0,1:2:0:0:
176,252,161803,1,0,1:2:0:0:
172,240,161889,1,6,1:2:0:0:
76,140,162061,1,0,0:0:0:0:
260,80,162232,5,8,0:2:0:0:
265,91,162318,2,0,L|173:87,1,90,0|0,0:0|0:0,0:0:0:0:
76,140,162575,2,0,B|88:172|88:172|80:240,1,90,2|2,0:2|0:0,0:0:0:0:
160,352,162918,1,8,0:0:0:0:
312,212,163089,2,0,L|264:192,1,45,2|0,1:2|0:0,0:0:0:0:
256,188,163261,6,0,L|348:184,1,90,2|0,0:0|0:0,0:0:0:0:
368,182,163518,1,2,0:0:0:0:
428,352,163689,1,0,0:0:0:0:
428,352,163775,1,2,0:0:0:0:
471,269,163946,2,0,B|416:260|416:260|380:272,1,90,8|2,0:0|0:0,0:0:0:0:
148,336,164203,1,0,0:0:0:0:
136,320,164289,2,0,B|191:310|191:310|224:320,1,90,8|0,0:0|0:0,0:0:0:0:
428,352,164632,5,6,0:0:0:0:
359,162,164803,1,0,0:0:0:0:
355,177,164889,1,0,0:0:0:0:
349,192,164975,1,8,0:0:0:0:
401,70,165146,1,0,0:0:0:0:
391,278,165318,2,0,B|349:297|304:277|304:277|259:255|214:284,1,180,0|8,0:0|0:0,0:0:0:0:
266,347,165832,1,0,0:0:0:0:
349,192,166003,6,0,P|372:154|366:110,1,90,2|0,0:0|0:0,0:0:0:0:
335,12,166346,2,0,P|329:55|352:93,1,90,8|0,0:0|0:0,0:0:0:0:
512,225,166689,2,0,P|469:206|416:219,1,90,0|2,0:0|0:0,0:0:0:0:
189,249,167032,2,0,P|232:255|273:236,1,90,8|0,0:0|0:0,0:0:0:0:
289,220,167289,1,0,0:0:0:0:
289,220,167375,6,0,L|271:323,2,90,2|0|8,0:0|0:0|0:0,0:0:0:0:
324,71,167890,1,0,0:0:0:0:
321,86,167975,1,0,0:0:0:0:
318,101,168061,1,0,0:0:0:0:
365,292,168232,2,0,L|356:336,2,45,2|0|8,0:0|0:0|0:0,0:0:0:0:
219,160,168575,1,0,0:0:0:0:
403,52,168746,6,0,P|374:7|255:26,1,180,2|8,0:0|0:0,0:0:0:0:
266,236,169261,2,0,P|290:214|302:187,1,45
302,191,169432,2,0,L|316:297,1,90,0|2,0:0|0:0,0:0:0:0:
315,293,169689,1,0,0:0:0:0:
316,306,169775,2,0,L|262:315,1,45,8|0,0:0|0:0,0:0:0:0:
387,215,169946,2,0,L|431:207,1,45
269,83,170118,5,2,0:0:0:0:
269,83,170289,1,0,0:0:0:0:
315,293,170461,1,8,0:0:0:0:
315,293,170632,1,0,0:0:0:0:
47,277,170803,2,0,P|88:206|187:208,1,180
245,169,171318,2,0,P|255:195|241:231,1,45
178,202,171489,6,0,P|170:153|200:107,1,90,2|0,0:0|0:0,0:0:0:0:
269,83,171832,1,8,0:0:0:0:
178,202,172003,1,0,0:0:0:0:
336,181,172175,1,0,0:0:0:0:
275,259,172346,1,2,0:0:0:0:
427,222,172518,1,8,0:0:0:0:
336,341,172689,1,0,0:0:0:0:
105,295,172861,5,2,0:0:0:0:
336,341,173032,1,0,0:0:0:0:
336,341,173118,1,0,0:0:0:0:
336,341,173203,1,8,0:0:0:0:
336,181,173375,1,0,0:0:0:0:
275,259,173546,1,0,0:0:0:0:
250,232,173632,1,0,0:0:0:0:
238,197,173718,1,2,0:0:0:0:
239,163,173803,1,0,0:0:0:0:
253,129,173889,1,8,0:0:0:0:
422,64,174061,1,0,0:0:0:0:
415,355,174232,6,0,P|353:362|302:327,1,125.999996154785,2|0,0:0|0:0,0:0:0:0:
335,180,174489,2,0,P|396:173|448:208,1,125.999996154785,2|0,0:0|0:0,0:0:0:0:
376,268,174746,1,2,0:0:0:0:
241,74,174918,1,8,0:0:0:0:
275,259,175089,1,2,0:0:0:0:
473,99,175261,1,8,0:0:0:0:
422,64,175346,1,8,0:0:0:0:
361,44,175432,1,8,0:0:0:0:
298,50,175518,1,8,0:0:0:0:
241,74,175604,5,6,0:0:0:0:
94,230,175775,1,0,0:0:0:0:
245,201,175946,1,8,0:0:0:0:
245,201,176032,1,0,0:0:0:0:
245,201,176118,1,0,0:0:0:0:
245,201,176461,2,0,L|239:290,1,90,2|8,0:0|0:0,0:0:0:0:
442,63,176975,5,2,0:0:0:0:
442,63,177061,1,0,0:0:0:0:
442,63,177146,1,0,0:0:0:0:
456,208,177318,1,8,0:0:0:0:
442,62,177489,2,0,P|368:109|286:80,1,180,0|2,0:0|0:0,0:0:0:0:
181,125,178003,1,8,0:0:0:0:
181,125,178346,6,0,L|174:36,2,90,2|0|8,0:0|0:0|0:0,0:0:0:0:
180,124,178861,2,0,P|258:163|333:122,1,180,0|2,0:0|0:0,0:0:0:0:
471,144,179375,1,8,0:0:0:0:
471,144,179718,6,0,L|475:237,1,90,2|0,0:0|0:0,0:0:0:0:
480,372,180061,1,8,0:0:0:0:
480,372,180232,2,0,P|406:325|323:351,1,180,0|2,0:0|0:0,0:0:0:0:
367,225,180746,1,8,0:0:0:0:
367,225,181089,6,0,L|277:220,1,90,2|0,0:0|0:0,0:0:0:0:
61,221,181432,1,8,0:0:0:0:
61,221,181603,2,0,P|19:144|59:67,1,180,0|2,0:0|0:0,0:0:0:0:
252,52,182118,1,8,0:0:0:0:
252,52,182461,6,0,L|162:57,1,90,2|0,0:0|0:0,0:0:0:0:
286,207,182803,1,8,0:0:0:0:
286,207,182975,2,0,L|106:200,1,180,0|2,0:0|0:0,0:0:0:0:
234,295,183489,1,8,0:0:0:0:
234,295,183832,6,0,L|324:287,1,90,2|0,0:0|0:0,0:0:0:0:
479,188,184175,1,8,0:0:0:0:
479,188,184346,2,0,L|299:171,1,180,0|2,0:0|0:0,0:0:0:0:
106,184,184861,1,8,0:0:0:0:
106,184,185203,6,0,B|120:139|120:139|112:51,2,135,2|2|2,0:0|0:0|0:0,0:0:0:0:
50,312,185889,1,8,0:0:0:0:
212,292,186061,1,2,0:0:0:0:
28,316,186232,1,8,0:0:0:0:
28,316,186575,6,0,B|14:276|14:276|25:229,1,90,6|0,0:0|0:0,0:0:0:0:
240,169,186918,1,8,0:0:0:0:
106,184,187089,1,0,0:0:0:0:
269,166,187261,2,0,B|283:126|283:126|271:79,1,90,0|2,0:0|0:0,0:0:0:0:
499,142,187603,1,8,0:0:0:0:
361,131,187775,1,0,0:0:0:0:
436,60,187946,5,2,0:0:0:0:
426,209,188118,1,0,0:0:0:0:
426,209,188203,1,0,0:0:0:0:
426,209,188289,1,8,0:0:0:0:
289,81,188461,1,0,0:0:0:0:
431,133,188632,1,0,0:0:0:0:
317,231,188803,1,2,0:0:0:0:
426,209,188975,1,8,0:0:0:0:
376,370,189146,1,0,0:0:0:0:
472,266,189318,5,2,0:0:0:0:
317,231,189489,1,0,0:0:0:0:
317,231,189575,1,0,0:0:0:0:
317,231,189661,1,8,0:0:0:0:
431,133,189832,1,0,0:0:0:0:
431,133,189918,1,0,0:0:0:0:
431,133,190003,1,0,0:0:0:0:
215,119,190175,1,2,0:0:0:0:
324,128,190346,1,8,0:0:0:0:
109,112,190518,1,0,0:0:0:0:
109,112,190603,1,0,0:0:0:0:
109,112,190689,6,0,L|102:201,1,90,2|0,0:0|0:0,0:0:0:0:
100,228,190946,1,0,0:0:0:0:
100,228,191032,1,8,0:0:0:0:
264,212,191203,1,0,0:0:0:0:
283,315,191375,1,0,0:0:0:0:
19,277,191546,2,0,B|7:234|7:234|15:189,1,90,2|8,0:0|0:0,0:0:0:0:
109,112,191889,1,0,0:0:0:0:
183,166,192061,6,0,L|274:153,1,90,2|0,0:0|0:0,0:0:0:0:
461,312,192403,1,8,0:0:0:0:
326,286,192575,1,0,0:0:0:0:
483,288,192746,1,0,0:0:0:0:
304,314,192918,2,0,L|196:319,1,90,2|8,0:0|0:0,0:0:0:0:
19,277,193261,1,0,0:0:0:0:
26,281,193346,1,0,0:0:0:0:
34,284,193432,6,0,P|45:240|41:196,1,90,2|0,0:0|0:0,0:0:0:0:
185,100,193775,1,8,0:0:0:0:
109,50,193946,2,0,P|97:93|101:137,1,90,0|0,0:0|0:0,0:0:0:0:
274,92,194289,2,0,L|183:99,1,90,2|8,0:0|0:0,0:0:0:0:
368,185,194632,1,0,0:0:0:0:
373,191,194718,1,0,0:0:0:0:
378,197,194803,6,0,L|288:190,1,90,2|0,0:0|0:0,0:0:0:0:
469,284,195146,2,0,L|378:290,1,90,8|0,0:0|0:0,0:0:0:0:
146,344,195489,1,0,0:0:0:0:
307,311,195661,1,2,0:0:0:0:
102,273,195832,1,8,0:0:0:0:
230,362,196003,1,0,0:0:0:0:
16,328,196175,6,0,B|1:282|1:282|14:196,2,135,2|2|2,0:0|0:0|0:0,0:0:0:0:
244,258,196861,1,8,0:0:0:0:
102,273,197032,1,2,0:0:0:0:
264,255,197203,1,8,0:0:0:0:
81,275,197374,1,8,0:0:0:0:
81,275,197461,1,8,0:0:0:0:
81,275,197546,6,0,B|72:233|72:233|81:186,1,90,6|0,0:0|0:0,0:0:0:0:
326,151,197889,1,8,0:0:0:0:
326,151,198061,2,0,B|347:206|347:206|337:327,1,180,0|2,0:0|0:0,0:0:0:0:
337,326,198575,1,8,0:0:0:0:
143,346,198918,6,0,L|134:256,2,90,2|0|8,0:0|0:0|0:0,0:0:0:0:
19,273,199432,2,0,B|5:222|5:222|32:93,1,180,0|2,0:0|0:0,0:0:0:0:
31,97,199946,1,8,0:0:0:0:
283,87,200289,6,0,L|193:94,2,90,2|0|8,0:0|0:0|0:0,0:0:0:0:
403,27,200803,2,0,B|427:76|427:76|413:207,1,180,0|2,0:0|0:0,0:0:0:0:
413,200,201318,1,8,0:0:0:0:
294,349,201661,6,0,L|284:259,2,90,2|0|8,0:0|0:0|0:0,0:0:0:0:
120,311,202175,2,0,B|145:262|145:262|134:137,1,180,0|2,0:0|0:0,0:0:0:0:
134,137,202689,1,8,0:0:0:0:
357,165,203032,6,0,L|267:159,2,90,2|0|8,0:0|0:0|0:0,0:0:0:0:
468,254,203546,2,0,B|441:208|441:208|456:82,1,180,0|2,0:0|0:0,0:0:0:0:
456,82,204061,1,8,0:0:0:0:
260,35,204403,6,0,L|274:126,2,90,2|0|8,0:0|0:0|0:0,0:0:0:0:
150,113,204918,2,0,B|119:167|119:167|132:283,1,180,0|2,0:0|0:0,0:0:0:0:
132,283,205432,1,8,0:0:0:0:
362,319,205775,6,0,L|273:313,2,90,2|0|8,0:0|0:0|0:0,0:0:0:0:
469,179,206289,2,0,B|447:225|447:225|462:353,1,180,0|2,0:0|0:0,0:0:0:0:
462,353,206803,1,8,0:0:0:0:
210,204,207146,6,0,L|347:195,2,135,2|2|2,0:0|0:0|0:0,0:0:0:0:
65,81,207832,1,8,0:0:0:0:
219,92,208003,1,2,0:0:0:0:
42,79,208175,1,8,0:0:0:0:
241,93,208346,1,0,0:0:0:0:
241,93,208432,1,0,0:0:0:0:
241,93,208518,6,0,B|259:138|259:138|248:178,1,90,2|0,0:0|0:0,0:0:0:0:
113,335,208861,1,8,0:0:0:0:
113,335,209032,2,0,L|130:154,1,180,0|2,0:0|0:0,0:0:0:0:
42,79,209546,1,8,0:0:0:0:
42,79,209889,6,0,B|28:122|28:122|44:163,1,90,2|0,0:0|0:0,0:0:0:0:
311,58,210232,1,8,0:0:0:0:
311,58,210403,2,0,L|129:40,1,180,0|2,0:0|0:0,0:0:0:0:
131,40,210918,1,8,0:0:0:0:
234,184,211261,6,0,B|273:163|273:163|319:169,1,90,2|0,0:0|0:0,0:0:0:0:
476,284,211603,1,8,0:0:0:0:
476,284,211775,2,0,L|277:265,1,180,0|2,0:0|0:0,0:0:0:0:
296,266,212289,1,8,0:0:0:0:
41,277,212632,6,0,B|25:322|25:322|41:360,1,90,2|0,0:0|0:0,0:0:0:0:
251,195,212975,1,8,0:0:0:0:
251,195,213146,2,0,L|70:199,1,180,0|2,0:0|0:0,0:0:0:0:
71,198,213661,1,8,0:0:0:0:
326,149,214003,6,0,B|341:193|341:193|329:235,1,90,2|0,0:0|0:0,0:0:0:0:
95,86,214346,1,8,0:0:0:0:
95,86,214518,2,0,L|275:77,1,180,0|2,0:0|0:0,0:0:0:0:
274,77,215032,1,8,0:0:0:0:
40,259,215375,6,0,B|26:217|26:217|43:173,1,90,2|0,0:0|0:0,0:0:0:0:
303,237,215718,1,8,0:0:0:0:
303,237,215889,2,0,L|119:222,1,180,0|2,0:0|0:0,0:0:0:0:
123,222,216403,1,8,0:0:0:0:
382,323,216746,6,0,B|396:282|396:282|384:236,1,90,2|0,0:0|0:0,0:0:0:0:
227,80,217089,1,8,0:0:0:0:
227,80,217261,2,0,L|217:261,1,180,0|2,0:0|0:0,0:0:0:0:
217,259,217775,1,8,0:0:0:0:
35,331,218118,6,0,B|13:270|13:270|34:203,2,135,2|2|2,0:0|0:0|0:0,0:0:0:0:
287,282,218803,1,8,0:0:0:0:
146,300,218975,1,2,0:0:0:0:
310,278,219146,1,8,0:0:0:0:
122,303,219318,5,0,0:0:0:0:
122,303,219403,1,8,0:0:0:0:
122,303,219489,1,6,0:0:0:0:
