osu file format v14

[General]
AudioFilename: audio.mp3
AudioLeadIn: 0
PreviewTime: 77812
Countdown: 0
SampleSet: Normal
StackLeniency: 0.7
Mode: 2
LetterboxInBreaks: 0
EpilepsyWarning: 1
WidescreenStoryboard: 0

[Editor]
DistanceSpacing: 0.8
BeatDivisor: 8
GridSize: 4
TimelineZoom: 2.899999

[Metadata]
Title:ouroVoros
TitleUnicode:ouroVoros
Artist:Negentropy (a.k.a. Team Grimoire)
ArtistUnicode:Negentropy (a.k.a. Team Grimoire)
Creator:autofanboy
Version:salchow's overdose
Source:
Tags:BMS BOFU2017 OF FIGHTERS ULTIMATE 2017 LEGENDA EST A MYTH Employ “Zero-Origin” Zero Origin Symphonic Roar teamgrimoire Λögeln Aogeln CHAOS MAGNVM Muse Dash Give Up TREATMENT Vol.4 Groove Coaster Hardcore Gothic Video Game Instrumental Electronic Ouroboros Cycle alienflybot AFB Razor Sharp Arthas IDu5t IDust Jemzuu AJamez Daletto salchow
BeatmapID:2410216
BeatmapSetID:1087679

[Difficulty]
HPDrainRate:6
CircleSize:4
OverallDifficulty:9.2
ApproachRate:9.2
SliderMultiplier:2
SliderTickRate:2

[Events]
//Background and Video events
0,0,"Meeting with Shade_DaisanART.jpg",0,0
Video,-295,"video.mp4"
//Break Periods
2,57256,60377
2,70229,72053
//Storyboard Layer 0 (Background)
//Storyboard Layer 1 (Fail)
//Storyboard Layer 2 (Pass)
//Storyboard Layer 3 (Foreground)
//Storyboard Layer 4 (Overlay)
//Storyboard Sound Samples

[TimingPoints]
-25,324.324324324324,4,1,1,70,1,0
5164,-71.4285714285714,4,1,1,70,0,0
5812,-71.4285714285714,4,1,10,40,0,0
10353,-71.4285714285714,4,1,1,70,0,0
11002,-71.4285714285714,4,1,10,40,0,0
14245,-71.4285714285714,4,1,1,40,0,0
14569,-71.4285714285714,4,1,1,42,0,0
14893,-71.4285714285714,4,1,1,44,0,0
15218,-71.4285714285714,4,1,1,46,0,0
15542,-58.8235294117647,4,1,1,48,0,0
15866,-71.4285714285714,4,1,1,10,0,0
16029,-71.4285714285714,4,1,1,50,0,0
18137,-52.6315789473684,4,1,1,50,0,0
18461,-71.4285714285714,4,1,1,10,0,0
18623,-71.4285714285714,4,1,1,50,0,0
19272,-71.4285714285714,4,1,1,10,0,0
19434,-71.4285714285714,4,1,1,50,0,0
20731,-71.4285714285714,4,1,1,50,0,0
21218,-71.4285714285714,4,1,1,52,0,0
21542,-71.4285714285714,4,1,1,54,0,0
22029,-71.4285714285714,4,1,1,56,0,0
22515,-71.4285714285714,4,1,1,58,0,0
22839,-71.4285714285714,4,1,1,60,0,0
23326,-71.4285714285714,4,1,1,50,0,0
23974,-71.4285714285714,4,1,1,52,0,0
24623,-71.4285714285714,4,1,1,54,0,0
25272,-71.4285714285714,4,1,1,56,0,0
25515,-71.4285714285714,4,1,1,58,0,0
25758,-71.4285714285714,4,1,1,60,0,0
25920,-71.4285714285714,4,1,1,70,0,1
26164,-71.4285714285714,4,1,1,10,0,1
26245,-41.6666666666667,4,1,1,70,0,1
26407,-71.4285714285714,4,1,1,10,0,1
26488,-41.6666666666667,4,1,1,70,0,1
28191,-71.4285714285714,4,1,1,70,0,1
28515,-71.4285714285714,4,1,1,70,0,1
28758,-71.4285714285714,4,1,1,10,0,1
28839,-71.4285714285714,4,1,1,70,0,1
29974,-71.4285714285714,4,1,1,50,0,1
30056,-71.4285714285714,4,1,1,70,0,1
30785,-41.6666666666667,4,1,1,70,0,1
31029,-71.4285714285714,4,1,1,10,0,1
31110,-71.4285714285714,4,1,1,70,0,1
31272,-71.4285714285714,4,1,1,10,0,1
31353,-41.6666666666667,4,1,1,70,0,1
35002,-71.4285714285714,4,1,1,70,0,0
35326,-41.6666666666667,4,1,1,70,0,1
36664,-71.4285714285714,4,1,1,30,0,0
36704,-71.4285714285714,4,1,1,25,0,0
36745,-71.4285714285714,4,1,1,20,0,0
36785,-71.4285714285714,4,1,1,15,0,0
36826,-71.4285714285714,4,1,1,10,0,0
36866,-71.4285714285714,4,1,1,70,0,0
36947,-37.037037037037,4,1,1,70,0,1
37596,-71.4285714285714,4,1,1,70,0,1
37920,-71.4285714285714,4,1,1,70,0,1
38569,-71.4285714285714,4,1,1,70,0,1
38893,-37.037037037037,4,1,1,70,0,1
39056,-71.4285714285714,4,1,1,10,0,1
39137,-71.4285714285714,4,1,1,70,0,1
41164,-71.4285714285714,4,1,1,70,0,1
41407,-71.4285714285714,4,1,1,10,0,1
41488,-38.4615384615385,4,1,1,70,0,1
41650,-71.4285714285714,4,1,1,10,0,1
41731,-71.4285714285714,4,1,1,70,0,1
46677,-71.4285714285714,4,1,1,70,0,0
47002,-71.4285714285714,4,1,1,10,0,0
47164,-71.4285714285714,4,1,1,70,0,0
47326,-71.4285714285714,4,1,1,10,0,0
47488,-71.4285714285714,4,1,1,70,0,0
47974,-71.4285714285714,4,1,1,10,0,0
48137,-71.4285714285714,4,1,1,70,0,0
48461,-71.4285714285714,4,1,1,10,0,0
48623,-71.4285714285714,4,1,1,70,0,0
48785,-71.4285714285714,4,1,1,10,0,0
48866,-71.4285714285714,4,1,1,70,0,0
49029,-71.4285714285714,4,1,1,10,0,0
49110,-71.4285714285714,4,1,1,70,0,0
49758,-71.4285714285714,4,1,1,10,0,0
49839,-71.4285714285714,4,1,1,70,0,0
50083,-71.4285714285714,4,1,1,50,0,0
50164,-71.4285714285714,4,1,1,70,0,0
50326,-71.4285714285714,4,1,1,10,0,0
50407,-71.4285714285714,4,1,1,70,0,0
52434,-71.4285714285714,4,1,1,10,0,0
52515,-71.4285714285714,4,1,1,70,0,0
53326,-71.4285714285714,4,1,1,10,0,0
53407,-71.4285714285714,4,1,1,70,0,0
53569,-71.4285714285714,4,1,1,10,0,0
53650,-71.4285714285714,4,1,1,70,0,0
53812,-71.4285714285714,4,1,1,10,0,0
53893,-71.4285714285714,4,1,1,70,0,0
54056,-71.4285714285714,4,1,1,10,0,0
54137,-71.4285714285714,4,1,1,70,0,0
54218,-71.4285714285714,4,1,1,10,0,0
54299,-71.4285714285714,4,1,1,70,0,0
54380,-71.4285714285714,4,1,1,10,0,0
54461,-71.4285714285714,4,1,1,70,0,0
54623,-71.4285714285714,4,1,1,10,0,0
54704,-71.4285714285714,4,1,1,70,0,0
54866,-71.4285714285714,4,1,1,10,0,0
54947,-71.4285714285714,4,1,1,70,0,0
55110,-71.4285714285714,4,1,1,10,0,0
55191,-71.4285714285714,4,1,1,70,0,0
55353,-71.4285714285714,4,1,1,10,0,0
55434,-71.4285714285714,4,1,1,70,0,0
55515,-71.4285714285714,4,1,1,10,0,0
55596,-71.4285714285714,4,1,1,70,0,0
55677,-71.4285714285714,4,1,1,10,0,0
55758,-71.4285714285714,4,1,1,70,0,0
56407,-71.4285714285714,4,1,1,70,0,0
57056,-71.4285714285714,4,1,1,40,0,0
67434,-71.4285714285714,4,1,1,40,0,0
68569,-71.4285714285714,4,1,1,40,0,0
68650,-71.4285714285714,4,1,1,10,0,0
68731,-71.4285714285714,4,1,1,40,0,0
69866,-71.4285714285714,4,1,1,40,0,0
69947,-71.4285714285714,4,1,1,10,0,0
70029,-71.4285714285714,4,1,1,40,0,0
71326,-71.4285714285714,4,1,1,40,0,0
71407,-71.4285714285714,4,1,1,40,0,0
72461,-71.4285714285714,4,1,1,40,0,0
72542,-71.4285714285714,4,1,1,10,0,0
72623,-71.4285714285714,4,1,1,70,0,0
74002,-71.4285714285714,4,2,66,30,0,0
76515,-71.4285714285714,4,1,66,40,0,0
76677,-71.4285714285714,4,1,1,10,0,0
77812,-71.4285714285714,4,1,1,70,0,1
77974,-71.4285714285714,4,1,1,10,0,1
78056,-71.4285714285714,4,1,1,70,0,1
80326,-71.4285714285714,4,1,1,10,0,1
80407,-71.4285714285714,4,1,1,70,0,1
81947,-43.4782608695652,4,1,1,70,0,1
82191,-71.4285714285714,4,1,1,70,0,1
82434,-43.4782608695652,4,1,1,70,0,1
83002,-71.4285714285714,4,1,1,70,0,1
83326,-71.4285714285714,4,1,2,40,0,1
83407,-71.4285714285714,4,1,1,70,0,1
83650,-71.4285714285714,4,1,1,70,0,1
83974,-71.4285714285714,4,1,2,40,0,1
84056,-71.4285714285714,4,1,1,70,0,1
84299,-71.4285714285714,4,1,1,70,0,1
84623,-71.4285714285714,4,1,2,40,0,1
84704,-71.4285714285714,4,1,1,70,0,1
84947,-71.4285714285714,4,1,1,70,0,1
85272,-71.4285714285714,4,1,1,70,0,1
87866,-71.4285714285714,4,1,1,70,0,0
88191,-71.4285714285714,4,1,1,70,0,1
88353,-71.4285714285714,4,1,1,10,0,1
88434,-71.4285714285714,4,1,1,70,0,1
90461,-50,4,1,1,70,0,1
90704,-71.4285714285714,4,1,1,50,0,1
90785,-43.4782608695652,4,1,1,70,0,1
91414,-71.4285714285714,4,1,1,70,0,1
92326,-43.4782608695652,4,1,1,70,0,1
92569,-71.4285714285714,4,1,1,70,0,1
92812,-43.4782608695652,4,1,1,70,0,1
93380,-71.4285714285714,4,1,1,70,0,1
93704,-71.4285714285714,4,1,2,40,0,1
93705,-71.4285714285714,4,1,2,40,0,1
93785,-71.4285714285714,4,1,1,70,0,1
94029,-71.4285714285714,4,1,1,70,0,1
94353,-71.4285714285714,4,1,2,40,0,1
94434,-71.4285714285714,4,1,1,70,0,1
94678,-71.4285714285714,4,1,1,70,0,1
95002,-71.4285714285714,4,1,2,40,0,1
95083,-71.4285714285714,4,1,1,70,0,1
95326,-71.4285714285714,4,1,1,70,0,1
95651,-71.4285714285714,4,1,1,70,0,1
95974,-71.4285714285714,4,1,1,75,0,1
97272,-71.4285714285714,4,1,1,80,0,1
98488,-71.4285714285714,4,1,1,80,0,0
98569,-71.4285714285714,4,1,1,80,0,1
98731,-71.4285714285714,4,1,1,40,0,0
100029,-71.4285714285714,4,1,1,20,0,0
100110,-71.4285714285714,4,1,1,40,0,0
100272,-71.4285714285714,4,1,1,10,0,0
100353,-71.4285714285714,4,1,1,40,0,0
102623,-71.4285714285714,4,1,1,10,0,0
102704,-71.4285714285714,4,1,1,40,0,0
102866,-71.4285714285714,4,1,1,10,0,0
102947,-71.4285714285714,4,1,1,40,0,0
105218,-71.4285714285714,4,1,1,10,0,0
105299,-71.4285714285714,4,1,1,40,0,0
105461,-71.4285714285714,4,1,1,20,0,0
105542,-71.4285714285714,4,1,1,40,0,0
108948,-71.4285714285714,4,1,1,40,0,0
109110,-71.4285714285714,4,1,1,20,0,0
111542,-71.4285714285714,4,1,1,22,0,0
112029,-71.4285714285714,4,1,1,10,0,0
112191,-71.4285714285714,4,1,1,24,0,0
112677,-71.4285714285714,4,1,1,10,0,0
112839,-71.4285714285714,4,1,1,26,0,0
113326,-71.4285714285714,4,1,1,10,0,0
113488,-71.4285714285714,4,1,1,28,0,0
113974,-71.4285714285714,4,1,1,10,0,0
114137,-71.4285714285714,4,1,1,30,0,0
115272,-71.4285714285714,4,1,1,10,0,0
115434,-71.4285714285714,4,1,1,32,0,0
115920,-71.4285714285714,4,1,1,10,0,0
116083,-71.4285714285714,4,1,1,34,0,0
116407,-71.4285714285714,4,1,1,36,0,0
116731,-71.4285714285714,4,1,1,38,0,0
118029,-71.4285714285714,4,1,1,40,0,0
119245,-71.4285714285714,4,1,1,10,0,0
119326,-71.4285714285714,4,1,1,70,0,1
124515,-71.4285714285714,4,1,2,40,0,1
124596,-71.4285714285714,4,1,1,70,0,1
124758,-71.4285714285714,4,1,2,40,0,1
124839,-71.4285714285714,4,1,1,70,0,1
125002,-71.4285714285714,4,1,2,40,0,1
125083,-71.4285714285714,4,1,1,70,0,1
125245,-71.4285714285714,4,1,2,40,0,1
125326,-71.4285714285714,4,1,1,70,0,1
125812,-71.4285714285714,4,1,2,40,0,1
125893,-71.4285714285714,4,1,1,70,0,1
126056,-71.4285714285714,4,1,2,40,0,1
126137,-71.4285714285714,4,1,1,70,0,1
126299,-71.4285714285714,4,1,2,40,0,1
126380,-71.4285714285714,4,1,1,70,0,1
126542,-71.4285714285714,4,1,2,40,0,1
126623,-71.4285714285714,4,1,1,70,0,1
127110,-71.4285714285714,4,1,2,40,0,1
127191,-71.4285714285714,4,1,1,70,0,1
127353,-71.4285714285714,4,1,2,40,0,1
127434,-71.4285714285714,4,1,1,70,0,1
127596,-71.4285714285714,4,1,2,40,0,1
127677,-71.4285714285714,4,1,1,70,0,1
127839,-71.4285714285714,4,1,2,40,0,1
127920,-71.4285714285714,4,1,1,70,0,1
128407,-34.4827586206897,4,1,1,70,0,1
128569,-71.4285714285714,4,1,1,10,0,1
128650,-34.4827586206897,4,1,1,70,0,1
128812,-34.4827586206897,4,1,1,10,0,1
128893,-34.4827586206897,4,1,1,70,0,1
129056,-34.4827586206897,4,1,1,10,0,1
129137,-34.4827586206897,4,1,1,70,0,1
129299,-34.4827586206897,4,1,1,10,0,1
129380,-34.4827586206897,4,1,1,70,0,1
129461,-34.4827586206897,4,1,1,10,0,1
129542,-34.4827586206897,4,1,1,70,0,1
129623,-34.4827586206897,4,1,1,10,0,1
129704,-71.4285714285714,4,1,1,75,0,1
129866,-71.4285714285714,4,1,1,10,0,1
129947,-71.4285714285714,4,1,1,75,0,1
132299,-71.4285714285714,4,1,1,80,0,1
132461,-71.4285714285714,4,1,1,10,0,1
132542,-71.4285714285714,4,1,1,80,0,1
133596,-71.4285714285714,4,1,1,85,0,1
133758,-71.4285714285714,4,1,1,10,0,1
133839,-71.4285714285714,4,1,1,85,0,1
134488,-71.4285714285714,4,1,1,10,0,1
134569,-71.4285714285714,4,1,1,85,0,1
134893,-71.4285714285714,4,1,1,85,0,1
135056,-71.4285714285714,4,1,1,10,0,1
135137,-71.4285714285714,4,1,1,85,0,1
135299,-71.4285714285714,4,1,1,10,0,1
135380,-71.4285714285714,4,1,1,85,0,1
135542,-71.4285714285714,4,1,1,10,0,1
135623,-71.4285714285714,4,1,1,85,0,1
135785,-71.4285714285714,4,1,1,10,0,1
135866,-71.4285714285714,4,1,1,85,0,1
135947,-71.4285714285714,4,1,1,10,0,1
136029,-71.4285714285714,4,1,1,85,0,1
136110,-71.4285714285714,4,1,1,10,0,1
136191,-71.4285714285714,4,1,1,85,0,1
136353,-71.4285714285714,4,1,1,10,0,1
136434,-71.4285714285714,4,1,1,85,0,1
136596,-71.4285714285714,4,1,1,10,0,1
136677,-71.4285714285714,4,1,1,85,0,1
136839,-71.4285714285714,4,1,1,10,0,1
136920,-71.4285714285714,4,1,1,85,0,1
137083,-71.4285714285714,4,1,1,10,0,1
137164,-71.4285714285714,4,1,1,85,0,1
137245,-71.4285714285714,4,1,1,10,0,1
137326,-71.4285714285714,4,1,1,85,0,1
137407,-71.4285714285714,4,1,1,10,0,1
137488,-71.4285714285714,4,1,1,85,0,1
138785,-71.4285714285714,4,1,1,85,0,1
140002,-71.4285714285714,4,1,1,10,0,0
140083,-71.4285714285714,4,1,1,85,0,1
140245,-71.4285714285714,4,1,1,85,0,0
141380,-71.4285714285714,4,2,1,10,0,0
142029,-71.4285714285714,4,2,1,12,0,0
142677,-71.4285714285714,4,2,1,14,0,0
143326,-71.4285714285714,4,2,1,16,0,0
143974,-71.4285714285714,4,2,1,18,0,0
145353,-71.4285714285714,4,2,1,16,0,0
145434,-71.4285714285714,4,2,1,14,0,0
145515,-71.4285714285714,4,2,1,12,0,0
145596,-71.4285714285714,4,2,1,10,0,0
145920,-71.4285714285714,4,2,1,8,0,0
146245,-71.4285714285714,4,2,66,5,0,0

[Colours]
Combo1 : 250,28,20
Combo2 : 253,175,92
Combo3 : 130,121,104
Combo4 : 101,55,57

[HitObjects]
167,280,5164,6,0,B|62:278|62:278|186:277,1,209.999993591309,4|0,0:0|0:0,0:0:0:0:
345,280,5488,2,0,B|450:278|450:278|326:277,1,209.999993591309,4|0,0:0|0:0,0:0:0:0:
166,278,5812,1,2,0:0:0:0:
346,278,6461,1,2,0:0:0:0:
166,278,7110,1,2,0:0:0:0:
346,278,7759,1,2,0:0:0:0:
166,278,8407,1,2,0:0:0:0:
346,278,9056,1,2,0:0:0:0:
166,278,9704,1,2,0:0:0:0:
345,280,10353,6,0,B|450:278|450:278|326:277,1,209.999993591309,4|0,0:0|0:0,0:0:0:0:
167,280,10677,2,0,B|62:278|62:278|186:277,1,209.999993591309,4|0,0:0|0:0,0:0:0:0:
346,278,11001,1,2,0:0:0:0:
166,278,11650,1,2,0:0:0:0:
346,278,12299,1,2,0:0:0:0:
166,278,12948,1,2,0:0:0:0:
346,278,13596,1,2,0:0:0:0:
166,278,14245,5,0,3:0:0:0:
81,237,14353,1,0,3:0:0:0:
167,217,14461,1,0,3:0:0:0:
336,216,14569,1,0,3:0:0:0:
254,194,14677,1,0,3:0:0:0:
169,167,14785,1,0,3:0:0:0:
346,278,14893,1,0,3:0:0:0:
431,237,15001,1,0,3:0:0:0:
345,217,15109,1,0,3:0:0:0:
75,219,15218,1,0,3:0:0:0:
254,194,15326,1,0,3:0:0:0:
439,157,15434,1,0,3:0:0:0:
75,219,15542,5,4,0:0:0:0:
75,219,15562,1,0,0:0:0:0:
437,219,16029,1,4,0:0:0:0:
437,219,16049,1,0,0:0:0:0:
437,219,17974,5,0,0:0:0:0:
255,213,18056,1,0,0:0:0:0:
75,219,18137,1,4,0:0:0:0:
75,219,18157,1,0,0:0:0:0:
437,219,18624,1,4,0:0:0:0:
437,219,18643,1,0,0:0:0:0:
75,219,18947,1,4,0:0:0:0:
75,219,18968,1,0,0:0:0:0:
266,203,19434,5,0,3:0:0:0:
341,180,19515,1,0,3:0:0:0:
266,203,19596,1,0,3:0:0:0:
196,183,19677,1,0,3:0:0:0:
266,181,19758,1,0,3:0:0:0:
341,180,19839,1,0,3:0:0:0:
265,150,19920,1,0,3:0:0:0:
196,183,20002,1,0,3:0:0:0:
265,192,20083,1,0,3:0:0:0:
341,180,20164,1,0,3:0:0:0:
92,209,20245,5,0,3:0:0:0:
71,168,20299,1,0,0:0:0:0:
85,124,20353,1,0,0:0:0:0:
125,102,20407,1,0,3:0:0:0:
196,104,20488,1,0,3:0:0:0:
438,110,20569,1,0,3:0:0:0:
367,112,20650,1,0,3:0:0:0:
196,104,20731,5,4,0:0:0:0:
147,151,20812,1,0,0:0:0:0:
154,218,20893,1,0,0:0:0:0:
210,256,20974,1,0,0:0:0:0:
154,218,21056,1,0,0:0:0:0:
210,256,21137,1,0,0:0:0:0:
288,263,21218,5,4,0:0:0:0:
318,202,21299,1,0,0:0:0:0:
291,140,21380,1,0,0:0:0:0:
226,120,21461,1,0,0:0:0:0:
297,140,21542,5,4,0:0:0:0:
373,136,21623,1,0,0:0:0:0:
297,140,21704,1,0,0:0:0:0:
226,120,21785,1,0,0:0:0:0:
297,140,21866,1,0,0:0:0:0:
373,136,21947,1,0,0:0:0:0:
299,140,22029,6,0,L|300:224,1,69.9999978637696,4|0,0:0|0:0,0:0:0:0:
377,212,22191,2,0,L|378:296,1,69.9999978637696,4|0,0:0|0:0,0:0:0:0:
299,211,22353,1,0,0:0:0:0:
219,214,22434,1,0,0:0:0:0:
299,211,22515,5,4,0:0:0:0:
324,147,22596,1,0,0:0:0:0:
301,82,22677,1,0,0:0:0:0:
232,48,22758,1,0,0:0:0:0:
301,82,22839,5,4,0:0:0:0:
224,96,22920,1,0,0:0:0:0:
144,108,23002,1,0,0:0:0:0:
224,96,23083,1,0,0:0:0:0:
301,82,23164,1,0,0:0:0:0:
224,96,23245,1,0,0:0:0:0:
384,123,23326,6,0,L|460:125,1,69.9999978637696,4|0,3:0|3:0,0:0:0:0:
384,123,23488,2,0,L|298:124,1,69.9999978637696,0|0,3:0|3:0,0:0:0:0:
128,123,23650,2,0,L|52:125,1,69.9999978637696,0|0,3:0|3:0,0:0:0:0:
128,123,23812,2,0,L|214:124,1,69.9999978637696,0|0,3:0|3:0,0:0:0:0:
406,248,23974,5,4,3:0:0:0:
432,184,24055,1,0,3:0:0:0:
406,122,24136,1,0,3:0:0:0:
342,96,24217,1,0,0:0:0:0:
106,248,24299,1,0,3:0:0:0:
81,184,24380,1,0,3:0:0:0:
107,122,24461,1,0,3:0:0:0:
171,96,24542,1,0,3:0:0:0:
342,96,24623,5,4,0:0:0:0:
365,122,24663,1,0,0:0:0:0:
365,156,24704,1,0,0:0:0:0:
344,183,24744,1,0,0:0:0:0:
311,191,24785,1,0,0:0:0:0:
275,193,24826,1,0,0:0:0:0:
253,219,24866,1,0,0:0:0:0:
253,253,24907,1,0,0:0:0:0:
274,280,24947,1,0,0:0:0:0:
307,288,24988,1,0,0:0:0:0:
346,289,25029,1,0,0:0:0:0:
307,288,25069,1,0,0:0:0:0:
270,290,25110,1,0,0:0:0:0:
234,292,25150,1,0,0:0:0:0:
269,290,25191,1,0,0:0:0:0:
307,288,25231,1,0,0:0:0:0:
346,289,25272,6,0,P|388:242|305:194,1,174.999994659424,4|0,0:0|0:0,0:0:0:0:
246,192,25515,2,0,P|182:140|279:76,1,209.999993591309,4|4,0:0|0:0,0:0:0:0:
419,70,25839,1,0,0:0:0:0:
254,66,25920,6,0,L|53:66,1,139.999995727539,6|0,0:0|0:0,0:0:0:0:
379,69,26245,2,0,B|379:306|379:306|227:117|227:117|479:121,1,719.999978027344,8|2,0:0|0:0,0:0:0:0:
396,120,26812,1,0,0:0:0:0:
315,118,26893,1,8,0:0:0:0:
284,133,26933,1,0,0:0:0:0:
259,157,26974,1,0,0:0:0:0:
241,187,27014,1,0,0:0:0:0:
233,221,27055,1,0,0:0:0:0:
234,256,27095,1,0,0:0:0:0:
246,289,27136,1,0,0:0:0:0:
266,318,27176,1,0,0:0:0:0:
293,339,27218,6,0,B|437:146|437:146|114:145,1,479.999985351563,2|8,0:0|0:0,0:0:0:0:
200,213,27562,2,0,B|200:-26|200:-26|426:51|426:51|428:273,1,689.999978942872,0|2,0:0|0:0,0:0:0:0:
350,265,28110,1,0,0:0:0:0:
72,259,28191,1,8,0:0:0:0:
151,274,28272,1,0,0:0:0:0:
72,259,28353,1,0,0:0:0:0:
151,274,28434,1,0,0:0:0:0:
350,265,28515,6,0,P|387:218|293:127,1,209.999993591309,6|0,0:0|0:0,0:0:0:0:
90,132,28839,2,0,L|72:94,2,34.9999989318848,8|0|0,0:0|0:0|0:0,0:0:0:0:
166,135,29002,1,0,0:0:0:0:
238,135,29083,1,2,0:0:0:0:
166,135,29164,2,0,L|120:137,1,34.9999989318848,0|0,0:0|0:0,0:0:0:0:
358,161,29326,2,0,L|404:163,1,34.9999989318848,2|0,0:0|0:0,0:0:0:0:
103,183,29488,1,8,0:0:0:0:
255,199,29569,1,0,0:0:0:0:
417,219,29650,1,0,0:0:0:0:
121,184,29812,5,2,0:0:0:0:
89,195,29852,1,0,0:0:0:0:
71,224,29893,1,0,0:0:0:0:
75,258,29933,1,0,0:0:0:0:
100,282,29974,1,0,0:0:0:0:
175,283,30056,1,0,0:0:0:0:
388,279,30137,1,8,0:0:0:0:
316,280,30218,1,0,0:0:0:0:
175,283,30299,1,0,0:0:0:0:
100,282,30380,1,2,0:0:0:0:
316,280,30461,2,0,L|343:243,2,46.6666652425131,0|0|0,0:0|0:0|0:0,0:0:0:0:
175,283,30623,2,0,L|148:245,2,46.6666652425131,2|0|0,0:0|0:0|0:0,0:0:0:0:
388,279,30785,6,0,B|447:140|350:184|394:43|394:43|270:49|270:49|91:56,1,479.999985351563,12|6,0:0|0:0,0:0:0:0:
159,53,31130,2,0,P|113:88|219:187,1,244.999992523194,0|0,0:0|0:0,0:0:0:0:
221,189,31434,2,0,B|461:189|461:189|217:197,1,479.999985351563,8|0,0:0|0:0,0:0:0:0:
153,202,31839,1,0,0:0:0:0:
222,196,31920,1,2,0:0:0:0:
153,202,32002,1,0,0:0:0:0:
382,212,32083,2,0,L|380:83,1,119.999996337891,8|0,0:0|0:0,0:0:0:0:
149,206,32245,2,0,L|151:77,1,119.999996337891,0|0,0:0|0:0,0:0:0:0:
380,231,32407,6,0,B|142:218|142:218|145:389|145:389|144:318|144:318|312:148|312:148|316:16|316:16|312:144,1,959.999970703126,2|0,0:0|0:0,0:0:0:0:
250,17,33137,1,0,0:0:0:0:
100,120,33218,1,2,0:0:0:0:
37,121,33299,1,0,0:0:0:0:
288,240,33380,2,0,L|288:92,1,119.999996337891,8|0,0:0|0:0,0:0:0:0:
220,236,33542,2,0,L|220:88,1,119.999996337891,0|0,0:0|0:0,0:0:0:0:
497,125,33704,6,0,L|2:113,1,479.999985351563,6|8,0:0|0:0,0:0:0:0:
18,113,34049,2,0,B|28:352|28:352|132:314,1,329.9999899292,0|2,0:0|0:0,0:0:0:0:
195,230,34353,1,0,0:0:0:0:
114,320,34434,1,0,0:0:0:0:
28,350,34515,2,0,L|112:257,1,119.999996337891,2|0,0:0|0:0,0:0:0:0:
297,194,34677,1,8,0:0:0:0:
297,162,34758,1,0,0:0:0:0:
221,150,34839,1,0,0:0:0:0:
220,101,34920,1,0,0:0:0:0:
459,186,35002,6,0,L|461:148,1,34.9999989318848,4|0,0:0|0:0,0:0:0:0:
79,190,35164,2,0,L|77:152,1,34.9999989318848,4|0,0:0|0:0,0:0:0:0:
219,186,35326,2,0,L|474:185,1,239.999992675781,8|4,0:0|0:0,0:0:0:0:
458,185,35529,1,0,0:0:0:0:
79,190,35812,2,0,L|77:159,1,29.9999990844727,4|0,0:0|0:0,0:0:0:0:
219,186,35974,2,0,L|474:185,1,239.999992675781,8|4,0:0|0:0,0:0:0:0:
458,185,36177,1,0,0:0:0:0:
160,164,36623,5,2,0:0:0:0:
160,164,36663,1,0,0:0:0:0:
208,168,36704,1,0,0:0:0:0:
256,168,36744,1,0,0:0:0:0:
304,168,36785,1,0,0:0:0:0:
352,168,36825,1,0,0:0:0:0:
352,168,36866,1,2,0:0:0:0:
160,164,36947,6,0,B|132:336|132:336|152:224|152:224|396:216|396:216|432:92|432:92|396:216|396:216|104:224,1,1080.00000411987,6|2,0:0|0:0,0:0:0:0:
76,207,37636,1,0,0:0:0:0:
58,177,37677,1,0,0:0:0:0:
57,143,37717,1,0,0:0:0:0:
73,112,37758,1,0,0:0:0:0:
103,94,37798,1,0,0:0:0:0:
137,94,37839,1,0,0:0:0:0:
408,80,37920,6,0,L|416:172,1,69.9999978637696,8|0,0:0|0:0,0:0:0:0:
252,124,38083,2,0,L|260:216,1,69.9999978637696,0|2,0:0|0:0,0:0:0:0:
104,80,38245,2,0,L|96:172,1,69.9999978637696,0|0,0:0|0:0,0:0:0:0:
252,124,38407,2,0,L|244:216,1,69.9999978637696,2|0,0:0|0:0,0:0:0:0:
104,80,38569,1,8,0:0:0:0:
75,108,38610,2,0,L|96:80,1,34.9999989318848,0|0,0:0|0:0,0:0:0:0:
67,108,38691,2,0,L|88:80,1,34.9999989318848,0|0,0:0|0:0,0:0:0:0:
59,108,38772,2,0,L|80:80,1,34.9999989318848,0|0,0:0|0:0,0:0:0:0:
250,91,38893,6,0,B|520:112|520:112|241:124,1,540.000002059937,6|8,0:0|0:0,0:0:0:0:
170,124,39299,1,0,0:0:0:0:
251,123,39380,1,0,0:0:0:0:
253,184,39461,1,2,0:0:0:0:
71,190,39542,5,0,0:0:0:0:
48,197,39583,1,0,0:0:0:0:
71,190,39623,1,0,0:0:0:0:
155,184,39704,1,2,0:0:0:0:
95,197,39785,1,0,0:0:0:0:
176,206,39866,5,8,0:0:0:0:
199,213,39907,1,0,0:0:0:0:
176,206,39947,1,0,0:0:0:0:
95,197,40029,1,0,0:0:0:0:
155,184,40110,1,0,0:0:0:0:
71,190,40191,6,0,L|63:208,8,17.4999994659424,2|0|0|0|0|0|0|0|0,0:0|0:0|0:0|0:0|0:0|0:0|0:0|0:0|0:0,0:0:0:0:
155,184,40434,1,0,0:0:0:0:
363,186,40515,1,8,0:0:0:0:
428,179,40596,1,0,0:0:0:0:
363,172,40677,1,0,0:0:0:0:
326,173,40718,1,0,0:0:0:0:
290,173,40758,1,2,0:0:0:0:
326,173,40799,1,0,0:0:0:0:
363,173,40839,1,0,0:0:0:0:
428,179,40920,1,0,0:0:0:0:
150,155,41002,1,2,0:0:0:0:
150,155,41083,1,0,0:0:0:0:
428,179,41164,6,0,L|428:360,1,139.999995727539,12|0,0:0|0:0,0:0:0:0:
94,312,41488,2,0,B|349:308|349:308|349:152|349:152|269:52,1,519.99997619629,6|8,0:0|0:0,0:0:0:0:
256,68,41839,1,0,0:0:0:0:
228,68,41866,1,0,0:0:0:0:
200,68,41893,1,0,0:0:0:0:
200,68,41920,1,0,0:0:0:0:
200,68,41947,1,0,0:0:0:0:
200,68,41974,1,0,0:0:0:0:
200,68,42002,1,0,0:0:0:0:
200,68,42029,1,0,0:0:0:0:
200,68,42056,1,2,0:0:0:0:
228,68,42083,1,0,0:0:0:0:
256,68,42110,1,0,0:0:0:0:
280,66,42137,6,0,P|320:118|272:180,1,139.999995727539,0|2,0:0|0:0,0:0:0:0:
220,176,42380,1,0,0:0:0:0:
456,176,42461,1,8,0:0:0:0:
220,176,42623,1,0,0:0:0:0:
286,175,42704,1,0,0:0:0:0:
456,176,42785,6,0,L|464:104,1,69.9999978637696,6|0,0:0|0:0,0:0:0:0:
384,116,42947,2,0,L|392:28,1,69.9999978637696,0|0,0:0|0:0,0:0:0:0:
300,164,43110,2,0,L|308:92,1,69.9999978637696,8|0,0:0|0:0,0:0:0:0:
228,104,43272,2,0,L|236:16,1,69.9999978637696,0|2,0:0|0:0,0:0:0:0:
139,116,43434,2,0,L|131:44,1,69.9999978637696
228,104,43596,2,0,L|220:16,1,69.9999978637696,2|0,0:0|0:0,0:0:0:0:
324,97,43759,2,0,L|316:25,1,69.9999978637696,8|0,0:0|0:0,0:0:0:0:
415,93,43921,2,0,L|407:5,1,69.9999978637696
140,92,44083,5,6,0:0:0:0:
97,109,44137,1,0,0:0:0:0:
67,144,44191,1,0,0:0:0:0:
57,189,44245,1,0,0:0:0:0:
69,234,44299,1,0,0:0:0:0:
100,268,44353,1,0,0:0:0:0:
144,283,44407,1,8,0:0:0:0:
203,248,44488,1,0,0:0:0:0:
225,183,44569,1,0,0:0:0:0:
198,120,44650,1,2,0:0:0:0:
140,92,44731,5,0,0:0:0:0:
171,106,44771,1,0,0:0:0:0:
203,121,44812,1,0,0:0:0:0:
235,135,44852,1,0,0:0:0:0:
267,150,44893,1,2,0:0:0:0:
235,135,44934,1,0,0:0:0:0:
203,121,44974,1,0,0:0:0:0:
171,106,45015,1,0,0:0:0:0:
140,92,45055,1,8,0:0:0:0:
171,106,45096,1,0,0:0:0:0:
203,121,45137,1,0,0:0:0:0:
235,135,45177,1,0,0:0:0:0:
267,150,45218,1,0,0:0:0:0:
235,135,45258,1,0,0:0:0:0:
203,121,45298,1,0,0:0:0:0:
171,106,45339,1,0,0:0:0:0:
140,92,45380,5,6,0:0:0:0:
93,143,45461,1,0,0:0:0:0:
71,209,45542,1,0,0:0:0:0:
77,278,45623,1,0,0:0:0:0:
111,340,45704,1,8,0:0:0:0:
165,382,45785,1,0,0:0:0:0:
233,400,45866,1,0,0:0:0:0:
301,389,45947,1,2,0:0:0:0:
360,351,46028,1,0,0:0:0:0:
399,294,46109,1,0,0:0:0:0:
412,225,46190,1,2,0:0:0:0:
396,158,46271,1,0,0:0:0:0:
195,159,46353,2,0,L|111:115,1,69.9999978637696,8|0,0:0|0:0,0:0:0:0:
396,158,46515,2,0,L|480:114,1,69.9999978637696,0|0,0:0|0:0,0:0:0:0:
194,158,46677,6,0,L|163:158,1,17.4999994659424,4|0,0:0|0:0,0:0:0:0:
396,158,47164,2,0,L|427:158,1,17.4999994659424,4|0,0:0|0:0,0:0:0:0:
194,158,47488,2,0,L|163:158,1,17.4999994659424,4|0,0:0|0:0,0:0:0:0:
396,158,47650,2,0,L|427:158,1,17.4999994659424,4|0,0:0|0:0,0:0:0:0:
71,166,48137,2,0,L|71:191,1,17.4999994659424,4|0,0:0|0:0,0:0:0:0:
413,158,48623,2,0,L|385:157,1,17.4999994659424,4|0,0:0|0:0,0:0:0:0:
256,168,48866,2,0,L|256:193,1,17.4999994659424,4|0,0:0|0:0,0:0:0:0:
99,158,49110,2,0,L|127:157,1,17.4999994659424,4|0,0:0|0:0,0:0:0:0:
413,158,49596,6,0,L|385:157,1,17.4999994659424,4|0,0:0|0:0,0:0:0:0:
256,194,49839,2,0,L|256:169,1,17.4999994659424,0|0,0:0|0:0,0:0:0:0:
130,190,49920,1,4,0:0:0:0:
446,145,50083,2,0,L|418:144,1,17.4999994659424,0|0,0:0|0:0,0:0:0:0:
66,141,50407,2,0,L|94:140,1,17.4999994659424,4|0,0:0|0:0,0:0:0:0:
338,191,50731,2,0,L|312:191,1,17.4999994659424,0|0,3:0|0:0,0:0:0:0:
257,195,50812,2,0,L|257:164,1,17.4999994659424,0|0,3:0|0:0,0:0:0:0:
193,188,50893,2,0,L|176:188,1,17.4999994659424,4|0,3:0|0:0,0:0:0:0:
417,132,51218,2,0,L|397:132,1,17.4999994659424,0|0,0:3|0:0,0:0:0:0:
256,131,51380,1,4,0:3:0:0:
417,133,51542,2,0,L|418:104,1,17.4999994659424,0|0,0:3|0:0,0:0:0:0:
256,131,51704,1,4,0:3:0:0:
108,135,52191,6,0,L|108:115,1,17.4999994659424,4|0,0:0|0:0,0:0:0:0:
417,133,52515,2,0,L|417:113,1,17.4999994659424,4|0,0:0|0:0,0:0:0:0:
108,135,52839,2,0,L|108:110,1,17.4999994659424,0|0,0:3|0:0,0:0:0:0:
241,125,52920,1,0,0:3:0:0:
311,125,53002,1,4,0:3:0:0:
83,139,53164,6,0,L|55:140,1,17.4999994659424,4|0,0:0|0:0,0:0:0:0:
255,171,53407,2,0,L|255:152,1,17.4999994659424,4|0,0:0|0:0,0:0:0:0:
429,139,53650,2,0,L|457:140,1,17.4999994659424,4|0,0:0|0:0,0:0:0:0:
255,171,53893,2,0,L|255:152,1,17.4999994659424,4|0,0:0|0:0,0:0:0:0:
83,139,54137,2,0,L|55:140,1,17.4999994659424,4|0,0:0|0:0,0:0:0:0:
332,133,54299,1,4,0:0:0:0:
83,140,54461,5,4,0:0:0:0:
429,140,54704,1,4,0:0:0:0:
83,140,54947,1,4,0:0:0:0:
429,140,55191,1,4,0:0:0:0:
83,140,55434,1,4,0:0:0:0:
313,132,55596,1,4,0:0:0:0:
85,115,55758,5,4,0:0:0:0:
65,80,55839,1,0,0:0:0:0:
254,186,55920,1,4,0:0:0:0:
254,141,56002,1,0,0:0:0:0:
427,115,56083,1,4,0:0:0:0:
447,80,56164,1,0,0:0:0:0:
254,186,56245,1,4,0:0:0:0:
254,141,56327,1,0,0:0:0:0:
89,168,56407,5,4,3:0:0:0:
82,123,56488,1,0,3:0:0:0:
175,116,56569,1,4,3:0:0:0:
169,71,56650,1,0,3:0:0:0:
271,125,56731,1,4,3:0:0:0:
265,81,56812,1,0,3:0:0:0:
357,73,56893,1,4,3:0:0:0:
351,29,56974,1,0,3:0:0:0:
506,23,57056,5,4,0:0:0:0:
128,302,60947,6,0,P|69:253|202:72,1,349.999989318848,2|0,0:0|0:0,0:0:0:0:
272,76,61434,1,0,0:0:0:0:
186,69,61515,1,0,0:0:0:0:
272,76,61596,1,8,0:0:0:0:
61,93,61920,1,0,0:0:0:0:
230,140,62083,1,0,0:0:0:0:
398,165,62245,6,0,P|424:233|373:281,1,139.999995727539
278,277,62569,2,0,P|252:209|303:161,1,139.999995727539,0|0,0:0|0:0,0:0:0:0:
397,164,62893,2,0,L|248:164,1,139.999995727539,8|0,0:0|0:0,0:0:0:0:
117,164,63218,2,0,L|266:164,1,139.999995727539,0|0,0:0|0:0,0:0:0:0:
398,166,63542,6,0,B|396:350|396:350|398:191,1,279.999991455078,2|0,0:0|0:0,0:0:0:0:
259,266,64029,1,0,0:0:0:0:
406,357,64191,1,8,0:0:0:0:
445,299,64272,1,0,0:0:0:0:
468,233,64353,1,0,0:0:0:0:
473,164,64434,1,0,0:0:0:0:
458,95,64515,1,0,0:0:0:0:
425,34,64596,1,0,0:0:0:0:
377,0,64677,1,0,0:0:0:0:
318,0,64758,1,0,0:0:0:0:
250,6,64839,6,0,P|117:239|372:43,1,839.999974365235,2|0,0:0|0:0,0:0:0:0:
271,96,65974,1,0,0:0:0:0:
341,96,66056,1,0,0:0:0:0:
411,94,66137,6,0,P|436:259|335:91,1,542.499983444214,2|0,0:0|0:0,0:0:0:0:
329,93,66785,2,0,P|354:258|250:85,1,559.999982910157,0|4,3:0|0:0,0:0:0:0:
256,192,67515,8,0,69866,0:0:0:0:
256,189,70029,5,4,0:0:0:0:
418,291,72623,5,0,3:0:0:0:
342,282,72704,1,0,3:0:0:0:
260,272,72785,1,0,3:0:0:0:
184,263,72866,1,0,3:0:0:0:
107,272,72947,1,0,3:0:0:0:
184,263,73028,1,0,3:0:0:0:
266,253,73109,1,0,3:0:0:0:
342,244,73190,1,0,3:0:0:0:
418,253,73272,1,0,3:0:0:0:
342,244,73353,1,0,3:0:0:0:
260,234,73434,1,0,3:0:0:0:
184,225,73515,1,0,3:0:0:0:
107,234,73596,1,0,3:0:0:0:
184,225,73677,1,0,3:0:0:0:
266,215,73758,1,0,3:0:0:0:
342,206,73839,1,0,3:0:0:0:
425,198,73920,6,0,B|432:-79|432:-79|178:55|178:55|158:201|158:201|300:207|300:207|158:210|158:210|300:210|300:210|304:88|304:88|420:12|420:12|136:9|136:9|273:4|273:4|134:2|134:2|270:-5|270:-5|96:-8|96:-8,1,2239.99993164063,2|0,0:0|0:0,0:0:0:0:
158,227,77812,6,0,B|51:229|51:229|168:236,1,209.999993591309,6|0,0:0|0:0,0:0:0:0:
320,223,78137,2,0,P|367:178|312:133,1,139.999995727539,8|0,0:0|0:0,0:0:0:0:
251,131,78380,1,2,0:0:0:0:
102,68,78461,1,0,0:0:0:0:
170,68,78542,1,0,0:0:0:0:
170,68,78623,1,2,0:0:0:0:
102,68,78704,1,0,0:0:0:0:
261,64,78785,1,8,0:0:0:0:
332,60,78866,1,0,0:0:0:0:
261,64,78947,1,0,0:0:0:0:
102,68,79029,1,0,0:0:0:0:
261,64,79110,6,0,P|346:95|344:212,1,209.999993591309,2|0,0:0|0:0,0:0:0:0:
266,203,79434,2,0,L|113:204,1,139.999995727539,8|0,0:0|0:0,0:0:0:0:
201,189,79677,1,2,0:0:0:0:
131,202,79758,2,0,P|89:176|91:88,1,139.999995727539,0|2,0:0|0:0,0:0:0:0:
381,202,80083,2,0,P|423:176|421:88,1,139.999995727539,8|0,0:0|0:0,0:0:0:0:
146,83,80407,6,0,B|143:221|143:221|286:222|286:222|285:364,1,419.999987182618,2|0,0:0|0:0,0:0:0:0:
216,365,80974,1,2,0:0:0:0:
145,369,81056,1,0,0:0:0:0:
216,365,81137,1,0,0:0:0:0:
287,359,81218,1,2,0:0:0:0:
142,311,81299,1,0,0:0:0:0:
78,295,81380,1,8,0:0:0:0:
143,280,81461,1,0,0:0:0:0:
288,270,81542,1,0,0:0:0:0:
444,257,81623,1,0,0:0:0:0:
288,270,81704,6,0,L|138:262,1,139.999995727539,8|0,0:0|0:0,0:0:0:0:
79,250,81947,2,0,L|332:249,1,230.000004386902,2|0,0:0|0:0,0:0:0:0:
380,245,82191,2,0,L|230:237,1,139.999995727539,8|0,0:0|0:0,0:0:0:0:
171,228,82434,2,0,L|424:227,1,230.000004386902,2|0,0:0|0:0,0:0:0:0:
471,227,82677,2,0,L|485:101,1,115.000002193451,8|0,0:0|0:0,0:0:0:0:
294,170,82839,2,0,L|215:82,1,115.000002193451,0|0,0:0|0:0,0:0:0:0:
62,68,83002,5,2,0:0:0:0:
44,134,83083,1,0,0:0:0:0:
71,197,83164,1,0,0:0:0:0:
131,230,83245,1,0,0:0:0:0:
228,237,83326,2,0,L|218:316,1,69.9999978637696,10|0,0:0|0:0,0:0:0:0:
134,312,83488,1,0,0:0:0:0:
142,245,83569,1,2,0:0:0:0:
202,213,83650,1,0,0:0:0:0:
270,206,83731,1,0,0:0:0:0:
317,157,83812,1,2,0:0:0:0:
321,88,83893,1,0,0:0:0:0:
241,141,83974,2,0,L|224:69,1,69.9999978637696,10|0,0:0|0:0,0:0:0:0:
306,72,84137,2,0,L|323:-3,1,69.9999978637696,0|0,0:0|0:0,0:0:0:0:
244,19,84299,5,2,0:0:0:0:
307,46,84380,1,0,0:0:0:0:
356,96,84461,1,0,0:0:0:0:
381,160,84542,1,0,0:0:0:0:
295,169,84623,1,10,0:0:0:0:
235,202,84704,1,0,0:0:0:0:
210,266,84785,1,0,0:0:0:0:
292,272,84866,1,2,0:0:0:0:
213,282,84947,2,0,L|71:294,1,139.999995727539,0|2,0:0|0:0,0:0:0:0:
147,263,85191,1,0,0:0:0:0:
305,224,85272,2,0,L|294:153,1,69.9999978637696,8|0,0:0|0:0,0:0:0:0:
216,139,85434,2,0,L|227:63,1,69.9999978637696,0|0,0:0|0:0,0:0:0:0:
438,50,85596,5,2,0:0:0:0:
368,53,85677,1,0,0:0:0:0:
298,57,85758,1,0,0:0:0:0:
228,61,85839,1,0,0:0:0:0:
158,58,85920,1,8,0:0:0:0:
228,61,86001,1,0,0:0:0:0:
298,65,86082,1,0,0:0:0:0:
368,69,86163,1,2,0:0:0:0:
298,66,86245,1,0,0:0:0:0:
236,97,86326,1,0,0:0:0:0:
198,155,86407,1,2,0:0:0:0:
196,224,86488,1,0,0:0:0:0:
340,236,86569,2,0,L|415:239,1,69.9999978637696,8|0,0:0|0:0,0:0:0:0:
340,236,86731,2,0,L|415:239,1,69.9999978637696,0|0,0:0|0:0,0:0:0:0:
196,287,86893,5,2,0:0:0:0:
138,247,86974,1,0,0:0:0:0:
103,187,87055,1,0,0:0:0:0:
95,118,87136,1,0,0:0:0:0:
118,53,87217,1,8,0:0:0:0:
166,2,87298,1,0,0:0:0:0:
230,0,87379,1,0,0:0:0:0:
299,0,87460,1,2,0:0:0:0:
361,12,87541,1,0,0:0:0:0:
403,67,87622,1,0,0:0:0:0:
419,135,87703,1,2,0:0:0:0:
404,203,87784,1,0,0:0:0:0:
363,259,87866,2,0,L|141:260,1,209.999993591309,8|0,0:0|0:0,0:0:0:0:
363,259,88191,6,0,B|462:249|456:125|355:127,1,209.999993591309,6|0,0:0|0:0,0:0:0:0:
282,125,88515,2,0,P|238:85|295:31,1,139.999995727539,8|0,0:0|0:0,0:0:0:0:
368,129,88758,1,2,0:0:0:0:
121,146,88839,1,0,0:0:0:0:
51,130,88920,1,0,0:0:0:0:
117,104,89002,1,2,0:0:0:0:
282,125,89083,1,0,0:0:0:0:
282,85,89164,1,8,0:0:0:0:
201,68,89245,1,0,0:0:0:0:
202,50,89326,1,0,0:0:0:0:
384,46,89407,1,0,0:0:0:0:
201,56,89488,6,0,P|154:144|240:205,1,209.999993591309,2|0,0:0|0:0,0:0:0:0:
469,181,89812,2,0,L|324:179,1,139.999995727539,8|0,0:0|0:0,0:0:0:0:
243,181,90056,1,2,0:0:0:0:
329,179,90137,2,0,P|366:162|411:62,1,139.999995727539,0|2,0:0|0:0,0:0:0:0:
138,179,90461,2,0,P|101:161|146:35,1,200,8|0,0:0|0:0,0:0:0:0:
208,34,90704,1,0,0:0:0:0:
418,34,90785,6,0,B|261:198|261:198|352:98|352:98|355:300|355:300|257:187,1,690.000013160706,2|0,0:0|0:0,0:0:0:0:
354,303,91353,1,2,0:0:0:0:
122,215,91434,2,0,L|112:143,1,69.9999978637696,0|0,0:0|0:0,0:0:0:0:
200,127,91596,2,0,L|206:57,1,69.9999978637696,2|0,0:0|0:0,0:0:0:0:
38,95,91758,1,8,0:0:0:0:
107,107,91839,1,0,0:0:0:0:
38,95,91920,1,0,0:0:0:0:
107,107,92002,1,0,0:0:0:0:
263,269,92083,6,0,L|413:261,1,139.999995727539,8|0,0:0|0:0,0:0:0:0:
472,249,92326,2,0,L|219:248,1,230.000004386902,2|0,0:0|0:0,0:0:0:0:
171,244,92570,2,0,L|321:236,1,139.999995727539,8|0,0:0|0:0,0:0:0:0:
380,227,92813,2,0,L|127:226,1,230.000004386902,2|0,0:0|0:0,0:0:0:0:
80,226,93056,2,0,L|66:100,1,115.000002193451,8|0,0:0|0:0,0:0:0:0:
228,162,93218,2,0,L|307:74,1,115.000002193451,0|0,0:0|0:0,0:0:0:0:
466,57,93380,5,2,0:0:0:0:
386,68,93461,1,0,0:0:0:0:
386,68,93542,1,0,0:0:0:0:
466,57,93623,1,0,0:0:0:0:
234,78,93704,5,10,0:0:0:0:
160,66,93785,1,0,0:0:0:0:
234,78,93866,1,0,0:0:0:0:
309,69,93947,1,2,0:0:0:0:
234,78,94029,5,0,0:0:0:0:
193,132,94110,1,0,0:0:0:0:
203,199,94191,1,2,0:0:0:0:
259,239,94272,1,0,0:0:0:0:
326,227,94353,5,10,0:0:0:0:
253,277,94434,1,0,0:0:0:0:
326,241,94515,1,0,0:0:0:0:
253,297,94596,1,0,0:0:0:0:
326,227,94677,5,2,0:0:0:0:
369,175,94758,1,0,0:0:0:0:
359,108,94839,1,0,0:0:0:0:
303,70,94920,1,0,0:0:0:0:
237,86,95001,5,10,0:0:0:0:
303,70,95083,1,0,0:0:0:0:
237,86,95164,1,0,0:0:0:0:
167,110,95245,1,2,0:0:0:0:
237,86,95326,5,0,0:0:0:0:
278,158,95407,1,0,0:0:0:0:
240,226,95488,1,2,0:0:0:0:
170,219,95569,1,0,0:0:0:0:
256,238,95650,5,8,0:0:0:0:
342,262,95731,1,0,0:0:0:0:
256,238,95812,1,0,0:0:0:0:
170,219,95893,1,0,0:0:0:0:
430,259,95974,5,6,0:0:0:0:
471,205,96055,1,0,0:0:0:0:
450,141,96136,1,0,0:0:0:0:
386,121,96217,1,0,0:0:0:0:
164,216,96299,1,8,0:0:0:0:
127,159,96380,1,0,0:0:0:0:
155,98,96461,1,0,0:0:0:0:
221,87,96542,1,2,0:0:0:0:
420,214,96623,2,0,L|430:290,1,69.9999978637696,0|0,0:0|0:0,0:0:0:0:
332,277,96785,2,0,L|322:352,1,69.9999978637696,2|0,0:0|0:0,0:0:0:0:
123,217,96947,2,0,L|113:293,1,69.9999978637696,8|0,0:0|0:0,0:0:0:0:
211,280,97109,2,0,L|221:355,1,69.9999978637696,0|0,0:0|0:0,0:0:0:0:
28,217,97272,5,6,0:0:0:0:
43,150,97353,1,0,0:0:0:0:
96,106,97434,1,0,0:0:0:0:
165,103,97515,1,0,0:0:0:0:
96,106,97596,1,8,0:0:0:0:
112,172,97677,1,0,0:0:0:0:
169,210,97758,1,0,0:0:0:0:
237,198,97839,1,2,0:0:0:0:
169,210,97920,1,0,0:0:0:0:
137,177,97974,1,0,0:0:0:0:
137,132,98028,1,0,0:0:0:0:
170,100,98082,1,2,0:0:0:0:
215,101,98136,1,0,0:0:0:0:
246,135,98190,1,0,0:0:0:0:
244,182,98245,2,0,L|169:191,1,69.9999978637696,8|0,0:0|0:0,0:0:0:0:
412,241,98407,2,0,L|487:250,1,69.9999978637696,0|0,0:0|0:0,0:0:0:0:
184,384,98569,6,0,P|42:271|211:6,1,542.499983444214,6|0,0:0|0:0,0:0:0:0:
194,7,99218,2,0,P|309:194|172:282,1,419.999987182618,8|2,0:0|0:0,0:0:0:0:
339,298,99866,1,2,0:0:0:0:
179,282,100029,1,0,0:0:0:0:
108,277,100110,1,2,0:0:0:0:
339,298,100353,1,2,0:0:0:0:
179,282,100515,2,0,P|107:236|214:129,1,279.999991455078,8|0,0:0|0:0,0:0:0:0:
365,134,101002,1,0,0:0:0:0:
208,127,101164,6,0,B|68:121|68:121|208:120,1,279.999991455078,2|0,0:0|0:0,0:0:0:0:
365,134,101650,1,0,0:0:0:0:
440,137,101731,1,0,0:0:0:0:
365,134,101812,2,0,L|81:134,1,279.999991455078,8|0,0:0|0:0,0:0:0:0:
162,136,102218,1,0,0:0:0:0:
160,192,102299,1,2,0:0:0:0:
159,251,102380,1,2,0:0:0:0:
252,290,102461,5,2,0:0:0:0:
64,309,102704,1,2,0:0:0:0:
252,290,102947,1,2,0:0:0:0:
64,309,103110,2,0,P|71:234|244:151,1,279.999991455078,8|2,0:0|0:0,0:0:0:0:
444,27,103758,6,0,P|457:106|138:363,1,542.499983444214,2|0,0:0|0:0,0:0:0:0:
146,364,104407,2,0,P|357:285|375:106,1,419.999987182618,8|0,0:0|0:0,0:0:0:0:
342,114,104934,1,2,0:0:0:0:
304,112,104974,1,2,0:0:0:0:
264,114,105015,1,2,0:0:0:0:
229,114,105056,5,2,0:0:0:0:
456,110,105299,1,2,0:0:0:0:
379,105,105380,1,0,0:0:0:0:
307,92,105461,1,0,0:0:0:0:
380,82,105542,1,2,0:0:0:0:
231,56,105704,1,8,0:0:0:0:
314,40,105866,1,0,0:0:0:0:
145,51,106029,1,2,0:0:0:0:
228,35,106191,1,0,0:0:0:0:
69,52,106353,6,0,P|55:126|240:230,2,279.999991455078,2|0|8,0:0|0:0|0:0,0:0:0:0:
306,64,107326,1,0,0:0:0:0:
229,61,107407,1,2,0:0:0:0:
162,59,107488,1,0,0:0:0:0:
95,59,107569,1,2,0:0:0:0:
229,102,107731,1,2,0:0:0:0:
88,108,107893,1,2,0:0:0:0:
144,113,107974,1,0,0:0:0:0:
166,162,108056,1,0,0:0:0:0:
144,113,108137,1,0,0:0:0:0:
88,108,108218,1,0,0:0:0:0:
193,99,108299,6,0,L|184:176,1,69.9999978637696,8|0,3:0|3:0,0:0:0:0:
94,175,108461,2,0,L|85:252,1,69.9999978637696,0|0,3:0|3:0,0:0:0:0:
177,231,108623,2,0,L|186:308,1,69.9999978637696,0|0,3:0|3:0,0:0:0:0:
78,258,108785,2,0,L|87:335,1,69.9999978637696,0|0,3:0|3:0,0:0:0:0:
333,305,108947,6,0,B|473:291|473:291|194:275|194:275|352:256,1,559.999982910157,4|2,0:0|0:0,0:0:0:0:
92,224,109920,1,0,0:0:0:0:
330,229,110245,2,0,L|170:226,2,139.999995727539,2|0|0,0:0|0:0|0:0,0:0:0:0:
194,217,110731,1,0,0:0:0:0:
333,231,110893,2,0,L|481:227,1,139.999995727539,2|0,0:0|0:0,0:0:0:0:
332,175,111218,1,8,0:0:0:0:
472,170,111380,1,8,0:0:0:0:
329,159,111542,6,0,B|121:170|121:170|353:160,1,419.999987182618,2|0,0:0|0:0,0:0:0:0:
193,151,112191,2,0,B|401:162|401:162|169:152,1,419.999987182618,2|0,0:0|0:0,0:0:0:0:
329,149,112839,2,0,B|121:160|121:160|353:150,1,419.999987182618,2|0,0:0|0:0,0:0:0:0:
191,152,113488,2,0,B|399:163|399:163|167:153,1,419.999987182618,2|0,0:0|0:0,0:0:0:0:
462,0,114137,6,0,B|13:161|13:161|489:396,1,979.999970092774,6|0,0:0|0:0,0:0:0:0:
267,21,115434,2,0,B|472:55|472:55|238:123,1,419.999987182618,2|0,0:0|0:0,0:0:0:0:
408,129,116083,2,0,B|203:163|203:163|437:231,1,419.999987182618,2|8,0:0|0:0,0:0:0:0:
140,313,116731,6,0,P|88:242|259:43,1,402.499987716675,6|0,0:0|0:0,0:0:0:0:
255,42,117218,2,0,P|307:113|136:312,1,402.499987716675,2|0,0:0|0:0,0:0:0:0:
140,313,117704,2,0,P|88:242|206:143,1,262.499991989136,2|0,0:0|0:0,0:0:0:0:
193,140,118029,1,6,0:0:0:0:
256,192,118191,8,0,119164,0:0:0:0:
90,204,119326,6,0,L|82:57,1,139.999995727539,6|0,0:0|0:0,0:0:0:0:
163,59,119569,1,0,0:0:0:0:
246,60,119650,2,0,L|76:59,1,139.999995727539,8|0,0:0|0:0,0:0:0:0:
246,60,119974,1,2,0:0:0:0:
246,60,120056,2,0,L|466:66,1,209.999993591309,0|8,0:0|0:0,0:0:0:0:
454,107,120461,1,0,0:0:0:0:
213,139,120623,6,0,L|123:148,1,69.9999978637696,2|0,0:0|0:0,0:0:0:0:
73,139,120785,2,0,L|163:148,1,69.9999978637696,0|0,0:0|0:0,0:0:0:0:
298,195,120947,2,0,L|388:204,1,69.9999978637696,8|0,0:0|0:0,0:0:0:0:
438,195,121109,2,0,L|348:204,1,69.9999978637696,0|0,0:0|0:0,0:0:0:0:
142,147,121272,2,0,L|318:146,1,139.999995727539,2|2,0:0|0:0,0:0:0:0:
208,119,121515,1,0,0:0:0:0:
281,146,121596,2,0,L|118:143,1,139.999995727539,8|0,0:0|0:0,0:0:0:0:
60,147,121839,1,0,0:0:0:0:
141,143,121920,6,0,L|406:146,1,209.999993591309,2|0,0:0|0:0,0:0:0:0:
272,122,122245,1,8,0:0:0:0:
447,99,122407,1,0,0:0:0:0:
272,71,122569,1,2,0:0:0:0:
208,61,122650,2,0,L|442:61,1,209.999993591309,0|8,0:0|0:0,0:0:0:0:
347,84,122974,1,0,0:0:0:0:
422,101,123056,1,0,0:0:0:0:
103,120,123218,6,0,P|69:201|247:243,2,279.999991455078,2|8|2,0:0|0:0|0:0,0:0:0:0:
184,88,123947,1,0,0:0:0:0:
105,59,124029,1,2,0:0:0:0:
184,45,124110,1,0,0:0:0:0:
105,59,124191,2,0,L|82:104,6,34.9999989318848,8|0|0|0|0|0|0,0:0|0:0|0:0|0:0|0:0|0:0|0:0,0:0:0:0:
402,62,124515,5,2,0:0:0:0:
335,66,124596,1,0,0:0:0:0:
57,63,124677,1,0,0:0:0:0:
131,66,124758,1,2,0:0:0:0:
388,196,124839,2,0,L|399:289,1,69.9999978637696,8|0,0:0|0:0,0:0:0:0:
311,186,125002,2,0,L|318:98,1,69.9999978637696,2|0,0:0|0:0,0:0:0:0:
413,115,125164,1,2,0:0:0:0:
155,124,125326,1,2,0:0:0:0:
413,115,125488,1,8,0:0:0:0:
469,102,125569,1,0,0:0:0:0:
414,84,125650,1,0,0:0:0:0:
110,62,125812,5,2,0:0:0:0:
178,66,125893,1,0,0:0:0:0:
452,118,125974,1,0,0:0:0:0:
384,124,126055,1,2,0:0:0:0:
125,202,126136,2,0,L|114:295,1,69.9999978637696,8|0,0:0|0:0,0:0:0:0:
202,186,126299,2,0,L|194:98,1,69.9999978637696,2|0,0:0|0:0,0:0:0:0:
99,115,126461,1,2,0:0:0:0:
357,124,126623,1,2,0:0:0:0:
99,115,126785,1,8,0:0:0:0:
43,102,126866,1,0,0:0:0:0:
98,84,126947,1,0,0:0:0:0:
422,42,127110,6,0,L|426:120,1,69.9999978637696,2|0,0:0|0:0,0:0:0:0:
340,121,127272,2,0,L|344:199,1,69.9999978637696,0|2,0:0|0:0,0:0:0:0:
253,156,127434,2,0,L|249:234,1,69.9999978637696,8|0,0:0|0:0,0:0:0:0:
160,216,127596,2,0,L|156:294,1,69.9999978637696,2|0,0:0|0:0,0:0:0:0:
342,120,127758,1,2,0:0:0:0:
412,84,127839,1,2,0:0:0:0:
342,120,127920,1,2,0:0:0:0:
412,84,128001,1,0,0:0:0:0:
340,105,128083,5,0,0:0:0:0:
375,94,128123,1,0,0:0:0:0:
412,84,128164,1,0,0:0:0:0:
412,84,128204,1,0,0:0:0:0:
412,84,128245,1,0,0:0:0:0:
375,94,128285,1,0,0:0:0:0:
337,104,128326,1,0,0:0:0:0:
92,169,128407,6,0,L|403:172,1,290.000008850098,4|0,0:0|0:0,0:0:0:0:
381,171,128650,2,0,L|82:177,1,290.000008850098,4|0,0:0|0:0,0:0:0:0:
92,169,128893,2,0,L|403:172,1,290.000008850098,4|0,0:0|0:0,0:0:0:0:
381,171,129136,2,0,L|82:177,1,290.000008850098,4|0,0:0|0:0,0:0:0:0:
92,176,129380,1,4,0:0:0:0:
318,137,129542,1,4,0:0:0:0:
92,176,129704,6,0,P|28:123|122:57,1,209.999993591309,6|0,0:0|0:0,0:0:0:0:
172,54,130029,2,0,P|219:97|149:125,1,139.999995727539,8|0,0:0|0:0,0:0:0:0:
90,132,130272,1,0,0:0:0:0:
245,145,130353,2,0,L|408:143,1,139.999995727539,2|2,0:0|0:0,0:0:0:0:
310,118,130596,1,0,0:0:0:0:
384,101,130677,2,0,L|217:92,1,139.999995727539,8|0,0:0|0:0,0:0:0:0:
478,66,131002,6,0,L|484:211,1,139.999995727539,2|0,0:0|0:0,0:0:0:0:
402,216,131245,1,0,0:0:0:0:
190,224,131326,1,8,0:0:0:0:
328,246,131488,1,0,0:0:0:0:
55,183,131650,2,0,L|261:165,1,139.999995727539,2|2,0:0|0:0,0:0:0:0:
274,160,131893,1,0,0:0:0:0:
195,170,131974,2,0,L|193:316,1,139.999995727539,8|0,0:0|0:0,0:0:0:0:
275,324,132218,1,0,0:0:0:0:
449,322,132299,6,0,P|474:269|334:187,1,209.999993591309,6|0,0:0|0:0,0:0:0:0:
298,159,132623,2,0,P|259:104|307:50,1,139.999995727539,8|0,0:0|0:0,0:0:0:0:
380,55,132866,1,0,0:0:0:0:
144,53,132947,2,0,L|137:199,1,139.999995727539,2|2,0:0|0:0,0:0:0:0:
221,205,133191,1,0,0:0:0:0:
299,211,133272,2,0,L|307:359,1,139.999995727539,8|0,0:0|0:0,0:0:0:0:
221,353,133515,1,0,0:0:0:0:
479,342,133596,6,0,L|294:345,1,139.999995727539,6|0,0:0|0:0,0:0:0:0:
411,306,133839,1,0,0:0:0:0:
340,344,133920,2,0,L|479:342,1,139.999995727539,8|0,0:0|0:0,0:0:0:0:
223,294,134245,2,0,P|241:174|329:154,1,209.999993591309,2|0,0:0|0:0,0:0:0:0:
70,243,134569,5,8,0:0:0:0:
41,222,134609,1,0,0:0:0:0:
23,193,134650,1,0,0:0:0:0:
19,159,134690,1,0,0:0:0:0:
29,125,134731,1,8,0:0:0:0:
52,99,134771,1,0,0:0:0:0:
84,84,134812,1,0,0:0:0:0:
387,165,134893,6,0,P|448:207|376:271,1,139.999995727539,4|0,0:0|0:0,0:0:0:0:
170,154,135137,2,0,P|109:196|181:260,1,139.999995727539,4|0,0:0|0:0,0:0:0:0:
387,165,135380,2,0,P|448:207|376:271,1,139.999995727539,4|0,0:0|0:0,0:0:0:0:
170,154,135623,2,0,P|109:196|181:260,1,139.999995727539,4|0,0:0|0:0,0:0:0:0:
387,165,135866,1,4,0:0:0:0:
148,168,136029,1,4,0:0:0:0:
404,168,136191,6,0,L|318:284,1,139.999995727539
148,168,136434,2,0,L|234:284,1,139.999995727539
404,168,136677,2,0,L|318:284,1,139.999995727539
137,172,136920,2,0,L|223:288,1,139.999995727539
417,152,137164,1,4,0:0:0:0:
125,136,137326,1,4,0:0:0:0:
417,152,137488,5,0,0:0:0:0:
473,129,137569,1,0,0:0:0:0:
420,109,137650,1,0,0:0:0:0:
267,111,137731,1,0,0:0:0:0:
415,96,137812,1,0,0:0:0:0:
471,73,137893,1,0,0:0:0:0:
418,53,137974,1,0,0:0:0:0:
265,55,138055,1,0,0:0:0:0:
110,150,138137,5,0,0:0:0:0:
54,127,138218,1,0,0:0:0:0:
107,107,138299,1,0,0:0:0:0:
267,111,138380,1,0,0:0:0:0:
112,94,138461,1,0,0:0:0:0:
56,71,138542,1,0,0:0:0:0:
109,51,138623,1,0,0:0:0:0:
265,55,138704,1,0,0:0:0:0:
419,362,138785,6,0,P|465:299|116:363,1,1049.99996795654,4|0,0:0|0:0,0:0:0:0:
257,369,140083,5,4,0:0:0:0:
