osu file format v14

[General]
AudioFilename: audio.mp3
AudioLeadIn: 0
PreviewTime: 77812
Countdown: 0
SampleSet: Normal
StackLeniency: 0.7
Mode: 2
LetterboxInBreaks: 0
EpilepsyWarning: 1
WidescreenStoryboard: 0

[Editor]
DistanceSpacing: 1
BeatDivisor: 4
GridSize: 4
TimelineZoom: 2.899999

[Metadata]
Title:ouroVoros
TitleUnicode:ouroVoros
Artist:Negentropy (a.k.a. Team Grimoire)
ArtistUnicode:Negentropy (a.k.a. Team Grimoire)
Creator:autofanboy
Version:salad
Source:
Tags:BMS BOFU2017 OF FIGHTERS ULTIMATE 2017 LEGENDA EST A MYTH Employ “Zero-Origin” Zero Origin Symphonic Roar teamgrimoire Λögeln Aogeln CHAOS MAGNVM Muse Dash Give Up TREATMENT Vol.4 Groove Coaster Hardcore Gothic Video Game Instrumental Electronic Ouroboros Cycle alienflybot AFB Razor Sharp Arthas IDu5t IDust Jemzuu AJamez Daletto salchow
BeatmapID:2279976
BeatmapSetID:1087679

[Difficulty]
HPDrainRate:3
CircleSize:3.3
OverallDifficulty:7
ApproachRate:7
SliderMultiplier:1.44
SliderTickRate:1

[Events]
//Background and Video events
0,0,"Meeting with Shade_DaisanART.jpg",0,0
Video,-295,"video.mp4"
//Break Periods
2,6461,9453
2,11650,13345
2,16229,17237
//Storyboard Layer 0 (Background)
//Storyboard Layer 1 (Fail)
//Storyboard Layer 2 (Pass)
//Storyboard Layer 3 (Foreground)
//Storyboard Layer 4 (Overlay)
//Storyboard Sound Samples

[TimingPoints]
-25,324.324324324324,4,1,1,70,1,0
5163,-100,4,1,1,70,0,0
5812,-100,4,1,10,40,0,0
10353,-100,4,1,1,70,0,0
11002,-100,4,1,10,40,0,0
14245,-100,4,1,1,40,0,0
14569,-100,4,1,1,42,0,0
14893,-100,4,1,1,44,0,0
15218,-100,4,1,1,46,0,0
15542,-100,4,1,1,48,0,0
15866,-100,4,1,1,10,0,0
16029,-100,4,1,1,50,0,0
18137,-100,4,1,1,50,0,0
18461,-100,4,1,1,10,0,0
18623,-100,4,1,1,50,0,0
18947,-100,4,1,1,50,0,0
19272,-100,4,1,1,10,0,0
19434,-100,4,1,1,50,0,0
21218,-100,4,1,1,52,0,0
21542,-100,4,1,1,54,0,0
22029,-100,4,1,1,56,0,0
22515,-100,4,1,1,58,0,0
22839,-100,4,1,1,60,0,0
23326,-100,4,1,1,50,0,0
23974,-100,4,1,1,52,0,0
24623,-100,4,1,1,54,0,0
25272,-100,4,1,1,56,0,0
25515,-100,4,1,1,58,0,0
25758,-100,4,1,1,60,0,0
25920,-100,4,1,1,70,0,1
26083,-100,4,1,1,10,0,1
26245,-100,4,1,1,70,0,1
26407,-100,4,1,1,10,0,1
26488,-100,4,1,1,70,0,1
27542,-100,4,1,1,70,0,1
27785,-100,4,1,1,70,0,1
28191,-100,4,1,1,70,0,1
28677,-100,4,1,1,10,0,1
28839,-100,4,1,1,70,0,1
29488,-100,4,1,1,70,0,1
29812,-100,4,1,1,70,0,1
29974,-100,4,1,1,50,0,1
30056,-100,4,1,1,70,0,1
30380,-100,4,1,1,70,0,1
30785,-100,4,1,1,70,0,1
31029,-100,4,1,1,10,0,1
31110,-100,4,1,1,70,0,1
31272,-100,4,1,1,10,0,1
31353,-100,4,1,1,70,0,1
31434,-100,4,1,1,70,0,1
32083,-100,4,1,1,70,0,1
35002,-100,4,1,1,70,0,0
36623,-100,4,1,1,70,0,0
36664,-100,4,1,1,30,0,0
36704,-100,4,1,1,25,0,0
36745,-100,4,1,1,20,0,0
36785,-100,4,1,1,15,0,0
36826,-100,4,1,1,10,0,0
36866,-100,4,1,1,70,0,0
36947,-100,4,1,1,70,0,1
38893,-100,4,1,1,70,0,1
39056,-100,4,1,1,10,0,1
39137,-100,4,1,1,70,0,1
40515,-100,4,1,1,70,0,1
41164,-100,4,1,1,70,0,1
41407,-100,4,1,1,10,0,1
41488,-100,4,1,1,70,0,1
41650,-100,4,1,1,10,0,1
41731,-100,4,1,1,70,0,1
43353,-100,4,1,1,70,0,1
43758,-100,4,1,1,70,0,1
45947,-100,4,1,1,70,0,1
46353,-100,4,1,1,70,0,1
46677,-100,4,1,1,70,0,0
47002,-100,4,1,1,10,0,0
47164,-100,4,1,1,70,0,0
47326,-100,4,1,1,10,0,0
47488,-100,4,1,1,70,0,0
47974,-100,4,1,1,10,0,0
48137,-100,4,1,1,70,0,0
48461,-100,4,1,1,10,0,0
48623,-100,4,1,1,70,0,0
48785,-100,4,1,1,10,0,0
48866,-100,4,1,1,70,0,0
49029,-100,4,1,1,10,0,0
49110,-100,4,1,1,70,0,0
49596,-100,4,1,1,70,0,0
49758,-100,4,1,1,10,0,0
49839,-100,4,1,1,70,0,0
49920,-100,4,1,1,70,0,0
50083,-100,4,1,1,10,0,0
50164,-100,4,1,1,70,0,0
50326,-100,4,1,1,10,0,0
50407,-100,4,1,1,70,0,0
50569,-100,4,1,1,70,0,0
52191,-100,4,1,1,70,0,0
52434,-100,4,1,1,10,0,0
52515,-100,4,1,1,70,0,0
53326,-100,4,1,1,10,0,0
53407,-100,4,1,1,70,0,0
53569,-100,4,1,1,10,0,0
53650,-100,4,1,1,70,0,0
53812,-100,4,1,1,10,0,0
53893,-100,4,1,1,70,0,0
54056,-100,4,1,1,10,0,0
54137,-100,4,1,1,70,0,0
54218,-100,4,1,1,10,0,0
54299,-100,4,1,1,70,0,0
54380,-100,4,1,1,10,0,0
54461,-100,4,1,1,70,0,0
54623,-100,4,1,1,10,0,0
54704,-100,4,1,1,70,0,0
54866,-100,4,1,1,10,0,0
54947,-100,4,1,1,70,0,0
55110,-100,4,1,1,10,0,0
55191,-100,4,1,1,70,0,0
55353,-100,4,1,1,10,0,0
55434,-100,4,1,1,70,0,0
55515,-100,4,1,1,10,0,0
55596,-100,4,1,1,70,0,0
55677,-100,4,1,1,10,0,0
55758,-100,4,1,1,70,0,0
57056,-100,4,1,1,40,0,0
62245,-100,4,1,1,40,0,0
62731,-100,4,1,1,40,0,0
63542,-100,4,1,1,40,0,0
64029,-100,4,1,1,40,0,0
67434,-100,4,1,1,40,0,0
67758,-100,4,2,66,30,0,0
70029,-100,4,1,1,40,0,0
70353,-100,4,2,66,30,0,0
72623,-100,4,1,1,70,0,0
74245,-100,4,2,66,30,0,0
76515,-100,4,1,66,40,0,0
76677,-100,4,1,1,10,0,0
77812,-100,4,1,1,70,0,1
77974,-100,4,1,1,10,0,1
78056,-100,4,1,1,70,0,1
78380,-100,4,1,1,70,0,1
78785,-100,4,1,1,70,0,1
79677,-100,4,1,1,70,0,1
80083,-100,4,1,1,70,0,1
80326,-100,4,1,1,10,0,1
80407,-100,4,1,1,70,0,1
80731,-100,4,1,1,70,0,1
81704,-100,4,1,1,70,0,1
82677,-100,4,1,1,70,0,1
83326,-100,4,1,2,40,0,1
83407,-100,4,1,1,70,0,1
83974,-100,4,1,2,40,0,1
84056,-100,4,1,1,70,0,1
84623,-100,4,1,2,40,0,1
84704,-100,4,1,1,70,0,1
87866,-100,4,1,1,70,0,0
88191,-100,4,1,1,70,0,1
88353,-100,4,1,1,10,0,1
88434,-100,4,1,1,70,0,1
88758,-100,4,1,1,70,0,1
89164,-100,4,1,1,70,0,1
90056,-100,4,1,1,70,0,1
90461,-100,4,1,1,70,0,1
90704,-100,4,1,1,10,0,1
90785,-100,4,1,1,70,0,1
91110,-100,4,1,1,70,0,1
92083,-100,4,1,1,70,0,1
93056,-100,4,1,1,70,0,1
93704,-100,4,1,2,40,0,1
93785,-100,4,1,1,70,0,1
94353,-100,4,1,2,40,0,1
94434,-100,4,1,1,70,0,1
95002,-100,4,1,2,40,0,1
95083,-100,4,1,1,70,0,1
95974,-100,4,1,1,75,0,1
96542,-100,4,1,1,75,0,1
96947,-100,4,1,1,75,0,1
97272,-100,4,1,1,80,0,1
97596,-100,4,1,1,80,0,1
98083,-100,4,1,1,80,0,1
98461,-100,4,1,1,80,0,0
98569,-100,4,1,1,80,0,1
98731,-100,4,1,1,40,0,0
100029,-100,4,1,1,10,0,0
100110,-100,4,1,1,40,0,0
100272,-100,4,1,1,10,0,0
100353,-100,4,1,1,40,0,0
100515,-100,4,1,1,40,0,0
102461,-100,4,1,1,40,0,0
102623,-100,4,1,1,10,0,0
102704,-100,4,1,1,40,0,0
102866,-100,4,1,1,10,0,0
102947,-100,4,1,1,40,0,0
103110,-100,4,1,1,40,0,0
105056,-100,4,1,1,40,0,0
105218,-100,4,1,1,10,0,0
105299,-100,4,1,1,40,0,0
105461,-100,4,1,1,10,0,0
105542,-100,4,1,1,40,0,0
105704,-100,4,1,1,40,0,0
109110,-100,4,1,1,20,0,0
111542,-100,4,1,1,22,0,0
112029,-100,4,1,1,10,0,0
112191,-100,4,1,1,24,0,0
112677,-100,4,1,1,10,0,0
112839,-100,4,1,1,26,0,0
113326,-100,4,1,1,10,0,0
113488,-100,4,1,1,28,0,0
113974,-100,4,1,1,10,0,0
114137,-100,4,1,1,30,0,0
115272,-100,4,1,1,10,0,0
115434,-100,4,1,1,32,0,0
115920,-100,4,1,1,10,0,0
116083,-100,4,1,1,34,0,0
116407,-100,4,1,1,36,0,0
116731,-100,4,1,1,38,0,0
118029,-100,4,1,1,40,0,0
118353,-100,4,2,66,30,0,0
119326,-100,4,1,1,70,0,1
120299,-100,4,1,1,70,0,1
122407,-100,4,1,1,70,0,1
122893,-100,4,1,1,70,0,1
124515,-100,4,1,2,40,0,1
124596,-100,4,1,1,70,0,1
124758,-100,4,1,2,40,0,1
124839,-100,4,1,1,70,0,1
125002,-100,4,1,2,40,0,1
125083,-100,4,1,1,70,0,1
125245,-100,4,1,2,40,0,1
125326,-100,4,1,1,70,0,1
125812,-100,4,1,2,40,0,1
125893,-100,4,1,1,70,0,1
126056,-100,4,1,2,40,0,1
126137,-100,4,1,1,70,0,1
126299,-100,4,1,2,40,0,1
126380,-100,4,1,1,70,0,1
126542,-100,4,1,2,40,0,1
126623,-100,4,1,1,70,0,1
127110,-100,4,1,2,40,0,1
127191,-100,4,1,1,70,0,1
127353,-100,4,1,2,40,0,1
127434,-100,4,1,1,70,0,1
127596,-100,4,1,2,40,0,1
127677,-100,4,1,1,70,0,1
127839,-100,4,1,2,40,0,1
127920,-100,4,1,1,70,0,1
128407,-100,4,1,1,70,0,1
128569,-100,4,1,1,10,0,1
128650,-100,4,1,1,70,0,1
128812,-100,4,1,1,10,0,1
128893,-100,4,1,1,70,0,1
129056,-100,4,1,1,10,0,1
129137,-100,4,1,1,70,0,1
129299,-100,4,1,1,10,0,1
129380,-100,4,1,1,70,0,1
129461,-100,4,1,1,10,0,1
129542,-100,4,1,1,70,0,1
129623,-100,4,1,1,10,0,1
129704,-100,4,1,1,75,0,1
129866,-100,4,1,1,10,0,1
129947,-100,4,1,1,75,0,1
132299,-100,4,1,1,80,0,1
132461,-100,4,1,1,10,0,1
132542,-100,4,1,1,80,0,1
133596,-100,4,1,1,85,0,1
133758,-100,4,1,1,10,0,1
133839,-100,4,1,1,85,0,1
134083,-100,4,1,1,85,0,1
134488,-100,4,1,1,10,0,1
134569,-100,4,1,1,85,0,1
135056,-100,4,1,1,10,0,1
135137,-100,4,1,1,85,0,1
135299,-100,4,1,1,10,0,1
135380,-100,4,1,1,85,0,1
135542,-100,4,1,1,10,0,1
135623,-100,4,1,1,85,0,1
135785,-100,4,1,1,10,0,1
135866,-100,4,1,1,85,0,1
135947,-100,4,1,1,10,0,1
136029,-100,4,1,1,85,0,1
136110,-100,4,1,1,10,0,1
136191,-100,4,1,1,85,0,1
136353,-100,4,1,1,10,0,1
136434,-100,4,1,1,85,0,1
136596,-100,4,1,1,10,0,1
136677,-100,4,1,1,85,0,1
136839,-100,4,1,1,10,0,1
136920,-100,4,1,1,85,0,1
137083,-100,4,1,1,10,0,1
137164,-100,4,1,1,85,0,1
137245,-100,4,1,1,10,0,1
137326,-100,4,1,1,85,0,1
137407,-100,4,1,1,10,0,1
137488,-100,4,1,1,85,0,1
138785,-100,4,1,1,85,0,1
140002,-100,4,1,1,10,0,0
140083,-100,4,1,1,85,0,1
140245,-100,4,1,1,85,0,0
141380,-100,4,2,1,10,0,0
142029,-100,4,2,1,12,0,0
142677,-100,4,2,1,14,0,0
143326,-100,4,2,1,16,0,0
143974,-100,4,2,1,18,0,0
145353,-100,4,2,1,16,0,0
145434,-100,4,2,1,14,0,0
145515,-100,4,2,1,12,0,0
145596,-100,4,2,1,10,0,0
145920,-100,4,2,1,8,0,0
146245,-100,4,2,66,5,0,0

[Colours]
Combo1 : 250,28,20
Combo2 : 253,175,92
Combo3 : 130,121,104
Combo4 : 101,55,57

[HitObjects]
184,336,5164,5,4,0:0:0:0:
328,336,5488,1,4,0:0:0:0:
184,336,5812,1,2,0:0:0:0:
400,300,10353,5,4,0:0:0:0:
256,300,10677,1,4,0:0:0:0:
112,300,11002,1,2,0:0:0:0:
304,336,14245,5,0,3:0:0:0:
380,296,14461,1,0,3:0:0:0:
408,216,14677,1,0,3:0:0:0:
380,136,14894,1,0,3:0:0:0:
304,96,15110,1,0,3:0:0:0:
208,96,15326,1,0,3:0:0:0:
304,96,15542,6,0,P|323:163|295:228,1,144,4|0,0:0|0:0,0:0:0:0:
120,228,16029,1,4,0:0:0:0:
208,264,18137,6,0,L|64:264,1,144,4|0,0:0|0:0,0:0:0:0:
144,300,18623,1,4,0:0:0:0:
448,300,18947,1,4,0:0:0:0:
248,336,19434,5,0,3:0:0:0:
188,296,19596,1,0,3:0:0:0:
168,228,19758,1,0,3:0:0:0:
188,160,19921,1,0,3:0:0:0:
248,120,20083,1,0,3:0:0:0:
320,120,20245,1,0,3:0:0:0:
248,84,20407,1,0,3:0:0:0:
320,84,20569,1,0,3:0:0:0:
496,84,20731,6,0,P|482:152|424:191,1,144,4|0,0:0|0:0,0:0:0:0:
344,228,21218,2,0,L|488:228,1,144,4|4,0:0|0:0,0:0:0:0:
184,228,22029,6,0,L|176:300,1,72,4|4,0:0|0:0,0:0:0:0:
324,336,22515,2,0,L|340:192,1,144,4|4,0:0|0:0,0:0:0:0:
32,160,23326,6,0,L|176:160,1,144,4|0,3:0|3:0,0:0:0:0:
480,124,23974,2,0,L|336:124,1,144,4|0,3:0|3:0,0:0:0:0:
176,88,24623,5,4,0:0:0:0:
168,124,24704,1,0,0:0:0:0:
176,160,24785,1,0,0:0:0:0:
256,196,24947,1,0,0:0:0:0:
256,232,25029,1,0,0:0:0:0:
256,268,25110,1,0,0:0:0:0:
336,304,25272,2,0,L|444:304,2,108,4|4|4,0:0|0:0|0:0,0:0:0:0:
160,304,25920,6,0,P|120:251|160:196,1,144,6|8,0:0|0:0,0:0:0:0:
268,160,26488,2,0,L|280:52,1,108,2|2,0:0|0:0,0:0:0:0:
200,16,26893,1,8,0:0:0:0:
56,52,27218,6,0,L|200:52,1,144,2|8,0:0|0:0,0:0:0:0:
308,88,27785,2,0,L|200:88,1,108,2|2,0:0|0:0,0:0:0:0:
120,88,28191,1,8,0:0:0:0:
116,124,28272,1,0,0:0:0:0:
112,160,28353,1,0,0:0:0:0:
288,196,28515,6,0,P|327:250|287:304,1,144,6|8,0:0|0:0,0:0:0:0:
180,340,29083,2,0,L|168:232,1,108,2|2,0:0|0:0,0:0:0:0:
248,196,29488,1,8,0:0:0:0:
392,160,29812,6,0,L|248:160,1,144,2|8,0:0|0:0,0:0:0:0:
356,124,30380,2,0,L|464:124,1,108,2|2,0:0|0:0,0:0:0:0:
384,88,30785,1,12,0:0:0:0:
80,88,31110,6,0,P|21:126|6:195,1,144,6|8,0:0|0:0,0:0:0:0:
112,228,31677,2,0,L|220:228,1,108,2|2,0:0|0:0,0:0:0:0:
300,228,32083,1,8,0:0:0:0:
156,264,32407,6,0,P|171:332|230:370,1,144,2|8,0:0|0:0,0:0:0:0:
336,372,32974,2,0,L|348:264,1,108,2|2,0:0|0:0,0:0:0:0:
268,228,33380,2,0,L|196:228,1,72,8|0,0:0|0:0,0:0:0:0:
360,192,33704,6,0,L|432:192,2,72,6|0|8,0:0|0:0|0:0,0:0:0:0:
240,228,34272,2,0,L|228:120,1,108,2|2,0:0|0:0,0:0:0:0:
308,152,34677,2,0,L|316:80,1,72,8|0,0:0|0:0,0:0:0:0:
140,44,35002,5,4,0:0:0:0:
72,64,35164,1,4,0:0:0:0:
24,116,35326,1,8,0:0:0:0:
8,188,35488,1,4,0:0:0:0:
152,188,35812,5,4,0:0:0:0:
200,240,35974,1,8,0:0:0:0:
216,312,36136,1,4,0:0:0:0:
24,348,36623,5,2,0:0:0:0:
328,348,36947,6,0,L|336:276,1,72,6|0,0:0|0:0,0:0:0:0:
256,240,37272,2,0,L|184:240,2,72,8|0|2,0:0|0:0|0:0,0:0:0:0:
112,276,37920,6,0,L|100:168,1,108,8|2,0:0|0:0,0:0:0:0:
208,132,38407,1,2,0:0:0:0:
128,96,38569,1,8,0:0:0:0:
112,60,38650,1,0,0:0:0:0:
128,24,38731,1,0,0:0:0:0:
304,24,38893,6,0,P|363:62|378:131,1,144,6|8,0:0|0:0,0:0:0:0:
272,164,39461,2,0,L|264:272,1,108,2|2,0:0|0:0,0:0:0:0:
344,308,39866,1,8,0:0:0:0:
200,344,40191,5,2,0:0:0:0:
196,308,40272,1,0,0:0:0:0:
192,272,40353,1,0,0:0:0:0:
272,236,40515,2,0,L|284:128,1,108,8|2,0:0|0:0,0:0:0:0:
176,92,41002,1,2,0:0:0:0:
104,60,41164,1,12,0:0:0:0:
408,60,41488,5,6,0:0:0:0:
264,60,41812,2,0,L|252:168,1,108,8|2,0:0|0:0,0:0:0:0:
360,236,42299,2,0,L|432:236,2,72,2|8|0,0:0|0:0|0:0,0:0:0:0:
184,308,42785,6,0,P|125:270|110:201,1,144,6|8,0:0|0:0,0:0:0:0:
216,168,43353,2,0,L|108:168,1,108,2|2,0:0|0:0,0:0:0:0:
28,132,43758,2,0,L|100:132,1,72,8|0,0:0|0:0,0:0:0:0:
276,96,44083,6,0,P|335:134|350:203,1,144,6|8,0:0|0:0,0:0:0:0:
208,240,44731,1,0,0:0:0:0:
204,276,44812,1,0,0:0:0:0:
200,308,44893,1,2,0:0:0:0:
280,344,45056,1,8,0:0:0:0:
284,308,45137,1,0,0:0:0:0:
288,276,45218,1,0,0:0:0:0:
112,240,45380,6,0,L|40:240,2,72,6|0|8,0:0|0:0|0:0,0:0:0:0:
220,240,45947,2,0,L|232:132,1,108,2|2,0:0|0:0,0:0:0:0:
152,96,46353,1,8,0:0:0:0:
136,60,46434,1,0,0:0:0:0:
152,24,46515,1,0,0:0:0:0:
328,24,46677,6,0,P|371:113|293:176,1,216,4|4,0:0|0:0,0:0:0:0:
152,212,47488,2,0,L|144:284,1,72,4|4,0:0|0:0,0:0:0:0:
480,320,48137,5,4,0:0:0:0:
288,356,48623,1,4,0:0:0:0:
396,356,48866,2,0,L|408:248,1,108,4|4,0:0|0:0,0:0:0:0:
76,212,49596,5,4,0:0:0:0:
184,176,49839,1,0,0:0:0:0:
220,176,49920,1,4,0:0:0:0:
112,176,50164,2,0,L|100:68,1,108,4|4,0:0|0:0,0:0:0:0:
356,32,50731,5,0,3:0:0:0:
392,32,50812,1,0,3:0:0:0:
356,32,50893,1,4,3:0:0:0:
212,32,51218,1,0,0:3:0:0:
232,100,51381,1,4,0:3:0:0:
292,140,51543,1,0,0:3:0:0:
364,140,51705,1,4,0:3:0:0:
28,248,52191,5,4,0:0:0:0:
172,248,52515,1,4,0:0:0:0:
28,248,52839,1,0,0:3:0:0:
24,212,52920,1,0,0:3:0:0:
20,176,53002,1,4,0:3:0:0:
100,140,53164,6,0,L|208:140,1,108,4|4,0:0|0:0,0:0:0:0:
316,104,53650,2,0,L|208:104,1,108,4|4,0:0|0:0,0:0:0:0:
100,104,54137,2,0,L|92:32,1,72,4|4,0:0|0:0,0:0:0:0:
268,32,54461,6,0,L|376:32,1,108,4|4,0:0|0:0,0:0:0:0:
268,68,54947,2,0,L|376:68,1,108,4|4,0:0|0:0,0:0:0:0:
484,68,55434,2,0,L|492:140,1,72,4|4,0:0|0:0,0:0:0:0:
316,104,55758,5,4,0:0:0:0:
256,144,55920,1,4,0:0:0:0:
236,212,56082,1,4,0:0:0:0:
256,280,56245,1,4,0:0:0:0:
316,320,56407,5,4,3:0:0:0:
352,320,56488,1,0,3:0:0:0:
316,320,56569,1,4,3:0:0:0:
236,320,56731,1,4,3:0:0:0:
200,320,56812,1,0,3:0:0:0:
236,320,56893,1,4,3:0:0:0:
412,356,57056,6,0,P|452:303|412:248,1,144,4|0,0:0|0:0,0:0:0:0:
316,248,57596,1,0,0:0:0:0:
268,212,57704,2,0,L|412:212,1,144,8|0,0:0|0:0,0:0:0:0:
268,212,58353,6,0,P|209:175|194:106,1,144,2|0,0:0|0:0,0:0:0:0:
288,108,58893,1,0,0:0:0:0:
336,108,59002,2,0,P|395:71|410:2,1,144,8|0,0:0|0:0,0:0:0:0:
268,4,59650,6,0,L|124:4,1,144,2|0,0:0|0:0,0:0:0:0:
220,40,60191,1,0,0:0:0:0:
172,40,60299,2,0,P|113:77|98:146,1,144,8|0,0:0|0:0,0:0:0:0:
348,148,60947,6,0,P|426:209|384:299,1,216,2|0,0:0|0:0,0:0:0:0:
348,300,61515,1,0,0:0:0:0:
312,300,61596,1,8,0:0:0:0:
168,300,61920,2,0,L|96:300,1,72,0|0,0:0|0:0,0:0:0:0:
272,264,62245,6,0,P|312:211|272:156,1,144,0|0,0:0|0:0,0:0:0:0:
176,156,62785,1,0,0:0:0:0:
128,156,62893,2,0,P|88:103|128:48,1,144,8|0,0:0|0:0,0:0:0:0:
272,12,63542,5,2,0:0:0:0:
128,12,63866,1,0,0:0:0:0:
272,12,64191,1,8,0:0:0:0:
276,48,64272,1,0,0:0:0:0:
280,84,64353,1,0,0:0:0:0:
200,120,64515,1,0,0:0:0:0:
196,156,64596,1,0,0:0:0:0:
192,192,64677,1,0,0:0:0:0:
368,227,64839,6,0,P|427:265|441:334,1,144,2|0,0:0|0:0,0:0:0:0:
396,336,65272,1,0,0:0:0:0:
348,336,65380,1,0,0:0:0:0:
300,336,65488,6,0,P|314:267|374:230,1,144,8|0,0:0|0:0,0:0:0:0:
328,228,65920,1,0,0:0:0:0:
280,228,66029,1,0,0:0:0:0:
231,228,66137,6,0,P|133:149|232:72,1,288,2|0,0:0|3:0,0:0:0:0:
376,72,67110,1,0,3:0:0:0:
388,120,67218,1,0,3:0:0:0:
376,168,67326,1,0,3:0:0:0:
340,200,67434,5,4,0:0:0:0:
256,192,67758,12,2,68731,0:0:0:0:
188,200,70029,5,4,0:0:0:0:
256,192,70353,12,0,72298,0:0:0:0:
368,336,72623,5,0,3:0:0:0:
296,336,72785,1,0,3:0:0:0:
368,336,72947,1,0,3:0:0:0:
428,296,73109,1,0,3:0:0:0:
448,228,73271,1,0,3:0:0:0:
428,160,73434,1,0,3:0:0:0:
368,120,73596,1,0,3:0:0:0:
296,120,73758,1,0,3:0:0:0:
120,120,73920,5,2,0:0:0:0:
256,192,74245,12,0,76191,0:0:0:0:
120,336,76515,5,0,0:0:0:0:
416,336,77812,6,0,P|456:283|416:228,1,144,6|8,0:0|0:0,0:0:0:0:
308,192,78380,2,0,L|416:192,1,108,2|2,0:0|0:0,0:0:0:0:
496,156,78785,2,0,L|504:84,1,72,8|0,0:0|0:0,0:0:0:0:
328,48,79110,6,0,P|269:86|254:155,1,144,2|8,0:0|0:0,0:0:0:0:
332,188,79596,1,0,0:0:0:0:
348,224,79677,1,2,0:0:0:0:
332,260,79758,1,0,0:0:0:0:
252,296,79920,2,0,L|180:296,2,72,2|8|0,0:0|0:0|0:0,0:0:0:0:
76,332,80407,6,0,P|36:279|76:224,1,144,2|8,0:0|0:0,0:0:0:0:
156,188,80893,2,0,L|228:188,2,72,0|0|2,0:0|0:0|0:0,0:0:0:0:
76,152,81380,1,8,0:0:0:0:
72,116,81461,1,0,0:0:0:0:
68,80,81542,1,0,0:0:0:0:
244,44,81704,6,0,L|352:44,1,108,2|2,0:0|0:0,0:0:0:0:
244,188,82191,2,0,L|136:188,1,108,2|2,0:0|0:0,0:0:0:0:
352,332,82677,1,8,0:0:0:0:
496,368,83002,6,0,L|504:296,1,72,2|0,0:0|0:0,0:0:0:0:
424,260,83326,1,10,0:0:0:0:
316,224,83569,2,0,L|304:116,1,108,2|2,0:0|0:0,0:0:0:0:
384,80,83974,1,10,0:0:0:0:
240,44,84299,5,2,0:0:0:0:
168,44,84461,1,0,0:0:0:0:
96,44,84623,1,10,0:0:0:0:
204,80,84866,2,0,L|216:188,1,108,2|2,0:0|0:0,0:0:0:0:
136,224,85272,1,8,0:0:0:0:
132,260,85353,1,0,0:0:0:0:
128,296,85434,1,0,0:0:0:0:
304,332,85596,6,0,P|363:294|378:225,1,144,2|8,0:0|0:0,0:0:0:0:
272,192,86164,2,0,L|164:192,1,108,2|2,0:0|0:0,0:0:0:0:
84,156,86569,2,0,L|76:84,1,72,8|0,0:0|0:0,0:0:0:0:
252,48,86893,6,0,L|324:48,2,72,2|0|8,0:0|0:0|0:0,0:0:0:0:
144,84,87461,2,0,L|132:192,1,108,2|2,0:0|0:0,0:0:0:0:
212,228,87866,1,8,0:0:0:0:
464,228,88191,6,0,L|320:228,1,144,6|8,0:0|0:0,0:0:0:0:
428,228,88758,2,0,L|440:336,1,108,2|2,0:0|0:0,0:0:0:0:
368,372,89164,2,0,L|360:300,1,72,8|0,0:0|0:0,0:0:0:0:
184,336,89488,6,0,P|144:283|184:228,1,144,2|8,0:0|0:0,0:0:0:0:
264,192,89974,1,0,0:0:0:0:
300,192,90056,1,2,0:0:0:0:
336,160,90137,2,0,L|264:160,1,72,0|2,0:0|0:0,0:0:0:0:
184,124,90461,2,0,L|112:124,1,72,8|0,0:0|0:0,0:0:0:0:
288,88,90785,6,0,P|328:141|288:196,1,144,2|8,0:0|0:0,0:0:0:0:
216,232,91272,1,0,0:0:0:0:
288,232,91434,1,0,0:0:0:0:
360,232,91596,1,2,0:0:0:0:
288,268,91758,1,8,0:0:0:0:
272,304,91839,1,0,0:0:0:0:
288,340,91920,1,0,0:0:0:0:
464,376,92083,6,0,L|476:268,1,108,2|2,0:0|0:0,0:0:0:0:
372,196,92569,2,0,L|360:88,1,108,2|2,0:0|0:0,0:0:0:0:
144,52,93056,1,8,0:0:0:0:
40,16,93380,6,0,L|32:88,1,72,2|0,0:0|0:0,0:0:0:0:
112,124,93704,1,10,0:0:0:0:
220,160,93947,2,0,L|328:160,1,108,2|2,0:0|0:0,0:0:0:0:
248,196,94353,1,10,0:0:0:0:
392,196,94677,6,0,L|400:268,1,72,2|0,0:0|0:0,0:0:0:0:
320,304,95002,1,10,0:0:0:0:
440,340,95245,2,0,L|452:232,1,108,2|2,0:0|0:0,0:0:0:0:
372,196,95650,1,8,0:0:0:0:
336,196,95731,1,0,0:0:0:0:
300,196,95812,1,0,0:0:0:0:
124,160,95974,6,0,P|84:107|124:52,1,144,6|8,0:0|0:0,0:0:0:0:
232,16,96542,2,0,L|244:124,1,108,2|2,0:0|0:0,0:0:0:0:
164,160,96947,2,0,L|92:160,1,72,8|0,0:0|0:0,0:0:0:0:
268,196,97272,6,0,P|327:234|342:303,1,144,6|8,0:0|0:0,0:0:0:0:
236,336,97839,2,0,L|224:228,1,108,2|2,0:0|0:0,0:0:0:0:
304,192,98245,2,0,L|312:120,1,72,8|0,0:0|0:0,0:0:0:0:
136,84,98569,5,6,0:0:0:0:
312,84,99218,1,8,0:0:0:0:
200,84,99704,2,0,L|192:156,1,72,2|2,0:0|0:0,0:0:0:0:
300,192,100110,2,0,L|312:300,1,108,2|2,0:0|0:0,0:0:0:0:
232,336,100515,2,0,L|88:336,1,144,8|0,0:0|0:0,0:0:0:0:
348,336,101164,6,0,P|407:298|422:229,1,144,2|0,0:0|0:0,0:0:0:0:
352,212,101650,1,0,0:0:0:0:
280,192,101812,1,8,0:0:0:0:
388,192,102299,2,0,L|396:120,1,72,2|2,0:0|0:0,0:0:0:0:
288,84,102704,2,0,L|180:84,1,108,2|2,0:0|0:0,0:0:0:0:
260,48,103110,2,0,L|404:48,1,144,8|2,0:0|0:0,0:0:0:0:
144,48,103758,6,0,P|85:86|70:155,1,144,2|0,0:0|0:0,0:0:0:0:
212,188,104407,1,8,0:0:0:0:
356,224,105056,2,0,L|368:332,1,108,2|2,0:0|0:0,0:0:0:0:
260,364,105542,1,2,0:0:0:0:
340,364,105704,2,0,L|484:364,1,144,8|2,0:0|0:0,0:0:0:0:
224,328,106353,6,0,P|184:275|224:220,1,144,2|0,0:0|0:0,0:0:0:0:
368,184,107002,1,8,0:0:0:0:
128,220,107569,2,0,L|120:148,1,72,2|2,0:0|0:0,0:0:0:0:
228,112,107974,2,0,L|236:40,1,72,0|0,0:0|0:0,0:0:0:0:
156,4,108299,2,0,L|84:4,2,72,8|0|0,3:0|3:0|3:0,0:0:0:0:
444,4,108947,5,4,0:0:0:0:
184,4,109920,1,0,0:0:0:0:
328,4,110245,6,0,P|312:72|253:110,1,144,2|0,0:0|0:0,0:0:0:0:
112,148,110893,2,0,P|52:186|37:254,1,144,2|8,0:0|0:0,0:0:0:0:
120,292,111380,1,8,0:0:0:0:
296,328,111542,5,2,0:0:0:0:
112,328,112191,1,2,0:0:0:0:
400,328,112839,1,2,0:0:0:0:
216,328,113488,2,0,L|200:184,1,144,2|0,0:0|0:0,0:0:0:0:
468,184,114137,5,6,0:0:0:0:
112,184,115434,1,2,0:0:0:0:
328,184,116083,1,2,0:0:0:0:
184,184,116407,2,0,L|176:112,1,72,8|8,0:0|0:0,0:0:0:0:
352,80,116731,6,0,P|452:107|491:204,2,216,6|2|2,0:0|0:0|0:0,0:0:0:0:
100,80,118029,1,6,0:0:0:0:
256,192,118353,12,0,119002,0:0:0:0:
252,76,119326,6,0,P|311:114|326:183,1,144,6|8,0:0|0:0,0:0:0:0:
184,216,119974,2,0,L|112:216,2,72,2|2|8,0:0|0:0|0:0,0:0:0:0:
328,252,120623,5,2,0:0:0:0:
184,252,120947,1,8,0:0:0:0:
328,252,121272,1,2,0:0:0:0:
348,184,121435,1,2,0:0:0:0:
328,116,121597,1,8,0:0:0:0:
268,76,121759,1,0,0:0:0:0:
92,76,121920,6,0,L|76:220,1,144,2|8,0:0|0:0,0:0:0:0:
220,252,122569,2,0,L|228:324,1,72,2|2,0:0|0:0,0:0:0:0:
148,360,122893,1,8,0:0:0:0:
292,360,123218,6,0,P|351:322|366:253,1,144,2|8,0:0|0:0,0:0:0:0:
224,216,123866,2,0,L|216:144,1,72,2|2,0:0|0:0,0:0:0:0:
296,108,124191,1,8,0:0:0:0:
312,72,124272,1,0,0:0:0:0:
296,36,124353,1,8,0:0:0:0:
120,36,124515,6,0,L|108:144,1,108,2|2,0:0|0:0,0:0:0:0:
216,180,125002,2,0,L|228:288,1,108,2|2,0:0|0:0,0:0:0:0:
120,324,125488,2,0,L|192:324,1,72,8|0,0:0|0:0,0:0:0:0:
368,324,125812,6,0,L|380:216,1,108,2|2,0:0|0:0,0:0:0:0:
272,180,126299,2,0,L|260:72,1,108,2|2,0:0|0:0,0:0:0:0:
368,36,126785,2,0,L|440:36,1,72,8|0,0:0|0:0,0:0:0:0:
264,36,127110,6,0,L|156:36,2,108,2|2|2,0:0|0:0|0:0,0:0:0:0:
372,72,127839,1,2,0:0:0:0:
264,72,128083,1,8,0:0:0:0:
228,72,128164,1,0,0:0:0:0:
264,72,128245,1,8,0:0:0:0:
440,72,128407,6,0,L|452:180,1,108,4|4,0:0|0:0,0:0:0:0:
344,216,128893,2,0,L|236:216,1,108,4|4,0:0|0:0,0:0:0:0:
344,252,129380,2,0,L|416:252,1,72,4|4,0:0|0:0,0:0:0:0:
240,288,129704,6,0,P|181:249|166:181,1,144,6|8,0:0|0:0,0:0:0:0:
308,144,130353,2,0,L|380:144,2,72,2|2|8,0:0|0:0|0:0,0:0:0:0:
164,108,131002,5,2,0:0:0:0:
308,108,131326,1,8,0:0:0:0:
164,108,131650,1,2,0:0:0:0:
104,148,131812,1,2,0:0:0:0:
84,216,131974,1,8,0:0:0:0:
104,284,132137,1,0,0:0:0:0:
280,320,132299,6,0,P|320:267|280:212,1,144,6|8,0:0|0:0,0:0:0:0:
136,176,132947,2,0,L|208:176,1,72,2|2,0:0|0:0,0:0:0:0:
280,140,133272,1,8,0:0:0:0:
244,140,133353,1,0,0:0:0:0:
208,140,133434,1,0,0:0:0:0:
32,176,133596,6,0,L|20:68,1,108,6|0,0:0|0:0,0:0:0:0:
128,32,134083,1,0,0:0:0:0:
200,32,134245,1,2,0:0:0:0:
272,32,134407,1,0,0:0:0:0:
200,64,134569,1,8,0:0:0:0:
184,100,134650,1,0,0:0:0:0:
200,136,134731,1,8,0:0:0:0:
376,172,134893,6,0,L|484:172,2,108,4|4|4,0:0|0:0|0:0,0:0:0:0:
268,172,135623,1,4,0:0:0:0:
376,172,135866,2,0,L|384:244,1,72,4|4,0:0|0:0,0:0:0:0:
208,208,136191,6,0,L|196:316,1,108,4|4,0:0|0:0,0:0:0:0:
304,352,136677,1,4,0:0:0:0:
196,352,136920,1,4,0:0:0:0:
88,352,137164,2,0,L|160:352,1,72,4|4,0:0|0:0,0:0:0:0:
336,316,137488,5,6,3:0:0:0:
396,276,137650,1,0,3:0:0:0:
416,208,137812,1,8,3:0:0:0:
396,140,137975,1,4,3:0:0:0:
336,100,138137,1,6,3:0:0:0:
264,100,138299,1,0,3:0:0:0:
336,64,138461,1,8,3:0:0:0:
264,64,138623,1,4,3:0:0:0:
88,64,138785,5,4,0:0:0:0:
256,192,139110,12,4,140083,0:0:0:0:
