osu file format v14

[General]
AudioFilename: audio.mp3
AudioLeadIn: 0
PreviewTime: 77812
Countdown: 0
SampleSet: Normal
StackLeniency: 0.7
Mode: 2
LetterboxInBreaks: 0
EpilepsyWarning: 1
WidescreenStoryboard: 0

[Editor]
DistanceSpacing: 0.8
BeatDivisor: 4
GridSize: 4
TimelineZoom: 2.899999

[Metadata]
Title:ouroVoros
TitleUnicode:ouroVoros
Artist:Negentropy (a.k.a. Team Grimoire)
ArtistUnicode:Negentropy (a.k.a. Team Grimoire)
Creator:autofanboy
Version:razor's endlessCycle
Source:
Tags:BMS BOFU2017 OF FIGHTERS ULTIMATE 2017 LEGENDA EST A MYTH Employ “Zero-Origin” Zero Origin Symphonic Roar teamgrimoire Λögeln Aogeln CHAOS MAGNVM Muse Dash Give Up TREATMENT Vol.4 Groove Coaster Hardcore Gothic Video Game Instrumental Electronic Ouroboros Cycle alienflybot AFB Razor Sharp Arthas IDu5t IDust Jemzuu AJamez Daletto salchow
BeatmapID:2276299
BeatmapSetID:1087679

[Difficulty]
HPDrainRate:6
CircleSize:4.2
OverallDifficulty:9.7
ApproachRate:9.7
SliderMultiplier:2.3
SliderTickRate:2

[Events]
//Background and Video events
Video,-295,"video.mp4"
0,0,"Meeting with Shade_DaisanART.jpg",0,0
//Break Periods
2,16229,17642
//Storyboard Layer 0 (Background)
//Storyboard Layer 1 (Fail)
//Storyboard Layer 2 (Pass)
//Storyboard Layer 3 (Foreground)
//Storyboard Layer 4 (Overlay)
//Storyboard Sound Samples

[TimingPoints]
-25,324.324324324324,4,1,1,70,1,0
5812,-100,4,1,10,40,0,0
10353,-100,4,1,1,70,0,0
11002,-100,4,1,10,40,0,0
14245,-100,4,1,1,40,0,0
14569,-100,4,1,1,42,0,0
14893,-100,4,1,1,44,0,0
15218,-100,4,1,1,46,0,0
15542,-100,4,1,1,48,0,0
15866,-100,4,1,1,10,0,0
16029,-100,4,1,1,50,0,0
18461,-100,4,1,1,10,0,0
18623,-100,4,1,1,50,0,0
19434,-83.3333333333333,4,1,1,50,0,0
20731,-100,4,1,1,50,0,0
21218,-100,4,1,1,52,0,0
21542,-100,4,1,1,54,0,0
22029,-100,4,1,1,56,0,0
22515,-100,4,1,1,58,0,0
22839,-100,4,1,1,60,0,0
23326,-100,4,1,1,50,0,0
23974,-100,4,1,1,52,0,0
24623,-100,4,1,1,54,0,0
25272,-100,4,1,1,56,0,0
25515,-100,4,1,1,58,0,0
25758,-100,4,1,1,60,0,0
25920,-100,4,1,1,70,0,1
26164,-100,4,1,1,10,0,1
26245,-100,4,1,1,70,0,1
26407,-100,4,1,1,10,0,1
26488,-100,4,1,1,70,0,1
28191,-83.3333333333333,4,1,1,70,0,1
28515,-100,4,1,1,70,0,1
28758,-100,4,1,1,10,0,1
28839,-100,4,1,1,70,0,1
29974,-100,4,1,1,50,0,1
30056,-100,4,1,1,70,0,1
31029,-100,4,1,1,10,0,1
31110,-100,4,1,1,70,0,1
31272,-100,4,1,1,10,0,1
31353,-100,4,1,1,70,0,1
35002,-100,4,1,1,70,0,0
36664,-100,4,1,1,30,0,0
36704,-100,4,1,1,25,0,0
36745,-100,4,1,1,20,0,0
36785,-100,4,1,1,15,0,0
36826,-100,4,1,1,10,0,0
36866,-100,4,1,1,70,0,0
36947,-100,4,1,1,70,0,1
37920,-83.3333333333333,4,1,1,70,0,1
38569,-100,4,1,1,70,0,1
39056,-100,4,1,1,10,0,1
39137,-100,4,1,1,70,0,1
41407,-100,4,1,1,10,0,1
41488,-100,4,1,1,70,0,1
41650,-100,4,1,1,10,0,1
41731,-100,4,1,1,70,0,1
46677,-100,4,1,1,70,0,0
47002,-100,4,1,1,10,0,0
47164,-100,4,1,1,70,0,0
47326,-100,4,1,1,10,0,0
47488,-100,4,1,1,70,0,0
47974,-100,4,1,1,10,0,0
48137,-100,4,1,1,70,0,0
48461,-100,4,1,1,10,0,0
48623,-100,4,1,1,70,0,0
48785,-100,4,1,1,10,0,0
48866,-100,4,1,1,70,0,0
49029,-100,4,1,1,10,0,0
49110,-100,4,1,1,70,0,0
49758,-100,4,1,1,10,0,0
49839,-100,4,1,1,70,0,0
50083,-100,4,1,1,10,0,0
50164,-100,4,1,1,70,0,0
50326,-100,4,1,1,10,0,0
50407,-100,4,1,1,70,0,0
52434,-100,4,1,1,10,0,0
52515,-100,4,1,1,70,0,0
53326,-100,4,1,1,10,0,0
53407,-100,4,1,1,70,0,0
53569,-100,4,1,1,10,0,0
53650,-100,4,1,1,70,0,0
53812,-100,4,1,1,10,0,0
53893,-100,4,1,1,70,0,0
54056,-100,4,1,1,10,0,0
54137,-100,4,1,1,70,0,0
54218,-100,4,1,1,10,0,0
54299,-100,4,1,1,70,0,0
54380,-100,4,1,1,10,0,0
54461,-100,4,1,1,70,0,0
54623,-100,4,1,1,10,0,0
54704,-100,4,1,1,70,0,0
54866,-100,4,1,1,10,0,0
54947,-100,4,1,1,70,0,0
55110,-100,4,1,1,10,0,0
55191,-100,4,1,1,70,0,0
55353,-100,4,1,1,10,0,0
55434,-100,4,1,1,70,0,0
55515,-100,4,1,1,10,0,0
55596,-100,4,1,1,70,0,0
55677,-100,4,1,1,10,0,0
55758,-100,4,1,1,70,0,0
56407,-83.3333333333333,4,1,1,70,0,0
57056,-100,4,1,1,40,0,0
67434,-133.333333333333,4,1,1,40,0,0
68650,-133.333333333333,4,1,1,10,0,0
68731,-200,4,1,1,40,0,0
69947,-200,4,1,1,10,0,0
70029,-100,4,1,1,40,0,0
71326,-100,4,1,1,10,0,0
71407,-100,4,1,1,40,0,0
72461,-100,4,2,66,10,0,0
72623,-83.3333333333333,4,1,1,70,0,0
74002,-83.3333333333333,4,2,66,30,0,0
76515,-83.3333333333333,4,1,66,40,0,0
76677,-83.3333333333333,4,1,1,10,0,0
77812,-100,4,1,1,70,0,1
77974,-100,4,1,1,10,0,1
78056,-100,4,1,1,70,0,1
80326,-100,4,1,1,10,0,1
80407,-100,4,1,1,70,0,1
83326,-83.3333333333333,4,1,2,40,0,1
83407,-83.3333333333333,4,1,1,70,0,1
83650,-100,4,1,1,70,0,1
83974,-83.3333333333333,4,1,2,40,0,1
84056,-83.3333333333333,4,1,1,70,0,1
84299,-100,4,1,1,70,0,1
84623,-83.3333333333333,4,1,2,40,0,1
84704,-83.3333333333333,4,1,1,70,0,1
84947,-100,4,1,1,70,0,1
85272,-83.3333333333333,4,1,1,70,0,1
87866,-83.3333333333333,4,1,1,70,0,0
88191,-100,4,1,1,70,0,1
88353,-100,4,1,1,10,0,1
88434,-100,4,1,1,70,0,1
90704,-100,4,1,1,10,0,1
90785,-100,4,1,1,70,0,1
93704,-100,4,1,2,40,0,1
93705,-83.3333333333333,4,1,2,40,0,1
93785,-83.3333333333333,4,1,1,70,0,1
94029,-100,4,1,1,70,0,1
94353,-83.3333333333333,4,1,2,40,0,1
94434,-83.3333333333333,4,1,1,70,0,1
94678,-100,4,1,1,70,0,1
95002,-83.3333333333333,4,1,2,40,0,1
95083,-83.3333333333333,4,1,1,70,0,1
95326,-100,4,1,1,70,0,1
95651,-83.3333333333333,4,1,1,70,0,1
95974,-83.3333333333333,4,1,1,75,0,1
97272,-83.3333333333333,4,1,1,80,0,1
98488,-83.3333333333333,4,1,1,80,0,0
98569,-100,4,1,1,80,0,1
98731,-100,4,1,1,40,0,0
100029,-100,4,1,1,10,0,0
100110,-100,4,1,1,40,0,0
100272,-100,4,1,1,10,0,0
100353,-100,4,1,1,40,0,0
102623,-100,4,1,1,10,0,0
102704,-100,4,1,1,40,0,0
102866,-100,4,1,1,10,0,0
102947,-100,4,1,1,40,0,0
105218,-100,4,1,1,10,0,0
105299,-100,4,1,1,40,0,0
105461,-100,4,1,1,10,0,0
105542,-100,4,1,1,40,0,0
108948,-200,4,1,1,40,0,0
109110,-200,4,1,1,20,0,0
111542,-200,4,1,1,22,0,0
112029,-200,4,1,1,10,0,0
112191,-200,4,1,1,24,0,0
112677,-200,4,1,1,10,0,0
112839,-200,4,1,1,26,0,0
113326,-200,4,1,1,10,0,0
113488,-200,4,1,1,28,0,0
113974,-200,4,1,1,10,0,0
114137,-200,4,1,1,30,0,0
115272,-200,4,1,1,10,0,0
115434,-200,4,1,1,32,0,0
115920,-200,4,1,1,10,0,0
116083,-200,4,1,1,34,0,0
116407,-200,4,1,1,36,0,0
116731,-200,4,1,1,38,0,0
118029,-200,4,1,1,40,0,0
119245,-200,4,1,1,10,0,0
119326,-100,4,1,1,70,0,1
124515,-83.3333333333333,4,1,2,40,0,1
124596,-83.3333333333333,4,1,1,70,0,1
124758,-83.3333333333333,4,1,2,40,0,1
124839,-83.3333333333333,4,1,1,70,0,1
125002,-83.3333333333333,4,1,2,40,0,1
125083,-83.3333333333333,4,1,1,70,0,1
125245,-83.3333333333333,4,1,2,40,0,1
125326,-83.3333333333333,4,1,1,70,0,1
125812,-83.3333333333333,4,1,2,40,0,1
125893,-83.3333333333333,4,1,1,70,0,1
126056,-83.3333333333333,4,1,2,40,0,1
126137,-83.3333333333333,4,1,1,70,0,1
126299,-83.3333333333333,4,1,2,40,0,1
126380,-83.3333333333333,4,1,1,70,0,1
126542,-83.3333333333333,4,1,2,40,0,1
126623,-83.3333333333333,4,1,1,70,0,1
127110,-83.3333333333333,4,1,2,40,0,1
127191,-83.3333333333333,4,1,1,70,0,1
127353,-83.3333333333333,4,1,2,40,0,1
127434,-83.3333333333333,4,1,1,70,0,1
127596,-83.3333333333333,4,1,2,40,0,1
127677,-83.3333333333333,4,1,1,70,0,1
127839,-83.3333333333333,4,1,2,40,0,1
127920,-83.3333333333333,4,1,1,70,0,1
128569,-83.3333333333333,4,1,1,10,0,1
128650,-83.3333333333333,4,1,1,70,0,1
128812,-83.3333333333333,4,1,1,10,0,1
128893,-83.3333333333333,4,1,1,70,0,1
129056,-83.3333333333333,4,1,1,10,0,1
129137,-83.3333333333333,4,1,1,70,0,1
129299,-83.3333333333333,4,1,1,10,0,1
129380,-83.3333333333333,4,1,1,70,0,1
129461,-83.3333333333333,4,1,1,10,0,1
129542,-83.3333333333333,4,1,1,70,0,1
129623,-83.3333333333333,4,1,1,10,0,1
129704,-100,4,1,1,75,0,1
129866,-100,4,1,1,10,0,1
129947,-100,4,1,1,75,0,1
132299,-100,4,1,1,80,0,1
132461,-100,4,1,1,10,0,1
132542,-100,4,1,1,80,0,1
133596,-100,4,1,1,85,0,1
133758,-100,4,1,1,10,0,1
133839,-100,4,1,1,85,0,1
134488,-100,4,1,1,10,0,1
134569,-100,4,1,1,85,0,1
134893,-83.3333333333333,4,1,1,85,0,1
135056,-83.3333333333333,4,1,1,10,0,1
135137,-83.3333333333333,4,1,1,85,0,1
135299,-83.3333333333333,4,1,1,10,0,1
135380,-83.3333333333333,4,1,1,85,0,1
135542,-83.3333333333333,4,1,1,10,0,1
135623,-83.3333333333333,4,1,1,85,0,1
135785,-83.3333333333333,4,1,1,10,0,1
135866,-83.3333333333333,4,1,1,85,0,1
135947,-83.3333333333333,4,1,1,10,0,1
136029,-83.3333333333333,4,1,1,85,0,1
136110,-83.3333333333333,4,1,1,10,0,1
136191,-83.3333333333333,4,1,1,85,0,1
136353,-83.3333333333333,4,1,1,10,0,1
136434,-83.3333333333333,4,1,1,85,0,1
136596,-83.3333333333333,4,1,1,10,0,1
136677,-83.3333333333333,4,1,1,85,0,1
136839,-83.3333333333333,4,1,1,10,0,1
136920,-83.3333333333333,4,1,1,85,0,1
137083,-83.3333333333333,4,1,1,10,0,1
137164,-83.3333333333333,4,1,1,85,0,1
137245,-83.3333333333333,4,1,1,10,0,1
137326,-83.3333333333333,4,1,1,85,0,1
137407,-83.3333333333333,4,1,1,10,0,1
137488,-83.3333333333333,4,1,1,85,0,1
138785,-100,4,1,1,85,0,1
140002,-100,4,1,1,10,0,0
140083,-100,4,1,1,85,0,1
140245,-100,4,1,1,85,0,0
141380,-100,4,2,1,10,0,0
142029,-100,4,2,1,12,0,0
142677,-100,4,2,1,14,0,0
143326,-100,4,2,1,16,0,0
143974,-100,4,2,1,18,0,0
145353,-100,4,2,1,16,0,0
145434,-100,4,2,1,14,0,0
145515,-100,4,2,1,12,0,0
145596,-100,4,2,1,10,0,0
145920,-100,4,2,1,8,0,0
146245,-100,4,2,66,5,0,0

[Colours]
Combo1 : 250,28,20
Combo2 : 253,175,92
Combo3 : 130,121,104
Combo4 : 101,55,57

[HitObjects]
471,45,5164,6,0,L|241:44,1,230,4|4,0:0|0:0,0:0:0:0:
471,44,5813,5,2,0:0:0:0:
439,44,6462,1,2,0:0:0:0:
407,44,7110,1,2,0:0:0:0:
375,44,7759,1,2,0:0:0:0:
343,44,8407,1,2,0:0:0:0:
311,44,9056,1,2,0:0:0:0:
279,44,9705,1,2,0:0:0:0:
390,70,9867,5,0,0:0:0:0:
429,110,9948,1,0,0:0:0:0:
452,163,10029,1,8,0:0:0:0:
454,220,10110,1,0,0:0:0:0:
435,274,10191,1,0,0:0:0:0:
398,318,10272,1,0,0:0:0:0:
41,45,10354,6,0,L|271:44,1,230,4|0,0:0|0:0,0:0:0:0:
41,44,11003,5,2,0:0:0:0:
73,44,11650,1,0,0:0:0:0:
105,44,12300,1,2,0:0:0:0:
137,44,12947,1,0,0:0:0:0:
169,44,13597,1,2,0:0:0:0:
201,44,14246,5,0,3:0:0:0:
276,55,14354,1,0,3:0:0:0:
199,62,14462,1,0,3:0:0:0:
398,135,14570,5,0,3:0:0:0:
323,146,14678,1,0,3:0:0:0:
400,153,14786,1,0,3:0:0:0:
162,197,14894,5,0,3:0:0:0:
381,283,15002,1,0,3:0:0:0:
162,197,15110,1,0,3:0:0:0:
475,188,15219,5,0,3:0:0:0:
257,191,15327,1,0,3:0:0:0:
37,188,15435,1,0,3:0:0:0:
369,332,15543,6,0,L|159:121,1,287.5,4|0,0:0|0:0,0:0:0:0:
369,332,16029,1,4,0:0:0:0:
145,293,18137,5,4,0:0:0:0:
451,133,18624,1,4,0:0:0:0:
45,74,18948,1,4,0:0:0:0:
394,62,19435,6,0,L|485:62,3,68.9999978942872,0|0|0|0,3:0|3:0|0:0|3:0,0:0:0:0:
300,63,19759,6,0,L|231:63,3,68.9999978942872,0|0|0|0,3:0|3:0|0:0|3:0,0:0:0:0:
393,158,20083,6,0,L|484:158,3,68.9999978942872,0|0|0|0,3:0|3:0|3:0|3:0,0:0:0:0:
299,159,20407,6,0,L|230:159,3,68.9999978942872,0|0|0|0,3:0|3:0|3:0|3:0,0:0:0:0:
401,205,20732,5,4,0:0:0:0:
448,233,20813,1,0,0:0:0:0:
452,288,20894,1,0,0:0:0:0:
408,322,20975,1,0,0:0:0:0:
333,320,21056,2,0,L|400:319,1,57.5,0|0,0:0|0:0,0:0:0:0:
182,307,21219,6,0,L|176:246,1,57.5,4|0,0:0|0:0,0:0:0:0:
250,246,21381,2,0,L|176:245,1,57.5,0|0,0:0|0:0,0:0:0:0:
329,186,21543,6,0,L|392:185,1,57.5,4|0,0:0|0:0,0:0:0:0:
312,177,21705,2,0,L|306:109,1,57.5,0|0,0:0|0:0,0:0:0:0:
382,120,21867,2,0,L|388:52,1,57.5,0|0,0:0|0:0,0:0:0:0:
238,51,22029,6,0,L|166:51,1,57.5,4|0,0:0|0:0,0:0:0:0:
334,136,22192,6,0,L|264:136,1,57.5,4|0,0:0|0:0,0:0:0:0:
348,156,22354,2,0,L|413:156,1,57.5,0|0,0:0|0:0,0:0:0:0:
228,201,22516,6,0,L|225:268,1,57.5,4|0,0:0|0:0,0:0:0:0:
299,263,22678,2,0,L|302:330,1,57.5,0|0,0:0|0:0,0:0:0:0:
128,322,22840,6,0,L|70:322,1,57.5,4|0,0:0|0:0,0:0:0:0:
144,312,23002,1,0,0:0:0:0:
195,294,23083,1,0,0:0:0:0:
196,240,23164,1,0,0:0:0:0:
146,220,23245,1,0,0:0:0:0:
436,39,23326,6,0,L|451:101,1,57.5,4|0,0:0|0:0,0:0:0:0:
313,103,23488,2,0,L|313:168,1,57.5
173,103,23650,2,0,L|158:165,1,57.5
313,160,23812,2,0,L|328:222,1,57.5
159,158,23974,6,0,L|144:220,1,57.5,4|0,0:0|0:0,0:0:0:0:
282,222,24136,2,0,L|282:287,1,57.5
422,222,24298,2,0,L|437:284,1,57.5
282,279,24460,2,0,L|267:341,1,57.5
72,229,24624,6,0,L|66:292,1,57.5,4|0,0:0|0:0,0:0:0:0:
225,233,24786,2,0,L|228:294,1,57.5,0|0,0:0|0:0,0:0:0:0:
54,292,24948,2,0,L|116:328,1,57.5,0|0,0:0|0:0,0:0:0:0:
296,306,25110,2,0,L|231:315,1,57.5,0|0,0:0|0:0,0:0:0:0:
37,260,25273,6,0,L|187:231,1,115,4|0,0:0|0:0,0:0:0:0:
329,243,25516,2,0,L|179:214,1,115,4|0,0:0|0:0,0:0:0:0:
37,260,25759,1,4,0:0:0:0:
329,242,25921,6,0,L|147:242,1,172.5,6|0,0:0|0:0,0:0:0:0:
329,187,26246,2,0,P|362:141|327:104,1,115,8|0,0:0|0:0,0:0:0:0:
176,68,26489,2,0,L|170:140,1,57.5,2|0,0:0|0:0,0:0:0:0:
243,142,26651,1,0,0:0:0:0:
84,172,26732,2,0,L|76:231,1,57.5,2|0,0:0|0:0,0:0:0:0:
231,233,26894,1,8,0:0:0:0:
282,251,26975,1,0,0:0:0:0:
285,306,27056,1,0,0:0:0:0:
238,332,27137,1,0,0:0:0:0:
66,330,27219,6,0,L|125:330,1,57.5,2|0,0:0|0:0,0:0:0:0:
194,308,27381,2,0,L|128:308,1,57.5,0|0,0:0|0:0,0:0:0:0:
305,185,27543,2,0,L|365:183,2,57.5,8|0|0,0:0|0:0|0:0,0:0:0:0:
151,123,27786,2,0,L|142:191,1,57.5,2|0,0:0|0:0,0:0:0:0:
217,185,27948,1,0,0:0:0:0:
54,216,28029,2,0,L|46:293,1,57.5,2|0,0:0|0:0,0:0:0:0:
219,340,28192,6,0,L|296:340,3,68.9999978942872,8|0|0|0,0:0|0:0|0:0|0:0,0:0:0:0:
41,297,28516,6,0,L|223:297,1,172.5,6|0,0:0|0:0,0:0:0:0:
365,286,28840,6,0,L|371:223,1,57.5,8|0,0:0|0:0,0:0:0:0:
205,196,29002,2,0,L|265:196,1,57.5,0|2,0:0|0:0,0:0:0:0:
406,178,29164,2,0,L|464:177,1,57.5,0|0,0:0|0:0,0:0:0:0:
301,120,29327,2,0,L|237:117,1,57.5,2|0,0:0|0:0,0:0:0:0:
410,69,29489,2,0,L|416:127,1,57.5,8|0,0:0|0:0,0:0:0:0:
345,150,29651,2,0,L|286:153,1,57.5,0|0,0:0|0:0,0:0:0:0:
101,189,29813,6,0,L|162:189,1,57.5,2|0,0:0|0:0,0:0:0:0:
411,263,29975,2,0,L|406:202,1,57.5,0|0,0:0|0:0,0:0:0:0:
261,265,30137,2,0,L|256:204,1,57.5,8|0,0:0|0:0,0:0:0:0:
101,189,30300,6,0,L|162:189,1,57.5,0|0,0:0|0:0,0:0:0:0:
411,263,30462,2,0,L|406:202,1,57.5,0|0,0:0|0:0,0:0:0:0:
101,189,30624,6,0,L|162:189,1,57.5,2|0,0:0|0:0,0:0:0:0:
411,263,30786,6,0,P|456:217|403:136,1,172.5,12|0,0:0|0:0,0:0:0:0:
189,137,31110,6,0,L|367:137,1,172.5,6|0,0:0|0:0,0:0:0:0:
190,186,31435,2,0,L|311:186,1,115,8|0,0:0|0:0,0:0:0:0:
118,270,31677,2,0,L|114:203,1,57.5,2|0,0:0|0:0,0:0:0:0:
188,208,31839,1,0,0:0:0:0:
263,203,31921,2,0,L|259:136,1,57.5,2|0,0:0|0:0,0:0:0:0:
110,200,32083,2,0,L|106:133,1,57.5,8|0,0:0|0:0,0:0:0:0:
181,137,32245,2,0,L|177:70,1,57.5,0|0,0:0|0:0,0:0:0:0:
35,92,32408,6,0,L|158:93,1,115,2|0,0:0|0:0,0:0:0:0:
396,97,32732,2,0,P|429:148|399:192,1,115,8|0,0:0|0:0,0:0:0:0:
246,199,32975,2,0,L|240:261,1,57.5,2|0,0:0|0:0,0:0:0:0:
387,223,33219,1,2,0:0:0:0:
156,243,33381,2,0,L|152:310,1,57.5,8|0,0:0|0:0,0:0:0:0:
227,301,33543,2,0,L|231:368,1,57.5,0|0,0:0|0:0,0:0:0:0:
64,338,33705,5,6,0:0:0:0:
231,241,33786,1,0,0:0:0:0:
174,243,33867,1,0,0:0:0:0:
117,243,33948,1,0,0:0:0:0:
304,168,34029,6,0,L|243:168,1,57.5,8|0,0:0|0:0,0:0:0:0:
304,168,34192,2,0,L|366:168,1,57.5,0|0,0:0|0:0,0:0:0:0:
182,166,34354,5,0,0:0:0:0:
139,130,34435,1,0,0:0:0:0:
140,75,34516,1,2,0:0:0:0:
185,42,34597,1,0,0:0:0:0:
330,218,34678,5,8,0:0:0:0:
372,253,34759,1,0,0:0:0:0:
371,308,34840,1,0,0:0:0:0:
326,341,34921,1,0,0:0:0:0:
184,342,35002,5,4,0:0:0:0:
422,148,35164,1,4,0:0:0:0:
155,262,35327,1,8,0:0:0:0:
419,281,35489,1,4,0:0:0:0:
419,281,35813,5,4,0:0:0:0:
95,126,35975,1,8,0:0:0:0:
425,80,36137,1,4,0:0:0:0:
425,80,36624,5,2,0:0:0:0:
398,91,36664,1,0,0:0:0:0:
380,112,36705,1,0,0:0:0:0:
373,140,36745,1,0,0:0:0:0:
380,168,36786,1,0,0:0:0:0:
398,189,36826,1,0,0:0:0:0:
424,201,36867,1,2,0:0:0:0:
264,209,36948,6,0,L|137:209,1,115,6|0,0:0|0:0,0:0:0:0:
292,254,37273,2,0,P|343:215|287:138,1,172.5,8|0,0:0|0:0,0:0:0:0:
127,129,37597,6,0,L|192:129,1,57.5,2|0,0:0|0:0,0:0:0:0:
254,103,37759,2,0,L|321:103,1,57.5,0|0,0:0|0:0,0:0:0:0:
166,61,37921,2,0,L|85:61,3,68.9999978942872,8|0|0|2,0:0|0:0|0:0|0:0,0:0:0:0:
284,167,38246,2,0,L|203:167,3,68.9999978942872,0|0|0|0,0:0|0:0|0:0|0:0,0:0:0:0:
402,273,38570,1,8,0:0:0:0:
429,265,38610,1,0,0:0:0:0:
448,245,38651,1,0,0:0:0:0:
454,217,38691,1,0,0:0:0:0:
443,190,38732,1,0,0:0:0:0:
420,174,38772,1,0,0:0:0:0:
392,172,38813,1,0,0:0:0:0:
166,61,38894,6,0,L|347:61,1,172.5,6|0,0:0|0:0,0:0:0:0:
201,140,39219,6,0,L|135:140,1,57.5,8|0,0:0|0:0,0:0:0:0:
322,196,39381,2,0,L|250:196,1,57.5,0|0,0:0|0:0,0:0:0:0:
96,244,39543,2,0,L|217:244,1,115,0|0,0:0|0:0,0:0:0:0:
157,191,39786,1,0,0:0:0:0:
322,196,39867,2,0,L|329:262,1,57.5,8|0,0:0|0:0,0:0:0:0:
253,248,40029,2,0,L|246:314,1,57.5,0|0,0:0|0:0,0:0:0:0:
455,257,40192,6,0,L|394:257,1,57.5,2|0,0:0|0:0,0:0:0:0:
145,183,40354,2,0,L|150:244,1,57.5,0|0,0:0|0:0,0:0:0:0:
295,181,40516,2,0,L|300:242,1,57.5,8|0,0:0|0:0,0:0:0:0:
455,257,40677,6,0,L|394:257,1,57.5
145,183,40839,2,0,L|150:244,1,57.5
455,257,41003,6,0,L|394:257,1,57.5,2|0,0:0|0:0,0:0:0:0:
145,183,41165,6,0,P|100:229|153:310,1,172.5,12|0,0:0|0:0,0:0:0:0:
344,307,41489,6,0,L|143:306,1,172.5,6|0,0:0|0:0,0:0:0:0:
321,243,41813,2,0,L|448:244,1,115,8|0,0:0|0:0,0:0:0:0:
267,193,42056,2,0,L|147:192,1,115,2|0,0:0|0:0,0:0:0:0:
336,138,42300,2,0,L|266:137,1,57.5,2|0,0:0|0:0,0:0:0:0:
88,133,42462,2,0,L|80:201,1,57.5,8|0,0:0|0:0,0:0:0:0:
164,229,42624,2,0,L|171:172,1,57.5,0|0,0:0|0:0,0:0:0:0:
448,194,42786,6,0,L|436:220,1,28.75,6|0,0:0|0:0,0:0:0:0:
323,222,42948,2,0,L|311:248,1,28.75,0|0,0:0|0:0,0:0:0:0:
198,249,43110,2,0,L|186:275,1,28.75,8|0,0:0|0:0,0:0:0:0:
72,278,43273,2,0,L|60:304,1,28.75,0|0,0:0|0:0,0:0:0:0:
305,260,43435,6,0,L|317:286,1,28.75,0|0,0:0|0:0,0:0:0:0:
205,296,43597,2,0,L|193:322,1,28.75,2|0,0:0|0:0,0:0:0:0:
394,161,43759,2,0,L|382:187,1,28.75,8|0,0:0|0:0,0:0:0:0:
118,161,43921,2,0,L|130:187,1,28.75,0|0,0:0|0:0,0:0:0:0:
344,313,44083,5,6,0:0:0:0:
386,278,44164,1,0,0:0:0:0:
382,223,44245,1,0,0:0:0:0:
335,195,44326,1,0,0:0:0:0:
185,157,44408,6,0,L|126:151,2,57.5,8|0|0,0:0|0:0|0:0,0:0:0:0:
328,113,44651,6,0,L|387:107,2,57.5,2|0|0,0:0|0:0|0:0,0:0:0:0:
185,93,44894,6,0,L|122:88,1,57.5,2|0,0:0|0:0,0:0:0:0:
303,151,45056,2,0,L|238:151,1,57.5,8|0,0:0|0:0,0:0:0:0:
171,166,45219,2,0,L|237:165,1,57.5,0|0,0:0|0:0,0:0:0:0:
52,183,45381,6,0,L|42:253,1,57.5,6|0,0:0|0:0,0:0:0:0:
243,248,45543,2,0,L|253:318,1,57.5,0|0,0:0|0:0,0:0:0:0:
73,282,45705,6,0,L|103:336,1,57.5,8|0,0:0|0:0,0:0:0:0:
255,296,45867,2,0,L|285:350,1,57.5,0|0,0:0|0:0,0:0:0:0:
111,290,46029,6,0,L|168:322,1,57.5,0|0,0:0|0:0,0:0:0:0:
326,273,46192,2,0,L|383:305,1,57.5,2|0,0:0|0:0,0:0:0:0:
169,221,46354,6,0,L|243:219,1,57.5,8|0,0:0|0:0,0:0:0:0:
406,163,46516,2,0,L|338:161,1,57.5,0|0,0:0|0:0,0:0:0:0:
36,162,46677,5,4,0:0:0:0:
430,78,47164,1,4,0:0:0:0:
175,87,47489,1,4,0:0:0:0:
475,75,47651,1,4,0:0:0:0:
34,154,48137,5,4,0:0:0:0:
479,211,48624,1,4,0:0:0:0:
144,233,48867,1,4,0:0:0:0:
479,211,49110,1,4,0:0:0:0:
36,135,49597,5,4,0:0:0:0:
449,124,49840,2,0,L|485:124,2,28.75,0|0|0,0:0|0:0|0:0,0:0:0:0:
136,107,50164,1,4,0:0:0:0:
449,123,50408,1,4,0:0:0:0:
151,149,50732,6,0,L|215:149,1,57.5,0|0,3:0|0:0,0:0:0:0:
447,158,50894,1,4,3:0:0:0:
166,263,51219,1,0,0:3:0:0:
447,105,51381,1,4,0:3:0:0:
131,95,51543,1,0,0:3:0:0:
466,280,51705,1,4,0:3:0:0:
36,147,52192,5,4,0:0:0:0:
473,96,52516,1,4,0:0:0:0:
36,147,52840,2,0,L|110:145,1,57.5,0|0,0:3|0:0,0:0:0:0:
268,142,53002,1,4,0:3:0:0:
144,58,53164,5,4,0:0:0:0:
445,136,53408,1,4,0:0:0:0:
94,283,53651,1,4,0:0:0:0:
438,309,53894,1,4,0:0:0:0:
135,176,54137,1,4,0:0:0:0:
386,63,54300,1,4,0:0:0:0:
36,72,54462,5,4,0:0:0:0:
478,148,54705,1,4,0:0:0:0:
36,312,54948,1,4,0:0:0:0:
478,236,55191,1,4,0:0:0:0:
141,160,55435,1,4,0:0:0:0:
371,160,55597,1,4,0:0:0:0:
34,34,55759,6,0,L|40:102,1,57.5,4|0,0:0|0:0,0:0:0:0:
181,99,55921,2,0,L|187:167,1,57.5,4|0,0:0|0:0,0:0:0:0:
331,135,56083,2,0,L|337:203,1,57.5,4|0,0:0|0:0,0:0:0:0:
473,201,56245,2,0,L|479:269,1,57.5,4|0,0:0|0:0,0:0:0:0:
207,234,56408,6,0,L|129:234,3,68.9999978942872,4|0|0|0,3:0|3:0|0:0|3:0,0:0:0:0:
301,233,56732,2,0,L|223:233,3,68.9999978942872,4|0|0|0,3:0|3:0|0:0|3:0,0:0:0:0:
395,232,57056,6,0,P|439:193|382:54,1,230,4|0,0:0|0:0,0:0:0:0:
269,54,57543,2,0,L|267:117,1,57.5,0|0,0:0|0:0,0:0:0:0:
324,109,57705,2,0,L|416:181,1,115,8|0,0:0|0:0,0:0:0:0:
300,192,58029,2,0,L|208:264,1,115,0|0,0:0|0:0,0:0:0:0:
267,264,58273,1,0,0:0:0:0:
209,265,58354,6,0,L|206:148,1,115,2|0,0:0|0:0,0:0:0:0:
320,145,58678,2,0,L|323:28,1,115,0|0,0:0|0:0,0:0:0:0:
208,36,59002,2,0,L|116:108,1,115,8|0,0:0|0:0,0:0:0:0:
232,119,59327,2,0,L|324:191,1,115,0|0,0:0|0:0,0:0:0:0:
265,191,59570,1,0,0:0:0:0:
207,189,59651,6,0,L|299:261,1,115,2|0,0:0|0:0,0:0:0:0:
411,270,59975,2,0,L|319:342,1,115,0|0,0:0|0:0,0:0:0:0:
204,339,60300,2,0,L|112:267,1,115,8|0,0:0|0:0,0:0:0:0:
227,257,60624,2,0,L|319:329,1,115,0|0,0:0|0:0,0:0:0:0:
260,330,60867,1,0,0:0:0:0:
202,333,60948,6,0,P|132:319|196:217,1,230,2|0,0:0|0:0,0:0:0:0:
301,209,61435,2,0,L|243:210,1,57.5,0|0,0:0|0:0,0:0:0:0:
301,209,61597,2,0,P|403:183|465:58,1,230,8|0,0:0|0:0,0:0:0:0:
349,75,62083,2,0,L|280:74,1,57.5,0|0,0:0|0:0,0:0:0:0:
233,74,62246,5,0,0:0:0:0:
459,113,62570,2,0,L|463:230,1,115,0|0,0:0|0:0,0:0:0:0:
348,238,62894,2,0,L|352:355,1,115,8|0,0:0|0:0,0:0:0:0:
236,346,63219,2,0,L|144:274,1,115,0|0,0:0|0:0,0:0:0:0:
202,270,63462,1,0,0:0:0:0:
259,266,63543,6,0,L|351:194,1,115,2|0,0:0|0:0,0:0:0:0:
234,194,63867,2,0,L|326:122,1,115,0|0,0:0|0:0,0:0:0:0:
210,106,64192,1,8,0:0:0:0:
155,114,64273,1,0,0:0:0:0:
129,164,64354,1,0,0:0:0:0:
153,213,64435,1,0,0:0:0:0:
208,224,64516,1,0,0:0:0:0:
265,231,64597,1,0,0:0:0:0:
290,281,64678,1,0,0:0:0:0:
266,330,64759,1,0,0:0:0:0:
212,341,64840,6,0,L|23:183,1,230,2|0,0:0|0:0,0:0:0:0:
111,180,65273,2,0,L|52:130,1,76.6666666666667,0|0,0:0|0:0,0:0:0:0:
128,125,65489,2,0,L|317:283,1,230,8|0,0:0|0:0,0:0:0:0:
229,286,65920,2,0,L|287:335,1,76.6666666666667
211,337,66137,6,0,P|151:324|226:90,1,402.5,2|0,0:0|0:0,0:0:0:0:
272,92,66786,2,0,P|332:105|257:339,1,402.5,0|0,3:0|0:0,0:0:0:0:
82,326,67435,6,0,P|70:273|362:363,1,646.875024676324,4|0,0:0|0:0,0:0:0:0:
321,332,68732,2,0,B|206:333|209:227|332:230|332:230|442:228|440:123|316:122,1,431.25,2|0,0:0|0:0,0:0:0:0:
128,35,70029,2,0,P|266:369|387:30,1,920,4|0,0:0|0:0,0:0:0:0:
256,192,71407,12,0,72461,0:0:0:0:
201,63,72624,6,0,L|101:63,3,68.9999978942872,0|0|0|0,3:0|3:0|0:0|3:0,0:0:0:0:
311,63,72948,6,0,L|411:63,3,68.9999978942872,0|0|0|0,3:0|3:0|3:0|3:0,0:0:0:0:
132,63,73273,6,0,L|52:63,1,68.9999978942872,0|0,3:0|3:0,0:0:0:0:
201,63,73435,2,0,L|121:63,1,68.9999978942872,0|0,3:0|3:0,0:0:0:0:
380,63,73597,6,0,L|460:63,1,68.9999978942872,0|0,3:0|0:0,0:0:0:0:
311,63,73759,2,0,L|391:63,1,68.9999978942872,0|0,3:0|0:0,0:0:0:0:
181,192,73921,5,2,0:0:0:0:
256,192,74002,12,0,76515,0:0:0:0:
203,95,77812,6,0,L|394:95,1,172.5,6|0,0:0|0:0,0:0:0:0:
209,185,78137,1,8,0:0:0:0:
359,187,78300,1,0,0:0:0:0:
149,243,78381,2,0,L|81:243,2,57.5,2|0|0,0:0|0:0|0:0,0:0:0:0:
294,246,78624,2,0,L|353:245,1,57.5,2|0,0:0|0:0,0:0:0:0:
194,336,78786,1,8,0:0:0:0:
146,307,78867,1,0,0:0:0:0:
145,252,78948,1,0,0:0:0:0:
190,221,79029,1,0,0:0:0:0:
385,169,79110,6,0,L|200:169,1,172.5,2|0,0:0|0:0,0:0:0:0:
374,106,79435,1,8,0:0:0:0:
224,107,79597,1,0,0:0:0:0:
415,142,79678,1,2,0:0:0:0:
472,141,79759,2,0,L|323:140,1,115,0|0,0:0|0:0,0:0:0:0:
108,137,80083,2,0,P|52:173|117:239,1,172.5,8|0,0:0|0:0,0:0:0:0:
304,241,80408,6,0,L|127:241,1,172.5,2|0,0:0|0:0,0:0:0:0:
288,161,80732,1,8,0:0:0:0:
173,159,80894,1,0,0:0:0:0:
369,88,80975,2,0,L|377:149,1,57.5,2|0,0:0|0:0,0:0:0:0:
302,156,81137,1,0,0:0:0:0:
127,212,81219,2,0,L|186:219,1,57.5,2|0,0:0|0:0,0:0:0:0:
347,227,81381,1,8,0:0:0:0:
204,301,81462,2,0,L|133:300,2,57.5,0|0|0,0:0|0:0|0:0,0:0:0:0:
377,299,81705,6,0,L|246:299,1,115,2|0,0:0|0:0,0:0:0:0:
90,249,81948,2,0,L|221:249,1,115,0|0,0:0|0:0,0:0:0:0:
377,299,82192,2,0,L|246:299,1,115,0|0,0:0|0:0,0:0:0:0:
90,249,82435,2,0,L|221:249,1,115,0|0,0:0|0:0,0:0:0:0:
377,299,82678,2,0,L|285:299,1,57.5,8|0,0:0|0:0,0:0:0:0:
150,250,82840,2,0,L|242:250,1,57.5,0|0,0:0|0:0,0:0:0:0:
399,113,83002,5,2,0:0:0:0:
448,139,83083,1,0,0:0:0:0:
467,192,83164,1,0,0:0:0:0:
391,194,83246,1,0,0:0:0:0:
249,198,83326,2,0,L|163:198,3,68.9999978942872,10|0|0|0,0:0|0:0|0:0|0:0,0:0:0:0:
352,258,83651,6,0,L|355:325,1,57.5,0|0,0:0|0:0,0:0:0:0:
281,332,83813,2,0,L|209:334,1,57.5,2|0,0:0|0:0,0:0:0:0:
400,350,83975,2,0,L|486:350,3,68.9999978942872,10|0|0|0,0:0|0:0|0:0|0:0,0:0:0:0:
262,272,84300,6,0,L|194:272,1,57.5,2|0,0:0|0:0,0:0:0:0:
276,253,84462,2,0,L|342:253,1,57.5,0|0,0:0|0:0,0:0:0:0:
161,182,84624,2,0,L|75:182,3,68.9999978942872,10|0|0|0,0:0|0:0|0:0|0:0,0:0:0:0:
284,88,84948,6,0,L|289:155,1,57.5,0|0,0:0|0:0,0:0:0:0:
213,146,85110,2,0,L|208:213,1,57.5,2|0,0:0|0:0,0:0:0:0:
362,229,85273,2,0,L|276:229,3,68.9999978942872,8|0|0|0,0:0|0:0|0:0|0:0,0:0:0:0:
469,242,85597,5,2,0:0:0:0:
457,174,85678,1,0,0:0:0:0:
411,124,85759,1,0,0:0:0:0:
346,105,85840,1,0,0:0:0:0:
200,149,85921,6,0,L|194:227,1,68.9999978942872,8|0,0:0|0:0,0:0:0:0:
280,244,86083,1,0,0:0:0:0:
119,278,86164,6,0,L|38:282,2,68.9999978942872,2|0|0,0:0|0:0|0:0,0:0:0:0:
286,325,86408,6,0,L|289:251,1,68.9999978942872,2|0,0:0|0:0,0:0:0:0:
124,215,86570,1,8,0:0:0:0:
296,185,86651,6,0,L|244:131,1,68.9999978942872,0|0,0:0|0:0,0:0:0:0:
160,116,86813,1,0,0:0:0:0:
333,230,86894,6,0,L|399:206,1,68.9999978942872,2|0,0:0|0:0,0:0:0:0:
333,230,87056,2,0,L|267:206,1,68.9999978942872,0|0,0:0|0:0,0:0:0:0:
431,177,87219,6,0,L|441:105,1,68.9999978942872,8|0,0:0|0:0,0:0:0:0:
354,83,87381,1,0,0:0:0:0:
179,75,87462,6,0,L|169:147,1,68.9999978942872,2|0,0:0|0:0,0:0:0:0:
256,169,87624,1,0,0:0:0:0:
68,200,87705,6,0,L|130:248,1,68.9999978942872,2|0,0:0|0:0,0:0:0:0:
296,288,87867,5,8,0:0:0:0:
347,245,87948,1,0,0:0:0:0:
344,179,88029,1,0,0:0:0:0:
289,142,88110,1,0,0:0:0:0:
103,117,88192,6,0,L|288:117,1,172.5,6|0,0:0|0:0,0:0:0:0:
121,260,88516,1,8,0:0:0:0:
268,239,88678,1,0,0:0:0:0:
114,203,88759,2,0,L|45:197,2,57.5,2|0|0,0:0|0:0|0:0,0:0:0:0:
271,172,89002,2,0,L|194:165,1,57.5,2|0,0:0|0:0,0:0:0:0:
44,145,89164,2,0,L|36:72,1,57.5,8|0,0:0|0:0,0:0:0:0:
108,61,89327,2,0,L|173:61,1,57.5,0|0,0:0|0:0,0:0:0:0:
388,115,89489,6,0,L|202:115,1,172.5,2|0,0:0|0:0,0:0:0:0:
369,199,89813,1,8,0:0:0:0:
222,229,89975,1,0,0:0:0:0:
382,274,90056,1,2,0:0:0:0:
440,275,90137,2,0,P|471:225|430:185,1,115,0|2,0:0|0:0,0:0:0:0:
206,154,90462,2,0,L|27:154,1,172.5,8|0,0:0|0:0,0:0:0:0:
314,211,90786,6,0,L|135:211,1,172.5,2|0,0:0|0:0,0:0:0:0:
318,295,91110,1,8,0:0:0:0:
169,275,91273,1,0,0:0:0:0:
321,244,91354,2,0,L|326:184,1,57.5,2|0,0:0|0:0,0:0:0:0:
253,169,91516,1,0,0:0:0:0:
411,143,91597,2,0,L|475:136,1,57.5,2|0,0:0|0:0,0:0:0:0:
264,101,91759,1,8,0:0:0:0:
411,143,91840,2,0,L|468:136,2,57.5,0|0|0,0:0|0:0|0:0,0:0:0:0:
218,137,92083,6,0,L|88:134,1,115,8|0,0:0|0:0,0:0:0:0:
302,183,92326,2,0,L|172:180,1,115,2|0,0:0|0:0,0:0:0:0:
362,230,92570,2,0,L|492:227,1,115,8|0,0:0|0:0,0:0:0:0:
278,276,92812,2,0,L|408:273,1,115,2|0,0:0|0:0,0:0:0:0:
205,322,93056,2,0,L|119:318,1,57.5,8|0,0:0|0:0,0:0:0:0:
306,292,93219,2,0,L|371:288,1,57.5
161,243,93381,6,0,L|154:181,1,57.5,2|0,0:0|0:0,0:0:0:0:
227,169,93543,2,0,L|298:167,1,57.5,0|0,0:0|0:0,0:0:0:0:
118,131,93705,2,0,L|34:131,3,68.9999978942872,10|0|0|0,0:0|0:0|0:0|0:0,0:0:0:0:
230,106,94029,6,0,L|300:106,1,57.5,0|0,0:0|0:0,0:0:0:0:
212,94,94192,2,0,L|154:93,1,57.5,2|0,0:0|0:0,0:0:0:0:
311,152,94354,2,0,L|395:152,3,68.9999978942872,10|0|0|0,0:0|0:0|0:0|0:0,0:0:0:0:
205,205,94678,6,0,L|201:279,1,57.5,2|0,0:0|0:0,0:0:0:0:
276,264,94840,2,0,L|280:338,1,57.5,0|0,0:0|0:0,0:0:0:0:
40,320,95002,2,0,L|109:320,3,68.9999978942872,10|0|0|2,0:0|0:0|0:0|0:0,0:0:0:0:
247,253,95327,6,0,L|190:253,1,57.5,0|0,0:0|0:0,0:0:0:0:
263,242,95489,2,0,L|320:242,1,57.5,2|0,0:0|0:0,0:0:0:0:
133,167,95651,2,0,L|217:167,3,68.9999978942872,8|0|0|0,0:0|0:0|0:0|0:0,0:0:0:0:
35,180,95975,5,6,0:0:0:0:
49,246,96056,1,0,0:0:0:0:
96,296,96137,1,0,0:0:0:0:
161,314,96218,1,0,0:0:0:0:
324,310,96300,6,0,L|329:238,1,68.9999978942872,8|0,0:0|0:0,0:0:0:0:
241,219,96462,1,0,0:0:0:0:
386,173,96543,6,0,L|471:171,2,68.9999978942872,2|0|0,0:0|0:0|0:0,0:0:0:0:
219,150,96786,6,0,L|145:137,1,68.9999978942872,2|0,0:0|0:0,0:0:0:0:
342,104,96948,1,8,0:0:0:0:
195,92,97029,6,0,L|120:86,2,68.9999978942872,0|0|0,0:0|0:0|0:0,0:0:0:0:
356,147,97273,6,0,L|362:226,1,68.9999978942872,6|0,0:0|0:0,0:0:0:0:
273,232,97435,2,0,L|196:233,1,68.9999978942872,0|0,0:0|0:0,0:0:0:0:
381,255,97597,6,0,L|450:258,2,68.9999978942872,8|0|0,0:0|0:0|0:0,0:0:0:0:
169,261,97840,1,2,0:0:0:0:
329,256,97920,5,0,0:0:0:0:
371,221,98001,1,0,0:0:0:0:
370,166,98082,1,2,0:0:0:0:
325,133,98163,1,0,0:0:0:0:
162,127,98245,2,0,L|93:130,2,68.9999978942872,8|0|0,0:0|0:0|0:0,0:0:0:0:
325,133,98488,1,0,0:0:0:0:
148,357,98569,6,0,P|31:223|168:18,1,460,6|8,0:0|0:0,0:0:0:0:
465,193,99705,2,0,L|257:78,1,230,2|0,0:0|0:0,0:0:0:0:
338,84,100110,2,0,L|184:172,1,172.5,2|2,0:0|0:0,0:0:0:0:
467,207,100516,1,8,0:0:0:0:
231,160,100840,5,0,0:0:0:0:
348,67,101002,1,0,0:0:0:0:
114,73,101164,6,0,P|54:106|218:212,1,402.5,2|0,0:0|0:0,0:0:0:0:
50,192,101813,2,0,P|70:258|237:203,1,287.5,8|0,0:0|0:0,0:0:0:0:
178,219,102300,2,0,L|237:214,1,57.5,2|2,0:0|0:0,0:0:0:0:
39,194,102462,2,0,L|200:109,2,172.5,2|0|0,0:0|0:0|0:0,0:0:0:0:
298,283,103110,2,0,L|489:134,1,230,8|2,0:0|0:0,0:0:0:0:
96,57,103759,6,0,P|77:132|233:58,1,402.5,2|0,0:0|0:0,0:0:0:0:
78,61,104408,2,0,L|359:311,1,373.75,8|0,0:0|0:0,0:0:0:0:
375,322,104974,2,0,L|351:305,1,28.75,2|0,0:0|0:0,0:0:0:0:
154,280,105056,2,0,P|98:249|169:205,1,172.5,2|2,0:0|0:0,0:0:0:0:
236,195,105381,2,0,L|246:135,1,57.5,0|0,0:0|0:0,0:0:0:0:
170,136,105543,1,2,0:0:0:0:
433,219,105705,1,8,0:0:0:0:
225,4,106029,5,2,0:0:0:0:
340,100,106192,1,0,0:0:0:0:
85,111,106354,6,0,P|52:175|308:298,1,460,2|8,0:0|0:0,0:0:0:0:
46,177,107408,2,0,L|109:170,2,57.5,2|0|0,0:0|0:0|0:0,0:0:0:0:
298,245,107732,1,2,0:0:0:0:
175,159,107894,6,0,L|170:224,1,57.5,2|0,0:0|0:0,0:0:0:0:
245,221,108056,2,0,L|250:286,1,57.5,0|0,0:0|0:0,0:0:0:0:
325,278,108219,1,0,0:0:0:0:
131,123,108300,5,8,3:0:0:0:
254,37,108462,2,0,L|259:102,1,57.5,0|0,3:0|0:0,0:0:0:0:
184,99,108624,2,0,L|179:164,1,57.5,0|0,3:0|3:0,0:0:0:0:
335,162,108786,2,0,L|338:231,1,57.5,0|0,3:0|0:0,0:0:0:0:
147,323,108948,6,0,P|113:308|163:91,1,316.25,4|0,0:0|0:0,0:0:0:0:
189,97,109921,2,0,P|226:110|284:99,1,86.25,0|0,0:0|0:0,0:0:0:0:
307,92,110246,2,0,P|339:111|303:178,1,115,2|0,0:0|0:0,0:0:0:0:
244,181,110732,2,0,P|212:200|248:267,1,115,0|0,0:0|0:0,0:0:0:0:
307,263,111219,1,8,0:0:0:0:
178,329,111381,1,8,0:0:0:0:
330,349,111543,6,0,P|371:330|313:208,1,201.25,2|0,0:0|0:0,0:0:0:0:
298,205,112192,2,0,P|263:192|339:168,1,201.25,2|0,0:0|0:0,0:0:0:0:
345,183,112840,2,0,P|307:194|146:160,1,201.25,2|0,0:0|0:0,0:0:0:0:
115,155,113489,2,0,P|163:160|95:201,1,201.25,2|0,0:0|0:0,0:0:0:0:
243,279,114137,6,0,P|292:276|241:22,1,431.25,6|0,0:0|0:0,0:0:0:0:
84,77,115435,2,0,L|236:228,1,201.25,2|0,0:0|0:0,0:0:0:0:
415,140,116083,2,0,L|263:291,1,201.25,2|0,0:0|0:0,0:0:0:0:
115,273,116732,2,0,L|294:273,2,172.5,6|2|2,0:0|0:0|0:0,0:0:0:0:
261,240,118029,2,0,P|240:191|156:350,1,431.25,6|0,0:0|0:0,0:0:0:0:
321,342,119326,6,0,L|452:342,1,115,6|0,0:0|0:0,0:0:0:0:
251,284,119570,2,0,L|243:218,1,57.5,0|0,0:0|0:0,0:0:0:0:
318,220,119732,1,0,0:0:0:0:
176,163,119813,2,0,L|45:163,1,115,0|2,0:0|0:0,0:0:0:0:
227,83,120056,2,0,L|358:83,1,115,0|0,0:0|0:0,0:0:0:0:
153,225,120300,5,8,0:0:0:0:
298,257,120462,1,0,0:0:0:0:
48,338,120624,6,0,L|36:273,1,57.5,2|0,0:0|0:0,0:0:0:0:
192,254,120786,2,0,L|220:200,1,57.5,0|0,0:0|0:0,0:0:0:0:
60,189,120948,2,0,L|114:152,1,57.5,8|0,0:0|0:0,0:0:0:0:
259,127,121110,2,0,L|319:128,1,57.5,0|0,0:0|0:0,0:0:0:0:
146,135,121273,5,2,0:0:0:0:
101,167,121354,1,0,0:0:0:0:
109,221,121435,1,2,0:0:0:0:
160,240,121516,1,0,0:0:0:0:
319,238,121597,2,0,L|325:176,1,57.5,8|0,0:0|0:0,0:0:0:0:
251,164,121759,2,0,L|182:165,1,57.5,0|0,0:0|0:0,0:0:0:0:
340,123,121921,6,0,L|458:124,1,115,2|0,0:0|0:0,0:0:0:0:
269,82,122164,2,0,L|149:82,1,115,0|0,0:0|0:0,0:0:0:0:
340,123,122408,2,0,L|458:124,1,115,0|2,0:0|0:0,0:0:0:0:
289,199,122651,2,0,L|407:200,1,115,0|0,0:0|0:0,0:0:0:0:
234,270,122894,6,0,L|229:336,1,57.5,8|0,0:0|0:0,0:0:0:0:
375,309,123056,2,0,L|380:375,1,57.5,0|0,0:0|0:0,0:0:0:0:
174,286,123219,6,0,L|291:286,1,115,2|0,0:0|0:0,0:0:0:0:
54,197,123543,1,8,0:0:0:0:
185,125,123705,2,0,L|112:125,1,57.5,0|0,0:0|0:0,0:0:0:0:
287,175,123867,2,0,L|162:174,1,115,2|2,0:0|0:0,0:0:0:0:
427,254,124192,6,0,L|461:259,2,28.75,8|0|0,0:0|0:0|0:0,0:0:0:0:
263,280,124354,2,0,L|229:285,2,28.75,8|0|0,0:0|0:0|0:0,0:0:0:0:
464,304,124516,6,0,L|310:305,1,137.999995788574,2|0,0:0|0:0,0:0:0:0:
179,292,124759,2,0,L|25:293,1,137.999995788574,2|0,0:0|0:0,0:0:0:0:
229,226,125002,2,0,L|75:227,1,137.999995788574,2|2,0:0|0:0,0:0:0:0:
283,173,125246,2,0,L|420:172,1,137.999995788574,2|0,0:0|0:0,0:0:0:0:
183,112,125489,6,0,L|111:94,1,68.9999978942872,8|0,0:0|0:0,0:0:0:0:
329,272,125651,2,0,L|401:290,1,68.9999978942872,0|0,0:0|0:0,0:0:0:0:
186,79,125813,6,0,L|48:80,1,137.999995788574,2|0,0:0|0:0,0:0:0:0:
333,92,126056,2,0,L|487:91,1,137.999995788574,2|0,0:0|0:0,0:0:0:0:
309,147,126299,2,0,L|172:147,1,137.999995788574,2|2,0:0|0:0,0:0:0:0:
33,186,126543,2,0,L|187:185,1,137.999995788574,2|0,0:0|0:0,0:0:0:0:
371,214,126786,6,0,L|293:247,1,68.9999978942872,8|0,0:0|0:0,0:0:0:0:
128,288,126948,2,0,L|206:321,1,68.9999978942872,0|0,0:0|0:0,0:0:0:0:
341,331,127110,6,0,L|487:331,1,137.999995788574,2|0,0:0|0:0,0:0:0:0:
290,260,127354,2,0,L|436:260,1,137.999995788574,2|0,0:0|0:0,0:0:0:0:
190,133,127596,2,0,L|44:133,1,137.999995788574,2|0,0:0|0:0,0:0:0:0:
241,204,127839,2,0,L|95:204,1,137.999995788574,2|0,0:0|0:0,0:0:0:0:
418,137,128083,6,0,L|454:135,2,34.4999989471436,8|0|0,0:0|0:0|0:0,0:0:0:0:
94,137,128246,2,0,L|58:135,2,34.4999989471436,8|0|0,0:0|0:0|0:0,0:0:0:0:
315,108,128408,5,4,0:0:0:0:
150,320,128651,1,4,0:0:0:0:
475,196,128894,1,4,0:0:0:0:
36,95,129137,1,4,0:0:0:0:
371,129,129381,1,4,0:0:0:0:
138,246,129543,1,4,0:0:0:0:
405,282,129705,6,0,L|222:282,1,172.5,6|0,0:0|0:0,0:0:0:0:
386,201,130029,1,8,0:0:0:0:
248,141,130192,2,0,L|306:141,1,57.5,0|0,0:0|0:0,0:0:0:0:
469,136,130354,6,0,L|352:136,1,115,2|2,0:0|0:0,0:0:0:0:
279,136,130597,6,0,L|396:136,1,115,0|0,0:0|0:0,0:0:0:0:
216,93,130840,2,0,L|154:94,1,57.5,0|0,0:0|0:0,0:0:0:0:
311,248,131002,6,0,L|431:248,1,115,2|0,0:0|0:0,0:0:0:0:
350,246,131246,2,0,L|226:245,1,115,0|0,0:0|0:0,0:0:0:0:
421,173,131489,2,0,L|356:172,1,57.5,0|0,0:0|0:0,0:0:0:0:
193,163,131651,6,0,L|76:163,1,115,2|2,0:0|0:0,0:0:0:0:
152,163,131894,2,0,L|290:163,1,115,0|0,0:0|0:0,0:0:0:0:
111,106,132137,2,0,L|42:106,1,57.5,0|0,0:0|0:0,0:0:0:0:
257,52,132300,6,0,L|137:52,1,115,6|0,0:0|0:0,0:0:0:0:
380,162,132624,1,8,0:0:0:0:
247,231,132786,2,0,L|241:289,1,57.5,0|0,0:0|0:0,0:0:0:0:
408,295,132948,2,0,L|289:296,1,115,2|2,0:0|0:0,0:0:0:0:
351,343,133192,1,0,0:0:0:0:
94,285,133273,2,0,L|36:261,1,57.5,8|0,0:0|0:0,0:0:0:0:
202,219,133435,2,0,L|260:195,1,57.5,0|0,0:0|0:0,0:0:0:0:
38,154,133597,6,0,L|215:154,2,172.5,6|0|0,0:0|0:0|0:0,0:0:0:0:
359,321,134246,2,0,P|425:283|458:136,1,230,2|0,0:0|0:0,0:0:0:0:
451,113,134610,1,0,0:0:0:0:
436,88,134651,1,0,0:0:0:0:
416,67,134691,1,0,0:0:0:0:
393,50,134732,1,8,0:0:0:0:
367,38,134773,1,0,0:0:0:0:
339,31,134813,1,0,0:0:0:0:
172,163,134894,6,0,L|15:163,1,137.999995788574,4|0,0:0|0:0,0:0:0:0:
340,163,135137,2,0,L|497:163,1,137.999995788574,4|0,0:0|0:0,0:0:0:0:
172,163,135381,2,0,L|15:163,1,137.999995788574,4|0,0:0|0:0,0:0:0:0:
340,163,135624,2,0,L|497:163,1,137.999995788574,4|0,0:0|0:0,0:0:0:0:
187,104,135867,6,0,L|330:104,1,137.999995788574,4|4,0:0|0:0,0:0:0:0:
34,163,136192,6,0,L|172:163,1,137.999995788574,4|0,0:0|0:0,0:0:0:0:
478,163,136435,2,0,L|340:163,1,137.999995788574,4|0,0:0|0:0,0:0:0:0:
34,163,136678,2,0,L|172:163,1,137.999995788574,4|0,0:0|0:0,0:0:0:0:
478,163,136921,2,0,L|340:163,1,137.999995788574,4|0,0:0|0:0,0:0:0:0:
187,104,137164,6,0,L|330:104,1,137.999995788574,4|4,0:0|0:0,0:0:0:0:
38,228,137489,6,0,L|84:284,1,68.9999978942872,6|0,3:0|0:0,0:0:0:0:
238,286,137651,2,0,L|316:286,1,68.9999978942872,0|0,3:0|0:0,0:0:0:0:
158,238,137813,2,0,L|155:167,1,68.9999978942872,8|0,3:0|0:0,0:0:0:0:
332,162,137975,2,0,L|252:163,1,68.9999978942872,4|0,3:0|3:0,0:0:0:0:
87,107,138137,6,0,L|165:107,1,68.9999978942872,6|0,3:0|3:0,0:0:0:0:
318,96,138300,2,0,L|403:94,1,68.9999978942872,0|0,3:0|0:0,0:0:0:0:
193,197,138462,2,0,L|115:196,1,68.9999978942872,8|0,3:0|0:0,0:0:0:0:
362,251,138624,2,0,L|277:251,1,68.9999978942872,4|0,3:0|0:0,0:0:0:0:
109,356,138785,6,0,P|268:37|379:358,1,862.5,4|0,0:0|0:0,0:0:0:0:
109,356,140083,1,4,0:0:0:0:
