osu file format v14

[General]
AudioFilename: audio.mp3
AudioLeadIn: 0
PreviewTime: 77812
Countdown: 0
SampleSet: Normal
StackLeniency: 0.7
Mode: 2
LetterboxInBreaks: 0
EpilepsyWarning: 1
WidescreenStoryboard: 0

[Editor]
DistanceSpacing: 1.1
BeatDivisor: 4
GridSize: 4
TimelineZoom: 2.899999

[Metadata]
Title:ouroVoros
TitleUnicode:ouroVoros
Artist:Negentropy (a.k.a. Team Grimoire)
ArtistUnicode:Negentropy (a.k.a. Team Grimoire)
Creator:autofanboy
Version:platter
Source:
Tags:BMS BOFU2017 OF FIGHTERS ULTIMATE 2017 LEGENDA EST A MYTH Employ “Zero-Origin” Zero Origin Symphonic Roar teamgrimoire Λögeln Aogeln CHAOS MAGNVM Muse Dash Give Up TREATMENT Vol.4 Groove Coaster Hardcore Gothic Video Game Instrumental Electronic Ouroboros Cycle alienflybot AFB Razor Sharp Arthas IDu5t IDust Jemzuu AJamez Daletto salchow
BeatmapID:2427734
BeatmapSetID:1087679

[Difficulty]
HPDrainRate:4
CircleSize:3.8
OverallDifficulty:8
ApproachRate:8
SliderMultiplier:1.68
SliderTickRate:1

[Events]
//Background and Video events
0,0,"Meeting with Shade_DaisanART.jpg",0,0
Video,-295,"video.mp4"
//Break Periods
2,6461,9603
2,11650,13495
2,16229,17387
//Storyboard Layer 0 (Background)
//Storyboard Layer 1 (Fail)
//Storyboard Layer 2 (Pass)
//Storyboard Layer 3 (Foreground)
//Storyboard Layer 4 (Overlay)
//Storyboard Sound Samples

[TimingPoints]
-25,324.324324324324,4,1,1,70,1,0
5163,-100,4,1,1,70,0,0
5812,-100,4,1,10,40,0,0
10353,-100,4,1,1,70,0,0
11002,-100,4,1,10,40,0,0
14245,-100,4,1,1,40,0,0
14569,-100,4,1,1,42,0,0
14893,-100,4,1,1,44,0,0
15218,-100,4,1,1,46,0,0
15542,-100,4,1,1,48,0,0
15866,-100,4,1,1,10,0,0
16029,-100,4,1,1,50,0,0
18137,-100,4,1,1,50,0,0
18461,-100,4,1,1,10,0,0
18623,-100,4,1,1,50,0,0
18947,-100,4,1,1,50,0,0
19272,-100,4,1,1,10,0,0
19434,-100,4,1,1,50,0,0
21218,-100,4,1,1,52,0,0
21542,-100,4,1,1,54,0,0
22029,-100,4,1,1,56,0,0
22515,-100,4,1,1,58,0,0
22839,-100,4,1,1,60,0,0
23326,-100,4,1,1,50,0,0
23974,-100,4,1,1,52,0,0
24623,-100,4,1,1,54,0,0
25272,-98.0392156862745,4,1,1,56,0,0
25515,-98.0392156862745,4,1,1,58,0,0
25758,-98.0392156862745,4,1,1,60,0,0
25920,-100,4,1,1,70,0,1
26083,-100,4,1,1,10,0,1
26245,-100,4,1,1,70,0,1
26407,-100,4,1,1,10,0,1
26488,-100,4,1,1,70,0,1
27542,-100,4,1,1,70,0,1
27785,-98.0392156862745,4,1,1,70,0,1
28191,-100,4,1,1,70,0,1
28677,-100,4,1,1,10,0,1
28839,-98.0392156862745,4,1,1,70,0,1
29488,-100,4,1,1,70,0,1
29812,-100,4,1,1,70,0,1
29974,-100,4,1,1,50,0,1
30056,-100,4,1,1,70,0,1
30380,-98.0392156862745,4,1,1,70,0,1
30785,-100,4,1,1,70,0,1
31029,-100,4,1,1,10,0,1
31110,-100,4,1,1,70,0,1
31272,-100,4,1,1,10,0,1
31353,-100,4,1,1,70,0,1
31434,-98.0392156862745,4,1,1,70,0,1
32083,-100,4,1,1,70,0,1
35002,-100,4,1,1,70,0,0
36623,-98.0392156862745,4,1,1,70,0,0
36664,-98.0392156862745,4,1,1,30,0,0
36704,-98.0392156862745,4,1,1,25,0,0
36745,-98.0392156862745,4,1,1,20,0,0
36785,-98.0392156862745,4,1,1,15,0,0
36826,-98.0392156862745,4,1,1,10,0,0
36866,-98.0392156862745,4,1,1,70,0,0
36947,-100,4,1,1,70,0,1
38893,-100,4,1,1,70,0,1
39056,-100,4,1,1,10,0,1
39137,-100,4,1,1,70,0,1
40515,-98.0392156862745,4,1,1,70,0,1
41164,-100,4,1,1,70,0,1
41407,-100,4,1,1,10,0,1
41488,-100,4,1,1,70,0,1
41650,-100,4,1,1,10,0,1
41731,-100,4,1,1,70,0,1
43353,-98.0392156862745,4,1,1,70,0,1
43758,-100,4,1,1,70,0,1
45947,-98.0392156862745,4,1,1,70,0,1
46353,-100,4,1,1,70,0,1
46677,-100,4,1,1,70,0,0
47002,-100,4,1,1,10,0,0
47164,-100,4,1,1,70,0,0
47326,-100,4,1,1,10,0,0
47488,-100,4,1,1,70,0,0
47974,-100,4,1,1,10,0,0
48137,-100,4,1,1,70,0,0
48461,-100,4,1,1,10,0,0
48623,-98.0392156862745,4,1,1,70,0,0
48785,-98.0392156862745,4,1,1,10,0,0
48866,-98.0392156862745,4,1,1,70,0,0
49029,-98.0392156862745,4,1,1,10,0,0
49110,-98.0392156862745,4,1,1,70,0,0
49596,-100,4,1,1,70,0,0
49758,-100,4,1,1,10,0,0
49839,-100,4,1,1,70,0,0
49920,-100,4,1,1,70,0,0
50083,-100,4,1,1,10,0,0
50164,-98.0392156862745,4,1,1,70,0,0
50326,-98.0392156862745,4,1,1,10,0,0
50407,-98.0392156862745,4,1,1,70,0,0
50569,-100,4,1,1,70,0,0
52191,-100,4,1,1,70,0,0
52434,-100,4,1,1,10,0,0
52515,-100,4,1,1,70,0,0
53326,-100,4,1,1,10,0,0
53407,-100,4,1,1,70,0,0
53569,-100,4,1,1,10,0,0
53650,-100,4,1,1,70,0,0
53812,-100,4,1,1,10,0,0
53893,-100,4,1,1,70,0,0
54056,-100,4,1,1,10,0,0
54137,-100,4,1,1,70,0,0
54218,-100,4,1,1,10,0,0
54299,-100,4,1,1,70,0,0
54380,-100,4,1,1,10,0,0
54461,-100,4,1,1,70,0,0
54623,-100,4,1,1,10,0,0
54704,-100,4,1,1,70,0,0
54866,-100,4,1,1,10,0,0
54947,-100,4,1,1,70,0,0
55110,-100,4,1,1,10,0,0
55191,-100,4,1,1,70,0,0
55353,-100,4,1,1,10,0,0
55434,-100,4,1,1,70,0,0
55515,-100,4,1,1,10,0,0
55596,-100,4,1,1,70,0,0
55677,-100,4,1,1,10,0,0
55758,-100,4,1,1,70,0,0
57056,-100,4,1,1,40,0,0
62245,-100,4,1,1,40,0,0
62731,-100,4,1,1,40,0,0
63542,-100,4,1,1,40,0,0
64029,-100,4,1,1,40,0,0
67434,-100,4,1,1,40,0,0
68650,-100,4,1,1,10,0,0
68731,-100,4,1,1,40,0,0
69947,-100,4,1,1,10,0,0
70029,-100,4,1,1,40,0,0
70191,-100,4,2,66,30,0,0
72623,-100,4,1,1,70,0,0
74083,-100,4,2,66,30,0,0
76515,-135.135135135135,4,1,66,40,0,0
76677,-135.135135135135,4,1,1,10,0,0
77812,-100,4,1,1,70,0,1
77974,-100,4,1,1,10,0,1
78056,-100,4,1,1,70,0,1
78380,-98.0392156862745,4,1,1,70,0,1
78785,-100,4,1,1,70,0,1
79677,-98.0392156862745,4,1,1,70,0,1
80083,-100,4,1,1,70,0,1
80326,-100,4,1,1,10,0,1
80407,-100,4,1,1,70,0,1
80731,-100,4,1,1,70,0,1
81704,-98.0392156862745,4,1,1,70,0,1
82677,-100,4,1,1,70,0,1
83326,-100,4,1,2,40,0,1
83407,-100,4,1,1,70,0,1
83974,-100,4,1,2,40,0,1
84056,-100,4,1,1,70,0,1
84623,-100,4,1,2,40,0,1
84704,-100,4,1,1,70,0,1
87866,-100,4,1,1,70,0,0
88191,-100,4,1,1,70,0,1
88353,-100,4,1,1,10,0,1
88434,-100,4,1,1,70,0,1
88758,-98.0392156862745,4,1,1,70,0,1
89164,-100,4,1,1,70,0,1
90056,-98.0392156862745,4,1,1,70,0,1
90461,-100,4,1,1,70,0,1
90704,-100,4,1,1,10,0,1
90785,-100,4,1,1,70,0,1
91110,-100,4,1,1,70,0,1
92569,-98.0392156862745,4,1,1,70,0,1
93056,-100,4,1,1,70,0,1
93704,-100,4,1,2,40,0,1
93785,-100,4,1,1,70,0,1
94353,-100,4,1,2,40,0,1
94434,-100,4,1,1,70,0,1
95002,-100,4,1,2,40,0,1
95083,-100,4,1,1,70,0,1
95974,-100,4,1,1,75,0,1
96542,-98.0392156862745,4,1,1,75,0,1
96947,-100,4,1,1,75,0,1
97272,-100,4,1,1,80,0,1
97596,-98.0392156862745,4,1,1,80,0,1
98083,-100,4,1,1,80,0,1
98461,-100,4,1,1,80,0,0
98569,-100,4,1,1,80,0,1
98731,-100,4,1,1,40,0,0
100029,-100,4,1,1,10,0,0
100110,-98.0392156862745,4,1,1,40,0,0
100272,-98.0392156862745,4,1,1,10,0,0
100353,-98.0392156862745,4,1,1,40,0,0
100515,-100,4,1,1,40,0,0
102461,-98.0392156862745,4,1,1,40,0,0
102623,-98.0392156862745,4,1,1,10,0,0
102704,-98.0392156862745,4,1,1,40,0,0
102866,-98.0392156862745,4,1,1,10,0,0
102947,-98.0392156862745,4,1,1,40,0,0
103110,-100,4,1,1,40,0,0
105056,-98.0392156862745,4,1,1,40,0,0
105218,-98.0392156862745,4,1,1,10,0,0
105299,-98.0392156862745,4,1,1,40,0,0
105461,-98.0392156862745,4,1,1,10,0,0
105542,-98.0392156862745,4,1,1,40,0,0
105704,-100,4,1,1,40,0,0
109110,-100,4,1,1,20,0,0
111542,-100,4,1,1,22,0,0
112029,-100,4,1,1,10,0,0
112191,-100,4,1,1,24,0,0
112677,-100,4,1,1,10,0,0
112839,-100,4,1,1,26,0,0
113326,-100,4,1,1,10,0,0
113488,-100,4,1,1,28,0,0
113974,-100,4,1,1,10,0,0
114137,-100,4,1,1,30,0,0
115272,-100,4,1,1,10,0,0
115434,-100,4,1,1,32,0,0
115920,-100,4,1,1,10,0,0
116083,-100,4,1,1,34,0,0
116407,-100,4,1,1,36,0,0
116731,-100,4,1,1,38,0,0
118029,-100,4,1,1,40,0,0
118191,-100,4,2,66,30,0,0
119326,-98.0392156862745,4,1,1,70,0,1
120299,-100,4,1,1,70,0,1
122407,-98.0392156862745,4,1,1,70,0,1
122893,-100,4,1,1,70,0,1
124515,-100,4,1,2,40,0,1
124596,-100,4,1,1,70,0,1
124758,-100,4,1,2,40,0,1
124839,-100,4,1,1,70,0,1
125002,-100,4,1,2,40,0,1
125083,-100,4,1,1,70,0,1
125245,-100,4,1,2,40,0,1
125326,-100,4,1,1,70,0,1
125812,-100,4,1,2,40,0,1
125893,-100,4,1,1,70,0,1
126056,-100,4,1,2,40,0,1
126137,-100,4,1,1,70,0,1
126299,-98.0392156862745,4,1,2,40,0,1
126380,-98.0392156862745,4,1,1,70,0,1
126542,-98.0392156862745,4,1,2,40,0,1
126623,-100,4,1,1,70,0,1
127110,-100,4,1,2,40,0,1
127191,-100,4,1,1,70,0,1
127353,-100,4,1,2,40,0,1
127434,-100,4,1,1,70,0,1
127596,-98.0392156862745,4,1,2,40,0,1
127677,-98.0392156862745,4,1,1,70,0,1
127839,-98.0392156862745,4,1,2,40,0,1
127920,-100,4,1,1,70,0,1
128407,-98.0392156862745,4,1,1,70,0,1
128569,-98.0392156862745,4,1,1,10,0,1
128650,-98.0392156862745,4,1,1,70,0,1
128812,-98.0392156862745,4,1,1,10,0,1
128893,-98.0392156862745,4,1,1,70,0,1
129056,-100,4,1,1,10,0,1
129137,-100,4,1,1,70,0,1
129299,-100,4,1,1,10,0,1
129380,-100,4,1,1,70,0,1
129461,-100,4,1,1,50,0,1
129542,-100,4,1,1,70,0,1
129623,-100,4,1,1,50,0,1
129704,-100,4,1,1,75,0,1
129866,-100,4,1,1,10,0,1
129947,-100,4,1,1,75,0,1
132299,-100,4,1,1,80,0,1
132461,-100,4,1,1,10,0,1
132542,-100,4,1,1,80,0,1
133596,-98.0392156862745,4,1,1,85,0,1
133758,-98.0392156862745,4,1,1,10,0,1
133839,-98.0392156862745,4,1,1,85,0,1
134083,-100,4,1,1,85,0,1
134488,-100,4,1,1,10,0,1
134569,-98.0392156862745,4,1,1,85,0,1
135056,-98.0392156862745,4,1,1,10,0,1
135137,-98.0392156862745,4,1,1,85,0,1
135299,-98.0392156862745,4,1,1,10,0,1
135380,-98.0392156862745,4,1,1,85,0,1
135542,-98.0392156862745,4,1,1,10,0,1
135623,-98.0392156862745,4,1,1,85,0,1
135785,-100,4,1,1,10,0,1
135866,-100,4,1,1,85,0,1
135947,-100,4,1,1,50,0,1
136029,-100,4,1,1,85,0,1
136110,-100,4,1,1,50,0,1
136191,-98.0392156862745,4,1,1,85,0,1
136353,-98.0392156862745,4,1,1,10,0,1
136434,-98.0392156862745,4,1,1,85,0,1
136596,-98.0392156862745,4,1,1,10,0,1
136677,-98.0392156862745,4,1,1,85,0,1
136839,-98.0392156862745,4,1,1,10,0,1
136920,-98.0392156862745,4,1,1,85,0,1
137083,-100,4,1,1,10,0,1
137164,-100,4,1,1,85,0,1
137245,-100,4,1,1,50,0,1
137326,-100,4,1,1,85,0,1
137407,-100,4,1,1,50,0,1
137488,-100,4,1,1,85,0,1
138785,-100,4,1,1,85,0,1
140002,-100,4,1,1,10,0,0
140083,-100,4,1,1,85,0,1
140245,-100,4,1,1,85,0,0
141380,-100,4,2,1,10,0,0
142029,-100,4,2,1,12,0,0
142677,-100,4,2,1,14,0,0
143326,-100,4,2,1,16,0,0
143974,-100,4,2,1,18,0,0
145353,-100,4,2,1,16,0,0
145434,-100,4,2,1,14,0,0
145515,-100,4,2,1,12,0,0
145596,-100,4,2,1,10,0,0
145920,-100,4,2,1,8,0,0
146245,-100,4,2,66,5,0,0

[Colours]
Combo1 : 250,28,20
Combo2 : 253,175,92
Combo3 : 130,121,104
Combo4 : 101,55,57

[HitObjects]
112,352,5164,5,4,0:0:0:0:
400,352,5488,1,4,0:0:0:0:
256,320,5812,1,2,0:0:0:0:
400,352,10353,5,4,0:0:0:0:
112,352,10677,1,4,0:0:0:0:
256,320,11001,1,2,0:0:0:0:
112,352,14245,5,0,3:0:0:0:
116,296,14353,1,0,3:0:0:0:
120,240,14461,1,0,3:0:0:0:
204,272,14569,1,0,3:0:0:0:
208,216,14677,1,0,3:0:0:0:
212,160,14785,1,0,3:0:0:0:
356,192,14893,5,0,3:0:0:0:
352,136,15002,1,0,3:0:0:0:
348,80,15110,1,0,3:0:0:0:
264,112,15218,1,0,3:0:0:0:
260,56,15326,1,0,3:0:0:0:
256,0,15434,1,0,3:0:0:0:
400,128,15542,6,0,P|456:80|400:32,1,168,4|0,0:0|0:0,0:0:0:0:
113,32,16029,1,4,0:0:0:0:
424,40,18137,6,0,L|256:40,1,168,4|0,0:0|0:0,0:0:0:0:
340,72,18623,1,4,0:0:0:0:
52,40,18947,2,0,P|68:120|141:157,1,168,4|0,0:0|0:0,0:0:0:0:
376,156,19434,5,0,3:0:0:0:
416,168,19515,1,0,3:0:0:0:
448,192,19596,1,0,3:0:0:0:
472,228,19677,1,0,3:0:0:0:
480,268,19758,1,0,3:0:0:0:
472,308,19840,1,0,3:0:0:0:
448,344,19921,1,0,3:0:0:0:
416,368,20002,1,0,3:0:0:0:
376,380,20083,5,0,3:0:0:0:
336,348,20164,1,0,3:0:0:0:
320,300,20245,1,0,3:0:0:0:
336,252,20326,1,0,3:0:0:0:
376,220,20407,1,0,3:0:0:0:
420,220,20488,1,0,3:0:0:0:
376,220,20569,1,0,3:0:0:0:
148,296,20731,6,0,P|75:259|60:180,1,168,4|0,0:0|0:0,0:0:0:0:
228,216,21218,2,0,L|236:132,1,84,4|0,0:0|0:0,0:0:0:0:
148,164,21542,2,0,P|92:116|148:68,1,168,4|0,0:0|0:0,0:0:0:0:
372,36,22029,6,0,L|456:36,2,84,4|4|0,0:0|0:0|0:0,0:0:0:0:
204,68,22515,2,0,L|196:152,1,84,4|0,0:0|0:0,0:0:0:0:
284,184,22839,2,0,L|452:184,1,168,4|0,0:0|0:0,0:0:0:0:
220,300,23326,6,0,L|212:216,1,84,4|0,3:0|3:0,0:0:0:0:
300,184,23650,2,0,L|308:100,1,84,0|0,3:0|3:0,0:0:0:0:
84,132,23974,1,4,3:0:0:0:
172,100,24137,1,0,3:0:0:0:
84,132,24299,2,0,L|76:48,1,84,0|0,3:0|3:0,0:0:0:0:
308,16,24623,5,4,0:0:0:0:
324,64,24704,1,0,0:0:0:0:
308,112,24785,1,0,0:0:0:0:
268,144,24866,1,0,0:0:0:0:
156,180,24947,1,0,0:0:0:0:
116,212,25028,1,0,0:0:0:0:
100,260,25109,1,0,0:0:0:0:
116,308,25191,1,0,0:0:0:0:
156,340,25272,2,0,L|284:340,2,128.520000784424,4|4|4,0:0|0:0|0:0,0:0:0:0:
392,372,25920,6,0,L|400:288,1,84,6|0,0:0|0:0,0:0:0:0:
312,256,26245,2,0,P|295:196|312:136,1,126,8|2,0:0|0:0,0:0:0:0:
424,100,26731,1,2,0:0:0:0:
256,136,26893,2,0,L|248:52,1,84,8|0,0:0|0:0,0:0:0:0:
332,20,27218,6,0,L|248:20,1,84,2|0,0:0|0:0,0:0:0:0:
80,20,27542,1,8,0:0:0:0:
192,52,27785,2,0,L|204:180,1,128.520000784424,2|2,0:0|0:0,0:0:0:0:
36,204,28191,1,8,0:0:0:0:
32,248,28272,1,0,0:0:0:0:
28,292,28353,1,0,0:0:0:0:
256,324,28515,6,0,L|340:324,1,84,6|0,0:0|0:0,0:0:0:0:
256,356,28839,2,0,L|128:356,2,128.520000784424,8|2|2,0:0|0:0|0:0,0:0:0:0:
424,356,29488,2,0,L|432:272,1,84,8|0,0:0|0:0,0:0:0:0:
264,240,29812,5,2,0:0:0:0:
176,208,29974,1,0,0:0:0:0:
220,208,30056,1,0,0:0:0:0:
264,208,30137,1,8,0:0:0:0:
376,176,30380,2,0,L|248:176,1,128.520000784424,2|2,0:0|0:0,0:0:0:0:
472,208,30785,2,0,L|480:124,1,84,12|0,0:0|0:0,0:0:0:0:
176,156,31110,6,0,L|168:72,1,84,6|0,0:0|0:0,0:0:0:0:
256,40,31434,2,0,L|384:40,2,128.520000784424,8|2|2,0:0|0:0|0:0,0:0:0:0:
88,4,32083,2,0,L|172:4,1,84,8|0,0:0|0:0,0:0:0:0:
340,4,32407,5,2,0:0:0:0:
344,48,32488,1,0,0:0:0:0:
348,92,32569,1,0,0:0:0:0:
260,124,32731,2,0,P|243:184|260:244,1,126,8|2,0:0|0:0,0:0:0:0:
372,280,33217,1,2,0:0:0:0:
204,312,33380,2,0,L|120:312,1,84,8|0,0:0|0:0,0:0:0:0:
344,344,33704,5,6,0:0:0:0:
388,344,33785,1,0,0:0:0:0:
344,344,33866,1,0,0:0:0:0:
260,280,34029,1,8,0:0:0:0:
216,280,34110,1,0,0:0:0:0:
260,280,34191,1,0,0:0:0:0:
428,232,34353,5,0,0:0:0:0:
460,208,34434,1,0,0:0:0:0:
484,172,34515,1,2,0:0:0:0:
492,132,34596,1,0,0:0:0:0:
484,92,34678,1,8,0:0:0:0:
460,56,34759,1,0,0:0:0:0:
428,32,34839,1,0,0:0:0:0:
148,32,35002,6,0,L|64:32,2,84,4|4|8,0:0|0:0|0:0,0:0:0:0:
372,32,35488,1,4,0:0:0:0:
260,64,35812,6,0,L|252:148,1,84,4|8,0:0|0:0,0:0:0:0:
476,180,36137,1,4,0:0:0:0:
272,180,36623,6,0,L|144:180,1,128.520000784424,2|2,0:0|0:0,0:0:0:0:
256,212,36947,6,0,P|312:260|256:308,1,168,6|8,0:0|0:0,0:0:0:0:
168,340,37434,1,0,0:0:0:0:
256,376,37596,1,2,0:0:0:0:
88,376,37921,5,8,0:0:0:0:
56,352,38002,1,0,0:0:0:0:
32,316,38083,1,0,0:0:0:0:
24,276,38164,1,2,0:0:0:0:
32,236,38246,1,0,0:0:0:0:
56,200,38327,1,0,0:0:0:0:
88,176,38407,1,2,0:0:0:0:
256,144,38569,2,0,L|172:144,1,84,8|0,0:0|0:0,0:0:0:0:
400,112,38893,6,0,L|408:196,1,84,6|0,0:0|0:0,0:0:0:0:
320,164,39218,1,8,0:0:0:0:
280,196,39299,1,0,0:0:0:0:
264,244,39380,1,0,0:0:0:0:
280,292,39462,1,2,0:0:0:0:
320,324,39542,1,0,0:0:0:0:
408,324,39704,1,2,0:0:0:0:
240,356,39866,2,0,L|232:272,1,84,8|0,0:0|0:0,0:0:0:0:
460,240,40191,5,2,0:0:0:0:
504,240,40272,1,0,0:0:0:0:
460,240,40353,1,0,0:0:0:0:
372,208,40515,2,0,L|244:208,2,128.520000784424,8|2|2,0:0|0:0|0:0,0:0:0:0:
144,240,41164,2,0,L|136:156,1,84,12|0,0:0|0:0,0:0:0:0:
400,188,41488,6,0,L|408:104,1,84,6|0,0:0|0:0,0:0:0:0:
320,72,41812,2,0,L|194:72,2,126,8|2|2,0:0|0:0|0:0,0:0:0:0:
488,40,42461,2,0,L|404:40,1,84,8|0,0:0|0:0,0:0:0:0:
176,8,42785,6,0,L|168:92,1,84,6|0,0:0|0:0,0:0:0:0:
256,124,43110,1,8,0:0:0:0:
368,156,43353,2,0,L|380:284,1,128.520000784424,2|2,0:0|0:0,0:0:0:0:
212,316,43758,2,0,L|296:316,1,84,8|0,0:0|0:0,0:0:0:0:
64,348,44083,6,0,L|56:264,1,84,6|0,0:0|0:0,0:0:0:0:
144,232,44407,1,8,0:0:0:0:
188,232,44488,1,0,0:0:0:0:
232,232,44569,1,0,0:0:0:0:
400,200,44731,5,0,0:0:0:0:
432,176,44812,1,0,0:0:0:0:
456,140,44893,1,2,0:0:0:0:
464,100,44974,1,0,0:0:0:0:
456,60,45056,1,8,0:0:0:0:
432,24,45137,1,0,0:0:0:0:
400,0,45217,1,0,0:0:0:0:
168,0,45380,6,0,L|84:0,2,84,6|0|8,0:0|0:0|0:0,0:0:0:0:
360,32,45947,2,0,L|232:32,1,128.520000784424,2|2,0:0|0:0,0:0:0:0:
400,64,46353,1,8,0:0:0:0:
444,64,46434,1,0,0:0:0:0:
400,64,46515,1,0,0:0:0:0:
128,96,46677,6,0,P|72:144|128:192,1,168,4|8,0:0|0:0,0:0:0:0:
212,296,47164,2,0,L|220:212,1,84,4|0,0:0|0:0,0:0:0:0:
132,180,47488,1,4,0:0:0:0:
300,212,47650,6,0,L|316:44,1,168,4|0,0:0|0:0,0:0:0:0:
228,12,48137,2,0,L|212:180,1,168,4|0,0:0|0:0,0:0:0:0:
380,212,48623,6,0,L|508:212,2,128.520000784424,4|4|4,0:0|0:0|0:0,0:0:0:0:
44,144,49596,6,0,P|27:204|44:264,1,126,4|0,0:0|0:0,0:0:0:0:
88,304,49920,1,4,0:0:0:0:
200,336,50164,2,0,L|72:336,1,128.520000784424,4|4,0:0|0:0,0:0:0:0:
360,368,50731,5,0,3:0:0:0:
404,368,50812,1,0,3:0:0:0:
360,368,50893,1,4,3:0:0:0:
200,336,51218,2,0,L|192:252,1,84,0|4,0:3|0:3,0:0:0:0:
360,220,51542,2,0,L|368:136,1,84,0|4,0:3|0:3,0:0:0:0:
52,104,52191,5,4,0:0:0:0:
220,104,52515,1,4,0:0:0:0:
52,68,52839,1,0,0:3:0:0:
8,68,52920,1,0,0:3:0:0:
52,68,53002,1,4,0:3:0:0:
220,72,53164,6,0,P|237:132|220:192,1,126,4|4,0:0|0:0,0:0:0:0:
112,160,53650,2,0,P|95:220|112:280,1,126,4|4,0:0|0:0,0:0:0:0:
296,312,54137,2,0,L|212:312,1,84,4|4,0:0|0:0,0:0:0:0:
380,344,54461,6,0,P|397:284|380:224,1,126,4|4,0:0|0:0,0:0:0:0:
272,192,54947,1,4,0:0:0:0:
460,160,55191,1,4,0:0:0:0:
352,128,55434,2,0,L|436:128,1,84,4|4,0:0|0:0,0:0:0:0:
268,96,55758,6,0,L|260:180,1,84,4|4,0:0|0:0,0:0:0:0:
348,212,56083,2,0,L|264:212,1,84,4|4,0:0|0:0,0:0:0:0:
96,180,56407,1,4,3:0:0:0:
64,204,56488,1,0,3:0:0:0:
40,240,56569,1,4,3:0:0:0:
32,280,56650,1,0,3:0:0:0:
40,320,56732,1,4,3:0:0:0:
64,356,56813,1,0,3:0:0:0:
96,380,56893,1,4,3:0:0:0:
328,380,57056,6,0,L|344:212,1,168,4|0,0:0|0:0,0:0:0:0:
256,180,57542,1,0,0:0:0:0:
88,212,57704,2,0,L|72:44,1,168,8|0,0:0|0:0,0:0:0:0:
360,12,58353,5,2,0:0:0:0:
192,44,58677,2,0,L|360:44,2,168,0|8|0,0:0|0:0|0:0,0:0:0:0:
480,80,59650,6,0,L|496:248,1,168,2|0,0:0|0:0,0:0:0:0:
408,280,60137,1,0,0:0:0:0:
264,312,60299,2,0,L|432:312,1,168,8|0,0:0|0:0,0:0:0:0:
143,344,60947,6,0,P|121:227|223:168,1,252,2|0,0:0|0:0,0:0:0:0:
268,168,61515,1,0,0:0:0:0:
312,168,61596,1,8,0:0:0:0:
136,136,61920,2,0,L|52:136,1,84,0|0,0:0|0:0,0:0:0:0:
276,168,62245,6,0,P|332:120|276:72,1,168,0|0,0:0|0:0,0:0:0:0:
188,40,62731,1,0,0:0:0:0:
356,40,62893,2,0,P|428:77|443:156,1,168,8|0,0:0|0:0,0:0:0:0:
156,192,63542,6,0,P|83:229|68:308,1,168,2|0,0:0|0:0,0:0:0:0:
236,340,64191,1,8,0:0:0:0:
260,304,64272,1,0,0:0:0:0:
268,264,64353,1,0,0:0:0:0:
260,224,64435,1,0,0:0:0:0:
236,188,64516,1,0,0:0:0:0:
204,164,64597,1,0,0:0:0:0:
160,164,64677,1,0,0:0:0:0:
204,164,64758,1,0,0:0:0:0:
316,196,64839,5,2,0:0:0:0:
484,228,65164,1,0,0:0:0:0:
488,172,65272,1,0,0:0:0:0:
492,116,65380,1,0,0:0:0:0:
496,60,65488,1,8,0:0:0:0:
328,116,65813,1,0,0:0:0:0:
324,60,65921,1,0,0:0:0:0:
320,4,66029,1,0,0:0:0:0:
176,60,66137,6,0,P|103:97|88:176,1,168,2|0,0:0|0:0,0:0:0:0:
256,144,66785,1,0,3:0:0:0:
308,176,66893,1,0,3:0:0:0:
332,236,67002,1,0,3:0:0:0:
308,296,67110,1,0,3:0:0:0:
256,328,67218,1,0,3:0:0:0:
184,328,67326,1,0,3:0:0:0:
40,364,67434,6,0,B|32:196|32:196|24:364|24:364|16:196|16:196|8:280,1,588,4|0,0:0|0:0,0:0:0:0:
176,312,68731,2,0,B|184:144|184:144|192:312|192:312|200:144|200:144|208:228,1,588,2|0,0:0|0:0,0:0:0:0:
376,260,70029,5,4,0:0:0:0:
256,192,70191,12,0,72299,0:0:0:0:
284,352,72623,5,0,3:0:0:0:
324,320,72704,1,0,3:0:0:0:
340,272,72785,1,0,3:0:0:0:
324,224,72867,1,0,3:0:0:0:
284,192,72947,1,0,3:0:0:0:
240,192,73029,1,0,3:0:0:0:
284,192,73110,1,0,3:0:0:0:
240,192,73191,1,0,3:0:0:0:
128,224,73272,5,0,3:0:0:0:
96,200,73352,1,0,3:0:0:0:
72,164,73433,1,0,3:0:0:0:
64,124,73514,1,0,3:0:0:0:
72,84,73596,1,0,3:0:0:0:
96,48,73677,1,0,3:0:0:0:
128,24,73758,1,0,3:0:0:0:
380,24,73920,5,2,0:0:0:0:
256,192,74083,12,0,76191,0:0:0:0:
328,52,76515,6,0,P|465:191|328:331,1,435.120010623047,0|0,0:0|0:0,0:0:0:0:
64,368,77812,6,0,L|56:284,1,84,6|0,0:0|0:0,0:0:0:0:
224,252,78137,1,8,0:0:0:0:
116,220,78380,2,0,L|244:220,1,128.520000784424,2|2,0:0|0:0,0:0:0:0:
76,220,78785,2,0,L|68:136,1,84,8|0,0:0|0:0,0:0:0:0:
296,168,79110,6,0,P|352:120|296:72,1,168,2|8,0:0|0:0,0:0:0:0:
212,72,79596,1,0,0:0:0:0:
164,40,79677,2,0,L|292:40,1,128.520000784424,2|2,0:0|0:0,0:0:0:0:
460,40,80083,2,0,L|376:40,1,84,8|0,0:0|0:0,0:0:0:0:
140,8,80407,6,0,P|83:55|139:103,1,168,2|8,0:0|0:0,0:0:0:0:
228,136,80894,1,0,0:0:0:0:
232,180,80975,1,2,0:0:0:0:
236,224,81056,1,0,0:0:0:0:
148,256,81218,1,2,0:0:0:0:
316,292,81380,1,8,0:0:0:0:
360,292,81461,1,0,0:0:0:0:
404,292,81542,1,0,0:0:0:0:
164,324,81704,6,0,L|152:196,1,128.520000784424,2|0,0:0|0:0,0:0:0:0:
260,228,82191,2,0,L|272:100,1,128.520000784424,0|0,0:0|0:0,0:0:0:0:
88,68,82677,2,0,L|172:68,1,84,8|0,0:0|0:0,0:0:0:0:
340,36,83002,6,0,L|256:36,1,84,2|0,0:0|0:0,0:0:0:0:
484,36,83326,1,10,0:0:0:0:
488,80,83407,1,0,0:0:0:0:
492,124,83488,1,0,0:0:0:0:
404,156,83650,2,0,L|488:156,1,84,0|2,0:0|0:0,0:0:0:0:
260,156,83974,1,10,0:0:0:0:
256,200,84055,1,0,0:0:0:0:
252,244,84136,1,0,0:0:0:0:
340,276,84299,6,0,L|348:360,1,84,2|0,0:0|0:0,0:0:0:0:
120,360,84623,1,10,0:0:0:0:
76,360,84704,1,0,0:0:0:0:
32,360,84785,1,0,0:0:0:0:
200,328,84947,1,0,0:0:0:0:
240,296,85028,1,0,0:0:0:0:
256,248,85109,1,2,0:0:0:0:
240,200,85191,1,0,0:0:0:0:
200,168,85272,1,8,0:0:0:0:
152,168,85353,1,0,0:0:0:0:
200,168,85434,1,0,0:0:0:0:
432,200,85596,6,0,L|440:116,1,84,2|0,0:0|0:0,0:0:0:0:
272,84,85920,1,8,0:0:0:0:
164,148,86164,2,0,P|147:88|164:28,1,126,2|2,0:0|0:0,0:0:0:0:
332,28,86569,2,0,L|416:28,1,84,8|0,0:0|0:0,0:0:0:0:
180,60,86893,6,0,L|96:60,1,84,2|0,0:0|0:0,0:0:0:0:
264,92,87218,2,0,L|272:176,1,84,8|0,0:0|0:0,0:0:0:0:
104,144,87542,1,0,0:0:0:0:
64,176,87623,1,0,0:0:0:0:
48,224,87704,1,2,0:0:0:0:
64,272,87786,1,0,0:0:0:0:
104,304,87867,1,8,0:0:0:0:
152,304,87947,1,0,0:0:0:0:
460,336,88191,6,0,L|468:252,1,84,6|0,0:0|0:0,0:0:0:0:
300,220,88515,1,8,0:0:0:0:
408,188,88758,2,0,L|280:188,1,128.520000784424,2|2,0:0|0:0,0:0:0:0:
112,156,89164,2,0,L|196:156,1,84,8|0,0:0|0:0,0:0:0:0:
420,156,89488,6,0,P|492:118|507:39,1,168,2|8,0:0|0:0,0:0:0:0:
424,4,89974,1,0,0:0:0:0:
376,4,90056,2,0,L|248:4,1,128.520000784424,2|2,0:0|0:0,0:0:0:0:
416,36,90461,2,0,L|424:120,1,84,8|0,0:0|0:0,0:0:0:0:
196,152,90785,6,0,P|124:190|109:269,1,168,2|8,0:0|0:0,0:0:0:0:
192,300,91272,1,0,0:0:0:0:
236,300,91353,1,2,0:0:0:0:
280,300,91434,1,0,0:0:0:0:
192,332,91596,1,2,0:0:0:0:
24,368,91758,1,8,0:0:0:0:
68,368,91839,1,0,0:0:0:0:
112,368,91920,1,0,0:0:0:0:
344,332,92083,6,0,P|361:272|344:212,1,126,2|0,0:0|0:0,0:0:0:0:
236,180,92569,2,0,L|364:180,1,128.520000784424
132,196,93056,2,0,L|124:112,1,84,8|0,0:0|0:0,0:0:0:0:
208,80,93380,6,0,L|292:80,1,84,2|0,0:0|0:0,0:0:0:0:
28,112,93704,1,10,0:0:0:0:
24,156,93785,1,0,0:0:0:0:
20,200,93866,1,0,0:0:0:0:
108,232,94029,2,0,L|24:232,1,84,0|2,0:0|0:0,0:0:0:0:
256,232,94353,1,10,0:0:0:0:
300,232,94434,1,0,0:0:0:0:
344,232,94515,1,0,0:0:0:0:
256,264,94677,6,0,L|248:348,1,84,2|0,0:0|0:0,0:0:0:0:
480,380,95002,1,10,0:0:0:0:
484,336,95083,1,0,0:0:0:0:
488,292,95164,1,0,0:0:0:0:
320,264,95326,1,0,0:0:0:0:
280,232,95407,1,0,0:0:0:0:
264,184,95488,1,2,0:0:0:0:
280,136,95570,1,0,0:0:0:0:
320,104,95651,1,8,0:0:0:0:
368,104,95732,1,0,0:0:0:0:
320,104,95813,1,0,0:0:0:0:
88,136,95974,6,0,L|4:136,2,84,6|0|8,0:0|0:0|0:0,0:0:0:0:
196,72,96542,2,0,L|208:200,1,128.520000784424,2|2,0:0|0:0,0:0:0:0:
36,168,96947,1,8,0:0:0:0:
32,212,97028,1,0,0:0:0:0:
28,256,97109,1,0,0:0:0:0:
260,288,97272,6,0,L|344:288,1,84,6|0,0:0|0:0,0:0:0:0:
256,320,97596,2,0,L|244:192,1,128.520000784424,8|2,0:0|0:0,0:0:0:0:
352,160,98083,1,2,0:0:0:0:
184,128,98245,1,8,0:0:0:0:
140,128,98326,1,0,0:0:0:0:
96,128,98407,1,0,0:0:0:0:
388,96,98569,6,0,P|491:207|388:319,1,336,6|8,0:0|0:0,0:0:0:0:
68,320,99704,6,0,L|60:236,1,84,2|2,0:0|0:0,0:0:0:0:
172,204,100110,2,0,L|44:204,1,128.520000784424,2|2,0:0|0:0,0:0:0:0:
212,172,100515,1,8,0:0:0:0:
380,172,100839,2,0,L|388:88,1,84,0|0,0:0|0:0,0:0:0:0:
220,56,101164,6,0,P|164:104|220:152,1,168,2|0,0:0|0:0,0:0:0:0:
308,184,101650,1,0,0:0:0:0:
264,184,101731,1,0,0:0:0:0:
152,184,101812,1,8,0:0:0:0:
296,216,102218,1,0,0:0:0:0:
312,264,102299,1,2,0:0:0:0:
296,312,102380,1,2,0:0:0:0:
256,344,102461,6,0,L|128:344,2,128.520000784424,2|2|2,0:0|0:0|0:0,0:0:0:0:
424,344,103110,2,0,L|432:260,1,84,8|0,0:0|0:0,0:0:0:0:
344,228,103434,2,0,L|428:228,1,84,2|0,0:0|0:0,0:0:0:0:
260,228,103758,6,0,P|188:190|173:111,1,168,2|0,0:0|0:0,0:0:0:0:
464,144,104407,2,0,L|472:60,1,84,8|0,0:0|0:0,0:0:0:0:
384,28,104731,1,0,0:0:0:0:
256,28,105056,6,0,L|128:28,2,128.520000784424,2|2|2,0:0|0:0|0:0,0:0:0:0:
88,60,105704,2,0,L|80:144,1,84,8|0,0:0|0:0,0:0:0:0:
168,176,106029,2,0,L|176:260,1,84,2|0,0:0|0:0,0:0:0:0:
8,228,106353,6,0,P|22:307|94:345,1,168,2|0,0:0|0:0,0:0:0:0:
384,344,107002,1,8,0:0:0:0:
256,312,107407,5,2,0:0:0:0:
212,312,107488,1,0,0:0:0:0:
256,312,107569,2,0,L|340:312,1,84,2|2,0:0|0:0,0:0:0:0:
232,280,107974,2,0,P|215:220|232:160,1,126,0|0,0:0|0:0,0:0:0:0:
280,128,108299,5,8,3:0:0:0:
448,160,108461,1,0,3:0:0:0:
488,128,108542,1,0,3:0:0:0:
504,80,108623,1,0,3:0:0:0:
488,32,108705,1,0,3:0:0:0:
448,0,108786,1,0,3:0:0:0:
180,0,108947,6,0,P|77:111|180:223,1,336,4|2,0:0|0:0,0:0:0:0:
352,224,109920,1,0,0:0:0:0:
184,256,110245,6,0,L|168:88,1,168,2|0,0:0|0:0,0:0:0:0:
256,88,110731,1,0,0:0:0:0:
344,88,110893,2,0,L|360:256,1,168,2|8,0:0|0:0,0:0:0:0:
192,288,111380,1,8,0:0:0:0:
280,320,111542,6,0,P|302:203|200:143,1,252,2|0,0:0|0:0,0:0:0:0:
112,176,112191,2,0,B|104:8|104:8|100:92,1,252,2|0,0:0|0:0,0:0:0:0:
188,124,112839,6,0,B|196:292|196:292|200:208,1,252,2|0,0:0|0:0,0:0:0:0:
112,176,113488,2,0,P|89:292|191:353,1,252,2|0,0:0|0:0,0:0:0:0:
448,352,114137,6,0,B|456:184|456:184|464:352|464:352|472:184|472:184|476:268,1,588,6|0,0:0|0:0,0:0:0:0:
388,300,115434,2,0,B|380:132|380:132|376:216,1,252,2|0,0:0|0:0,0:0:0:0:
288,248,116083,2,0,L|296:80,1,168,2|8,0:0|0:0,0:0:0:0:
384,48,116569,1,8,0:0:0:0:
160,12,116731,6,0,B|152:180|152:180|148:96,1,252,6|2,0:0|0:0,0:0:0:0:
336,64,117704,1,2,0:0:0:0:
32,64,118029,5,6,0:0:0:0:
256,192,118191,12,0,119002,0:0:0:0:
360,64,119326,6,0,L|372:192,1,128.520000784424,6|0,0:0|0:0,0:0:0:0:
264,160,119812,2,0,L|252:288,1,128.520000784424,0|0,0:0|0:0,0:0:0:0:
436,320,120299,2,0,L|352:320,1,84,8|0,0:0|0:0,0:0:0:0:
100,320,120623,5,2,0:0:0:0:
60,288,120704,1,0,0:0:0:0:
44,240,120785,1,0,0:0:0:0:
60,192,120867,1,0,0:0:0:0:
100,160,120948,1,8,0:0:0:0:
188,160,121110,1,0,0:0:0:0:
356,192,121272,1,2,0:0:0:0:
352,148,121353,1,0,0:0:0:0:
348,104,121434,1,2,0:0:0:0:
260,136,121596,1,8,0:0:0:0:
256,92,121677,1,0,0:0:0:0:
252,48,121758,1,0,0:0:0:0:
480,16,121920,6,0,P|496:75|479:135,1,126,2|0,0:0|0:0,0:0:0:0:
368,168,122407,2,0,L|240:168,1,128.520000784424,0|0,0:0|0:0,0:0:0:0:
424,200,122893,2,0,L|508:200,1,84,8|0,0:0|0:0,0:0:0:0:
276,200,123218,6,0,P|219:247|275:295,1,168,2|8,0:0|0:0,0:0:0:0:
364,328,123704,1,0,0:0:0:0:
368,284,123785,1,0,0:0:0:0:
256,252,123866,2,0,L|172:252,1,84,2|2,0:0|0:0,0:0:0:0:
260,220,124191,1,8,0:0:0:0:
304,220,124272,1,0,0:0:0:0:
348,220,124353,1,8,0:0:0:0:
96,252,124515,6,0,P|79:192|96:132,1,126,2|2,0:0|0:0,0:0:0:0:
208,164,125002,2,0,P|224:104|207:44,1,126,2|2,0:0|0:0,0:0:0:0:
16,12,125488,1,8,0:0:0:0:
60,12,125569,1,0,0:0:0:0:
104,12,125650,1,0,0:0:0:0:
368,12,125812,6,0,P|384:71|368:131,1,126,2|2,0:0|0:0,0:0:0:0:
256,164,126299,2,0,L|384:164,1,128.520000784424,2|2,0:0|0:0,0:0:0:0:
192,196,126785,1,8,0:0:0:0:
148,196,126866,1,0,0:0:0:0:
192,196,126947,1,0,0:0:0:0:
452,196,127110,6,0,P|468:255|452:315,1,126,2|2,0:0|0:0,0:0:0:0:
344,348,127596,2,0,L|216:348,1,128.520000784424,2|2,0:0|0:0,0:0:0:0:
408,380,128083,1,8,0:0:0:0:
452,380,128164,1,0,0:0:0:0:
408,380,128245,1,8,0:0:0:0:
136,348,128407,6,0,L|8:348,2,128.520000784424,4|4|4,0:0|0:0|0:0,0:0:0:0:
448,312,129137,1,4,0:0:0:0:
340,280,129380,1,4,0:0:0:0:
384,280,129461,1,0,0:0:0:0:
428,280,129542,1,4,0:0:0:0:
144,312,129704,6,0,L|136:228,1,84,6|0,0:0|0:0,0:0:0:0:
224,196,130029,1,8,0:0:0:0:
392,164,130191,1,0,0:0:0:0:
396,120,130272,1,0,0:0:0:0:
400,76,130353,1,2,0:0:0:0:
312,44,130515,1,2,0:0:0:0:
480,12,130677,1,8,0:0:0:0:
436,12,130758,1,0,0:0:0:0:
392,12,130839,1,0,0:0:0:0:
124,12,131002,6,0,P|107:71|124:131,1,126,2|0,0:0|0:0,0:0:0:0:
172,164,131326,2,0,L|256:164,1,84,8|0,0:0|0:0,0:0:0:0:
88,196,131650,2,0,P|71:255|88:315,1,126,2|0,0:0|0:0,0:0:0:0:
136,348,131974,2,0,L|52:348,1,84,8|0,0:0|0:0,0:0:0:0:
276,348,132299,6,0,P|332:299|275:253,1,168,6|8,0:0|0:0,0:0:0:0:
188,252,132785,1,0,0:0:0:0:
356,252,132947,1,2,0:0:0:0:
400,252,133029,1,0,0:0:0:0:
356,252,133110,1,2,0:0:0:0:
268,220,133272,1,8,0:0:0:0:
224,220,133353,1,0,0:0:0:0:
268,220,133434,1,0,0:0:0:0:
496,252,133596,6,0,L|508:124,1,128.520000784424,6|0,0:0|0:0,0:0:0:0:
400,92,134083,1,0,0:0:0:0:
232,56,134245,2,0,L|316:56,1,84,2|0,0:0|0:0,0:0:0:0:
484,56,134569,1,8,0:0:0:0:
440,56,134650,1,0,0:0:0:0:
396,56,134731,1,8,0:0:0:0:
128,56,134893,6,0,L|256:56,1,128.520000784424,4|4,0:0|0:0,0:0:0:0:
128,88,135380,2,0,L|256:88,1,128.520000784424,4|4,0:0|0:0,0:0:0:0:
40,120,135866,1,4,0:0:0:0:
36,164,135947,1,0,0:0:0:0:
32,208,136028,1,4,0:0:0:0:
320,240,136191,6,0,L|192:240,1,128.520000784424,4|4,0:0|0:0,0:0:0:0:
320,272,136677,2,0,L|192:272,1,128.520000784424,4|4,0:0|0:0,0:0:0:0:
408,304,137164,1,4,0:0:0:0:
452,304,137245,1,0,0:0:0:0:
408,304,137326,1,4,0:0:0:0:
104,304,137488,5,6,3:0:0:0:
64,272,137569,1,0,3:0:0:0:
48,224,137650,1,0,3:0:0:0:
64,176,137732,1,4,3:0:0:0:
104,144,137812,1,8,3:0:0:0:
144,144,137893,1,0,3:0:0:0:
104,112,137974,1,4,3:0:0:0:
144,112,138056,1,0,3:0:0:0:
256,176,138137,5,6,3:0:0:0:
296,144,138218,1,0,3:0:0:0:
312,96,138299,1,0,3:0:0:0:
296,48,138381,1,4,3:0:0:0:
256,16,138461,1,8,3:0:0:0:
212,16,138542,1,0,3:0:0:0:
256,16,138623,1,4,3:0:0:0:
484,16,138785,5,4,0:0:0:0:
256,192,138947,12,4,140083,0:0:0:0:
