osu file format v14

[General]
AudioFilename: audio.mp3
AudioLeadIn: 0
PreviewTime: 77812
Countdown: 0
SampleSet: Normal
StackLeniency: 0.7
Mode: 2
LetterboxInBreaks: 0
EpilepsyWarning: 1
WidescreenStoryboard: 0

[Editor]
DistanceSpacing: 1
BeatDivisor: 4
GridSize: 4
TimelineZoom: 2.899999

[Metadata]
Title:ouroVoros
TitleUnicode:ouroVoros
Artist:Negentropy (a.k.a. Team Grimoire)
ArtistUnicode:Negentropy (a.k.a. Team Grimoire)
Creator:autofanboy
Version:neVermore
Source:
Tags:BMS BOFU2017 OF FIGHTERS ULTIMATE 2017 LEGENDA EST A MYTH Employ “Zero-Origin” Zero Origin Symphonic Roar teamgrimoire Λögeln Aogeln CHAOS MAGNVM Muse Dash Give Up TREATMENT Vol.4 Groove Coaster Hardcore Gothic Video Game Instrumental Electronic Ouroboros Cycle alienflybot AFB Razor Sharp Arthas IDu5t IDust Jemzuu AJamez Daletto salchow
BeatmapID:2427950
BeatmapSetID:1087679

[Difficulty]
HPDrainRate:6
CircleSize:4.3
OverallDifficulty:9.8
ApproachRate:9.8
SliderMultiplier:2.24
SliderTickRate:2

[Events]
//Background and Video events
0,0,"Meeting with Shade_DaisanART.jpg",0,0
Video,-295,"video.mp4"
//Break Periods
2,16229,17658
//Storyboard Layer 0 (Background)
//Storyboard Layer 1 (Fail)
//Storyboard Layer 2 (Pass)
//Storyboard Layer 3 (Foreground)
//Storyboard Layer 4 (Overlay)
//Storyboard Sound Samples

[TimingPoints]
-25,324.324324324324,4,1,1,70,1,0
5163,-40.8163265306122,4,1,1,70,0,0
5812,-100,4,1,10,40,0,0
10353,-40.8163265306122,4,1,1,70,0,0
11002,-100,4,1,10,40,0,0
14245,-100,4,1,1,40,0,0
14569,-100,4,1,1,42,0,0
14893,-100,4,1,1,44,0,0
15218,-100,4,1,1,46,0,0
15542,-100,4,1,1,48,0,0
15866,-100,4,1,1,10,0,0
16029,-100,4,1,1,50,0,0
18137,-126.582278481013,4,1,1,50,0,0
18461,-126.582278481013,4,1,1,10,0,0
18623,-100,4,1,1,50,0,0
18947,-63.6942675159236,4,1,1,50,0,0
19272,-63.6942675159236,4,1,1,10,0,0
19434,-100,4,1,1,50,0,0
21218,-100,4,1,1,52,0,0
21542,-100,4,1,1,54,0,0
22029,-100,4,1,1,56,0,0
22515,-100,4,1,1,58,0,0
22839,-100,4,1,1,60,0,0
23326,-100,4,1,1,50,0,0
23974,-100,4,1,1,52,0,0
24623,-100,4,1,1,54,0,0
25272,-100,4,1,1,56,0,0
25515,-100,4,1,1,58,0,0
25758,-100,4,1,1,60,0,0
25920,-100,4,1,1,70,0,1
26164,-100,4,1,1,10,0,1
26245,-48.3091787439614,4,1,1,70,0,1
26407,-48.3091787439614,4,1,1,10,0,1
26488,-100,4,1,1,70,0,1
28758,-100,4,1,1,10,0,1
28839,-100,4,1,1,70,0,1
29812,-48.3091787439614,4,1,1,70,0,1
29974,-48.3091787439614,4,1,1,50,0,1
30056,-100,4,1,1,70,0,1
31029,-100,4,1,1,10,0,1
31110,-48.3091787439614,4,1,1,70,0,1
31272,-48.3091787439614,4,1,1,10,0,1
31353,-100,4,1,1,70,0,1
35002,-100,4,1,1,70,0,0
36664,-100,4,1,1,30,0,0
36704,-100,4,1,1,25,0,0
36745,-100,4,1,1,20,0,0
36785,-100,4,1,1,15,0,0
36826,-100,4,1,1,10,0,0
36866,-100,4,1,1,70,0,0
36947,-100,4,1,1,70,0,1
38893,-48.3091787439614,4,1,1,70,0,1
39056,-48.3091787439614,4,1,1,10,0,1
39137,-100,4,1,1,70,0,1
41407,-100,4,1,1,10,0,1
41488,-48.3091787439614,4,1,1,70,0,1
41650,-48.3091787439614,4,1,1,10,0,1
41731,-100,4,1,1,70,0,1
46677,-100,4,1,1,70,0,0
47002,-100,4,1,1,10,0,0
47164,-100,4,1,1,70,0,0
47326,-100,4,1,1,10,0,0
47488,-100,4,1,1,70,0,0
47974,-100,4,1,1,10,0,0
48137,-100,4,1,1,70,0,0
48461,-100,4,1,1,10,0,0
48623,-100,4,1,1,70,0,0
48785,-100,4,1,1,10,0,0
48866,-100,4,1,1,70,0,0
49029,-100,4,1,1,10,0,0
49110,-100,4,1,1,70,0,0
49596,-48.3091787439614,4,1,1,70,0,0
49758,-48.3091787439614,4,1,1,10,0,0
49839,-100,4,1,1,70,0,0
50083,-100,4,1,1,10,0,0
50164,-100,4,1,1,70,0,0
50326,-100,4,1,1,10,0,0
50407,-100,4,1,1,70,0,0
52191,-40.8163265306122,4,1,1,70,0,0
52434,-40.8163265306122,4,1,1,10,0,0
52515,-100,4,1,1,70,0,0
53326,-100,4,1,1,10,0,0
53407,-100,4,1,1,70,0,0
53569,-100,4,1,1,10,0,0
53650,-100,4,1,1,70,0,0
53812,-100,4,1,1,10,0,0
53893,-100,4,1,1,70,0,0
54056,-100,4,1,1,10,0,0
54137,-100,4,1,1,70,0,0
54218,-100,4,1,1,10,0,0
54299,-100,4,1,1,70,0,0
54380,-100,4,1,1,10,0,0
54461,-48.3091787439614,4,1,1,70,0,0
54623,-48.3091787439614,4,1,1,10,0,0
54704,-100,4,1,1,70,0,0
54866,-100,4,1,1,10,0,0
54947,-100,4,1,1,70,0,0
55110,-100,4,1,1,10,0,0
55191,-48.3091787439614,4,1,1,70,0,0
55353,-48.3091787439614,4,1,1,10,0,0
55434,-100,4,1,1,70,0,0
55515,-100,4,1,1,10,0,0
55596,-100,4,1,1,70,0,0
55677,-100,4,1,1,10,0,0
55758,-100,4,1,1,70,0,0
57056,-100,4,1,1,40,0,0
62245,-126.582278481013,4,1,1,40,0,0
62731,-100,4,1,1,40,0,0
63542,-126.582278481013,4,1,1,40,0,0
64029,-100,4,1,1,40,0,0
67434,-200,4,1,1,40,0,0
68650,-200,4,1,1,10,0,0
68731,-200,4,1,1,40,0,0
69947,-200,4,1,1,10,0,0
70029,-200,4,1,1,40,0,0
72542,-200,4,1,1,10,0,0
72623,-100,4,1,1,70,0,0
74002,-100,4,2,66,30,0,0
76515,-200,4,1,66,40,0,0
76677,-200,4,1,1,10,0,0
77812,-48.3091787439614,4,1,1,70,0,1
77974,-48.3091787439614,4,1,1,10,0,1
78056,-100,4,1,1,70,0,1
80326,-100,4,1,1,10,0,1
80407,-48.3091787439614,4,1,1,70,0,1
80731,-100,4,1,1,70,0,1
83326,-100,4,1,2,40,0,1
83407,-100,4,1,1,70,0,1
83974,-100,4,1,2,40,0,1
84056,-100,4,1,1,70,0,1
84623,-100,4,1,2,40,0,1
84704,-100,4,1,1,70,0,1
87866,-100,4,1,1,70,0,0
88191,-48.3091787439614,4,1,1,70,0,1
88353,-48.3091787439614,4,1,1,10,0,1
88434,-100,4,1,1,70,0,1
90461,-126.582278481013,4,1,1,70,0,1
90704,-126.582278481013,4,1,1,10,0,1
90785,-48.3091787439614,4,1,1,70,0,1
91110,-100,4,1,1,70,0,1
93704,-100,4,1,2,40,0,1
93785,-100,4,1,1,70,0,1
94353,-100,4,1,2,40,0,1
94434,-100,4,1,1,70,0,1
95002,-100,4,1,2,40,0,1
95083,-100,4,1,1,70,0,1
95974,-100,4,1,1,75,0,1
97272,-100,4,1,1,80,0,1
98461,-100,4,1,1,80,0,0
98569,-100,4,1,1,80,0,1
98731,-100,4,1,1,40,0,0
100029,-100,4,1,1,10,0,0
100110,-100,4,1,1,40,0,0
100272,-100,4,1,1,10,0,0
100353,-100,4,1,1,40,0,0
102623,-100,4,1,1,10,0,0
102704,-100,4,1,1,40,0,0
102866,-100,4,1,1,10,0,0
102947,-100,4,1,1,40,0,0
105218,-100,4,1,1,10,0,0
105299,-100,4,1,1,40,0,0
105461,-100,4,1,1,10,0,0
105542,-100,4,1,1,40,0,0
109110,-100,4,1,1,20,0,0
111542,-100,4,1,1,22,0,0
112029,-100,4,1,1,10,0,0
112191,-100,4,1,1,24,0,0
112677,-100,4,1,1,10,0,0
112839,-100,4,1,1,26,0,0
113326,-100,4,1,1,10,0,0
113488,-100,4,1,1,28,0,0
113974,-100,4,1,1,10,0,0
114137,-100,4,1,1,30,0,0
115272,-100,4,1,1,10,0,0
115434,-100,4,1,1,32,0,0
115920,-100,4,1,1,10,0,0
116083,-100,4,1,1,34,0,0
116407,-100,4,1,1,36,0,0
116731,-144.927536231884,4,1,1,38,0,0
118029,-200,4,1,1,40,0,0
119245,-200,4,1,1,10,0,0
119326,-100,4,1,1,70,0,1
124515,-100,4,1,2,40,0,1
124596,-100,4,1,1,70,0,1
124758,-100,4,1,2,40,0,1
124839,-100,4,1,1,70,0,1
125002,-100,4,1,2,40,0,1
125083,-100,4,1,1,70,0,1
125245,-100,4,1,2,40,0,1
125326,-100,4,1,1,70,0,1
125812,-100,4,1,2,40,0,1
125893,-100,4,1,1,70,0,1
126056,-100,4,1,2,40,0,1
126137,-100,4,1,1,70,0,1
126299,-100,4,1,2,40,0,1
126380,-100,4,1,1,70,0,1
126542,-100,4,1,2,40,0,1
126623,-100,4,1,1,70,0,1
127110,-100,4,1,2,40,0,1
127191,-100,4,1,1,70,0,1
127353,-100,4,1,2,40,0,1
127434,-100,4,1,1,70,0,1
127596,-100,4,1,2,40,0,1
127677,-100,4,1,1,70,0,1
127839,-100,4,1,2,40,0,1
127920,-100,4,1,1,70,0,1
128407,-48.3091787439614,4,1,1,70,0,1
128569,-48.3091787439614,4,1,1,10,0,1
128650,-100,4,1,1,70,0,1
128812,-100,4,1,1,10,0,1
128893,-100,4,1,1,70,0,1
129056,-100,4,1,1,10,0,1
129137,-48.3091787439614,4,1,1,70,0,1
129299,-48.3091787439614,4,1,1,10,0,1
129380,-100,4,1,1,70,0,1
129461,-100,4,1,1,50,0,1
129542,-100,4,1,1,70,0,1
129623,-100,4,1,1,50,0,1
129704,-48.3091787439614,4,1,1,75,0,1
129866,-48.3091787439614,4,1,1,10,0,1
129947,-100,4,1,1,75,0,1
132299,-48.3091787439614,4,1,1,80,0,1
132461,-48.3091787439614,4,1,1,10,0,1
132542,-100,4,1,1,80,0,1
133596,-48.3091787439614,4,1,1,85,0,1
133758,-48.3091787439614,4,1,1,10,0,1
133839,-100,4,1,1,85,0,1
134488,-100,4,1,1,10,0,1
134569,-100,4,1,1,85,0,1
135056,-100,4,1,1,10,0,1
135137,-48.3091787439614,4,1,1,85,0,1
135299,-48.3091787439614,4,1,1,10,0,1
135380,-100,4,1,1,85,0,1
135542,-100,4,1,1,10,0,1
135623,-48.3091787439614,4,1,1,85,0,1
135785,-48.3091787439614,4,1,1,10,0,1
135866,-100,4,1,1,85,0,1
135947,-100,4,1,1,50,0,1
136029,-100,4,1,1,85,0,1
136110,-100,4,1,1,50,0,1
136191,-48.3091787439614,4,1,1,85,0,1
136353,-48.3091787439614,4,1,1,10,0,1
136434,-48.3091787439614,4,1,1,85,0,1
136596,-48.3091787439614,4,1,1,10,0,1
136677,-48.3091787439614,4,1,1,85,0,1
136839,-48.3091787439614,4,1,1,10,0,1
136920,-48.3091787439614,4,1,1,85,0,1
137083,-48.3091787439614,4,1,1,10,0,1
137164,-100,4,1,1,85,0,1
137245,-100,4,1,1,50,0,1
137326,-100,4,1,1,85,0,1
137407,-100,4,1,1,50,0,1
137488,-100,4,1,1,85,0,1
138785,-105.263157894737,4,1,1,85,0,1
140002,-105.263157894737,4,1,1,10,0,0
140083,-100,4,1,1,85,0,1
140245,-100,4,1,1,85,0,0
141380,-100,4,2,1,10,0,0
142029,-100,4,2,1,12,0,0
142677,-100,4,2,1,14,0,0
143326,-100,4,2,1,16,0,0
143974,-100,4,2,1,18,0,0
145353,-100,4,2,1,16,0,0
145434,-100,4,2,1,14,0,0
145515,-100,4,2,1,12,0,0
145596,-100,4,2,1,10,0,0
145920,-100,4,2,1,8,0,0
146245,-100,4,2,66,5,0,0

[Colours]
Combo1 : 250,28,20
Combo2 : 253,175,92
Combo3 : 130,121,104
Combo4 : 101,55,57

[HitObjects]
16,356,5164,6,0,L|428:356,1,411.600003925324,4|0,0:0|0:0,0:0:0:0:
496,324,5488,2,0,L|84:324,1,411.600003925324,4|0,0:0|0:0,0:0:0:0:
228,292,5812,2,0,L|284:292,2,56,2|0|0,0:0|0:0|0:0,0:0:0:0:
52,240,6137,2,0,L|40:128,1,112,8|0,0:0|0:0,0:0:0:0:
216,96,6461,6,0,L|328:96,2,112,2|0|8,0:0|0:0|0:0,0:0:0:0:
392,160,6947,1,0,0:0:0:0:
396,104,7029,1,0,0:0:0:0:
400,48,7110,1,2,0:0:0:0:
288,16,7272,1,0,0:0:0:0:
464,16,7434,2,0,L|476:128,1,112,8|0,0:0|0:0,0:0:0:0:
200,128,7758,5,2,0:0:0:0:
312,128,7920,2,0,L|324:240,1,112,0|8,0:0|0:0,0:0:0:0:
148,212,8245,1,0,0:0:0:0:
144,268,8327,1,0,0:0:0:0:
140,324,8408,1,2,0:0:0:0:
252,356,8569,1,0,0:0:0:0:
76,356,8731,2,0,L|64:244,1,112,8|0,0:0|0:0,0:0:0:0:
384,212,9056,6,0,L|496:212,2,112,2|0|8,0:0|0:0|0:0,0:0:0:0:
208,244,9542,1,0,0:0:0:0:
156,212,9623,1,0,0:0:0:0:
136,156,9704,1,2,0:0:0:0:
156,100,9785,1,0,0:0:0:0:
208,68,9866,1,0,0:0:0:0:
384,40,10029,2,0,L|272:40,1,112,8|0,0:0|0:0,0:0:0:0:
352,72,10272,1,0,0:0:0:0:
428,104,10353,6,0,L|16:104,1,411.600003925324,4|0,0:0|0:0,0:0:0:0:
84,136,10677,2,0,L|496:136,1,411.600003925324,4|0,0:0|0:0,0:0:0:0:
284,168,11002,2,0,L|228:168,2,56,2|0|0,0:0|0:0|0:0,0:0:0:0:
460,200,11326,2,0,L|472:312,1,112,8|0,0:0|0:0,0:0:0:0:
296,344,11650,6,0,L|284:232,1,112,2|0,0:0|0:0,0:0:0:0:
396,200,11974,1,8,0:0:0:0:
220,168,12137,1,0,0:0:0:0:
164,168,12218,1,0,0:0:0:0:
108,168,12299,1,2,0:0:0:0:
220,136,12461,1,0,0:0:0:0:
44,200,12623,2,0,L|32:88,1,112,8|0,0:0|0:0,0:0:0:0:
312,56,12947,6,0,L|200:56,2,112,2|0|8,0:0|0:0|0:0,0:0:0:0:
136,24,13434,1,0,0:0:0:0:
132,80,13516,1,0,0:0:0:0:
128,136,13597,1,2,0:0:0:0:
240,168,13758,1,0,0:0:0:0:
416,200,13920,2,0,L|428:312,1,112,8|0,0:0|0:0,0:0:0:0:
172,344,14245,5,0,3:0:0:0:
88,312,14353,1,0,3:0:0:0:
172,280,14461,1,0,3:0:0:0:
308,248,14569,1,0,3:0:0:0:
392,216,14677,1,0,3:0:0:0:
308,184,14785,1,0,3:0:0:0:
172,152,14893,5,0,3:0:0:0:
340,120,15002,1,0,3:0:0:0:
172,88,15110,1,0,3:0:0:0:
424,88,15218,1,0,3:0:0:0:
256,56,15326,1,0,3:0:0:0:
424,24,15434,1,0,3:0:0:0:
95,24,15542,6,0,P|51:119|127:191,1,224,4|0,0:0|0:0,0:0:0:0:
384,192,16029,1,4,0:0:0:0:
168,160,18137,6,0,L|344:160,1,176.960004320313,4|0,0:0|0:0,0:0:0:0:
48,160,18623,1,4,0:0:0:0:
432,192,18947,2,0,L|80:192,1,351.680001341553,4|0,0:0|0:0,0:0:0:0:
344,160,19434,6,0,L|352:216,1,56,0|0,3:0|3:0,0:0:0:0:
264,248,19596,2,0,L|256:304,1,56,0|0,3:0|3:0,0:0:0:0:
440,248,19758,2,0,L|448:304,1,56,0|0,3:0|3:0,0:0:0:0:
360,332,19920,1,0,3:0:0:0:
448,332,20002,1,0,3:0:0:0:
256,332,20083,5,0,3:0:0:0:
168,332,20164,1,0,3:0:0:0:
256,332,20245,1,0,3:0:0:0:
344,332,20326,1,0,3:0:0:0:
152,304,20407,1,0,3:0:0:0:
64,304,20488,1,0,3:0:0:0:
256,276,20569,1,0,3:0:0:0:
344,276,20650,1,0,3:0:0:0:
64,248,20731,5,4,0:0:0:0:
44,192,20812,1,0,0:0:0:0:
64,136,20893,1,0,0:0:0:0:
116,104,20974,1,0,0:0:0:0:
204,104,21056,1,0,0:0:0:0:
116,104,21137,1,0,0:0:0:0:
292,72,21218,6,0,L|300:128,1,56,4|0,0:0|0:0,0:0:0:0:
212,160,21380,2,0,L|204:216,1,56
380,248,21542,5,4,0:0:0:0:
468,248,21623,1,0,0:0:0:0:
380,248,21704,2,0,L|372:192,1,56
460,160,21866,2,0,L|468:104,1,56
256,72,22029,5,4,0:0:0:0:
168,72,22110,1,0,0:0:0:0:
344,104,22191,1,4,0:0:0:0:
256,104,22272,1,0,0:0:0:0:
344,136,22353,2,0,L|352:192,1,56
176,192,22515,6,0,L|168:248,1,56,4|0,0:0|0:0,0:0:0:0:
256,280,22677,1,0,0:0:0:0:
168,280,22758,1,0,0:0:0:0:
344,312,22839,5,4,0:0:0:0:
432,312,22920,1,0,0:0:0:0:
256,344,23002,1,0,0:0:0:0:
184,344,23083,1,0,0:0:0:0:
256,344,23164,1,0,0:0:0:0:
432,344,23245,1,0,0:0:0:0:
68,344,23326,6,0,L|48:292,1,56,4|0,3:0|3:0,0:0:0:0:
192,264,23488,2,0,L|184:208,1,56,0|0,3:0|3:0,0:0:0:0:
328,180,23650,2,0,L|336:124,1,56,0|0,3:0|3:0,0:0:0:0:
480,96,23812,2,0,L|500:44,1,56,0|0,3:0|3:0,0:0:0:0:
176,360,23974,6,0,L|184:304,1,56,4|0,3:0|3:0,0:0:0:0:
328,276,24137,2,0,L|336:220,1,56,0|0,3:0|3:0,0:0:0:0:
152,192,24299,2,0,L|96:192,1,56,0|0,3:0|3:0,0:0:0:0:
416,192,24461,2,0,L|360:192,1,56,0|0,3:0|3:0,0:0:0:0:
196,220,24623,5,4,0:0:0:0:
164,220,24664,1,0,0:0:0:0:
196,220,24704,1,0,0:0:0:0:
380,156,24785,1,0,0:0:0:0:
348,156,24826,1,0,0:0:0:0:
316,156,24866,1,0,0:0:0:0:
132,92,24947,1,0,0:0:0:0:
164,92,24988,1,0,0:0:0:0:
196,92,25029,1,0,0:0:0:0:
380,28,25110,1,0,0:0:0:0:
412,28,25151,1,0,0:0:0:0:
380,28,25192,1,0,0:0:0:0:
96,28,25272,5,4,0:0:0:0:
68,56,25312,1,0,0:0:0:0:
56,96,25353,1,0,0:0:0:0:
68,136,25394,1,0,0:0:0:0:
96,164,25434,1,0,0:0:0:0:
132,164,25474,1,0,0:0:0:0:
360,196,25515,1,4,0:0:0:0:
388,224,25555,1,0,0:0:0:0:
400,264,25596,1,0,0:0:0:0:
388,304,25637,1,0,0:0:0:0:
360,332,25677,1,0,0:0:0:0:
324,332,25718,1,0,0:0:0:0:
17,364,25758,1,4,0:0:0:0:
244,304,25920,6,0,P|286:237|235:177,1,168,6|0,0:0|0:0,0:0:0:0:
140,144,26245,2,0,L|371:144,1,231.840006456116,8|0,0:0|0:0,0:0:0:0:
196,112,26488,5,2,0:0:0:0:
124,112,26569,1,0,0:0:0:0:
196,112,26650,1,0,0:0:0:0:
56,112,26731,2,0,L|48:56,1,56,2|0,0:0|0:0,0:0:0:0:
256,56,26893,1,8,0:0:0:0:
328,56,26974,1,0,0:0:0:0:
256,88,27056,1,0,0:0:0:0:
184,88,27137,1,0,0:0:0:0:
448,112,27218,6,0,L|456:168,1,56,2|0,0:0|0:0,0:0:0:0:
368,200,27380,1,0,0:0:0:0:
456,200,27461,1,0,0:0:0:0:
256,228,27542,2,0,L|248:284,1,56,8|0,0:0|0:0,0:0:0:0:
336,316,27704,1,0,0:0:0:0:
136,348,27785,5,2,0:0:0:0:
208,348,27866,1,0,0:0:0:0:
136,348,27947,1,0,0:0:0:0:
336,316,28029,2,0,L|344:260,1,56,2|0,0:0|0:0,0:0:0:0:
256,228,28191,1,8,0:0:0:0:
120,228,28272,1,0,0:0:0:0:
256,196,28353,1,0,0:0:0:0:
120,196,28434,1,0,0:0:0:0:
332,228,28515,6,0,P|359:149|344:68,1,168,6|0,0:0|0:0,0:0:0:0:
256,36,28839,1,8,0:0:0:0:
432,36,28920,1,0,0:0:0:0:
504,36,29002,1,0,0:0:0:0:
432,36,29083,5,2,0:0:0:0:
256,36,29164,2,0,L|248:92,1,56
336,124,29326,2,0,L|344:180,1,56,2|0,0:0|0:0,0:0:0:0:
168,148,29488,1,8,0:0:0:0:
140,176,29528,1,0,0:0:0:0:
128,216,29569,1,0,0:0:0:0:
140,256,29610,1,0,0:0:0:0:
168,284,29650,1,0,0:0:0:0:
256,284,29731,1,0,0:0:0:0:
344,316,29812,6,0,L|113:316,1,231.840006456116,2|0,0:0|0:0,0:0:0:0:
200,316,30056,1,0,0:0:0:0:
16,348,30137,2,0,L|8:292,1,56,8|0,0:0|0:0,0:0:0:0:
96,264,30299,1,0,0:0:0:0:
296,232,30380,6,0,L|304:176,1,56,2|0,0:0|0:0,0:0:0:0:
216,144,30542,1,0,0:0:0:0:
416,112,30623,1,2,0:0:0:0:
504,112,30704,1,0,0:0:0:0:
260,304,30785,2,0,P|218:237|269:177,1,168,12|0,0:0|0:0,0:0:0:0:
364,144,31110,6,0,L|132:144,1,231.840006456116,6|0,0:0|0:0,0:0:0:0:
44,144,31353,1,0,0:0:0:0:
216,112,31434,1,8,0:0:0:0:
288,112,31515,1,0,0:0:0:0:
216,112,31596,1,0,0:0:0:0:
356,112,31677,6,0,L|364:56,1,56,2|0,0:0|0:0,0:0:0:0:
276,24,31839,1,0,0:0:0:0:
136,56,31920,2,0,L|128:112,1,56,2|0,0:0|0:0,0:0:0:0:
328,144,32083,1,8,0:0:0:0:
128,144,32164,1,0,0:0:0:0:
56,144,32245,1,0,0:0:0:0:
128,144,32326,1,0,0:0:0:0:
304,176,32407,5,2,0:0:0:0:
332,204,32447,1,0,0:0:0:0:
344,244,32488,1,0,0:0:0:0:
332,284,32529,1,0,0:0:0:0:
304,312,32569,1,0,0:0:0:0:
216,312,32650,1,0,0:0:0:0:
416,312,32731,1,8,0:0:0:0:
488,312,32812,1,0,0:0:0:0:
416,312,32893,1,0,0:0:0:0:
216,312,32974,6,0,L|208:256,1,56,2|0,0:0|0:0,0:0:0:0:
296,224,33137,1,0,0:0:0:0:
96,224,33218,1,2,0:0:0:0:
24,224,33299,1,0,0:0:0:0:
252,192,33380,2,0,L|260:136,1,56,8|0,0:0|0:0,0:0:0:0:
60,108,33542,2,0,L|52:52,1,56
332,20,33704,5,6,0:0:0:0:
384,52,33785,1,0,0:0:0:0:
404,108,33866,1,0,0:0:0:0:
384,164,33947,1,0,0:0:0:0:
240,196,34029,1,8,0:0:0:0:
168,196,34110,1,0,0:0:0:0:
240,196,34191,1,0,0:0:0:0:
384,196,34272,5,2,0:0:0:0:
184,228,34353,1,0,0:0:0:0:
256,228,34434,1,0,0:0:0:0:
328,260,34515,1,2,0:0:0:0:
256,260,34596,1,0,0:0:0:0:
72,292,34677,1,8,0:0:0:0:
52,236,34758,1,0,0:0:0:0:
72,180,34839,1,0,0:0:0:0:
124,148,34920,1,0,0:0:0:0:
212,148,35002,5,4,0:0:0:0:
436,148,35164,1,4,0:0:0:0:
212,116,35326,1,8,0:0:0:0:
436,116,35488,1,4,0:0:0:0:
32,88,35812,1,4,0:0:0:0:
256,88,35974,1,8,0:0:0:0:
480,88,36137,1,4,0:0:0:0:
76,56,36623,5,2,0:0:0:0:
80,96,36664,1,0,0:0:0:0:
96,128,36704,1,0,0:0:0:0:
124,152,36745,1,0,0:0:0:0:
156,160,36785,1,0,0:0:0:0:
192,160,36826,1,0,0:0:0:0:
340,160,36866,1,2,0:0:0:0:
88,164,36947,6,0,P|72:217|80:271,1,112,6|0,0:0|0:0,0:0:0:0:
256,304,37272,1,8,0:0:0:0:
328,304,37353,1,0,0:0:0:0:
256,336,37434,1,0,0:0:0:0:
220,336,37474,1,0,0:0:0:0:
184,336,37515,1,0,0:0:0:0:
420,368,37596,1,2,0:0:0:0:
440,312,37677,1,0,0:0:0:0:
420,256,37758,1,0,0:0:0:0:
368,224,37839,1,0,0:0:0:0:
220,192,37920,5,8,0:0:0:0:
292,192,38002,1,0,0:0:0:0:
220,192,38083,1,0,0:0:0:0:
420,192,38164,1,2,0:0:0:0:
220,160,38245,1,0,0:0:0:0:
148,160,38326,1,0,0:0:0:0:
364,128,38407,1,2,0:0:0:0:
292,128,38488,1,0,0:0:0:0:
72,224,38569,1,8,0:0:0:0:
44,200,38610,1,0,0:0:0:0:
24,168,38650,1,0,0:0:0:0:
16,128,38691,1,0,0:0:0:0:
24,88,38731,1,0,0:0:0:0:
44,56,38771,1,0,0:0:0:0:
72,32,38812,1,0,0:0:0:0:
164,32,38893,6,0,L|396:32,1,231.840006456116,6|0,0:0|0:0,0:0:0:0:
308,0,39137,1,0,0:0:0:0:
484,32,39218,2,0,L|492:88,1,56,8|0,0:0|0:0,0:0:0:0:
404,120,39380,1,0,0:0:0:0:
204,152,39461,5,2,0:0:0:0:
276,152,39542,1,0,0:0:0:0:
204,152,39623,1,0,0:0:0:0:
28,184,39704,2,0,L|20:240,1,56,2|0,0:0|0:0,0:0:0:0:
204,212,39866,1,8,0:0:0:0:
276,212,39947,1,0,0:0:0:0:
348,244,40029,1,0,0:0:0:0:
276,244,40110,1,0,0:0:0:0:
492,244,40191,6,0,L|508:268,4,28,2|0|0|0|0,0:0|0:0|0:0|0:0|0:0,0:0:0:0:
404,244,40434,1,0,0:0:0:0:
212,276,40515,2,0,L|196:300,4,28,8|0|0|0|0,0:0|0:0|0:0|0:0|0:0,0:0:0:0:
300,276,40758,5,2,0:0:0:0:
108,332,40839,1,0,0:0:0:0:
20,332,40920,1,0,0:0:0:0:
212,332,41002,1,2,0:0:0:0:
300,332,41083,1,0,0:0:0:0:
108,332,41164,2,0,P|57:273|97:206,1,168,12|0,0:0|0:0,0:0:0:0:
192,176,41488,6,0,L|423:176,1,231.840006456116,6|0,0:0|0:0,0:0:0:0:
336,144,41731,1,0,0:0:0:0:
128,268,41812,1,8,0:0:0:0:
100,240,41852,1,0,0:0:0:0:
88,200,41893,1,0,0:0:0:0:
100,160,41934,1,0,0:0:0:0:
128,132,41974,1,0,0:0:0:0:
300,100,42056,5,2,0:0:0:0:
212,100,42137,2,0,L|208:44,1,56
416,224,42299,2,0,L|420:168,1,56,2|0,0:0|0:0,0:0:0:0:
212,136,42461,1,8,0:0:0:0:
284,136,42542,1,0,0:0:0:0:
424,136,42623,1,0,0:0:0:0:
496,136,42704,1,0,0:0:0:0:
220,252,42785,6,0,L|212:196,1,56,6|0,0:0|0:0,0:0:0:0:
300,164,42947,1,0,0:0:0:0:
212,164,43029,1,0,0:0:0:0:
412,164,43110,2,0,L|420:108,1,56,8|0,0:0|0:0,0:0:0:0:
332,80,43272,1,0,0:0:0:0:
148,48,43353,5,2,0:0:0:0:
220,48,43434,1,0,0:0:0:0:
292,48,43515,1,0,0:0:0:0:
108,20,43596,1,2,0:0:0:0:
36,20,43677,1,0,0:0:0:0:
252,48,43758,2,0,L|260:104,1,56,8|0,0:0|0:0,0:0:0:0:
172,136,43920,2,0,L|164:192,1,56
384,160,44083,5,6,0:0:0:0:
404,216,44164,1,0,0:0:0:0:
384,272,44245,1,0,0:0:0:0:
332,304,44326,1,0,0:0:0:0:
188,336,44407,1,8,0:0:0:0:
116,336,44488,1,0,0:0:0:0:
188,336,44569,1,0,0:0:0:0:
332,336,44650,5,2,0:0:0:0:
188,336,44731,1,0,0:0:0:0:
184,308,44772,1,0,0:0:0:0:
180,280,44812,1,0,0:0:0:0:
332,252,44893,1,2,0:0:0:0:
336,224,44934,1,0,0:0:0:0:
340,196,44974,1,0,0:0:0:0:
124,168,45056,1,8,0:0:0:0:
152,168,45097,1,0,0:0:0:0:
180,168,45137,1,0,0:0:0:0:
332,168,45218,1,0,0:0:0:0:
360,168,45258,1,0,0:0:0:0:
388,168,45299,1,0,0:0:0:0:
124,168,45380,6,0,L|116:112,1,56,6|0,0:0|0:0,0:0:0:0:
204,80,45542,1,0,0:0:0:0:
116,80,45623,1,0,0:0:0:0:
292,80,45704,2,0,L|300:24,1,56,8|0,0:0|0:0,0:0:0:0:
212,24,45866,1,0,0:0:0:0:
432,24,45947,5,2,0:0:0:0:
452,80,46029,1,0,0:0:0:0:
432,136,46110,1,0,0:0:0:0:
344,164,46191,1,2,0:0:0:0:
432,164,46272,1,0,0:0:0:0:
256,192,46353,1,8,0:0:0:0:
168,192,46434,1,0,0:0:0:0:
344,220,46515,1,0,0:0:0:0:
432,220,46596,1,0,0:0:0:0:
160,360,46677,6,0,L|144:136,1,224,4|0,0:0|0:0,0:0:0:0:
368,168,47164,2,0,L|376:56,1,112,4|0,0:0|0:0,0:0:0:0:
156,24,47488,1,4,0:0:0:0:
472,24,47650,6,0,L|488:248,1,224,4|0,0:0|0:0,0:0:0:0:
264,80,48137,2,0,L|248:304,1,224,4|0,0:0|0:0,0:0:0:0:
24,136,48623,6,0,L|16:248,1,112,4|0,0:0|0:0,0:0:0:0:
192,216,48866,2,0,L|200:328,1,112,4|0,0:0|0:0,0:0:0:0:
24,360,49110,1,4,0:0:0:0:
400,328,49596,6,0,L|168:328,1,231.840006456116,4|0,0:0|0:0,0:0:0:0:
400,296,49839,1,0,0:0:0:0:
444,296,49880,1,0,0:0:0:0:
488,296,49920,6,0,L|496:184,1,112,4|0,0:0|0:0,0:0:0:0:
320,156,50164,2,0,L|312:44,1,112,4|0,0:0|0:0,0:0:0:0:
488,16,50407,1,4,0:0:0:0:
216,16,50731,5,0,3:0:0:0:
352,16,50812,1,0,3:0:0:0:
488,16,50893,1,4,3:0:0:0:
52,72,51218,1,0,0:3:0:0:
328,100,51380,1,4,0:3:0:0:
184,100,51542,1,0,0:3:0:0:
460,128,51704,1,4,0:3:0:0:
52,160,52191,6,0,L|464:160,1,411.600003925324,4|0,0:0|0:0,0:0:0:0:
320,192,52515,2,0,L|312:304,1,112,4|0,0:0|0:0,0:0:0:0:
168,336,52839,1,0,0:3:0:0:
16,336,52920,1,0,0:3:0:0:
168,336,53002,1,4,0:3:0:0:
488,336,53164,6,0,L|496:224,1,112,4|0,0:0|0:0,0:0:0:0:
320,288,53407,2,0,L|312:176,1,112,4|0,0:0|0:0,0:0:0:0:
24,240,53650,6,0,L|16:128,1,112,4|0,0:0|0:0,0:0:0:0:
192,192,53893,2,0,L|200:80,1,112,4|0,0:0|0:0,0:0:0:0:
376,48,54137,6,0,L|320:48,1,56,4|0,0:0|0:0,0:0:0:0:
80,48,54299,2,0,L|24:48,1,56,4|0,0:0|0:0,0:0:0:0:
200,80,54461,6,0,L|431:80,1,231.840006456116,4|0,0:0|0:0,0:0:0:0:
264,112,54704,2,0,L|256:224,1,112,4|0,0:0|0:0,0:0:0:0:
92,160,54947,2,0,L|84:272,1,112,4|0,0:0|0:0,0:0:0:0:
316,272,55191,6,0,L|84:272,1,231.840006456116,4|0,0:0|0:0,0:0:0:0:
316,304,55434,2,0,L|372:304,1,56,4|0,0:0|0:0,0:0:0:0:
196,336,55596,2,0,L|140:336,1,56,4|0,0:0|0:0,0:0:0:0:
392,364,55758,5,4,0:0:0:0:
412,308,55839,1,0,0:0:0:0:
392,252,55920,1,4,0:0:0:0:
340,220,56001,1,0,0:0:0:0:
120,220,56083,1,4,0:0:0:0:
100,164,56164,1,0,0:0:0:0:
120,108,56245,1,4,0:0:0:0:
172,76,56326,1,0,0:0:0:0:
388,76,56407,6,0,L|444:76,1,56,4|0,3:0|3:0,3:0:0:0:
212,76,56569,2,0,L|156:76,1,56,4|0,3:0|3:0,3:0:0:0:
356,44,56731,2,0,L|300:44,1,56,4|0,3:0|3:0,3:0:0:0:
68,44,56893,2,0,L|124:44,1,56,4|0,3:0|3:0,3:0:0:0:
336,16,57056,6,0,P|412:87|368:183,1,224,4|0,0:0|0:0,0:0:0:0:
256,152,57542,2,0,L|200:152,1,56
312,152,57704,6,0,P|356:247|280:319,1,224,8|0,0:0|0:0,0:0:0:0:
192,288,58137,1,0,0:0:0:0:
280,256,58245,1,0,0:0:0:0:
156,320,58353,6,0,P|80:247|124:152,1,224,2|0,0:0|0:0,0:0:0:0:
236,184,58839,2,0,L|180:184,1,56
68,184,59002,6,0,P|23:88|99:16,1,224,8|0,0:0|0:0,0:0:0:0:
184,48,59434,1,0,0:0:0:0:
100,80,59542,1,0,0:0:0:0:
224,15,59650,6,0,P|327:47|367:148,1,224,2|0,0:0|0:0,0:0:0:0:
256,180,60137,2,0,L|312:180,1,56
424,180,60299,6,0,P|383:280|280:312,1,224,8|0,0:0|0:0,0:0:0:0:
196,280,60731,1,0,0:0:0:0:
280,248,60839,1,0,0:0:0:0:
156,216,60947,6,0,P|52:247|12:348,1,224,2|0,0:0|0:0,0:0:0:0:
124,376,61434,2,0,L|180:376,1,56
68,348,61596,5,8,0:0:0:0:
48,292,61677,1,0,0:0:0:0:
68,236,61758,1,0,0:0:0:0:
120,204,61839,1,0,0:0:0:0:
232,172,61920,2,0,L|240:116,1,56
168,88,62083,2,0,L|160:32,1,56
356,64,62245,6,0,L|179:64,1,176.960004320313
292,96,62731,2,0,L|236:96,1,56
348,96,62893,6,0,P|393:190|318:263,1,224,8|0,0:0|0:0,0:0:0:0:
232,296,63326,1,0,0:0:0:0:
316,328,63434,1,0,0:0:0:0:
216,328,63542,6,0,L|392:328,1,176.960004320313,2|0,0:0|0:0,0:0:0:0:
280,360,64029,2,0,L|336:360,1,56
224,360,64191,5,8,0:0:0:0:
172,328,64272,1,0,0:0:0:0:
152,272,64353,1,0,0:0:0:0:
172,216,64434,1,0,0:0:0:0:
284,248,64515,1,0,0:0:0:0:
336,216,64596,1,0,0:0:0:0:
356,160,64677,1,0,0:0:0:0:
336,104,64758,1,0,0:0:0:0:
64,72,64839,6,0,P|19:166|94:239,1,224,2|0,0:0|0:0,0:0:0:0:
184,272,65272,1,0,0:0:0:0:
96,304,65380,1,0,0:0:0:0:
184,336,65488,1,8,0:0:0:0:
404,368,65812,1,0,0:0:0:0:
316,368,65920,1,0,0:0:0:0:
228,368,66029,1,0,0:0:0:0:
448,336,66137,6,0,P|493:242|418:169,1,224,2|0,0:0|0:0,0:0:0:0:
328,136,66569,1,0,0:0:0:0:
416,104,66677,1,0,0:0:0:0:
216,168,66785,5,0,3:0:0:0:
212,92,66893,1,0,3:0:0:0:
300,60,67002,1,0,3:0:0:0:
96,92,67110,1,0,3:0:0:0:
184,60,67218,1,0,3:0:0:0:
96,28,67326,1,0,3:0:0:0:
456,28,67434,6,0,P|409:213|220:180,1,420,4|0,0:0|0:0,0:0:0:0:
291,155,68731,2,0,P|103:122|55:307,1,420,2|0,0:0|0:0,0:0:0:0:
256,344,70029,6,0,B|352:340|464:268|516:12|252:-92|0:-28|-16:356|244:344|256:344,1,868,4|0,0:0|0:0,0:0:0:0:
456,344,72623,6,0,L|464:288,1,56,0|0,3:0|3:0,3:0:0:0:
256,260,72785,2,0,L|248:204,1,56,0|0,3:0|3:0,3:0:0:0:
416,172,72947,1,0,3:0:0:0:
344,172,73029,1,0,3:0:0:0:
168,172,73110,1,0,3:0:0:0:
96,172,73191,1,0,3:0:0:0:
248,204,73272,6,0,L|256:148,1,56,0|0,3:0|3:0,3:0:0:0:
48,116,73434,2,0,L|40:60,1,56,0|0,3:0|3:0,3:0:0:0:
200,28,73596,1,0,3:0:0:0:
272,28,73677,1,0,3:0:0:0:
64,28,73758,1,0,3:0:0:0:
136,28,73839,1,0,3:0:0:0:
408,28,73920,5,2,0:0:0:0:
256,192,74002,12,0,76353,0:0:0:0:
408,16,76515,6,0,P|512:186|407:356,1,420
312,356,77812,6,0,L|80:356,1,231.840006456116,6|0,0:0|0:0,0:0:0:0:
168,324,78056,1,0,0:0:0:0:
372,292,78137,1,8,0:0:0:0:
300,292,78218,1,0,0:0:0:0:
228,292,78299,1,0,0:0:0:0:
432,260,78380,6,0,L|440:204,1,56,2|0,0:0|0:0,0:0:0:0:
352,172,78542,1,0,0:0:0:0:
152,140,78623,2,0,L|144:84,1,56,2|0,0:0|0:0,0:0:0:0:
344,52,78785,1,8,0:0:0:0:
272,52,78866,1,0,0:0:0:0:
96,56,78947,1,0,0:0:0:0:
24,56,79029,1,0,0:0:0:0:
224,84,79110,6,0,L|336:84,2,112,2|0|8,0:0|0:0|0:0,0:0:0:0:
400,116,79596,1,0,0:0:0:0:
312,116,79677,6,0,L|308:172,1,56,2|0,0:0|0:0,0:0:0:0:
484,204,79920,1,2,0:0:0:0:
192,204,80083,2,0,P|150:271|201:331,1,168,8|0,0:0|0:0,0:0:0:0:
288,364,80407,6,0,L|56:364,1,231.840006456116,2|0,0:0|0:0,0:0:0:0:
288,332,80731,1,8,0:0:0:0:
144,332,80893,1,0,0:0:0:0:
344,296,80974,5,2,0:0:0:0:
416,296,81056,1,0,0:0:0:0:
344,296,81137,1,0,0:0:0:0:
144,296,81218,2,0,L|136:240,1,56,2|0,0:0|0:0,0:0:0:0:
312,208,81380,1,8,0:0:0:0:
384,208,81461,1,0,0:0:0:0:
312,176,81542,1,0,0:0:0:0:
240,176,81623,1,0,0:0:0:0:
416,144,81704,6,0,L|424:32,1,112,2|0,0:0|0:0,0:0:0:0:
212,64,81947,1,0,0:0:0:0:
300,64,82029,2,0,L|304:8,1,56,8|0,0:0|0:0,0:0:0:0:
92,96,82191,6,0,L|204:96,1,112
416,128,82434,1,0,0:0:0:0:
344,128,82515,1,2,0:0:0:0:
416,128,82596,1,0,0:0:0:0:
220,160,82677,6,0,L|212:216,1,56,8|0,0:0|0:0,0:0:0:0:
300,248,82839,2,0,L|308:304,1,56
108,336,83002,5,2,0:0:0:0:
56,304,83083,1,0,0:0:0:0:
36,248,83164,1,0,0:0:0:0:
56,192,83245,1,0,0:0:0:0:
256,224,83326,1,10,0:0:0:0:
184,224,83407,1,0,0:0:0:0:
256,192,83488,1,0,0:0:0:0:
184,192,83569,5,2,0:0:0:0:
384,224,83650,1,0,0:0:0:0:
436,192,83731,1,0,0:0:0:0:
456,136,83812,1,2,0:0:0:0:
436,80,83893,1,0,0:0:0:0:
256,112,83974,1,10,0:0:0:0:
328,112,84056,1,0,0:0:0:0:
256,80,84137,1,0,0:0:0:0:
328,80,84218,1,0,0:0:0:0:
128,144,84299,6,0,L|136:88,1,56,2|0,0:0|0:0,0:0:0:0:
224,112,84461,2,0,L|232:56,1,56
52,24,84623,1,10,0:0:0:0:
124,24,84704,1,0,0:0:0:0:
52,24,84785,1,0,0:0:0:0:
252,24,84866,5,2,0:0:0:0:
340,24,84947,2,0,L|344:80,1,56
140,112,85110,2,0,L|136:168,1,56,2|0,0:0|0:0,0:0:0:0:
316,200,85272,1,8,0:0:0:0:
244,200,85353,1,0,0:0:0:0:
316,232,85434,1,0,0:0:0:0:
244,232,85515,1,0,0:0:0:0:
472,200,85596,5,2,0:0:0:0:
492,256,85677,1,0,0:0:0:0:
472,312,85758,1,0,0:0:0:0:
420,344,85839,1,0,0:0:0:0:
220,376,85920,2,0,L|212:320,1,56,8|0,0:0|0:0,0:0:0:0:
300,288,86083,1,0,0:0:0:0:
100,288,86164,5,2,0:0:0:0:
28,288,86245,1,0,0:0:0:0:
100,288,86326,1,0,0:0:0:0:
300,288,86407,2,0,L|308:232,1,56,2|0,0:0|0:0,0:0:0:0:
108,200,86569,1,8,0:0:0:0:
180,200,86650,1,0,0:0:0:0:
252,200,86731,1,0,0:0:0:0:
324,200,86812,1,0,0:0:0:0:
124,232,86893,5,2,0:0:0:0:
72,200,86974,1,0,0:0:0:0:
52,144,87055,1,0,0:0:0:0:
72,88,87136,1,0,0:0:0:0:
272,56,87218,1,8,0:0:0:0:
344,56,87299,1,0,0:0:0:0:
272,56,87380,1,0,0:0:0:0:
472,88,87461,6,0,L|480:144,1,56,2|0,0:0|0:0,0:0:0:0:
392,176,87623,1,0,0:0:0:0:
192,208,87704,1,2,0:0:0:0:
264,208,87785,1,0,0:0:0:0:
64,240,87866,2,0,L|56:296,1,56,8|0,0:0|0:0,0:0:0:0:
144,328,88029,1,0,0:0:0:0:
56,328,88110,1,0,0:0:0:0:
144,360,88191,6,0,L|376:360,1,231.840006456116,6|0,0:0|0:0,0:0:0:0:
288,328,88434,1,0,0:0:0:0:
488,328,88515,2,0,L|496:272,1,56,8|0,0:0|0:0,0:0:0:0:
408,240,88677,1,0,0:0:0:0:
220,208,88758,5,2,0:0:0:0:
292,208,88839,1,0,0:0:0:0:
220,208,88920,1,0,0:0:0:0:
28,176,89002,2,0,L|20:120,1,56,2|0,0:0|0:0,0:0:0:0:
220,88,89164,1,8,0:0:0:0:
148,88,89245,1,0,0:0:0:0:
348,56,89326,1,0,0:0:0:0:
420,56,89407,1,0,0:0:0:0:
220,24,89488,6,0,L|212:136,1,112,2|0,0:0|0:0,0:0:0:0:
324,168,89812,1,8,0:0:0:0:
148,200,89974,1,0,0:0:0:0:
236,200,90056,6,0,L|240:256,1,56,2|0,0:0|0:0,0:0:0:0:
64,288,90299,1,2,0:0:0:0:
352,320,90461,2,0,L|220:320,1,132.720003240234,8|0,0:0|0:0,0:0:0:0:
132,352,90785,6,0,L|363:352,1,231.840006456116,2|0,0:0|0:0,0:0:0:0:
132,320,91110,1,8,0:0:0:0:
276,320,91272,1,0,0:0:0:0:
76,320,91353,6,0,L|68:264,1,56,2|0,0:0|0:0,0:0:0:0:
156,232,91515,1,0,0:0:0:0:
356,200,91596,2,0,L|364:144,1,56,2|0,0:0|0:0,0:0:0:0:
164,112,91758,1,8,0:0:0:0:
236,112,91839,1,0,0:0:0:0:
308,80,91920,1,0,0:0:0:0:
236,80,92002,1,0,0:0:0:0:
60,144,92083,6,0,L|52:32,1,112,2|0,0:0|0:0,0:0:0:0:
264,176,92326,1,0,0:0:0:0:
176,176,92407,2,0,L|172:120,1,56,8|0,0:0|0:0,0:0:0:0:
384,204,92569,6,0,L|272:204,1,112
448,236,92812,1,0,0:0:0:0:
376,236,92893,1,2,0:0:0:0:
448,236,92974,1,0,0:0:0:0:
244,268,93056,5,8,0:0:0:0:
316,268,93137,1,0,0:0:0:0:
388,268,93218,1,0,0:0:0:0:
460,268,93299,1,0,0:0:0:0:
204,300,93380,6,0,L|212:244,1,56,2|0,0:0|0:0,0:0:0:0:
300,216,93542,2,0,L|308:160,1,56
108,128,93704,1,10,0:0:0:0:
180,128,93785,1,0,0:0:0:0:
108,96,93866,1,0,0:0:0:0:
180,96,93947,5,2,0:0:0:0:
384,164,94029,2,0,L|376:108,1,56
288,76,94191,2,0,L|280:20,1,56,2|0,0:0|0:0,0:0:0:0:
480,52,94353,1,10,0:0:0:0:
408,52,94434,1,0,0:0:0:0:
480,20,94515,1,0,0:0:0:0:
408,20,94596,1,0,0:0:0:0:
212,20,94677,6,0,L|204:76,1,56,2|0,0:0|0:0,0:0:0:0:
276,108,94839,1,0,0:0:0:0:
204,108,94920,1,0,0:0:0:0:
404,140,95002,1,10,0:0:0:0:
332,140,95083,1,0,0:0:0:0:
404,140,95164,1,0,0:0:0:0:
204,172,95245,5,2,0:0:0:0:
116,172,95326,2,0,L|112:228,1,56
312,260,95488,2,0,L|320:316,1,56,2|0,0:0|0:0,0:0:0:0:
148,348,95650,1,8,0:0:0:0:
220,348,95731,1,0,0:0:0:0:
292,316,95812,1,0,0:0:0:0:
220,316,95893,1,0,0:0:0:0:
20,316,95974,5,6,0:0:0:0:
0,260,96055,1,0,0:0:0:0:
20,204,96136,1,0,0:0:0:0:
72,172,96217,1,0,0:0:0:0:
276,140,96299,1,8,0:0:0:0:
204,140,96380,1,0,0:0:0:0:
132,140,96461,1,0,0:0:0:0:
332,108,96542,5,2,0:0:0:0:
404,108,96623,1,0,0:0:0:0:
332,108,96704,1,0,0:0:0:0:
132,108,96785,2,0,L|124:52,1,56,2|0,0:0|0:0,0:0:0:0:
324,24,96947,1,8,0:0:0:0:
252,24,97029,1,0,0:0:0:0:
180,24,97110,1,0,0:0:0:0:
108,24,97191,1,0,0:0:0:0:
332,52,97272,6,0,L|340:108,1,56,6|0,0:0|0:0,0:0:0:0:
268,140,97434,1,0,0:0:0:0:
340,140,97515,1,0,0:0:0:0:
140,172,97596,1,8,0:0:0:0:
212,172,97677,1,0,0:0:0:0:
284,172,97758,1,0,0:0:0:0:
84,204,97839,6,0,L|76:260,1,56,2|0,0:0|0:0,0:0:0:0:
96,292,97974,1,0,0:0:0:0:
140,292,98029,1,0,0:0:0:0:
284,292,98083,1,2,0:0:0:0:
328,292,98137,1,0,0:0:0:0:
284,292,98191,1,0,0:0:0:0:
484,260,98245,1,8,0:0:0:0:
496,228,98299,1,0,0:0:0:0:
372,196,98353,1,0,0:0:0:0:
372,164,98407,1,0,0:0:0:0:
252,132,98461,1,0,0:0:0:0:
240,100,98515,1,0,0:0:0:0:
404,320,98569,6,0,P|500:138|335:16,1,448,6|8,0:0|0:0,0:0:0:0:
80,16,99704,1,2,0:0:0:0:
256,16,99866,6,0,L|264:128,1,112,2|0,0:0|0:0,0:0:0:0:
152,160,100110,2,0,L|144:272,1,112,2|0,0:0|0:0,0:0:0:0:
256,304,100353,1,2,0:0:0:0:
32,304,100515,1,8,0:0:0:0:
256,332,100839,2,0,L|144:332,1,112
320,304,101164,6,0,P|364:208|288:136,1,224,2|0,0:0|0:0,0:0:0:0:
176,104,101650,1,0,0:0:0:0:
248,104,101731,1,0,0:0:0:0:
484,104,101812,1,8,0:0:0:0:
368,72,102218,6,0,L|424:72,2,56,0|2|2,0:0|0:0|0:0,0:0:0:0:
256,40,102461,2,0,L|248:152,1,112,2|0,0:0|0:0,0:0:0:0:
360,184,102704,2,0,L|368:296,1,112,2|0,0:0|0:0,0:0:0:0:
256,328,102947,1,2,0:0:0:0:
488,328,103110,2,0,L|496:216,1,112,8|0,0:0|0:0,0:0:0:0:
320,184,103434,2,0,L|432:184,1,112,2|0,0:0|0:0,0:0:0:0:
256,216,103758,6,0,P|180:143|224:48,1,224,2|0,0:0|0:0,0:0:0:0:
336,16,104245,1,0,0:0:0:0:
264,16,104326,1,0,0:0:0:0:
28,16,104407,1,8,0:0:0:0:
256,48,104934,5,2,0:0:0:0:
288,48,104974,1,2,0:0:0:0:
320,48,105015,1,2,0:0:0:0:
352,48,105056,2,0,L|360:160,1,112,2|0,0:0|0:0,0:0:0:0:
248,192,105299,2,0,L|192:192,2,56,2|0|0,0:0|0:0|0:0,0:0:0:0:
360,224,105542,1,2,0:0:0:0:
128,224,105704,2,0,L|16:224,1,112,8|0,0:0|0:0,0:0:0:0:
192,256,106029,2,0,L|80:256,1,112,2|0,0:0|0:0,0:0:0:0:
256,288,106353,6,0,P|299:192|223:120,1,224,2|0,0:0|0:0,0:0:0:0:
112,88,106839,1,0,0:0:0:0:
184,88,106920,1,0,0:0:0:0:
424,88,107002,1,8,0:0:0:0:
208,56,107407,6,0,L|200:112,1,56,2|0,0:0|0:0,0:0:0:0:
312,144,107569,2,0,L|320:200,1,56,2|0,0:0|0:0,0:0:0:0:
120,232,107731,1,2,0:0:0:0:
256,196,107893,1,2,0:0:0:0:
308,228,107974,1,0,0:0:0:0:
328,284,108055,1,0,0:0:0:0:
308,340,108136,1,0,0:0:0:0:
256,372,108218,1,0,0:0:0:0:
456,340,108299,6,0,L|464:284,1,56,8|0,3:0|3:0,3:0:0:0:
376,252,108461,1,0,3:0:0:0:
464,252,108542,1,0,3:0:0:0:
264,220,108623,2,0,L|256:164,1,56,0|0,3:0|3:0,3:0:0:0:
456,132,108785,1,0,3:0:0:0:
384,132,108866,1,0,3:0:0:0:
108,320,108947,6,0,P|12:138|177:16,1,448,4|2,0:0|0:0,0:0:0:0:
336,16,109920,1,0,0:0:0:0:
88,48,110245,6,0,L|80:272,1,224,2|0,0:0|0:0,0:0:0:0:
176,272,110731,1,0,0:0:0:0:
272,272,110893,1,2,0:0:0:0:
96,304,111218,1,8,0:0:0:0:
272,304,111380,1,8,0:0:0:0:
176,336,111542,6,0,P|97:201|212:96,1,336,2|0,0:0|0:0,0:0:0:0:
388,304,112191,2,0,B|396:80|396:80|400:192,1,336,2|0,0:0|0:0,0:0:0:0:
224,272,112839,6,0,B|216:48|216:48|212:160,1,336,2|0,0:0|0:0,0:0:0:0:
388,240,113488,2,0,P|467:105|352:0,1,336,2|0,0:0|0:0,0:0:0:0:
104,0,114137,6,0,B|96:224|96:224|88:0|88:0|80:224|80:224|76:112,1,784,6|0,0:0|0:0,0:0:0:0:
252,80,115434,2,0,B|260:304|260:304|264:192,1,336,2|0,0:0|0:0,0:0:0:0:
440,160,116083,2,0,L|432:384,1,224,2|8,0:0|0:0,0:0:0:0:
256,352,116569,1,8,0:0:0:0:
488,316,116731,6,0,L|256:316,2,231.84000035376,6|2|2,0:0|0:0|0:0,0:0:0:0:
104,352,118029,2,0,P|0:182|105:12,1,420,6|0,0:0|0:0,0:0:0:0:
300,12,119326,6,0,L|412:12,1,112,6|0,0:0|0:0,0:0:0:0:
212,44,119569,1,0,0:0:0:0:
300,44,119650,2,0,L|304:100,1,56,8|0,0:0|0:0,0:0:0:0:
96,132,119812,6,0,L|88:244,1,112,0|2,0:0|0:0,0:0:0:0:
292,276,120056,1,0,0:0:0:0:
364,276,120137,1,2,0:0:0:0:
292,276,120218,1,0,0:0:0:0:
492,308,120299,6,0,L|496:252,1,56,8|0,0:0|0:0,0:0:0:0:
320,220,120461,1,0,0:0:0:0:
392,220,120542,1,0,0:0:0:0:
216,188,120623,6,0,L|212:132,1,56,2|0,0:0|0:0,0:0:0:0:
300,100,120785,2,0,L|296:44,1,56
96,248,120947,2,0,L|92:192,1,56,8|0,0:0|0:0,0:0:0:0:
180,160,121110,1,0,0:0:0:0:
92,160,121191,1,0,0:0:0:0:
296,316,121272,6,0,L|300:260,1,56,2|0,0:0|0:0,0:0:0:0:
212,228,121434,2,0,L|216:172,1,56,2|0,0:0|0:0,0:0:0:0:
416,348,121596,1,8,0:0:0:0:
344,348,121677,1,0,0:0:0:0:
272,348,121758,1,0,0:0:0:0:
200,348,121839,1,0,0:0:0:0:
416,316,121920,6,0,L|424:204,1,112,2|0,0:0|0:0,0:0:0:0:
220,172,122164,1,0,0:0:0:0:
292,172,122245,1,8,0:0:0:0:
220,172,122326,1,0,0:0:0:0:
28,140,122407,6,0,L|140:140,1,112,0|2,0:0|0:0,0:0:0:0:
340,108,122650,2,0,L|344:52,1,56,0|2,0:0|0:0,0:0:0:0:
256,24,122812,1,0,0:0:0:0:
20,24,122893,6,0,L|16:80,1,56,8|0,0:0|0:0,0:0:0:0:
192,112,123055,1,0,0:0:0:0:
120,112,123136,1,0,0:0:0:0:
304,140,123218,6,0,L|416:140,2,112,2|0|8,0:0|0:0|0:0,0:0:0:0:
480,172,123704,2,0,L|484:228,1,56
256,260,123866,5,2,0:0:0:0:
184,260,123947,1,0,0:0:0:0:
256,292,124029,1,2,0:0:0:0:
328,292,124110,1,0,0:0:0:0:
100,324,124191,1,8,0:0:0:0:
96,296,124232,1,0,0:0:0:0:
92,268,124272,1,0,0:0:0:0:
256,236,124353,1,8,0:0:0:0:
256,208,124394,1,0,0:0:0:0:
256,180,124434,1,0,0:0:0:0:
420,148,124515,5,2,0:0:0:0:
492,148,124596,1,0,0:0:0:0:
420,148,124677,1,0,0:0:0:0:
212,148,124758,1,2,0:0:0:0:
300,148,124839,2,0,L|304:92,1,56,8|0,0:0|0:0,0:0:0:0:
92,92,125002,5,2,0:0:0:0:
20,92,125083,1,0,0:0:0:0:
92,92,125164,1,2,0:0:0:0:
328,60,125245,1,2,0:0:0:0:
256,60,125326,1,2,0:0:0:0:
184,60,125407,1,0,0:0:0:0:
420,60,125488,5,8,0:0:0:0:
472,92,125569,1,0,0:0:0:0:
492,148,125650,1,0,0:0:0:0:
472,204,125731,1,0,0:0:0:0:
256,236,125812,5,2,0:0:0:0:
184,236,125893,1,0,0:0:0:0:
256,236,125974,1,0,0:0:0:0:
472,268,126056,1,2,0:0:0:0:
400,268,126137,1,8,0:0:0:0:
328,268,126218,1,0,0:0:0:0:
184,268,126299,5,2,0:0:0:0:
112,268,126380,1,0,0:0:0:0:
40,268,126461,1,2,0:0:0:0:
256,236,126542,1,2,0:0:0:0:
328,236,126623,1,2,0:0:0:0:
256,236,126704,1,0,0:0:0:0:
32,204,126785,5,8,0:0:0:0:
24,176,126826,1,0,0:0:0:0:
32,148,126866,1,0,0:0:0:0:
120,116,126947,1,0,0:0:0:0:
88,116,126988,1,0,0:0:0:0:
56,116,127029,1,0,0:0:0:0:
356,84,127110,5,2,0:0:0:0:
428,84,127191,1,0,0:0:0:0:
356,84,127272,1,0,0:0:0:0:
156,84,127353,1,2,0:0:0:0:
84,84,127434,1,8,0:0:0:0:
156,84,127515,1,0,0:0:0:0:
356,52,127596,5,2,0:0:0:0:
284,52,127677,1,0,0:0:0:0:
484,52,127758,1,2,0:0:0:0:
284,52,127839,1,2,0:0:0:0:
212,52,127920,1,2,0:0:0:0:
284,52,128002,1,0,0:0:0:0:
484,52,128083,5,8,0:0:0:0:
492,80,128123,1,0,0:0:0:0:
484,108,128164,1,0,0:0:0:0:
340,140,128245,1,8,0:0:0:0:
372,140,128285,1,0,0:0:0:0:
404,140,128326,1,0,0:0:0:0:
256,172,128407,6,0,L|24:172,1,231.840006456116,4|0,0:0|0:0,0:0:0:0:
256,204,128650,2,0,L|144:204,1,112,4|0,0:0|0:0,0:0:0:0:
376,236,128893,2,0,L|488:236,1,112,4|0,0:0|0:0,0:0:0:0:
256,268,129137,6,0,L|487:268,1,231.840006456116,4|0,0:0|0:0,0:0:0:0:
256,300,129380,1,4,0:0:0:0:
184,300,129461,1,0,0:0:0:0:
416,300,129542,1,4,0:0:0:0:
488,300,129623,1,0,0:0:0:0:
416,332,129704,6,0,L|184:332,1,231.840006456116,6|0,0:0|0:0,0:0:0:0:
272,364,129947,1,0,0:0:0:0:
96,332,130029,2,0,L|104:276,1,56,8|0,0:0|0:0,0:0:0:0:
192,244,130191,2,0,L|200:188,1,56
24,156,130353,6,0,L|136:156,1,112,2|2,0:0|0:0,0:0:0:0:
48,124,130596,1,0,0:0:0:0:
308,156,130677,2,0,L|300:100,1,56,8|0,0:0|0:0,0:0:0:0:
100,68,130839,2,0,L|92:12,1,56
356,12,131002,6,0,L|468:12,1,112,2|0,0:0|0:0,0:0:0:0:
292,44,131245,1,0,0:0:0:0:
220,44,131326,1,8,0:0:0:0:
292,44,131407,1,0,0:0:0:0:
468,44,131488,2,0,L|476:100,1,56
220,132,131650,6,0,L|212:244,1,112,2|2,0:0|0:0,0:0:0:0:
388,276,131893,1,0,0:0:0:0:
300,276,131974,2,0,L|296:332,1,56,8|0,0:0|0:0,0:0:0:0:
468,364,132137,2,0,L|476:308,1,56
388,276,132299,6,0,L|156:276,1,231.840006456116,6|0,0:0|0:0,0:0:0:0:
68,244,132542,1,0,0:0:0:0:
292,244,132623,2,0,L|300:188,1,56,8|0,0:0|0:0,0:0:0:0:
212,156,132785,2,0,L|204:100,1,56
428,156,132947,6,0,L|436:100,1,56,2|0,0:0|0:0,0:0:0:0:
348,68,133110,1,2,0:0:0:0:
436,68,133191,1,0,0:0:0:0:
256,68,133272,1,8,0:0:0:0:
168,68,133353,1,0,0:0:0:0:
256,36,133434,1,0,0:0:0:0:
168,36,133515,1,0,0:0:0:0:
256,36,133596,6,0,L|487:36,1,231.840006456116,6|0,0:0|0:0,0:0:0:0:
212,68,133839,1,0,0:0:0:0:
300,68,133920,2,0,L|304:124,1,56,8|0,0:0|0:0,0:0:0:0:
96,156,134083,1,0,0:0:0:0:
24,156,134164,1,0,0:0:0:0:
212,156,134245,6,0,P|226:237|199:316,1,168,2|0,0:0|0:0,0:0:0:0:
112,348,134569,1,8,0:0:0:0:
144,348,134610,1,0,0:0:0:0:
176,348,134650,1,0,0:0:0:0:
336,348,134731,1,8,0:0:0:0:
368,348,134771,1,0,0:0:0:0:
400,348,134812,1,0,0:0:0:0:
216,348,134893,6,0,L|208:236,1,112,4|0,0:0|0:0,0:0:0:0:
304,204,135137,2,0,L|72:204,1,231.840006456116,4|0,0:0|0:0,0:0:0:0:
304,204,135380,6,0,L|312:92,1,112,4|0,0:0|0:0,0:0:0:0:
216,60,135623,2,0,L|447:60,1,231.840006456116,4|0,0:0|0:0,0:0:0:0:
264,28,135866,5,4,0:0:0:0:
192,28,135947,1,0,0:0:0:0:
424,28,136029,1,4,0:0:0:0:
496,28,136110,1,0,0:0:0:0:
424,28,136191,6,0,L|192:28,1,231.840006456116,4|0,0:0|0:0,0:0:0:0:
496,60,136434,2,0,L|264:60,1,231.840006456116,4|0,0:0|0:0,0:0:0:0:
88,92,136677,6,0,L|320:92,1,231.840006456116,4|0,0:0|0:0,0:0:0:0:
16,124,136920,2,0,L|248:124,1,231.840006456116,4|0,0:0|0:0,0:0:0:0:
496,156,137164,5,4,0:0:0:0:
424,156,137245,1,0,0:0:0:0:
184,156,137326,1,4,0:0:0:0:
112,156,137407,1,0,0:0:0:0:
328,156,137488,5,6,3:0:0:0:
400,156,137569,1,0,3:0:0:0:
328,156,137650,1,0,3:0:0:0:
184,188,137731,1,4,3:0:0:0:
328,188,137812,1,8,3:0:0:0:
256,188,137893,1,0,3:0:0:0:
112,188,137974,1,4,3:0:0:0:
40,188,138056,1,0,3:0:0:0:
256,220,138137,5,6,3:0:0:0:
184,220,138218,1,0,3:0:0:0:
256,220,138299,1,0,3:0:0:0:
400,252,138380,1,4,3:0:0:0:
256,252,138461,1,8,3:0:0:0:
328,252,138542,1,0,3:0:0:0:
472,284,138623,1,4,3:0:0:0:
400,284,138704,1,0,3:0:0:0:
39,315,138785,6,0,P|256:43|472:316,1,797.999978691102,4|0,0:0|0:0,0:0:0:0:
39,315,140083,1,4,0:0:0:0:
256,312,141380,5,2,0:0:0:0:
340,276,141542,1,0,0:0:0:0:
372,192,141704,1,2,0:0:0:0:
340,108,141867,1,0,0:0:0:0:
256,72,142029,1,2,0:0:0:0:
172,108,142191,1,0,0:0:0:0:
140,192,142354,1,2,0:0:0:0:
172,276,142516,1,0,0:0:0:0:
256,312,142677,5,2,0:0:0:0:
264,284,142839,1,0,0:0:0:0:
172,252,143002,1,2,0:0:0:0:
180,220,143164,1,0,0:0:0:0:
272,188,143326,1,2,0:0:0:0:
264,156,143488,1,0,0:0:0:0:
356,124,143650,1,2,0:0:0:0:
348,92,143812,1,0,0:0:0:0:
256,60,143974,5,2,0:0:0:0:
340,60,144137,1,0,0:0:0:0:
252,92,144299,1,2,0:0:0:0:
336,92,144461,1,0,0:0:0:0:
428,124,144623,1,2,0:0:0:0:
344,124,144786,1,0,0:0:0:0:
432,156,144948,1,2,0:0:0:0:
348,156,145110,1,0,0:0:0:0:
256,192,145272,5,0,0:0:0:0:
248,224,145353,1,0,0:0:0:0:
256,256,145434,1,0,0:0:0:0:
248,288,145515,1,0,0:0:0:0:
320,320,145596,5,2,0:0:0:0:
256,192,145677,12,0,147866,0:0:0:0:
