osu file format v14

[General]
AudioFilename: audio.mp3
AudioLeadIn: 0
PreviewTime: 77812
Countdown: 0
SampleSet: Normal
StackLeniency: 0.7
Mode: 2
LetterboxInBreaks: 0
EpilepsyWarning: 1
WidescreenStoryboard: 0

[Editor]
DistanceSpacing: 0.8
BeatDivisor: 4
GridSize: 32
TimelineZoom: 2.899999

[Metadata]
Title:ouroVoros
TitleUnicode:ouroVoros
Artist:Negentropy (a.k.a. Team Grimoire)
ArtistUnicode:Negentropy (a.k.a. Team Grimoire)
Creator:autofanboy
Version:jemzuu's rain
Source:
Tags:BMS BOFU2017 OF FIGHTERS ULTIMATE 2017 LEGENDA EST A MYTH Employ “Zero-Origin” Zero Origin Symphonic Roar teamgrimoire Λögeln Aogeln CHAOS MAGNVM Muse Dash Give Up TREATMENT Vol.4 Groove Coaster Hardcore Gothic Video Game Instrumental Electronic Ouroboros Cycle alienflybot AFB Razor Sharp Arthas IDu5t IDust Jemzuu AJamez Daletto salchow
BeatmapID:2283964
BeatmapSetID:1087679

[Difficulty]
HPDrainRate:5
CircleSize:3.8
OverallDifficulty:9
ApproachRate:9
SliderMultiplier:1.8
SliderTickRate:2

[Events]
//Background and Video events
0,0,"Meeting with Shade_DaisanART.jpg",0,0
Video,-295,"video.mp4"
//Break Periods
2,5812,9753
2,11002,13646
2,16229,17537
2,109147,110780
2,111742,113537
2,114337,115807
2,116931,118726
//Storyboard Layer 0 (Background)
//Storyboard Layer 1 (Fail)
//Storyboard Layer 2 (Pass)
//Storyboard Layer 3 (Foreground)
//Storyboard Layer 4 (Overlay)
//Storyboard Sound Samples

[TimingPoints]
-25,324.324324324324,4,1,1,70,1,0
5163,-66.6666666666667,4,1,1,70,0,0
5812,-100,4,1,10,40,0,0
10353,-66.6666666666667,4,1,1,70,0,0
11002,-100,4,1,10,40,0,0
14245,-100,4,1,1,40,0,0
14569,-100,4,1,1,42,0,0
14893,-100,4,1,1,44,0,0
15218,-100,4,1,1,46,0,0
15542,-100,4,1,1,48,0,0
15866,-100,4,1,1,10,0,0
16029,-100,4,1,1,50,0,0
18137,-100,4,1,1,50,0,0
18461,-100,4,1,1,10,0,0
18623,-100,4,1,1,50,0,0
18947,-100,4,1,1,50,0,0
19272,-100,4,1,1,10,0,0
19434,-100,4,1,1,50,0,0
21218,-100,4,1,1,52,0,0
21542,-100,4,1,1,54,0,0
22029,-100,4,1,1,56,0,0
22515,-100,4,1,1,58,0,0
22839,-100,4,1,1,60,0,0
23326,-100,4,1,1,50,0,0
23974,-100,4,1,1,52,0,0
24623,-100,4,1,1,54,0,0
25272,-100,4,1,1,56,0,0
25515,-100,4,1,1,58,0,0
25758,-100,4,1,1,60,0,0
25920,-100,4,1,1,70,0,1
26164,-100,4,1,1,10,0,1
26245,-100,4,1,1,70,0,1
26407,-100,4,1,1,10,0,1
26488,-100,4,1,1,70,0,1
28758,-100,4,1,1,10,0,1
28839,-100,4,1,1,70,0,1
29812,-100,4,1,1,70,0,1
29974,-100,4,1,1,50,0,1
30056,-100,4,1,1,70,0,1
31029,-100,4,1,1,10,0,1
31110,-100,4,1,1,70,0,1
31272,-100,4,1,1,10,0,1
31353,-100,4,1,1,70,0,1
35002,-100,4,1,1,70,0,0
36664,-100,4,1,1,30,0,0
36704,-100,4,1,1,25,0,0
36745,-100,4,1,1,20,0,0
36785,-100,4,1,1,15,0,0
36826,-100,4,1,1,10,0,0
36866,-100,4,1,1,70,0,0
36947,-100,4,1,1,70,0,1
38893,-100,4,1,1,70,0,1
39056,-100,4,1,1,10,0,1
39137,-100,4,1,1,70,0,1
41407,-100,4,1,1,10,0,1
41488,-100,4,1,1,70,0,1
41650,-100,4,1,1,10,0,1
41731,-100,4,1,1,70,0,1
46677,-100,4,1,1,70,0,0
47002,-100,4,1,1,10,0,0
47164,-100,4,1,1,70,0,0
47326,-100,4,1,1,10,0,0
47488,-100,4,1,1,70,0,0
47974,-100,4,1,1,10,0,0
48137,-100,4,1,1,70,0,0
48461,-100,4,1,1,10,0,0
48623,-100,4,1,1,70,0,0
48785,-100,4,1,1,10,0,0
48866,-100,4,1,1,70,0,0
49029,-100,4,1,1,10,0,0
49110,-100,4,1,1,70,0,0
49596,-100,4,1,1,70,0,0
49758,-100,4,1,1,10,0,0
49839,-100,4,1,1,70,0,0
50083,-100,4,1,1,10,0,0
50164,-100,4,1,1,70,0,0
50326,-100,4,1,1,10,0,0
50407,-100,4,1,1,70,0,0
52191,-100,4,1,1,70,0,0
52434,-100,4,1,1,10,0,0
52515,-100,4,1,1,70,0,0
53326,-100,4,1,1,10,0,0
53407,-100,4,1,1,70,0,0
53569,-100,4,1,1,10,0,0
53650,-100,4,1,1,70,0,0
53812,-100,4,1,1,10,0,0
53893,-100,4,1,1,70,0,0
54056,-100,4,1,1,10,0,0
54137,-100,4,1,1,70,0,0
54218,-100,4,1,1,10,0,0
54299,-100,4,1,1,70,0,0
54380,-100,4,1,1,10,0,0
54461,-100,4,1,1,70,0,0
54623,-100,4,1,1,10,0,0
54704,-100,4,1,1,70,0,0
54866,-100,4,1,1,10,0,0
54947,-100,4,1,1,70,0,0
55110,-100,4,1,1,10,0,0
55191,-100,4,1,1,70,0,0
55353,-100,4,1,1,10,0,0
55434,-100,4,1,1,70,0,0
55515,-100,4,1,1,10,0,0
55596,-100,4,1,1,70,0,0
55677,-100,4,1,1,10,0,0
55758,-100,4,1,1,70,0,0
57056,-100,4,1,1,40,0,0
62245,-100,4,1,1,40,0,0
62731,-100,4,1,1,40,0,0
63542,-100,4,1,1,40,0,0
64029,-100,4,1,1,40,0,0
67434,-100,4,1,1,40,0,0
68650,-100,4,1,1,10,0,0
68731,-100,4,1,1,40,0,0
69947,-100,4,1,1,10,0,0
70029,-100,4,1,1,40,0,0
72542,-100,4,1,1,10,0,0
72623,-100,4,1,1,70,0,0
73920,-28.5714285714286,4,1,1,70,0,0
74002,-100,4,2,66,30,0,0
76515,-100,4,1,66,40,0,0
76677,-100,4,1,1,20,0,0
77812,-100,4,1,1,70,0,1
77974,-100,4,1,1,10,0,1
78056,-100,4,1,1,70,0,1
80326,-100,4,1,1,10,0,1
80407,-100,4,1,1,70,0,1
80731,-100,4,1,1,70,0,1
83326,-100,4,1,2,40,0,1
83407,-100,4,1,1,70,0,1
83974,-100,4,1,2,40,0,1
84056,-100,4,1,1,70,0,1
84623,-100,4,1,2,40,0,1
84704,-100,4,1,1,70,0,1
87866,-100,4,1,1,70,0,0
88191,-100,4,1,1,70,0,1
88353,-100,4,1,1,10,0,1
88434,-100,4,1,1,70,0,1
90461,-100,4,1,1,70,0,1
90704,-100,4,1,1,10,0,1
90785,-100,4,1,1,70,0,1
91110,-100,4,1,1,70,0,1
93704,-100,4,1,2,40,0,1
93785,-100,4,1,1,70,0,1
94353,-100,4,1,2,40,0,1
94434,-100,4,1,1,70,0,1
95002,-100,4,1,2,40,0,1
95083,-100,4,1,1,70,0,1
95974,-100,4,1,1,75,0,1
97272,-100,4,1,1,80,0,1
98461,-100,4,1,1,80,0,0
98569,-100,4,1,1,80,0,1
98731,-100,4,1,1,40,0,0
100029,-100,4,1,1,10,0,0
100110,-100,4,1,1,40,0,0
100272,-100,4,1,1,10,0,0
100353,-100,4,1,1,40,0,0
102623,-100,4,1,1,10,0,0
102704,-100,4,1,1,40,0,0
102866,-100,4,1,1,10,0,0
102947,-100,4,1,1,40,0,0
105218,-100,4,1,1,10,0,0
105299,-100,4,1,1,40,0,0
105461,-100,4,1,1,20,0,0
105542,-100,4,1,1,40,0,0
109110,-100,4,1,1,20,0,0
111542,-100,4,1,1,22,0,0
112029,-100,4,1,1,10,0,0
112191,-100,4,1,1,24,0,0
112677,-100,4,1,1,10,0,0
112839,-100,4,1,1,26,0,0
113326,-100,4,1,1,10,0,0
113488,-100,4,1,1,28,0,0
113974,-100,4,1,1,10,0,0
114137,-100,4,1,1,30,0,0
115272,-100,4,1,1,10,0,0
115434,-100,4,1,1,32,0,0
115920,-100,4,1,1,10,0,0
116083,-100,4,1,1,34,0,0
116407,-100,4,1,1,36,0,0
116731,-100,4,1,1,38,0,0
118029,-100,4,1,1,40,0,0
119245,-100,4,1,1,10,0,0
119326,-100,4,1,1,70,0,1
124515,-100,4,1,2,40,0,1
124596,-100,4,1,1,70,0,1
124758,-100,4,1,2,40,0,1
124839,-100,4,1,1,70,0,1
125002,-100,4,1,2,40,0,1
125083,-100,4,1,1,70,0,1
125245,-100,4,1,2,40,0,1
125326,-100,4,1,1,70,0,1
125812,-100,4,1,2,40,0,1
125893,-100,4,1,1,70,0,1
126056,-100,4,1,2,40,0,1
126137,-100,4,1,1,70,0,1
126299,-100,4,1,2,40,0,1
126380,-100,4,1,1,70,0,1
126542,-100,4,1,2,40,0,1
126623,-100,4,1,1,70,0,1
127110,-100,4,1,2,40,0,1
127191,-100,4,1,1,70,0,1
127353,-100,4,1,2,40,0,1
127434,-100,4,1,1,70,0,1
127596,-100,4,1,2,40,0,1
127677,-100,4,1,1,70,0,1
127839,-100,4,1,2,40,0,1
127920,-100,4,1,1,70,0,1
128407,-100,4,1,1,70,0,1
128569,-100,4,1,1,10,0,1
128650,-100,4,1,1,70,0,1
128812,-100,4,1,1,10,0,1
128893,-100,4,1,1,70,0,1
129056,-100,4,1,1,10,0,1
129137,-100,4,1,1,70,0,1
129299,-100,4,1,1,10,0,1
129380,-100,4,1,1,70,0,1
129461,-100,4,1,1,10,0,1
129542,-100,4,1,1,70,0,1
129623,-100,4,1,1,10,0,1
129704,-100,4,1,1,75,0,1
129866,-100,4,1,1,10,0,1
129947,-100,4,1,1,75,0,1
132299,-100,4,1,1,80,0,1
132461,-100,4,1,1,10,0,1
132542,-100,4,1,1,80,0,1
133596,-100,4,1,1,85,0,1
133758,-100,4,1,1,10,0,1
133839,-100,4,1,1,85,0,1
134488,-100,4,1,1,10,0,1
134569,-100,4,1,1,85,0,1
135056,-100,4,1,1,10,0,1
135137,-100,4,1,1,85,0,1
135299,-100,4,1,1,10,0,1
135380,-100,4,1,1,85,0,1
135542,-100,4,1,1,10,0,1
135623,-100,4,1,1,85,0,1
135785,-100,4,1,1,10,0,1
135866,-100,4,1,1,85,0,1
135947,-100,4,1,1,10,0,1
136029,-100,4,1,1,85,0,1
136110,-100,4,1,1,10,0,1
136191,-100,4,1,1,85,0,1
136353,-100,4,1,1,10,0,1
136434,-100,4,1,1,85,0,1
136596,-100,4,1,1,10,0,1
136677,-100,4,1,1,85,0,1
136839,-100,4,1,1,10,0,1
136920,-100,4,1,1,85,0,1
137083,-100,4,1,1,10,0,1
137164,-100,4,1,1,85,0,1
137245,-100,4,1,1,10,0,1
137326,-100,4,1,1,85,0,1
137407,-100,4,1,1,10,0,1
137488,-100,4,1,1,85,0,1
138785,-100,4,1,1,85,0,1
140002,-100,4,1,1,10,0,0
140083,-100,4,1,1,85,0,1
140245,-100,4,1,1,85,0,0
141380,-100,4,2,1,10,0,0
142029,-100,4,2,1,12,0,0
142677,-100,4,2,1,14,0,0
143326,-100,4,2,1,16,0,0
143974,-100,4,2,1,18,0,0
145353,-100,4,2,1,16,0,0
145434,-100,4,2,1,14,0,0
145515,-100,4,2,1,12,0,0
145596,-100,4,2,1,10,0,0
145920,-100,4,2,1,8,0,0
146245,-100,4,2,66,5,0,0

[Colours]
Combo1 : 250,28,20
Combo2 : 253,175,92
Combo3 : 130,121,104
Combo4 : 101,55,57

[HitObjects]
472,175,5164,5,4,0:0:0:0:
156,271,5488,1,4,0:0:0:0:
27,63,10353,5,4,0:0:0:0:
451,63,10677,1,4,0:0:0:0:
454,339,14246,6,0,L|483:235,2,60,0|0|0,3:0|0:0|0:0,0:0:0:0:
274,229,14570,2,0,L|193:233,2,60,0|0|0,3:0|0:0|0:0,0:0:0:0:
83,109,14894,2,0,L|12:114,2,60,0|0|0,3:0|3:0|3:0,0:0:0:0:
274,49,15219,2,0,L|334:57,2,60,0|0|0,3:0|0:0|0:0,0:0:0:0:
65,153,15543,6,0,L|41:348,1,180,4|0,0:0|0:0,0:0:0:0:
340,345,16029,1,4,0:0:0:0:
458,364,18137,6,0,L|441:177,1,180,4|0,0:0|0:0,0:0:0:0:
292,157,18624,2,0,L|279:59,1,90,4|0,0:0|0:0,0:0:0:0:
22,40,18948,1,4,0:0:0:0:
341,101,19435,5,0,3:0:0:0:
399,107,19516,1,0,3:0:0:0:
429,157,19597,1,0,3:0:0:0:
406,212,19678,1,0,3:0:0:0:
351,227,19759,1,0,3:0:0:0:
290,232,19840,1,0,3:0:0:0:
261,282,19921,1,0,3:0:0:0:
282,337,20002,1,0,3:0:0:0:
347,350,20083,6,0,L|264:362,1,45,0|0,3:0|3:0,0:0:0:0:
123,245,20246,2,0,L|113:191,1,45,0|0,3:0|0:0,0:0:0:0:
187,182,20408,2,0,L|194:129,1,45,0|0,3:0|0:0,0:0:0:0:
113,108,20570,2,0,L|50:107,1,45,0|0,3:0|0:0,0:0:0:0:
228,238,20731,6,0,P|293:193|276:151,1,135,4|0,0:0|0:0,0:0:0:0:
236,139,21056,2,0,L|165:144,1,45,0|0,0:0|0:0,0:0:0:0:
285,110,21219,2,0,L|346:106,1,45,4|0,0:0|0:0,0:0:0:0:
278,75,21380,2,0,L|203:71,1,45
404,151,21542,6,0,P|422:105|356:64,1,135,4|0,0:0|0:0,0:0:0:0:
305,49,21867,2,0,L|366:46,1,45,0|0,0:0|0:0,0:0:0:0:
445,339,22029,2,0,L|500:343,1,45,4|0,0:0|0:0,0:0:0:0:
332,370,22192,5,4,0:0:0:0:
294,338,22273,1,0,0:0:0:0:
304,301,22354,1,0,0:0:0:0:
345,286,22435,1,0,0:0:0:0:
248,259,22516,6,0,L|170:252,1,45,4|0,0:0|0:0,0:0:0:0:
250,230,22678,2,0,L|298:222,1,45,0|0,0:0|0:0,0:0:0:0:
125,190,22839,6,0,P|111:142|182:96,1,135,4|0,0:0|0:0,0:0:0:0:
236,107,23164,2,0,L|182:99,1,45,0|0,0:0|0:0,0:0:0:0:
21,256,23327,6,0,L|40:327,1,45,4|0,3:0|3:0,0:0:0:0:
102,299,23489,2,0,L|177:302,1,45,0|0,3:0|3:0,0:0:0:0:
77,324,23651,2,0,L|17:331,1,45,0|0,3:0|3:0,0:0:0:0:
98,365,23813,2,0,L|161:365,1,45,0|0,3:0|3:0,0:0:0:0:
305,143,23975,5,4,3:0:0:0:
353,152,24056,1,0,3:0:0:0:
374,196,24137,1,0,3:0:0:0:
353,239,24218,1,0,3:0:0:0:
307,250,24299,5,0,3:0:0:0:
260,260,24381,1,0,3:0:0:0:
239,303,24462,1,0,3:0:0:0:
260,347,24543,1,0,3:0:0:0:
307,358,24624,2,0,L|383:354,1,45,4|0,0:0|0:0,0:0:0:0:
252,355,24786,6,0,L|168:351,1,45,0|0,0:0|0:0,0:0:0:0:
266,293,24948,2,0,L|204:286,1,45,0|0,0:0|0:0,0:0:0:0:
154,259,25110,2,0,L|90:257,1,45,0|0,0:0|0:0,0:0:0:0:
275,190,25273,6,0,L|401:175,1,90,4|0,0:0|0:0,0:0:0:0:
442,131,25516,2,0,L|325:114,1,90,4|0,0:0|0:0,0:0:0:0:
431,64,25759,2,0,L|488:56,1,45,4|0,0:0|0:0,0:0:0:0:
269,31,25921,6,0,P|238:83|285:197,1,180,6|8,0:0|0:0,0:0:0:0:
66,275,26489,2,0,L|180:289,1,90,2|0,0:0|0:0,0:0:0:0:
82,315,26732,2,0,L|65:379,1,45,2|0,0:0|0:0,0:0:0:0:
232,358,26893,2,0,L|296:352,1,45,8|0,0:0|0:0,0:0:0:0:
259,332,27056,2,0,L|189:328,1,45,0|0,0:0|0:0,0:0:0:0:
312,354,27219,5,2,0:0:0:0:
329,314,27300,1,0,0:0:0:0:
311,274,27381,1,0,0:0:0:0:
269,264,27462,1,0,0:0:0:0:
216,255,27543,2,0,L|147:251,1,45,8|0,0:0|0:0,0:0:0:0:
239,213,27705,2,0,L|302:204,1,45,0|0,0:0|0:0,0:0:0:0:
195,169,27867,6,0,L|130:155,1,45,0|0,0:0|0:0,0:0:0:0:
71,137,28029,2,0,L|59:64,1,45,2|0,0:0|0:0,0:0:0:0:
226,40,28192,2,0,L|288:38,1,45,8|0,0:0|0:0,0:0:0:0:
223,68,28354,2,0,L|163:76,1,45,0|0,0:0|0:0,0:0:0:0:
355,126,28516,6,0,P|411:135|485:236,1,180,6|8,0:0|0:0,0:0:0:0:
254,366,29083,2,0,L|246:252,1,90,2|0,0:0|0:0,0:0:0:0:
333,245,29326,2,0,L|338:176,1,45,2|0,0:0|0:0,0:0:0:0:
165,203,29488,1,8,0:0:0:0:
122,195,29569,1,0,0:0:0:0:
99,158,29650,1,0,0:0:0:0:
113,116,29731,1,0,0:0:0:0:
166,105,29812,6,0,L|231:98,1,45,2|0,0:0|0:0,0:0:0:0:
301,164,29974,2,0,L|363:128,1,45,0|0,0:0|0:0,0:0:0:0:
261,97,30137,2,0,L|271:31,1,45,8|0,0:0|0:0,0:0:0:0:
425,27,30299,1,0,0:0:0:0:
465,43,30380,1,2,0:0:0:0:
479,85,30461,1,0,0:0:0:0:
458,123,30542,1,0,0:0:0:0:
416,133,30623,2,0,L|332:121,1,45,2|0,0:0|0:0,0:0:0:0:
195,164,30785,2,0,P|183:221|274:245,1,135,12|0,0:0|0:0,0:0:0:0:
66,335,31110,6,0,L|37:155,1,180,6|8,0:0|0:0,0:0:0:0:
274,60,31677,2,0,L|254:124,1,45,2|0,0:0|0:0,0:0:0:0:
182,155,31839,2,0,L|118:179,2,45,0|2|0,0:0|0:0|0:0,0:0:0:0:
257,187,32083,2,0,L|317:195,1,45,8|0,0:0|0:0,0:0:0:0:
222,256,32245,2,0,L|216:305,1,45,0|0,0:0|0:0,0:0:0:0:
372,356,32407,6,0,L|432:366,1,45,2|0,0:0|0:0,0:0:0:0:
363,330,32569,2,0,L|289:332,1,45,0|0,0:0|0:0,0:0:0:0:
396,299,32731,2,0,L|512:290,1,90,8|0,0:0|0:0,0:0:0:0:
394,244,32974,2,0,L|287:228,1,90,2|0,0:0|0:0,0:0:0:0:
231,168,33218,2,0,L|309:157,1,45,2|0,0:0|0:0,0:0:0:0:
446,154,33380,1,8,0:0:0:0:
484,133,33461,1,0,0:0:0:0:
494,91,33542,1,0,0:0:0:0:
469,55,33623,1,0,0:0:0:0:
294,41,33704,6,0,P|230:51|200:165,1,180,6|8,0:0|0:0,0:0:0:0:
236,205,34110,1,0,0:0:0:0:
298,225,34191,1,0,0:0:0:0:
367,235,34272,2,0,L|378:333,1,90,2|0,0:0|0:0,0:0:0:0:
335,346,34515,1,2,0:0:0:0:
285,353,34596,1,0,0:0:0:0:
117,332,34677,2,0,L|109:269,1,45,8|0,0:0|0:0,0:0:0:0:
191,269,34839,2,0,L|205:189,1,45,0|0,0:0|0:0,0:0:0:0:
21,153,35002,6,0,L|50:55,1,90,4|4,0:0|0:0,0:0:0:0:
154,46,35326,1,8,0:0:0:0:
414,40,35488,1,4,0:0:0:0:
179,142,35812,5,4,0:0:0:0:
324,179,35974,1,8,0:0:0:0:
52,363,36137,1,4,0:0:0:0:
52,363,36623,5,2,0:0:0:0:
32,352,36663,1,0,0:0:0:0:
20,334,36704,1,0,0:0:0:0:
19,311,36744,1,0,0:0:0:0:
29,292,36785,1,0,0:0:0:0:
48,280,36825,1,0,0:0:0:0:
70,279,36866,1,2,0:0:0:0:
263,170,36947,6,0,L|365:158,1,90,6|0,0:0|0:0,0:0:0:0:
198,261,37272,2,0,L|184:368,1,90,8|0,0:0|0:0,0:0:0:0:
239,382,37515,1,0,0:0:0:0:
413,365,37596,2,0,P|340:362|331:295,1,135,2|0,0:0|0:0,0:0:0:0:
391,279,37920,2,0,L|456:273,2,45,8|0|0,0:0|0:0|0:0,0:0:0:0:
318,221,38164,2,0,L|254:215,2,45,2|0|0,0:0|0:0|0:0,0:0:0:0:
395,148,38407,2,0,L|328:146,1,45,2|0,0:0|0:0,0:0:0:0:
183,101,38569,2,0,P|255:97|281:26,1,135,8|0,0:0|0:0,0:0:0:0:
103,29,38893,6,0,P|46:48|45:133,1,135,6|0,0:0|0:0,0:0:0:0:
117,143,39218,2,0,L|139:194,1,45,8|0,0:0|0:0,0:0:0:0:
56,214,39380,2,0,L|36:269,1,45,0|2,0:0|0:0,0:0:0:0:
121,292,39542,2,0,L|177:300,1,45,0|0,0:0|0:0,0:0:0:0:
77,358,39704,2,0,L|23:362,2,45,2|0|8,0:0|0:0|0:0,0:0:0:0:
252,231,39947,2,0,L|317:235,2,45,0|0|0,0:0|0:0|0:0,0:0:0:0:
185,236,40191,5,2,0:0:0:0:
148,212,40272,1,0,0:0:0:0:
140,169,40353,1,0,0:0:0:0:
164,132,40434,1,0,0:0:0:0:
258,125,40515,5,8,0:0:0:0:
298,107,40596,1,0,0:0:0:0:
314,66,40677,1,0,0:0:0:0:
296,27,40758,1,2,0:0:0:0:
207,18,40839,2,0,L|154:24,1,45,0|0,0:0|0:0,0:0:0:0:
217,51,41002,2,0,L|272:62,1,45,2|0,0:0|0:0,0:0:0:0:
92,198,41164,2,0,P|37:244|85:304,1,135,12|0,0:0|0:0,0:0:0:0:
237,340,41488,6,0,L|432:357,1,180,6|8,0:0|0:0,0:0:0:0:
221,248,42056,2,0,L|206:142,1,90,2|0,0:0|0:0,0:0:0:0:
296,149,42299,2,0,L|308:83,1,45,2|0,0:0|0:0,0:0:0:0:
127,19,42461,1,8,0:0:0:0:
83,42,42542,1,0,0:0:0:0:
130,75,42623,1,0,0:0:0:0:
180,84,42704,1,0,0:0:0:0:
387,194,42785,6,0,L|496:205,1,90,6|0,0:0|0:0,0:0:0:0:
338,299,43110,1,8,0:0:0:0:
477,354,43272,2,0,L|418:367,1,45,0|2,0:0|0:0,0:0:0:0:
273,372,43434,2,0,L|259:258,1,90,0|2,0:0|0:0,0:0:0:0:
114,209,43758,2,0,L|181:200,1,45,8|0,0:0|0:0,0:0:0:0:
227,201,43920,2,0,L|235:130,1,45,0|0,0:0|0:0,0:0:0:0:
54,125,44083,6,0,L|37:28,1,90,6|0,0:0|0:0,0:0:0:0:
166,22,44407,2,0,L|184:75,1,45,8|0,0:0|0:0,0:0:0:0:
102,90,44569,2,0,L|84:148,1,45,0|2,0:0|0:0,0:0:0:0:
261,155,44731,5,0,0:0:0:0:
285,164,44771,1,0,0:0:0:0:
304,185,44812,1,0,0:0:0:0:
313,211,44852,1,0,0:0:0:0:
311,238,44893,1,2,0:0:0:0:
299,263,44933,1,0,0:0:0:0:
278,279,44974,1,0,0:0:0:0:
251,286,45014,1,0,0:0:0:0:
224,283,45055,1,8,0:0:0:0:
200,268,45095,1,0,0:0:0:0:
185,246,45136,1,0,0:0:0:0:
180,219,45176,1,0,0:0:0:0:
187,191,45217,1,0,0:0:0:0:
203,169,45258,1,0,0:0:0:0:
227,156,45298,1,0,0:0:0:0:
399,140,45380,5,6,0:0:0:0:
443,142,45461,1,0,0:0:0:0:
476,171,45542,1,0,0:0:0:0:
483,215,45623,1,0,0:0:0:0:
461,259,45704,6,0,L|380:263,1,45,8|0,0:0|0:0,0:0:0:0:
348,277,45866,2,0,L|334:338,1,45,0|2,0:0|0:0,0:0:0:0:
417,337,46029,2,0,L|408:387,1,45,0|0,0:0|0:0,0:0:0:0:
237,372,46191,2,0,L|166:366,1,45,2|0,0:0|0:0,0:0:0:0:
252,332,46353,2,0,L|312:322,1,45,8|0,0:0|0:0,0:0:0:0:
119,278,46515,2,0,L|53:266,1,45,0|0,0:0|0:0,0:0:0:0:
269,200,46677,5,4,0:0:0:0:
494,143,47164,1,4,0:0:0:0:
477,50,47488,1,4,0:0:0:0:
244,32,47650,1,4,0:0:0:0:
17,181,48137,5,4,0:0:0:0:
294,269,48623,1,4,0:0:0:0:
122,318,48866,1,4,0:0:0:0:
344,368,49110,1,4,0:0:0:0:
486,188,49596,6,0,L|379:182,1,90,4|0,0:0|0:0,0:0:0:0:
226,94,49839,2,0,L|194:88,2,22.5,0|0|4,0:0|0:0|0:0,0:0:0:0:
422,42,50164,1,4,0:0:0:0:
209,200,50407,1,4,0:0:0:0:
14,306,50731,2,0,L|77:313,1,45,0|0,3:0|3:0,0:0:0:0:
242,337,50893,5,4,3:0:0:0:
438,284,51218,1,0,0:3:0:0:
312,221,51380,1,4,0:3:0:0:
470,176,51542,1,0,0:3:0:0:
224,94,51704,1,4,0:3:0:0:
27,36,52191,6,0,L|183:20,1,135,4|0,0:0|0:0,0:0:0:0:
337,180,52515,1,4,0:0:0:0:
158,241,52839,2,0,L|144:326,1,45,0|0,0:3|0:3,0:0:0:0:
326,354,53002,1,4,0:3:0:0:
455,282,53164,6,0,L|350:268,1,90,4|0,0:0|0:0,0:0:0:0:
283,263,53407,2,0,L|265:159,1,90,4|0,0:0|0:0,0:0:0:0:
188,152,53650,2,0,L|83:141,1,90,4|0,0:0|0:0,0:0:0:0:
179,73,53893,2,0,L|303:55,1,90,4|0,0:0|0:0,0:0:0:0:
206,37,54137,1,4,0:0:0:0:
70,29,54299,1,4,0:0:0:0:
318,157,54461,6,0,L|420:170,1,90,4|0,0:0|0:0,0:0:0:0:
488,237,54704,2,0,L|390:248,1,90,4|0,0:0|0:0,0:0:0:0:
312,266,54947,2,0,L|277:371,1,90,4|0,0:0|0:0,0:0:0:0:
186,364,55191,2,0,L|82:368,1,90,4|0,0:0|0:0,0:0:0:0:
155,342,55434,1,4,0:0:0:0:
299,308,55596,1,4,0:0:0:0:
39,161,55758,5,4,0:0:0:0:
153,126,55920,1,4,0:0:0:0:
270,121,56083,1,4,0:0:0:0:
150,42,56245,1,4,0:0:0:0:
305,24,56407,5,4,3:0:0:0:
347,33,56488,1,0,3:0:0:0:
368,71,56569,1,4,3:0:0:0:
353,111,56650,1,0,3:0:0:0:
311,126,56731,2,0,L|237:120,1,45,4|0,3:0|3:0,0:0:0:0:
443,209,56893,2,0,L|513:213,1,45,4|0,3:0|3:0,0:0:0:0:
306,225,57056,6,0,P|247:230|227:360,1,180,4|0,0:0|0:0,0:0:0:0:
312,364,57542,1,0,0:0:0:0:
197,374,57704,2,0,L|99:358,1,90,8|0,0:0|0:0,0:0:0:0:
245,250,58029,2,0,L|305:243,2,60,0|0|0,0:0|0:0|0:0,0:0:0:0:
137,245,58353,6,0,L|126:148,1,90,2|0,0:0|0:0,0:0:0:0:
258,131,58677,2,0,L|274:38,1,90,0|0,0:0|0:0,0:0:0:0:
426,209,59002,2,0,L|329:204,1,90,8|0,0:0|0:0,0:0:0:0:
203,311,59326,2,0,L|143:304,2,60,0|0|0,0:0|0:0|0:0,0:0:0:0:
22,362,59650,6,0,P|13:312|107:227,1,180,2|0,0:0|0:0,0:0:0:0:
203,217,60137,1,0,0:0:0:0:
365,192,60299,2,0,L|381:90,1,90,8|0,0:0|0:0,0:0:0:0:
247,52,60623,1,0,0:0:0:0:
170,78,60731,1,0,0:0:0:0:
114,141,60839,1,0,0:0:0:0:
302,253,60947,6,0,P|381:268|417:378,1,180,2|0,0:0|0:0,0:0:0:0:
279,375,61434,2,0,L|228:371,1,45,0|0,0:0|0:0,0:0:0:0:
155,361,61596,2,0,P|132:295|208:228,1,180
333,151,62083,1,0,0:0:0:0:
40,217,62245,6,0,L|30:113,1,90,0|0,0:0|0:0,0:0:0:0:
168,58,62569,2,0,L|70:49,1,90,0|0,0:0|0:0,0:0:0:0:
227,174,62893,2,0,L|339:160,1,90,8|0,0:0|0:0,0:0:0:0:
163,243,63218,2,0,L|148:336,1,90,0|0,0:0|0:0,0:0:0:0:
294,355,63542,2,0,L|313:250,1,90,2|0,0:0|0:0,0:0:0:0:
461,233,63866,2,0,L|484:132,1,90,0|0,0:0|0:0,0:0:0:0:
323,23,64191,5,8,0:0:0:0:
294,58,64272,1,0,0:0:0:0:
304,103,64353,1,0,0:0:0:0:
345,122,64434,1,0,0:0:0:0:
390,128,64515,1,0,0:0:0:0:
419,163,64596,1,0,0:0:0:0:
408,208,64677,1,0,0:0:0:0:
367,227,64758,1,0,0:0:0:0:
195,311,64839,6,0,P|131:292|149:186,1,180,2|0,0:0|0:0,0:0:0:0:
194,149,65272,1,0,0:0:0:0:
268,134,65380,1,0,0:0:0:0:
190,87,65488,2,0,P|119:82|50:166,1,180,8|0,0:0|0:0,0:0:0:0:
112,218,65920,1,0,0:0:0:0:
186,244,66029,1,0,0:0:0:0:
389,341,66137,6,0,P|431:341|480:221,1,180,2|0,0:0|0:0,0:0:0:0:
405,198,66569,1,0,0:0:0:0:
482,157,66677,1,0,0:0:0:0:
279,120,66785,1,0,3:0:0:0:
201,96,66893,1,0,3:0:0:0:
276,47,67002,1,0,3:0:0:0:
372,88,67110,1,0,3:0:0:0:
448,61,67218,1,0,3:0:0:0:
372,11,67327,1,0,3:0:0:0:
131,169,67434,5,4,0:0:0:0:
256,192,67596,12,0,72461,0:0:0:0:
111,248,72623,5,0,3:0:0:0:
68,241,72704,1,0,3:0:0:0:
47,203,72785,1,0,3:0:0:0:
65,164,72866,1,0,3:0:0:0:
107,155,72947,6,0,L|161:142,1,45,0|0,3:0|3:0,0:0:0:0:
223,60,73110,2,0,L|281:68,1,45,0|0,3:0|3:0,0:0:0:0:
198,251,73272,2,0,L|137:241,1,45,0|0,3:0|3:0,0:0:0:0:
81,302,73434,2,0,L|95:354,1,45,0|0,3:0|3:0,0:0:0:0:
170,365,73596,2,0,L|230:372,1,45,0|0,3:0|3:0,0:0:0:0:
300,359,73758,2,0,L|305:304,1,45,0|0,3:0|3:0,0:0:0:0:
72,295,73920,6,0,B|37:130|37:130|36:303|36:303|42:106|42:106|42:347|42:347|65:92|65:92|67:352|67:352|81:83|81:83|80:339|80:339|91:99|91:99|98:336|97:336|113:96|113:96|111:339|111:339|118:108|118:108|86:358|86:358|58:92|58:92|43:375|43:375|102:95|102:95|104:365|104:365|33:62|33:62|23:210|23:210|421:296,1,5040.00004806519,2|0,0:0|0:0,0:0:0:0:
483,369,76839,6,0,B|236:269|236:269|489:227,1,495,0|0,0:0|0:0,0:0:0:0:
278,218,77812,6,0,P|215:212|233:106,1,180,6|8,0:0|0:0,0:0:0:0:
348,79,78299,2,0,L|407:76,1,45,0|2,0:0|0:0,0:0:0:0:
319,60,78461,1,0,0:0:0:0:
286,87,78542,1,0,0:0:0:0:
298,128,78623,1,2,0:0:0:0:
340,134,78704,1,0,0:0:0:0:
254,162,78785,1,8,0:0:0:0:
205,169,78866,1,0,0:0:0:0:
255,200,78947,1,0,0:0:0:0:
306,200,79028,1,0,0:0:0:0:
110,321,79110,6,0,P|37:304|71:206,1,180,2|8,0:0|0:0,0:0:0:0:
185,158,79596,2,0,L|236:158,2,45,0|2|0,0:0|0:0|0:0,0:0:0:0:
316,98,79920,1,2,0:0:0:0:
172,51,80083,2,0,L|60:44,1,90,8|0,0:0|0:0,0:0:0:0:
336,26,80407,6,0,P|354:94|242:133,1,180,2|8,0:0|0:0,0:0:0:0:
419,206,80893,2,0,L|481:210,1,45,0|2,0:0|0:0,0:0:0:0:
406,243,81056,2,0,L|291:260,1,90,0|2,0:0|0:0,0:0:0:0:
459,278,81380,1,8,0:0:0:0:
483,314,81461,1,0,0:0:0:0:
475,357,81542,1,0,0:0:0:0:
439,381,81623,1,0,0:0:0:0:
270,380,81704,6,0,L|161:372,1,90,2|0,0:0|0:0,0:0:0:0:
259,332,81947,2,0,L|375:321,1,90,0|0,0:0|0:0,0:0:0:0:
262,282,82191,2,0,L|155:266,1,90,0|0,0:0|0:0,0:0:0:0:
96,203,82434,2,0,L|157:194,1,45,0|2,0:0|0:0,0:0:0:0:
304,167,82677,2,0,L|313:109,1,45,8|0,0:0|0:0,0:0:0:0:
230,110,82839,2,0,L|216:55,1,45,0|0,0:0|0:0,0:0:0:0:
408,47,83002,6,0,P|457:74|452:150,1,135,2|0,0:0|0:0,0:0:0:0:
393,196,83326,1,10,0:0:0:0:
323,217,83407,1,0,0:0:0:0:
247,225,83488,1,0,0:0:0:0:
169,219,83569,1,2,0:0:0:0:
86,228,83650,5,0,0:0:0:0:
45,244,83731,1,0,0:0:0:0:
25,283,83812,1,2,0:0:0:0:
37,325,83893,1,0,0:0:0:0:
100,355,83974,1,10,0:0:0:0:
168,363,84055,1,0,0:0:0:0:
238,370,84136,1,0,0:0:0:0:
313,373,84217,1,0,0:0:0:0:
394,362,84299,5,2,0:0:0:0:
434,346,84380,1,0,0:0:0:0:
454,307,84461,1,0,0:0:0:0:
442,265,84542,1,0,0:0:0:0:
378,244,84623,1,10,0:0:0:0:
315,251,84704,1,0,0:0:0:0:
250,257,84785,1,0,0:0:0:0:
181,260,84866,1,2,0:0:0:0:
107,250,84948,5,0,0:0:0:0:
70,235,85029,1,0,0:0:0:0:
51,199,85110,1,2,0:0:0:0:
63,161,85191,1,0,0:0:0:0:
138,135,85272,2,0,L|210:126,1,45,8|0,0:0|0:0,0:0:0:0:
100,64,85434,2,0,L|42:58,1,45,0|0,0:0|0:0,0:0:0:0:
237,22,85596,6,0,P|297:46|294:107,1,135,2|0,0:0|0:0,0:0:0:0:
255,117,85921,5,8,0:0:0:0:
211,118,86002,1,0,0:0:0:0:
185,153,86083,1,0,0:0:0:0:
197,195,86164,1,2,0:0:0:0:
257,216,86245,5,0,0:0:0:0:
316,217,86326,1,0,0:0:0:0:
352,265,86407,1,2,0:0:0:0:
336,324,86488,1,0,0:0:0:0:
269,348,86569,5,8,0:0:0:0:
188,333,86650,1,0,0:0:0:0:
135,259,86731,1,0,0:0:0:0:
197,195,86812,1,0,0:0:0:0:
404,156,86893,6,0,P|462:145|491:56,1,135
447,48,87218,2,0,L|370:41,1,45,8|0,0:0|0:0,0:0:0:0:
341,32,87380,2,0,L|266:40,1,45,0|2,0:0|0:0,0:0:0:0:
353,43,87542,5,0,0:0:0:0:
379,76,87623,1,0,0:0:0:0:
367,118,87704,1,2,0:0:0:0:
327,132,87785,1,0,0:0:0:0:
158,224,87866,2,0,L|78:230,1,45,8|0,0:0|0:0,0:0:0:0:
179,263,88029,2,0,L|260:271,1,45,0|0,0:0|0:0,0:0:0:0:
49,155,88191,6,0,P|15:103|89:31,1,180,6|8,0:0|0:0,0:0:0:0:
295,35,88758,2,0,L|354:46,2,45,2|0|0,0:0|0:0|0:0,0:0:0:0:
225,119,89002,2,0,L|285:118,1,45,2|0,0:0|0:0,0:0:0:0:
350,143,89164,2,0,L|337:209,1,45,8|0,0:0|0:0,0:0:0:0:
261,202,89326,2,0,L|245:264,1,45,0|0,0:0|0:0,0:0:0:0:
421,344,89488,6,0,P|473:318|473:206,1,180,2|8,0:0|0:0,0:0:0:0:
324,336,89974,2,0,L|248:331,2,45,0|2|0,0:0|0:0|0:0,0:0:0:0:
462,360,90299,1,2,0:0:0:0:
224,44,90461,2,0,L|61:34,1,135,8|0,0:0|0:0,0:0:0:0:
261,142,90785,6,0,P|309:185|243:265,1,180,2|8,0:0|0:0,0:0:0:0:
106,337,91272,2,0,L|84:282,2,45,0|2|0,0:0|0:0|0:0,0:0:0:0:
235,376,91596,1,2,0:0:0:0:
375,367,91758,1,8,0:0:0:0:
397,329,91839,1,0,0:0:0:0:
384,288,91920,1,0,0:0:0:0:
343,272,92001,1,0,0:0:0:0:
181,228,92083,6,0,L|66:229,1,90,2|0,0:0|0:0,0:0:0:0:
188,191,92326,2,0,L|296:191,1,90,0|0,0:0|0:0,0:0:0:0:
207,106,92569,2,0,L|145:97,2,45,0|0|0,0:0|0:0|0:0,0:0:0:0:
287,63,92812,2,0,L|349:54,2,45,0|2|0,0:0|0:0|0:0,0:0:0:0:
207,106,93056,2,0,L|194:161,1,45,8|0,0:0|0:0,0:0:0:0:
278,191,93218,2,0,L|291:250,1,45,0|0,0:0|0:0,0:0:0:0:
95,352,93380,6,0,P|51:335|52:250,1,135,2|0,0:0|0:0,0:0:0:0:
110,203,93704,1,10,0:0:0:0:
180,182,93785,1,0,0:0:0:0:
256,174,93866,1,0,0:0:0:0:
334,180,93947,1,2,0:0:0:0:
417,171,94028,5,0,0:0:0:0:
458,155,94109,1,0,0:0:0:0:
478,116,94190,1,2,0:0:0:0:
466,74,94271,1,0,0:0:0:0:
403,44,94352,1,10,0:0:0:0:
335,36,94433,1,0,0:0:0:0:
265,29,94514,1,0,0:0:0:0:
190,26,94595,1,0,0:0:0:0:
109,37,94677,5,2,0:0:0:0:
69,53,94758,1,0,0:0:0:0:
49,92,94839,1,0,0:0:0:0:
61,134,94920,1,0,0:0:0:0:
125,155,95001,1,10,0:0:0:0:
188,148,95082,1,0,0:0:0:0:
253,142,95163,1,0,0:0:0:0:
322,139,95244,1,2,0:0:0:0:
396,149,95326,5,0,0:0:0:0:
433,164,95407,1,0,0:0:0:0:
452,200,95488,1,2,0:0:0:0:
440,238,95569,1,0,0:0:0:0:
360,259,95650,2,0,L|347:313,1,45,8|0,0:0|0:0,0:0:0:0:
433,311,95812,2,0,L|443:369,1,45,0|0,0:0|0:0,0:0:0:0:
269,358,95974,6,0,L|208:353,1,45,6|0,0:0|0:0,0:0:0:0:
275,320,96137,2,0,L|336:315,1,45,0|0,0:0|0:0,0:0:0:0:
254,282,96299,2,0,L|185:283,1,45,8|0,0:0|0:0,0:0:0:0:
274,247,96461,2,0,L|336:237,1,45,0|2,0:0|0:0,0:0:0:0:
234,206,96623,2,0,L|165:206,1,45,0|0,0:0|0:0,0:0:0:0:
274,169,96785,2,0,L|341:158,1,45,2|0,0:0|0:0,0:0:0:0:
156,102,96947,2,0,L|78:93,1,45,8|0,0:0|0:0,0:0:0:0:
280,51,97110,2,0,L|346:38,1,45,0|0,0:0|0:0,0:0:0:0:
139,33,97272,6,0,P|80:46|74:118,1,135,6|0,0:0|0:0,0:0:0:0:
108,149,97596,1,8,0:0:0:0:
153,154,97677,1,0,0:0:0:0:
180,191,97758,1,0,0:0:0:0:
174,236,97839,1,2,0:0:0:0:
128,261,97920,2,0,L|56:263,1,45,0|0,0:0|0:0,0:0:0:0:
167,315,98083,2,0,L|227:319,1,45,2|0,0:0|0:0,0:0:0:0:
43,380,98245,2,0,P|21:334|87:293,1,120,8|0,0:0|0:0,0:0:0:0:
301,246,98569,5,6,0:0:0:0:
256,192,98731,12,8,100515,0:0:0:0:
25,71,100839,6,0,L|124:55,1,90,0|0,0:0|0:0,0:0:0:0:
356,73,101164,6,0,P|381:133|243:259,1,270,2|0,0:0|0:0,0:0:0:0:
183,271,101731,1,0,0:0:0:0:
259,342,101812,2,0,P|374:358|489:300,1,225,8|0,0:0|0:0,0:0:0:0:
414,290,102299,1,2,0:0:0:0:
354,289,102380,1,2,0:0:0:0:
284,310,102461,6,0,L|266:162,1,135,2|2,0:0|0:0,0:0:0:0:
435,117,102947,1,2,0:0:0:0:
200,67,103110,2,0,L|5:53,1,180,8|2,0:0|0:0,0:0:0:0:
327,17,103758,6,0,P|366:75|304:149,1,180,2|0,0:0|0:0,0:0:0:0:
14,209,104407,2,0,L|225:219,1,180,8|0,0:0|0:0,0:0:0:0:
398,361,104934,1,2,0:0:0:0:
376,354,104974,1,2,0:0:0:0:
360,338,105015,1,2,0:0:0:0:
353,316,105056,6,0,L|340:174,1,135,2|2,0:0|0:0,0:0:0:0:
390,148,105380,1,0,0:0:0:0:
444,141,105461,1,0,0:0:0:0:
389,111,105542,1,2,0:0:0:0:
232,120,105704,2,0,L|209:312,1,180,8|2,0:0|0:0,0:0:0:0:
68,337,106191,1,0,0:0:0:0:
352,229,106353,6,0,L|167:202,2,180,2|0|8,0:0|0:0|0:0,0:0:0:0:
66,116,107326,2,0,L|0:109,2,45,0|2|0,0:0|0:0|0:0,0:0:0:0:
145,114,107569,2,0,L|213:121,1,45,2|0,0:0|0:0,0:0:0:0:
106,216,107731,2,0,L|-1:230,1,90,2|2,0:0|0:0,0:0:0:0:
60,231,107974,1,0,0:0:0:0:
87,270,108055,1,0,0:0:0:0:
64,307,108136,1,0,0:0:0:0:
19,316,108217,1,0,0:0:0:0:
204,353,108299,6,0,L|269:347,1,45,8|0,3:0|3:0,3:0:0:0:
306,306,108461,2,0,L|251:304,1,45,0|0,3:0|3:0,3:0:0:0:
196,284,108623,2,0,L|194:211,1,45,0|0,3:0|3:0,3:0:0:0:
380,200,108785,2,0,L|439:191,1,45,0|0,3:0|3:0,0:0:0:0:
221,95,108947,5,4,0:0:0:0:
475,48,111380,5,8,0:0:0:0:
312,33,111542,1,2,0:0:0:0:
27,37,114137,5,6,0:0:0:0:
324,56,116407,5,8,0:0:0:0:
187,73,116569,1,8,0:0:0:0:
435,155,116731,1,6,0:0:0:0:
49,258,119326,6,0,L|30:155,1,90,6|0,0:0|0:0,0:0:0:0:
203,130,119569,2,0,L|214:69,1,45,0|8,0:0|0:0,0:0:0:0:
94,55,119812,1,0,0:0:0:0:
247,8,119974,1,2,0:0:0:0:
306,29,120056,2,0,L|322:149,1,90,0|0,0:0|0:0,0:0:0:0:
214,157,120299,2,0,L|201:262,1,90,8|0,0:0|0:0,0:0:0:0:
453,183,120623,5,2,0:0:0:0:
408,182,120704,1,0,0:0:0:0:
374,210,120785,1,0,0:0:0:0:
364,253,120866,1,0,0:0:0:0:
383,292,120947,1,8,0:0:0:0:
423,311,121029,2,0,L|492:318,2,45,0|0|0,0:0|0:0|0:0,0:0:0:0:
246,366,121272,6,0,L|152:351,1,90,2|2,0:0|0:0,0:0:0:0:
16,216,121596,1,8,0:0:0:0:
60,211,121677,1,0,0:0:0:0:
105,206,121758,1,0,0:0:0:0:
355,161,121920,6,0,L|384:31,1,90,2|0,0:0|0:0,0:0:0:0:
282,22,122164,2,0,L|182:9,1,90,0|0,0:0|0:0,0:0:0:0:
99,101,122407,2,0,L|206:113,1,90,0|2,0:0|0:0,0:0:0:0:
355,161,122650,2,0,L|362:221,1,45,0|2,0:0|0:0,0:0:0:0:
201,262,122893,2,0,L|259:273,1,45,8|0,0:0|0:0,0:0:0:0:
312,285,123056,2,0,L|321:340,1,45,0|0,0:0|0:0,0:0:0:0:
146,376,123218,6,0,P|81:365|97:254,1,180,2|8,0:0|0:0,0:0:0:0:
226,186,123704,2,0,L|296:181,1,45,0|0,0:0|0:0,0:0:0:0:
206,158,123866,1,2,0:0:0:0:
174,187,123947,1,0,0:0:0:0:
182,230,124028,1,2,0:0:0:0:
221,247,124109,1,0,0:0:0:0:
391,263,124191,2,0,L|405:196,1,45,8|0,0:0|0:0,0:0:0:0:
312,194,124353,2,0,L|298:133,1,45,8|0,0:0|0:0,0:0:0:0:
476,134,124515,6,0,L|483:39,1,90,2|0,0:0|0:0,0:0:0:0:
415,28,124758,2,0,L|339:11,2,45,2|8|0,0:0|0:0|0:0,0:0:0:0:
484,95,125002,2,0,L|429:84,1,45,2|0,0:0|0:0,0:0:0:0:
269,264,125164,6,2,L|265:159,1,90
333,162,125407,2,0,L|403:170,2,45,0|8|0,0:0|0:0|0:0,0:0:0:0:
162,373,125650,2,0,L|97:366,1,45,0|0,0:0|0:0,0:0:0:0:
179,324,125812,6,0,L|281:315,1,90,2|0,0:0|0:0,0:0:0:0:
181,273,126056,2,0,L|56:260,1,90,2|0,0:0|0:0,0:0:0:0:
48,255,126299,1,2,0:0:0:0:
27,217,126380,1,0,0:0:0:0:
44,177,126461,1,2,0:0:0:0:
210,124,126542,2,0,L|328:115,1,90,2|0,0:0|0:0,0:0:0:0:
378,57,126785,2,0,L|326:48,1,45,8|0,0:0|0:0,0:0:0:0:
254,38,126947,2,0,L|249:-22,1,45,0|0,0:0|0:0,0:0:0:0:
435,125,127110,6,0,P|483:157|491:202,1,90,2|0,0:0|0:0,0:0:0:0:
411,230,127353,2,0,L|320:244,1,90,2|0,0:0|0:0,0:0:0:0:
370,293,127596,1,2,0:0:0:0:
426,306,127677,1,0,0:0:0:0:
263,348,127758,1,2,0:0:0:0:
209,350,127839,2,0,L|192:244,1,90,2|0,0:0|0:0,0:0:0:0:
344,191,128083,2,0,L|420:181,1,45,8|0,0:0|0:0,0:0:0:0:
243,114,128245,2,0,L|171:105,1,45,8|0,0:0|0:0,0:0:0:0:
439,74,128407,5,4,0:0:0:0:
274,37,128650,1,4,0:0:0:0:
93,54,128893,1,4,0:0:0:0:
299,188,129137,1,4,0:0:0:0:
66,267,129380,1,4,0:0:0:0:
181,298,129542,1,4,0:0:0:0:
471,361,129704,6,0,P|485:289|377:255,1,180,6|8,0:0|0:0,0:0:0:0:
242,218,130191,2,0,L|225:155,1,45,0|0,0:0|0:0,0:0:0:0:
312,135,130353,2,0,L|432:126,1,90,2|2,0:0|0:0,0:0:0:0:
319,82,130596,2,0,L|199:68,1,90,0|0,0:0|0:0,0:0:0:0:
303,57,130839,2,0,L|316:4,1,45,0|0,0:0|0:0,0:0:0:0:
139,108,131002,6,0,L|39:127,1,90,2|0,0:0|0:0,0:0:0:0:
127,194,131245,2,0,L|228:212,1,90,0|0,0:0|0:0,0:0:0:0:
298,288,131488,2,0,L|244:297,1,45,0|0,0:0|0:0,0:0:0:0:
86,353,131650,6,0,P|30:331|28:280,1,90,2|2,0:0|0:0,0:0:0:0:
101,273,131893,2,0,L|201:251,1,90,0|0,0:0|0:0,0:0:0:0:
111,238,132137,2,0,L|185:220,1,45,0|0,0:0|0:0,0:0:0:0:
349,200,132299,6,0,P|414:192|428:72,1,180,6|8,0:0|0:0,0:0:0:0:
297,60,132785,2,0,L|240:57,2,45,0|0|2,0:0|0:0|0:0,0:0:0:0:
445,11,133110,2,0,L|380:2,1,45,2|0,0:0|0:0,0:0:0:0:
307,61,133272,1,8,0:0:0:0:
350,65,133353,1,0,0:0:0:0:
374,101,133434,1,0,0:0:0:0:
361,143,133515,1,0,0:0:0:0:
185,194,133596,6,0,P|126:211|140:284,1,135,6|0,0:0|0:0,0:0:0:0:
185,296,133920,1,8,0:0:0:0:
313,331,134083,1,0,0:0:0:0:
145,378,134245,2,0,P|61:349|52:275,1,135,2|0,0:0|0:0,0:0:0:0:
197,196,134569,2,0,L|271:191,1,45,8|0,0:0|0:0,0:0:0:0:
82,126,134731,2,0,L|23:116,1,45,8|0,0:0|0:0,0:0:0:0:
216,57,134893,5,4,0:0:0:0:
403,100,135137,1,4,0:0:0:0:
206,206,135380,1,4,0:0:0:0:
425,268,135623,1,4,0:0:0:0:
216,347,135866,1,4,0:0:0:0:
99,354,136029,1,4,0:0:0:0:
374,162,136191,6,0,L|498:146,1,90,4|0,0:0|0:0,0:0:0:0:
381,83,136434,2,0,L|280:69,1,90,4|0,0:0|0:0,0:0:0:0:
382,243,136677,2,0,L|493:225,1,90,4|0,0:0|0:0,0:0:0:0:
299,331,136920,2,0,L|193:327,1,90,4|0,0:0|0:0,0:0:0:0:
263,304,137164,1,4,0:0:0:0:
401,343,137326,1,4,0:0:0:0:
120,59,137488,6,0,L|53:56,2,45,6|0|0,3:0|3:0|3:0,0:0:0:0:
189,106,137731,2,0,L|259:109,2,45,4|8|0,3:0|3:0|3:0,0:0:0:0:
111,173,137974,2,0,L|197:188,1,45,4|0,3:0|3:0,0:0:0:0:
334,202,138137,5,6,3:0:0:0:
377,215,138218,1,0,3:0:0:0:
405,252,138299,1,0,3:0:0:0:
308,274,138380,1,4,3:0:0:0:
259,288,138461,1,8,3:0:0:0:
234,329,138542,1,0,3:0:0:0:
398,360,138623,2,0,L|454:367,1,45,4|0,3:0|3:0,0:0:0:0:
263,373,138785,6,0,P|177:328|268:373,1,675,4|0,0:0|0:0,0:0:0:0:
67,371,140083,5,4,0:0:0:0:
